  0
SECTION
  2
HEADER
  9
$ACADVER
  1
AC1015
  9
$ACADMAINTVER
 70
    20
  9
$DWGCODEPAGE
  3
ANSI_1252
  9
$INSBASE
 10
0.0
 20
0.0
 30
0.0
  9
$EXTMIN
 10
-0.0128164049386896
 20
-0.0090630292066862
 30
-0.0015258207003583
  9
$EXTMAX
 10
420.0128183607161
 20
297.0090644122207
 30
0.0000000349246037
  9
$LIMMIN
 10
0.0
 20
0.0
  9
$LIMMAX
 10
420.0
 20
297.0
  9
$ORTHOMODE
 70
     1
  9
$REGENMODE
 70
     1
  9
$FILLMODE
 70
     1
  9
$QTEXTMODE
 70
     0
  9
$MIRRTEXT
 70
     1
  9
$LTSCALE
 40
1.0
  9
$ATTMODE
 70
     1
  9
$TEXTSIZE
 40
2.0
  9
$TRACEWID
 40
1.0
  9
$TEXTSTYLE
  7
TASTENTEXT
  9
$CLAYER
  8
BLECH
  9
$CELTYPE
  6
BYLAYER
  9
$CECOLOR
 62
   256
  9
$CELTSCALE
 40
1.0
  9
$DISPSILH
 70
     0
  9
$DIMSCALE
 40
1.0
  9
$DIMASZ
 40
2.5
  9
$DIMEXO
 40
0.625
  9
$DIMDLI
 40
3.75
  9
$DIMRND
 40
0.0
  9
$DIMDLE
 40
0.0
  9
$DIMEXE
 40
1.25
  9
$DIMTP
 40
0.0
  9
$DIMTM
 40
0.0
  9
$DIMTXT
 40
2.5
  9
$DIMCEN
 40
2.5
  9
$DIMTSZ
 40
0.0
  9
$DIMTOL
 70
     0
  9
$DIMLIM
 70
     0
  9
$DIMTIH
 70
     0
  9
$DIMTOH
 70
     0
  9
$DIMSE1
 70
     0
  9
$DIMSE2
 70
     0
  9
$DIMTAD
 70
     1
  9
$DIMZIN
 70
     8
  9
$DIMBLK
  1

  9
$DIMASO
 70
     1
  9
$DIMSHO
 70
     1
  9
$DIMPOST
  1

  9
$DIMAPOST
  1

  9
$DIMALT
 70
     0
  9
$DIMALTD
 70
     4
  9
$DIMALTF
 40
0.0394
  9
$DIMLFAC
 40
1.0
  9
$DIMTOFL
 70
     1
  9
$DIMTVP
 40
0.0
  9
$DIMTIX
 70
     0
  9
$DIMSOXD
 70
     0
  9
$DIMSAH
 70
     0
  9
$DIMBLK1
  1

  9
$DIMBLK2
  1

  9
$DIMSTYLE
  2
STANDARD
  9
$DIMCLRD
 70
     0
  9
$DIMCLRE
 70
     0
  9
$DIMCLRT
 70
     0
  9
$DIMTFAC
 40
1.0
  9
$DIMGAP
 40
0.625
  9
$DIMJUST
 70
     0
  9
$DIMSD1
 70
     0
  9
$DIMSD2
 70
     0
  9
$DIMTOLJ
 70
     1
  9
$DIMTZIN
 70
     0
  9
$DIMALTZ
 70
     0
  9
$DIMALTTZ
 70
     0
  9
$DIMUPT
 70
     0
  9
$DIMDEC
 70
     4
  9
$DIMTDEC
 70
     4
  9
$DIMALTU
 70
     8
  9
$DIMALTTD
 70
     4
  9
$DIMTXSTY
  7
STANDARD
  9
$DIMAUNIT
 70
     0
  9
$DIMADEC
 70
     0
  9
$DIMALTRND
 40
0.0
  9
$DIMAZIN
 70
     0
  9
$DIMDSEP
 70
    46
  9
$DIMATFIT
 70
     3
  9
$DIMFRAC
 70
     0
  9
$DIMLDRBLK
  1

  9
$DIMLUNIT
 70
     6
  9
$DIMLWD
 70
    -2
  9
$DIMLWE
 70
    -2
  9
$DIMTMOVE
 70
     0
  9
$LUNITS
 70
     2
  9
$LUPREC
 70
     4
  9
$SKETCHINC
 40
1.0
  9
$FILLETRAD
 40
1.0
  9
$AUNITS
 70
     0
  9
$AUPREC
 70
     0
  9
$MENU
  1
acad
  9
$ELEVATION
 40
0.0
  9
$PELEVATION
 40
0.0
  9
$THICKNESS
 40
0.0
  9
$LIMCHECK
 70
     0
  9
$CHAMFERA
 40
0.0
  9
$CHAMFERB
 40
0.0
  9
$CHAMFERC
 40
20.0
  9
$CHAMFERD
 40
0.0
  9
$SKPOLY
 70
     0
  9
$TDCREATE
 40
2451774.355798843
  9
$TDUCREATE
 40
2451774.272465510
  9
$TDUPDATE
 40
2454658.373794664
  9
$TDUUPDATE
 40
2454658.290461331
  9
$TDINDWG
 40
0.4691395718
  9
$TDUSRTIMER
 40
0.4691395718
  9
$USRTIMER
 70
     1
  9
$ANGBASE
 50
0.0
  9
$ANGDIR
 70
     0
  9
$PDMODE
 70
     0
  9
$PDSIZE
 40
0.0
  9
$PLINEWID
 40
0.0
  9
$SPLFRAME
 70
     0
  9
$SPLINETYPE
 70
     6
  9
$SPLINESEGS
 70
     8
  9
$HANDSEED
  5
2D885
  9
$SURFTAB1
 70
     6
  9
$SURFTAB2
 70
     6
  9
$SURFTYPE
 70
     6
  9
$SURFU
 70
     6
  9
$SURFV
 70
     6
  9
$UCSBASE
  2

  9
$UCSNAME
  2

  9
$UCSORG
 10
0.0
 20
0.0
 30
0.0
  9
$UCSXDIR
 10
1.0
 20
0.0
 30
0.0
  9
$UCSYDIR
 10
0.0
 20
1.0
 30
0.0
  9
$UCSORTHOREF
  2

  9
$UCSORTHOVIEW
 70
     0
  9
$UCSORGTOP
 10
0.0
 20
0.0
 30
0.0
  9
$UCSORGBOTTOM
 10
0.0
 20
0.0
 30
0.0
  9
$UCSORGLEFT
 10
0.0
 20
0.0
 30
0.0
  9
$UCSORGRIGHT
 10
0.0
 20
0.0
 30
0.0
  9
$UCSORGFRONT
 10
0.0
 20
0.0
 30
0.0
  9
$UCSORGBACK
 10
0.0
 20
0.0
 30
0.0
  9
$PUCSBASE
  2

  9
$PUCSNAME
  2

  9
$PUCSORG
 10
0.0
 20
0.0
 30
0.0
  9
$PUCSXDIR
 10
1.0
 20
0.0
 30
0.0
  9
$PUCSYDIR
 10
0.0
 20
1.0
 30
0.0
  9
$PUCSORTHOREF
  2

  9
$PUCSORTHOVIEW
 70
     0
  9
$PUCSORGTOP
 10
0.0
 20
0.0
 30
0.0
  9
$PUCSORGBOTTOM
 10
0.0
 20
0.0
 30
0.0
  9
$PUCSORGLEFT
 10
0.0
 20
0.0
 30
0.0
  9
$PUCSORGRIGHT
 10
0.0
 20
0.0
 30
0.0
  9
$PUCSORGFRONT
 10
0.0
 20
0.0
 30
0.0
  9
$PUCSORGBACK
 10
0.0
 20
0.0
 30
0.0
  9
$USERI1
 70
     0
  9
$USERI2
 70
     0
  9
$USERI3
 70
     0
  9
$USERI4
 70
     0
  9
$USERI5
 70
     0
  9
$USERR1
 40
0.0
  9
$USERR2
 40
0.0
  9
$USERR3
 40
0.0
  9
$USERR4
 40
0.0
  9
$USERR5
 40
0.0
  9
$WORLDVIEW
 70
     1
  9
$SHADEDGE
 70
     3
  9
$SHADEDIF
 70
    70
  9
$TILEMODE
 70
     1
  9
$MAXACTVP
 70
    48
  9
$PINSBASE
 10
0.0
 20
0.0
 30
0.0
  9
$PLIMCHECK
 70
     0
  9
$PEXTMIN
 10
25.69999999999999
 20
19.5
 30
0.0
  9
$PEXTMAX
 10
231.3
 20
175.5
 30
0.0
  9
$PLIMMIN
 10
-20.0
 20
-7.5
  9
$PLIMMAX
 10
277.0
 20
202.5
  9
$UNITMODE
 70
     0
  9
$VISRETAIN
 70
     1
  9
$PLINEGEN
 70
     0
  9
$PSLTSCALE
 70
     1
  9
$TREEDEPTH
 70
  3020
  9
$CMLSTYLE
  2
STANDARD
  9
$CMLJUST
 70
     0
  9
$CMLSCALE
 40
20.0
  9
$PROXYGRAPHICS
 70
     1
  9
$MEASUREMENT
 70
     1
  9
$CELWEIGHT
370
    -1
  9
$ENDCAPS
280
     0
  9
$JOINSTYLE
280
     0
  9
$LWDISPLAY
290
     0
  9
$INSUNITS
 70
     0
  9
$HYPERLINKBASE
  1

  9
$STYLESHEET
  1

  9
$XEDIT
290
     1
  9
$CEPSNTYPE
380
     0
  9
$PSTYLEMODE
290
     1
  9
$FINGERPRINTGUID
  2
{E7552BDC-5169-4F54-A499-2C82C71F1FBB}
  9
$VERSIONGUID
  2
{5A27FC6F-B51D-4061-9F2C-8F0296E6201F}
  9
$EXTNAMES
290
     1
  9
$PSVPSCALE
 40
0.0
  9
$OLESTARTUP
290
     0
  0
ENDSEC
  0
SECTION
  2
CLASSES
  0
CLASS
  1
DICTIONARYVAR
  2
AcDbDictionaryVar
  3
ObjectDBX Classes
 90
        0
280
     0
281
     0
  0
CLASS
  1
SORTENTSTABLE
  2
AcDbSortentsTable
  3
ObjectDBX Classes
 90
        0
280
     0
281
     0
  0
CLASS
  1
ACDBDICTIONARYWDFLT
  2
AcDbDictionaryWithDefault
  3
ObjectDBX Classes
 90
        0
280
     0
281
     0
  0
CLASS
  1
ACDBPLACEHOLDER
  2
AcDbPlaceHolder
  3
ObjectDBX Classes
 90
        0
280
     0
281
     0
  0
CLASS
  1
LAYOUT
  2
AcDbLayout
  3
ObjectDBX Classes
 90
        0
280
     0
281
     0
  0
CLASS
  1
TABLESTYLE
  2
AcDbTableStyle
  3
ObjectDBX Classes
 90
     2047
280
     0
281
     0
  0
ENDSEC
  0
SECTION
  2
TABLES
  0
TABLE
  2
VPORT
  5
8
330
0
100
AcDbSymbolTable
 70
     5
  0
VPORT
  5
2D87C
330
8
100
AcDbSymbolTableRecord
100
AcDbViewportTableRecord
  2
*Active
 70
     0
 10
0.0
 20
0.0
 11
1.0
 21
1.0
 12
210.0000009778888
 22
148.500000691507
 13
0.0
 23
0.0
 14
10.0
 24
10.0
 15
10.0
 25
10.0
 16
0.0
 26
0.0
 36
1.0
 17
0.0
 27
0.0
 37
0.0
 40
299.229180499304
 41
1.909316770186335
 42
50.0
 43
0.0
 44
0.0
 50
0.0
 51
0.0
 71
     0
 72
   100
 73
     1
 74
     1
 75
     0
 76
     0
 77
     0
 78
     0
281
     0
 65
     1
110
0.0
120
0.0
130
0.0
111
1.0
121
0.0
131
0.0
112
0.0
122
1.0
132
0.0
 79
     0
146
0.0
  0
ENDTAB
  0
TABLE
  2
LTYPE
  5
5
330
0
100
AcDbSymbolTable
 70
     1
  0
LTYPE
  5
12
330
5
100
AcDbSymbolTableRecord
100
AcDbLinetypeTableRecord
  2
BYBLOCK
 70
     0
  3

 72
    65
 73
     0
 40
0.0
  0
LTYPE
  5
13
330
5
100
AcDbSymbolTableRecord
100
AcDbLinetypeTableRecord
  2
BYLAYER
 70
     0
  3

 72
    65
 73
     0
 40
0.0
  0
LTYPE
  5
14
330
5
100
AcDbSymbolTableRecord
100
AcDbLinetypeTableRecord
  2
CONTINUOUS
 70
     0
  3
Solid line
 72
    65
 73
     0
 40
0.0
  0
ENDTAB
  0
TABLE
  2
LAYER
  5
2
102
{ACAD_XDICTIONARY
360
2D869
102
}
330
0
100
AcDbSymbolTable
 70
     9
  0
LAYER
  5
E
330
2
100
AcDbSymbolTableRecord
100
AcDbLayerTableRecord
  2
0
 70
     0
 62
     7
  6
CONTINUOUS
370
    -3
390
1B1E3
  0
LAYER
  5
137
330
2
100
AcDbSymbolTableRecord
100
AcDbLayerTableRecord
  2
TASTEN
 70
     0
 62
     5
  6
CONTINUOUS
370
    -3
390
1B1E3
  0
LAYER
  5
143
330
2
100
AcDbSymbolTableRecord
100
AcDbLayerTableRecord
  2
DEFPOINTS
 70
     0
 62
     7
  6
CONTINUOUS
290
     0
370
    -3
390
1B1E3
  0
LAYER
  5
1848A
330
2
100
AcDbSymbolTableRecord
100
AcDbLayerTableRecord
  2
RAHMEN025
 70
     0
 62
     7
  6
CONTINUOUS
370
    -3
390
1B1E3
  0
LAYER
  5
1848B
330
2
100
AcDbSymbolTableRecord
100
AcDbLayerTableRecord
  2
RAHMEN07
 70
     0
 62
     5
  6
CONTINUOUS
370
    -3
390
1B1E3
  0
LAYER
  5
1848C
330
2
100
AcDbSymbolTableRecord
100
AcDbLayerTableRecord
  2
RAHMEN05
 70
     0
 62
     6
  6
CONTINUOUS
370
    -3
390
1B1E3
  0
LAYER
  5
1954F
330
2
100
AcDbSymbolTableRecord
100
AcDbLayerTableRecord
  2
EBENE_1
 70
     0
 62
     7
  6
CONTINUOUS
370
    -3
390
1B1E3
  0
LAYER
  5
26712
330
2
100
AcDbSymbolTableRecord
100
AcDbLayerTableRecord
  2
Bemassung
 70
     0
 62
     3
  6
CONTINUOUS
370
    -3
390
1B1E3
  0
LAYER
  5
27275
330
2
100
AcDbSymbolTableRecord
100
AcDbLayerTableRecord
  2
BLECH
 70
     0
 62
     7
  6
CONTINUOUS
370
    -3
390
1B1E3
  0
ENDTAB
  0
TABLE
  2
STYLE
  5
3
330
0
100
AcDbSymbolTable
 70
     4
  0
STYLE
  5
F
330
3
100
AcDbSymbolTableRecord
100
AcDbTextStyleTableRecord
  2
STANDARD
 70
     0
 40
0.0
 41
1.0
 50
0.0
 71
     0
 42
2.5
  3
txt
  4

  0
STYLE
  5
220D
330
3
100
AcDbSymbolTableRecord
100
AcDbTextStyleTableRecord
  2
TASTENTEXT
 70
     0
 40
2.0
 41
1.0
 50
0.0
 71
     0
 42
2.0
  3
ARIAL.TTF
  4

1001
ACAD
1000
Arial
1071
       34
  0
STYLE
  5
18491
330
3
100
AcDbSymbolTableRecord
100
AcDbTextStyleTableRecord
  2
ISOCP
 70
     0
 40
0.0
 41
1.0
 50
0.0
 71
     0
 42
2.5
  3
isocp.shx
  4

  0
STYLE
  5
185F2
330
3
100
AcDbSymbolTableRecord
100
AcDbTextStyleTableRecord
  2
WMF-BANKGOTHIC-MD-BT0
 70
     0
 40
0.0
 41
1.0
 50
0.0
 71
     0
 42
2.5
  3
bgothm.ttf
  4

1001
ACAD
1000
BankGothic Md BT
1071
       34
  0
ENDTAB
  0
TABLE
  2
VIEW
  5
6
330
0
100
AcDbSymbolTable
 70
     1
  0
ENDTAB
  0
TABLE
  2
UCS
  5
7
330
0
100
AcDbSymbolTable
 70
     0
  0
ENDTAB
  0
TABLE
  2
APPID
  5
9
330
0
100
AcDbSymbolTable
 70
     3
  0
APPID
  5
10
330
9
100
AcDbSymbolTableRecord
100
AcDbRegAppTableRecord
  2
ACAD
 70
     0
  0
APPID
  5
26F8A
330
9
100
AcDbSymbolTableRecord
100
AcDbRegAppTableRecord
  2
PHOENIX7010
 70
     0
  0
APPID
  5
2D863
330
9
100
AcDbSymbolTableRecord
100
AcDbRegAppTableRecord
  2
ACAD_PSEXT
 70
     0
  0
ENDTAB
  0
TABLE
  2
DIMSTYLE
  5
A
330
0
100
AcDbSymbolTable
 70
     1
100
AcDbDimStyleTable
 71
     0
  0
DIMSTYLE
105
1D
102
{ACAD_REACTORS
330
274C3
330
274D0
102
}
330
A
100
AcDbSymbolTableRecord
100
AcDbDimStyleTableRecord
  2
STANDARD
 70
     0
340
F
  0
ENDTAB
  0
TABLE
  2
BLOCK_RECORD
  5
1
330
0
100
AcDbSymbolTable
 70
     4
  0
BLOCK_RECORD
  5
18
102
{ACAD_XDICTIONARY
360
9822
102
}
330
1
100
AcDbSymbolTableRecord
100
AcDbBlockTableRecord
  2
*MODEL_SPACE
340
1B1E6
  0
BLOCK_RECORD
  5
15
102
{ACAD_XDICTIONARY
360
2663A
102
}
330
1
100
AcDbSymbolTableRecord
100
AcDbBlockTableRecord
  2
*PAPER_SPACE
340
1B1E7
  0
BLOCK_RECORD
  5
1856E
330
1
100
AcDbSymbolTableRecord
100
AcDbBlockTableRecord
  2
A$C4EFE16F9
340
0
102
{BLKREFS
331
185FF
102
}
  0
BLOCK_RECORD
  5
274C4
330
1
100
AcDbSymbolTableRecord
100
AcDbBlockTableRecord
  2
*D1
340
0
  0
BLOCK_RECORD
  5
274D1
330
1
100
AcDbSymbolTableRecord
100
AcDbBlockTableRecord
  2
*D2
340
0
  0
BLOCK_RECORD
  5
2D735
330
1
100
AcDbSymbolTableRecord
100
AcDbBlockTableRecord
  2
A$C1BF1606D
340
0
102
{BLKREFS
331
2D747
331
2D748
331
2D749
331
2D74A
102
}
  0
ENDTAB
  0
ENDSEC
  0
SECTION
  2
BLOCKS
  0
BLOCK
  5
19
330
18
100
AcDbEntity
  8
0
100
AcDbBlockBegin
  2
*MODEL_SPACE
 70
     2
 10
0.0
 20
0.0
 30
0.0
  3
*MODEL_SPACE
  1

  0
ENDBLK
  5
1A
330
18
100
AcDbEntity
  8
0
100
AcDbBlockEnd
  0
BLOCK
  5
16
330
15
100
AcDbEntity
 67
     1
  8
0
100
AcDbBlockBegin
  2
*PAPER_SPACE
 70
     0
 10
0.0
 20
0.0
 30
0.0
  3
*PAPER_SPACE
  1

  0
ENDBLK
  5
17
330
15
100
AcDbEntity
 67
     1
  8
0
100
AcDbBlockEnd
  0
BLOCK
  5
185EF
330
1856E
100
AcDbEntity
  8
0
100
AcDbBlockBegin
  2
A$C4EFE16F9
 70
     0
 10
0.0
 20
0.0
 30
0.0
  3
A$C4EFE16F9
  1

  0
TEXT
  5
1856F
330
1856E
100
AcDbEntity
  8
0
 62
    29
100
AcDbText
 10
0.1140211594872653
 20
0.7536994259858148
 30
0.0
 40
1.502652258844175
  1
DHD
 41
0.75
  7
WMF-BANKGOTHIC-MD-BT0
100
AcDbText
  0
SOLID
  5
18570
330
1856E
100
AcDbEntity
  8
0
 62
    30
100
AcDbTrace
 10
1.232984684201756
 20
11.6392852740014
 30
0.0
 11
1.232984684201756
 21
11.6392852740014
 31
0.0
 12
4.193221981308504
 22
8.660527201313172
 32
0.0
 13
1.232984684201756
 23
5.717267281822785
 33
0.0
  0
SOLID
  5
18571
330
1856E
100
AcDbEntity
  8
0
 62
    30
100
AcDbTrace
 10
4.193221981308504
 20
8.660527201313172
 30
0.0
 11
1.232984684201756
 21
5.717267281822785
 31
0.0
 12
1.232984684201756
 22
5.717267281822785
 32
0.0
 13
4.193221981308504
 23
8.660527201313172
 33
0.0
  0
SOLID
  5
18572
330
1856E
100
AcDbEntity
  8
0
 62
    29
100
AcDbTrace
 10
4.254957899913442
 20
8.598791282708234
 30
0.0
 11
1.171248765596818
 21
11.57909275336158
 31
0.0
 12
4.254957899913442
 22
8.720719721952988
 32
0.0
 13
1.294720602806691
 23
11.70102119260634
 33
0.0
  0
SOLID
  5
18573
330
1856E
100
AcDbEntity
  8
0
 62
    29
100
AcDbTrace
 10
4.254957899913442
 20
8.720719721952988
 30
0.0
 11
1.294720602806691
 21
11.70102119260634
 31
0.0
 12
1.294720602806691
 22
11.70102119260634
 32
0.0
 13
4.254957899913442
 23
8.720719721952988
 33
0.0
  0
SOLID
  5
18574
330
1856E
100
AcDbEntity
  8
0
 62
    29
100
AcDbTrace
 10
4.254957899913442
 20
8.598791282708234
 30
0.0
 11
4.131486062703565
 21
8.598791282708234
 31
0.0
 12
1.171248765596818
 22
11.57909275336158
 32
0.0
 13
1.171248765596818
 23
11.57909275336158
 33
0.0
  0
SOLID
  5
18575
330
1856E
100
AcDbEntity
  8
0
 62
    29
100
AcDbTrace
 10
4.254957899913442
 20
8.598791282708234
 30
0.0
 11
4.242610716192452
 21
8.587987496952372
 31
0.0
 12
4.131486062703565
 22
8.598791282708234
 32
0.0
 13
4.228720134506342
 23
8.580270507126755
 33
0.0
  0
SOLID
  5
18576
330
1856E
100
AcDbEntity
  8
0
 62
    29
100
AcDbTrace
 10
4.131486062703565
 20
8.598791282708234
 30
0.0
 11
4.228720134506342
 21
8.580270507126755
 31
0.0
 12
4.139203052529182
 22
8.592617690847738
 32
0.0
 13
4.221003144680722
 23
8.577183711196504
 33
0.0
  0
SOLID
  5
18577
330
1856E
100
AcDbEntity
  8
0
 62
    29
100
AcDbTrace
 10
4.139203052529182
 20
8.592617690847738
 30
0.0
 11
4.221003144680722
 21
8.577183711196504
 31
0.0
 12
4.148463440319922
 22
8.58644409898725
 32
0.0
 13
4.213286154855108
 23
8.57409691526626
 33
0.0
  0
SOLID
  5
18578
330
1856E
100
AcDbEntity
  8
0
 62
    29
100
AcDbTrace
 10
4.148463440319922
 20
8.58644409898725
 30
0.0
 11
4.213286154855108
 21
8.57409691526626
 31
0.0
 12
4.156180430145539
 22
8.581813905091877
 32
0.0
 13
4.205569165029491
 23
8.572553517301138
 33
0.0
  0
SOLID
  5
18579
330
1856E
100
AcDbEntity
  8
0
 62
    29
100
AcDbTrace
 10
4.156180430145539
 20
8.581813905091877
 30
0.0
 11
4.205569165029491
 21
8.572553517301138
 31
0.0
 12
4.163897419971156
 22
8.577183711196504
 32
0.0
 13
4.19785217520387
 23
8.572553517301138
 33
0.0
  0
SOLID
  5
1857A
330
1856E
100
AcDbEntity
  8
0
 62
    29
100
AcDbTrace
 10
4.163897419971156
 20
8.577183711196504
 30
0.0
 11
4.19785217520387
 21
8.572553517301138
 31
0.0
 12
4.171614409796774
 22
8.57409691526626
 32
0.0
 13
4.18859178741313
 23
8.572553517301138
 33
0.0
  0
SOLID
  5
1857B
330
1856E
100
AcDbEntity
  8
0
 62
    29
100
AcDbTrace
 10
4.171614409796774
 20
8.57409691526626
 30
0.0
 11
4.18859178741313
 21
8.572553517301138
 31
0.0
 12
4.180874797587513
 22
8.572553517301138
 32
0.0
 13
4.180874797587513
 23
8.572553517301138
 33
0.0
  0
SOLID
  5
1857C
330
1856E
100
AcDbEntity
  8
0
 62
    29
100
AcDbTrace
 10
4.254957899913442
 20
8.598791282708234
 30
0.0
 11
4.281195665320538
 21
8.672874385034162
 31
0.0
 12
4.265761685669303
 22
8.611138466429224
 32
0.0
 13
4.281195665320538
 23
8.663613997243416
 33
0.0
  0
SOLID
  5
1857D
330
1856E
100
AcDbEntity
  8
0
 62
    29
100
AcDbTrace
 10
4.265761685669303
 20
8.611138466429224
 30
0.0
 11
4.281195665320538
 21
8.663613997243416
 31
0.0
 12
4.273478675494921
 22
8.625029048115337
 32
0.0
 13
4.281195665320538
 23
8.655897007417799
 33
0.0
  0
SOLID
  5
1857E
330
1856E
100
AcDbEntity
  8
0
 62
    29
100
AcDbTrace
 10
4.273478675494921
 20
8.625029048115337
 30
0.0
 11
4.281195665320538
 21
8.655897007417799
 31
0.0
 12
4.276565471425168
 22
8.632746037940947
 32
0.0
 13
4.281195665320538
 23
8.648180017592181
 33
0.0
  0
SOLID
  5
1857F
330
1856E
100
AcDbEntity
  8
0
 62
    29
100
AcDbTrace
 10
4.276565471425168
 20
8.632746037940947
 30
0.0
 11
4.281195665320538
 21
8.648180017592181
 31
0.0
 12
4.279652267355416
 22
8.640463027766564
 32
0.0
 13
4.279652267355416
 23
8.640463027766564
 33
0.0
  0
SOLID
  5
18580
330
1856E
100
AcDbEntity
  8
0
 62
    29
100
AcDbTrace
 10
4.254957899913442
 20
8.598791282708234
 30
0.0
 11
4.279652267355416
 21
8.68059137485978
 31
0.0
 12
4.281195665320538
 22
8.672874385034162
 32
0.0
 13
4.281195665320538
 23
8.672874385034162
 33
0.0
  0
SOLID
  5
18581
330
1856E
100
AcDbEntity
  8
0
 62
    29
100
AcDbTrace
 10
4.279652267355416
 20
8.68059137485978
 30
0.0
 11
4.254957899913442
 21
8.598791282708234
 31
0.0
 12
4.276565471425168
 22
8.688308364685397
 32
0.0
 13
4.276565471425168
 23
8.688308364685397
 33
0.0
  0
SOLID
  5
18582
330
1856E
100
AcDbEntity
  8
0
 62
    29
100
AcDbTrace
 10
4.276565471425168
 20
8.688308364685397
 30
0.0
 11
4.254957899913442
 21
8.598791282708234
 31
0.0
 12
4.273478675494921
 22
8.697568752476136
 32
0.0
 13
4.273478675494921
 23
8.697568752476136
 33
0.0
  0
SOLID
  5
18583
330
1856E
100
AcDbEntity
  8
0
 62
    29
100
AcDbTrace
 10
4.273478675494921
 20
8.697568752476136
 30
0.0
 11
4.254957899913442
 21
8.598791282708234
 31
0.0
 12
4.267305083634425
 22
8.705285742301754
 32
0.0
 13
4.267305083634425
 23
8.705285742301754
 33
0.0
  0
SOLID
  5
18584
330
1856E
100
AcDbEntity
  8
0
 62
    29
100
AcDbTrace
 10
4.267305083634425
 20
8.705285742301754
 30
0.0
 11
4.254957899913442
 21
8.598791282708234
 31
0.0
 12
4.262674889739056
 22
8.713002732127371
 32
0.0
 13
4.262674889739056
 23
8.713002732127371
 33
0.0
  0
SOLID
  5
18585
330
1856E
100
AcDbEntity
  8
0
 62
    29
100
AcDbTrace
 10
4.262674889739056
 20
8.713002732127371
 30
0.0
 11
4.254957899913442
 21
8.598791282708234
 31
0.0
 12
4.254957899913442
 22
8.720719721952988
 32
0.0
 13
4.254957899913442
 23
8.598791282708234
 33
0.0
  0
SOLID
  5
18586
330
1856E
100
AcDbEntity
  8
0
 62
    29
100
AcDbTrace
 10
4.254957899913442
 20
8.720719721952988
 30
0.0
 11
4.254957899913442
 21
8.598791282708234
 31
0.0
 12
4.254957899913442
 22
8.598791282708234
 32
0.0
 13
4.254957899913442
 23
8.598791282708234
 33
0.0
  0
SOLID
  5
18587
330
1856E
100
AcDbEntity
  8
0
 62
    29
100
AcDbTrace
 10
1.146554398154844
 20
5.717267281822785
 30
0.0
 11
4.133029460668687
 21
8.720719721952988
 31
0.0
 12
1.293177204841569
 22
5.657074761182968
 32
0.0
 13
4.254957899913442
 23
8.598791282708234
 33
0.0
  0
SOLID
  5
18588
330
1856E
100
AcDbEntity
  8
0
 62
    29
100
AcDbTrace
 10
1.293177204841569
 20
5.657074761182968
 30
0.0
 11
4.254957899913442
 21
8.598791282708234
 31
0.0
 12
4.254957899913442
 22
8.598791282708234
 32
0.0
 13
1.293177204841569
 23
5.657074761182968
 33
0.0
  0
SOLID
  5
18589
330
1856E
100
AcDbEntity
  8
0
 62
    29
100
AcDbTrace
 10
1.146554398154844
 20
5.717267281822785
 30
0.0
 11
1.171248765596818
 21
5.779003200427716
 31
0.0
 12
4.133029460668687
 22
8.720719721952988
 32
0.0
 13
4.133029460668687
 23
8.720719721952988
 33
0.0
  0
SOLID
  5
1858A
330
1856E
100
AcDbEntity
  8
0
 62
    29
100
AcDbTrace
 10
1.146554398154844
 20
5.717267281822785
 30
0.0
 11
1.146554398154844
 21
5.738874853334507
 31
0.0
 12
1.171248765596818
 22
5.779003200427716
 32
0.0
 13
1.149641194085088
 23
5.746591843160125
 33
0.0
  0
SOLID
  5
1858B
330
1856E
100
AcDbEntity
  8
0
 62
    29
100
AcDbTrace
 10
1.171248765596818
 20
5.779003200427716
 30
0.0
 11
1.149641194085088
 21
5.746591843160125
 31
0.0
 12
1.165075173736322
 22
5.771286210602099
 32
0.0
 13
1.154271387980461
 23
5.755852230950864
 33
0.0
  0
SOLID
  5
1858C
330
1856E
100
AcDbEntity
  8
0
 62
    29
100
AcDbTrace
 10
1.165075173736322
 20
5.771286210602099
 30
0.0
 11
1.154271387980461
 21
5.755852230950864
 31
0.0
 12
1.158901581875831
 22
5.763569220776489
 32
0.0
 13
1.158901581875831
 23
5.763569220776489
 33
0.0
  0
SOLID
  5
1858D
330
1856E
100
AcDbEntity
  8
0
 62
    29
100
AcDbTrace
 10
1.145011000189718
 20
5.714180485892534
 30
0.0
 11
1.293177204841569
 21
5.657074761182968
 31
0.0
 12
1.145011000189718
 22
5.706463496066916
 32
0.0
 13
1.285460215015952
 23
5.649357771357351
 33
0.0
  0
SOLID
  5
1858E
330
1856E
100
AcDbEntity
  8
0
 62
    29
100
AcDbTrace
 10
1.145011000189718
 20
5.706463496066916
 30
0.0
 11
1.285460215015952
 21
5.649357771357351
 31
0.0
 12
1.146554398154844
 22
5.698746506241299
 32
0.0
 13
1.277743225190334
 23
5.643184179496856
 33
0.0
  0
SOLID
  5
1858F
330
1856E
100
AcDbEntity
  8
0
 62
    29
100
AcDbTrace
 10
1.146554398154844
 20
5.698746506241299
 30
0.0
 11
1.277743225190334
 21
5.643184179496856
 31
0.0
 12
1.149641194085088
 22
5.691029516415682
 32
0.0
 13
1.270026235364717
 23
5.63855398560149
 33
0.0
  0
SOLID
  5
18590
330
1856E
100
AcDbEntity
  8
0
 62
    29
100
AcDbTrace
 10
1.149641194085088
 20
5.691029516415682
 30
0.0
 11
1.270026235364717
 21
5.63855398560149
 31
0.0
 12
1.152727990015335
 22
5.683312526590064
 32
0.0
 13
1.2623092455391
 23
5.635467189671238
 33
0.0
  0
SOLID
  5
18591
330
1856E
100
AcDbEntity
  8
0
 62
    29
100
AcDbTrace
 10
1.152727990015335
 20
5.683312526590064
 30
0.0
 11
1.2623092455391
 21
5.635467189671238
 31
0.0
 12
1.160444979840953
 22
5.669421944903959
 32
0.0
 13
1.25304885774836
 23
5.632380393740994
 33
0.0
  0
SOLID
  5
18592
330
1856E
100
AcDbEntity
  8
0
 62
    29
100
AcDbTrace
 10
1.160444979840953
 20
5.669421944903959
 30
0.0
 11
1.25304885774836
 21
5.632380393740994
 31
0.0
 12
1.171248765596818
 22
5.657074761182968
 32
0.0
 13
1.245331867922743
 23
5.630836995775872
 33
0.0
  0
SOLID
  5
18593
330
1856E
100
AcDbEntity
  8
0
 62
    29
100
AcDbTrace
 10
1.171248765596818
 20
5.657074761182968
 30
0.0
 11
1.245331867922743
 21
5.630836995775872
 31
0.0
 12
1.183595949317805
 22
5.646270975427107
 32
0.0
 13
1.237614878097126
 23
5.630836995775872
 33
0.0
  0
SOLID
  5
18594
330
1856E
100
AcDbEntity
  8
0
 62
    29
100
AcDbTrace
 10
1.183595949317805
 20
5.646270975427107
 30
0.0
 11
1.237614878097126
 21
5.630836995775872
 31
0.0
 12
1.197486531003917
 22
5.63855398560149
 32
0.0
 13
1.228354490306386
 23
5.630836995775872
 33
0.0
  0
SOLID
  5
18595
330
1856E
100
AcDbEntity
  8
0
 62
    29
100
AcDbTrace
 10
1.197486531003917
 20
5.63855398560149
 30
0.0
 11
1.228354490306386
 21
5.630836995775872
 31
0.0
 12
1.205203520829535
 22
5.635467189671238
 32
0.0
 13
1.220637500480766
 23
5.630836995775872
 33
0.0
  0
SOLID
  5
18596
330
1856E
100
AcDbEntity
  8
0
 62
    29
100
AcDbTrace
 10
1.205203520829535
 20
5.635467189671238
 30
0.0
 11
1.220637500480766
 21
5.630836995775872
 31
0.0
 12
1.212920510655152
 22
5.632380393740994
 32
0.0
 13
1.212920510655152
 23
5.632380393740994
 33
0.0
  0
SOLID
  5
18597
330
1856E
100
AcDbEntity
  8
0
 62
    29
100
AcDbTrace
 10
1.293177204841569
 20
5.657074761182968
 30
0.0
 11
1.146554398154844
 21
5.717267281822785
 31
0.0
 12
1.146554398154844
 22
5.717267281822785
 32
0.0
 13
1.146554398154844
 23
5.717267281822785
 33
0.0
  0
SOLID
  5
18598
330
1856E
100
AcDbEntity
  8
0
 62
    29
100
AcDbTrace
 10
1.294720602806691
 20
11.70102119260634
 30
0.0
 11
1.319414970248669
 21
11.6392852740014
 31
0.0
 12
1.146554398154844
 22
11.6392852740014
 32
0.0
 13
1.319414970248669
 23
5.717267281822785
 33
0.0
  0
SOLID
  5
18599
330
1856E
100
AcDbEntity
  8
0
 62
    29
100
AcDbTrace
 10
1.146554398154844
 20
11.6392852740014
 30
0.0
 11
1.319414970248669
 21
5.717267281822785
 31
0.0
 12
1.146554398154844
 22
5.717267281822785
 32
0.0
 13
1.146554398154844
 23
5.717267281822785
 33
0.0
  0
SOLID
  5
1859A
330
1856E
100
AcDbEntity
  8
0
 62
    29
100
AcDbTrace
 10
1.294720602806691
 20
11.70102119260634
 30
0.0
 11
1.308611184492804
 21
11.6855872129551
 31
0.0
 12
1.319414970248669
 22
11.6392852740014
 32
0.0
 13
1.311697980423051
 23
11.67787022312949
 33
0.0
  0
SOLID
  5
1859B
330
1856E
100
AcDbEntity
  8
0
 62
    29
100
AcDbTrace
 10
1.319414970248669
 20
11.6392852740014
 30
0.0
 11
1.311697980423051
 21
11.67787022312949
 31
0.0
 12
1.319414970248669
 22
11.65008905975726
 32
0.0
 13
1.314784776353295
 23
11.66860983533875
 33
0.0
  0
SOLID
  5
1859C
330
1856E
100
AcDbEntity
  8
0
 62
    29
100
AcDbTrace
 10
1.319414970248669
 20
11.65008905975726
 30
0.0
 11
1.314784776353295
 21
11.66860983533875
 31
0.0
 12
1.317871572283543
 22
11.659349447548
 32
0.0
 13
1.317871572283543
 23
11.659349447548
 33
0.0
  0
SOLID
  5
1859D
330
1856E
100
AcDbEntity
  8
0
 62
    29
100
AcDbTrace
 10
1.293177204841569
 20
11.70410798853658
 30
0.0
 11
1.186682745248052
 21
11.71336837632732
 31
0.0
 12
1.279286623155456
 22
11.71336837632732
 32
0.0
 13
1.192856337108544
 23
11.7179985702227
 33
0.0
  0
SOLID
  5
1859E
330
1856E
100
AcDbEntity
  8
0
 62
    29
100
AcDbTrace
 10
1.279286623155456
 20
11.71336837632732
 30
0.0
 11
1.192856337108544
 21
11.7179985702227
 31
0.0
 12
1.265396041469347
 22
11.72108536615294
 32
0.0
 13
1.200573326934161
 23
11.72108536615294
 33
0.0
  0
SOLID
  5
1859F
330
1856E
100
AcDbEntity
  8
0
 62
    29
100
AcDbTrace
 10
1.265396041469347
 20
11.72108536615294
 30
0.0
 11
1.200573326934161
 21
11.72108536615294
 31
0.0
 12
1.248418663852987
 22
11.72417216208319
 32
0.0
 13
1.216007306585396
 23
11.72417216208319
 33
0.0
  0
SOLID
  5
185A0
330
1856E
100
AcDbEntity
  8
0
 62
    29
100
AcDbTrace
 10
1.248418663852987
 20
11.72417216208319
 30
0.0
 11
1.216007306585396
 21
11.72417216208319
 31
0.0
 12
1.232984684201756
 22
11.72571556004831
 32
0.0
 13
1.232984684201756
 23
11.72571556004831
 33
0.0
  0
SOLID
  5
185A1
330
1856E
100
AcDbEntity
  8
0
 62
    29
100
AcDbTrace
 10
1.293177204841569
 20
11.70410798853658
 30
0.0
 11
1.178965755422435
 21
11.70873818243196
 31
0.0
 12
1.186682745248052
 22
11.71336837632732
 32
0.0
 13
1.186682745248052
 23
11.71336837632732
 33
0.0
  0
SOLID
  5
185A2
330
1856E
100
AcDbEntity
  8
0
 62
    29
100
AcDbTrace
 10
1.157358183910705
 20
11.6855872129551
 30
0.0
 11
1.294720602806691
 21
11.70102119260634
 31
0.0
 12
1.152727990015335
 22
11.67787022312949
 32
0.0
 13
1.294720602806691
 23
11.70102119260634
 33
0.0
  0
SOLID
  5
185A3
330
1856E
100
AcDbEntity
  8
0
 62
    29
100
AcDbTrace
 10
1.152727990015335
 20
11.67787022312949
 30
0.0
 11
1.294720602806691
 21
11.70102119260634
 31
0.0
 12
1.149641194085088
 22
11.66860983533875
 32
0.0
 13
1.146554398154844
 23
11.6392852740014
 33
0.0
  0
SOLID
  5
185A4
330
1856E
100
AcDbEntity
  8
0
 62
    29
100
AcDbTrace
 10
1.149641194085088
 20
11.66860983533875
 30
0.0
 11
1.146554398154844
 21
11.6392852740014
 31
0.0
 12
1.148097796119966
 22
11.659349447548
 32
0.0
 13
1.146554398154844
 23
11.65008905975726
 33
0.0
  0
SOLID
  5
185A5
330
1856E
100
AcDbEntity
  8
0
 62
    29
100
AcDbTrace
 10
1.148097796119966
 20
11.659349447548
 30
0.0
 11
1.146554398154844
 21
11.65008905975726
 31
0.0
 12
1.146554398154844
 22
11.65008905975726
 32
0.0
 13
1.148097796119966
 23
11.659349447548
 33
0.0
  0
SOLID
  5
185A6
330
1856E
100
AcDbEntity
  8
0
 62
    29
100
AcDbTrace
 10
1.161988377806078
 20
11.6917608048156
 30
0.0
 11
1.294720602806691
 21
11.70102119260634
 31
0.0
 12
1.157358183910705
 22
11.6855872129551
 32
0.0
 13
1.157358183910705
 23
11.6855872129551
 33
0.0
  0
SOLID
  5
185A7
330
1856E
100
AcDbEntity
  8
0
 62
    29
100
AcDbTrace
 10
1.166618571701448
 20
11.69793439667609
 30
0.0
 11
1.294720602806691
 21
11.70102119260634
 31
0.0
 12
1.161988377806078
 22
11.6917608048156
 32
0.0
 13
1.161988377806078
 23
11.6917608048156
 33
0.0
  0
SOLID
  5
185A8
330
1856E
100
AcDbEntity
  8
0
 62
    29
100
AcDbTrace
 10
1.17279216356194
 20
11.70410798853658
 30
0.0
 11
1.294720602806691
 21
11.70102119260634
 31
0.0
 12
1.166618571701448
 22
11.69793439667609
 32
0.0
 13
1.166618571701448
 23
11.69793439667609
 33
0.0
  0
SOLID
  5
185A9
330
1856E
100
AcDbEntity
  8
0
 62
    29
100
AcDbTrace
 10
1.178965755422435
 20
11.70873818243196
 30
0.0
 11
1.294720602806691
 21
11.70102119260634
 31
0.0
 12
1.17279216356194
 22
11.70410798853658
 32
0.0
 13
1.17279216356194
 23
11.70410798853658
 33
0.0
  0
SOLID
  5
185AA
330
1856E
100
AcDbEntity
  8
0
 62
    29
100
AcDbTrace
 10
1.293177204841569
 20
11.70410798853658
 30
0.0
 11
1.294720602806691
 21
11.70102119260634
 31
0.0
 12
1.178965755422435
 22
11.70873818243196
 32
0.0
 13
1.178965755422435
 23
11.70873818243196
 33
0.0
  0
SOLID
  5
185AB
330
1856E
100
AcDbEntity
  8
0
 62
    29
100
AcDbTrace
 10
1.297807398736939
 20
11.69793439667609
 30
0.0
 11
1.294720602806691
 21
11.70102119260634
 31
0.0
 12
1.293177204841569
 22
11.70410798853658
 32
0.0
 13
1.293177204841569
 23
11.70410798853658
 33
0.0
  0
SOLID
  5
185AC
330
1856E
100
AcDbEntity
  8
0
 62
    29
100
AcDbTrace
 10
1.297807398736939
 20
11.69793439667609
 30
0.0
 11
1.303980990597434
 21
11.6917608048156
 31
0.0
 12
1.294720602806691
 22
11.70102119260634
 32
0.0
 13
1.308611184492804
 23
11.6855872129551
 33
0.0
  0
SOLID
  5
185AD
330
1856E
100
AcDbEntity
  8
0
 62
    29
100
AcDbTrace
 10
1.294720602806691
 20
11.70102119260634
 30
0.0
 11
1.308611184492804
 21
11.6855872129551
 31
0.0
 12
1.308611184492804
 22
11.6855872129551
 32
0.0
 13
1.294720602806691
 23
11.70102119260634
 33
0.0
  0
SOLID
  5
185AE
330
1856E
100
AcDbEntity
  8
0
 62
    30
100
AcDbTrace
 10
2.589631495545255
 20
8.635832833871198
 30
0.0
 11
2.589631495545255
 21
8.635832833871198
 31
0.0
 12
5.549868792652002
 22
5.655531363217846
 32
0.0
 13
2.589631495545255
 23
2.713814841692581
 33
0.0
  0
SOLID
  5
185AF
330
1856E
100
AcDbEntity
  8
0
 62
    30
100
AcDbTrace
 10
5.549868792652002
 20
5.655531363217846
 30
0.0
 11
2.589631495545255
 21
2.713814841692581
 31
0.0
 12
2.589631495545255
 22
2.713814841692581
 32
0.0
 13
5.549868792652002
 23
5.655531363217846
 33
0.0
  0
SOLID
  5
185B0
330
1856E
100
AcDbEntity
  8
0
 62
    29
100
AcDbTrace
 10
5.611604711256937
 20
5.59533884257803
 30
0.0
 11
2.527895576940316
 21
8.575640313231382
 31
0.0
 12
5.611604711256937
 22
5.717267281822785
 32
0.0
 13
2.65136741415019
 23
8.696025354511007
 33
0.0
  0
SOLID
  5
185B1
330
1856E
100
AcDbEntity
  8
0
 62
    29
100
AcDbTrace
 10
5.611604711256937
 20
5.717267281822785
 30
0.0
 11
2.65136741415019
 21
8.696025354511007
 31
0.0
 12
2.65136741415019
 22
8.696025354511007
 32
0.0
 13
5.611604711256937
 23
5.717267281822785
 33
0.0
  0
SOLID
  5
185B2
330
1856E
100
AcDbEntity
  8
0
 62
    29
100
AcDbTrace
 10
5.611604711256937
 20
5.59533884257803
 30
0.0
 11
5.488132874047064
 21
5.59533884257803
 31
0.0
 12
2.527895576940316
 22
8.575640313231382
 32
0.0
 13
2.527895576940316
 23
8.575640313231382
 33
0.0
  0
SOLID
  5
185B3
330
1856E
100
AcDbEntity
  8
0
 62
    29
100
AcDbTrace
 10
5.611604711256937
 20
5.59533884257803
 30
0.0
 11
5.599257527535954
 21
5.584535056822168
 31
0.0
 12
5.488132874047064
 22
5.59533884257803
 32
0.0
 13
5.585366945849841
 23
5.576818066996551
 33
0.0
  0
SOLID
  5
185B4
330
1856E
100
AcDbEntity
  8
0
 62
    29
100
AcDbTrace
 10
5.488132874047064
 20
5.59533884257803
 30
0.0
 11
5.585366945849841
 21
5.576818066996551
 31
0.0
 12
5.495849863872681
 22
5.587621852752413
 32
0.0
 13
5.577649956024224
 23
5.5737312710663
 33
0.0
  0
SOLID
  5
185B5
330
1856E
100
AcDbEntity
  8
0
 62
    29
100
AcDbTrace
 10
5.495849863872681
 20
5.587621852752413
 30
0.0
 11
5.577649956024224
 21
5.5737312710663
 31
0.0
 12
5.50511025166342
 22
5.582991658857039
 32
0.0
 13
5.569932966198607
 23
5.570644475136056
 33
0.0
  0
SOLID
  5
185B6
330
1856E
100
AcDbEntity
  8
0
 62
    29
100
AcDbTrace
 10
5.50511025166342
 20
5.582991658857039
 30
0.0
 11
5.569932966198607
 21
5.570644475136056
 31
0.0
 12
5.512827241489041
 22
5.576818066996551
 32
0.0
 13
5.562215976372989
 23
5.569101077170934
 33
0.0
  0
SOLID
  5
185B7
330
1856E
100
AcDbEntity
  8
0
 62
    29
100
AcDbTrace
 10
5.512827241489041
 20
5.576818066996551
 30
0.0
 11
5.562215976372989
 21
5.569101077170934
 31
0.0
 12
5.520544231314655
 22
5.5737312710663
 32
0.0
 13
5.554498986547372
 23
5.569101077170934
 33
0.0
  0
SOLID
  5
185B8
330
1856E
100
AcDbEntity
  8
0
 62
    29
100
AcDbTrace
 10
5.520544231314655
 20
5.5737312710663
 30
0.0
 11
5.554498986547372
 21
5.569101077170934
 31
0.0
 12
5.528261221140272
 22
5.570644475136056
 32
0.0
 13
5.545238598756633
 23
5.569101077170934
 33
0.0
  0
SOLID
  5
185B9
330
1856E
100
AcDbEntity
  8
0
 62
    29
100
AcDbTrace
 10
5.528261221140272
 20
5.570644475136056
 30
0.0
 11
5.545238598756633
 21
5.569101077170934
 31
0.0
 12
5.537521608931015
 22
5.569101077170934
 32
0.0
 13
5.537521608931015
 23
5.569101077170934
 33
0.0
  0
SOLID
  5
185BA
330
1856E
100
AcDbEntity
  8
0
 62
    29
100
AcDbTrace
 10
5.611604711256937
 20
5.59533884257803
 30
0.0
 11
5.637842476664037
 21
5.66787854693883
 31
0.0
 12
5.622408497012802
 22
5.60768602629902
 32
0.0
 13
5.637842476664037
 23
5.660161557113212
 33
0.0
  0
SOLID
  5
185BB
330
1856E
100
AcDbEntity
  8
0
 62
    29
100
AcDbTrace
 10
5.622408497012802
 20
5.60768602629902
 30
0.0
 11
5.637842476664037
 21
5.660161557113212
 31
0.0
 12
5.630125486838419
 22
5.621576607985133
 32
0.0
 13
5.637842476664037
 23
5.652444567287595
 33
0.0
  0
SOLID
  5
185BC
330
1856E
100
AcDbEntity
  8
0
 62
    29
100
AcDbTrace
 10
5.630125486838419
 20
5.621576607985133
 30
0.0
 11
5.637842476664037
 21
5.652444567287595
 31
0.0
 12
5.633212282768667
 22
5.627750199845621
 32
0.0
 13
5.637842476664037
 23
5.644727577461978
 33
0.0
  0
SOLID
  5
185BD
330
1856E
100
AcDbEntity
  8
0
 62
    29
100
AcDbTrace
 10
5.633212282768667
 20
5.627750199845621
 30
0.0
 11
5.637842476664037
 21
5.644727577461978
 31
0.0
 12
5.636299078698915
 22
5.635467189671238
 32
0.0
 13
5.636299078698915
 23
5.635467189671238
 33
0.0
  0
SOLID
  5
185BE
330
1856E
100
AcDbEntity
  8
0
 62
    29
100
AcDbTrace
 10
5.611604711256937
 20
5.59533884257803
 30
0.0
 11
5.636299078698915
 21
5.677138934729576
 31
0.0
 12
5.637842476664037
 22
5.66787854693883
 32
0.0
 13
5.637842476664037
 23
5.66787854693883
 33
0.0
  0
SOLID
  5
185BF
330
1856E
100
AcDbEntity
  8
0
 62
    29
100
AcDbTrace
 10
5.636299078698915
 20
5.677138934729576
 30
0.0
 11
5.611604711256937
 21
5.59533884257803
 31
0.0
 12
5.633212282768667
 22
5.684855924555193
 32
0.0
 13
5.633212282768667
 23
5.684855924555193
 33
0.0
  0
SOLID
  5
185C0
330
1856E
100
AcDbEntity
  8
0
 62
    29
100
AcDbTrace
 10
5.633212282768667
 20
5.684855924555193
 30
0.0
 11
5.611604711256937
 21
5.59533884257803
 31
0.0
 12
5.628582088873297
 22
5.692572914380804
 32
0.0
 13
5.628582088873297
 23
5.692572914380804
 33
0.0
  0
SOLID
  5
185C1
330
1856E
100
AcDbEntity
  8
0
 62
    29
100
AcDbTrace
 10
5.628582088873297
 20
5.692572914380804
 30
0.0
 11
5.611604711256937
 21
5.59533884257803
 31
0.0
 12
5.623951894977928
 22
5.70183330217155
 32
0.0
 13
5.623951894977928
 23
5.70183330217155
 33
0.0
  0
SOLID
  5
185C2
330
1856E
100
AcDbEntity
  8
0
 62
    29
100
AcDbTrace
 10
5.623951894977928
 20
5.70183330217155
 30
0.0
 11
5.611604711256937
 21
5.59533884257803
 31
0.0
 12
5.619321701082554
 22
5.709550291997167
 32
0.0
 13
5.619321701082554
 23
5.709550291997167
 33
0.0
  0
SOLID
  5
185C3
330
1856E
100
AcDbEntity
  8
0
 62
    29
100
AcDbTrace
 10
5.619321701082554
 20
5.709550291997167
 30
0.0
 11
5.611604711256937
 21
5.59533884257803
 31
0.0
 12
5.611604711256937
 22
5.717267281822785
 32
0.0
 13
5.611604711256937
 23
5.59533884257803
 33
0.0
  0
SOLID
  5
185C4
330
1856E
100
AcDbEntity
  8
0
 62
    29
100
AcDbTrace
 10
5.611604711256937
 20
5.717267281822785
 30
0.0
 11
5.611604711256937
 21
5.59533884257803
 31
0.0
 12
5.611604711256937
 22
5.59533884257803
 32
0.0
 13
5.611604711256937
 23
5.59533884257803
 33
0.0
  0
SOLID
  5
185C5
330
1856E
100
AcDbEntity
  8
0
 62
    29
100
AcDbTrace
 10
2.503201209498342
 20
2.713814841692581
 30
0.0
 11
5.489676272012189
 21
5.717267281822785
 31
0.0
 12
2.649824016185068
 22
2.653622321052765
 32
0.0
 13
5.611604711256937
 23
5.59533884257803
 33
0.0
  0
SOLID
  5
185C6
330
1856E
100
AcDbEntity
  8
0
 62
    29
100
AcDbTrace
 10
2.649824016185068
 20
2.653622321052765
 30
0.0
 11
5.611604711256937
 21
5.59533884257803
 31
0.0
 12
5.611604711256937
 22
5.59533884257803
 32
0.0
 13
2.649824016185068
 23
2.653622321052765
 33
0.0
  0
SOLID
  5
185C7
330
1856E
100
AcDbEntity
  8
0
 62
    29
100
AcDbTrace
 10
2.503201209498342
 20
2.713814841692581
 30
0.0
 11
2.527895576940316
 21
2.77555076029752
 31
0.0
 12
5.489676272012189
 22
5.717267281822785
 32
0.0
 13
5.489676272012189
 23
5.717267281822785
 33
0.0
  0
SOLID
  5
185C8
330
1856E
100
AcDbEntity
  8
0
 62
    29
100
AcDbTrace
 10
2.503201209498342
 20
2.713814841692581
 30
0.0
 11
2.503201209498342
 21
2.735422413204304
 31
0.0
 12
2.527895576940316
 22
2.77555076029752
 32
0.0
 13
2.50628800542859
 23
2.743139403029921
 33
0.0
  0
SOLID
  5
185C9
330
1856E
100
AcDbEntity
  8
0
 62
    29
100
AcDbTrace
 10
2.527895576940316
 20
2.77555076029752
 30
0.0
 11
2.50628800542859
 21
2.743139403029921
 31
0.0
 12
2.521721985079821
 22
2.767833770471895
 32
0.0
 13
2.51091819932396
 23
2.75239979082066
 33
0.0
  0
SOLID
  5
185CA
330
1856E
100
AcDbEntity
  8
0
 62
    29
100
AcDbTrace
 10
2.521721985079821
 20
2.767833770471895
 30
0.0
 11
2.51091819932396
 21
2.75239979082066
 31
0.0
 12
2.515548393219329
 22
2.760116780646285
 32
0.0
 13
2.515548393219329
 23
2.760116780646285
 33
0.0
  0
SOLID
  5
185CB
330
1856E
100
AcDbEntity
  8
0
 62
    29
100
AcDbTrace
 10
2.501657811533217
 20
2.71072804576233
 30
0.0
 11
2.649824016185068
 21
2.653622321052765
 31
0.0
 12
2.501657811533217
 22
2.703011055936713
 32
0.0
 13
2.64210702635945
 23
2.645905331227147
 33
0.0
  0
SOLID
  5
185CC
330
1856E
100
AcDbEntity
  8
0
 62
    29
100
AcDbTrace
 10
2.501657811533217
 20
2.703011055936713
 30
0.0
 11
2.64210702635945
 21
2.645905331227147
 31
0.0
 12
2.503201209498342
 22
2.695294066111095
 32
0.0
 13
2.634390036533833
 23
2.639731739366652
 33
0.0
  0
SOLID
  5
185CD
330
1856E
100
AcDbEntity
  8
0
 62
    29
100
AcDbTrace
 10
2.503201209498342
 20
2.695294066111095
 30
0.0
 11
2.634390036533833
 21
2.639731739366652
 31
0.0
 12
2.50628800542859
 22
2.687577076285478
 32
0.0
 13
2.626673046708216
 23
2.635101545471286
 33
0.0
  0
SOLID
  5
185CE
330
1856E
100
AcDbEntity
  8
0
 62
    29
100
AcDbTrace
 10
2.50628800542859
 20
2.687577076285478
 30
0.0
 11
2.626673046708216
 21
2.635101545471286
 31
0.0
 12
2.509374801358834
 22
2.679860086459861
 32
0.0
 13
2.618956056882598
 23
2.632014749541035
 33
0.0
  0
SOLID
  5
185CF
330
1856E
100
AcDbEntity
  8
0
 62
    29
100
AcDbTrace
 10
2.509374801358834
 20
2.679860086459861
 30
0.0
 11
2.618956056882598
 21
2.632014749541035
 31
0.0
 12
2.517091791184451
 22
2.665969504773755
 32
0.0
 13
2.609695669091859
 23
2.628927953610791
 33
0.0
  0
SOLID
  5
185D0
330
1856E
100
AcDbEntity
  8
0
 62
    29
100
AcDbTrace
 10
2.517091791184451
 20
2.665969504773755
 30
0.0
 11
2.609695669091859
 21
2.628927953610791
 31
0.0
 12
2.527895576940316
 22
2.653622321052765
 32
0.0
 13
2.601978679266242
 23
2.627384555645662
 33
0.0
  0
SOLID
  5
185D1
330
1856E
100
AcDbEntity
  8
0
 62
    29
100
AcDbTrace
 10
2.527895576940316
 20
2.653622321052765
 30
0.0
 11
2.601978679266242
 21
2.627384555645662
 31
0.0
 12
2.540242760661303
 22
2.642818535296903
 32
0.0
 13
2.592718291475499
 23
2.62584115768054
 33
0.0
  0
SOLID
  5
185D2
330
1856E
100
AcDbEntity
  8
0
 62
    29
100
AcDbTrace
 10
2.540242760661303
 20
2.642818535296903
 30
0.0
 11
2.592718291475499
 21
2.62584115768054
 31
0.0
 12
2.554133342347416
 22
2.635101545471286
 32
0.0
 13
2.585001301649885
 23
2.627384555645662
 33
0.0
  0
SOLID
  5
185D3
330
1856E
100
AcDbEntity
  8
0
 62
    29
100
AcDbTrace
 10
2.554133342347416
 20
2.635101545471286
 30
0.0
 11
2.585001301649885
 21
2.627384555645662
 31
0.0
 12
2.561850332173033
 22
2.632014749541035
 32
0.0
 13
2.577284311824268
 23
2.627384555645662
 33
0.0
  0
SOLID
  5
185D4
330
1856E
100
AcDbEntity
  8
0
 62
    29
100
AcDbTrace
 10
2.561850332173033
 20
2.632014749541035
 30
0.0
 11
2.577284311824268
 21
2.627384555645662
 31
0.0
 12
2.569567321998651
 22
2.628927953610791
 32
0.0
 13
2.569567321998651
 23
2.628927953610791
 33
0.0
  0
SOLID
  5
185D5
330
1856E
100
AcDbEntity
  8
0
 62
    29
100
AcDbTrace
 10
2.649824016185068
 20
2.653622321052765
 30
0.0
 11
2.503201209498342
 21
2.713814841692581
 31
0.0
 12
2.503201209498342
 22
2.713814841692581
 32
0.0
 13
2.503201209498342
 23
2.713814841692581
 33
0.0
  0
SOLID
  5
185D6
330
1856E
100
AcDbEntity
  8
0
 62
    29
100
AcDbTrace
 10
2.65136741415019
 20
8.696025354511007
 30
0.0
 11
2.676061781592167
 21
8.635832833871198
 31
0.0
 12
2.503201209498342
 22
8.635832833871198
 32
0.0
 13
2.676061781592167
 23
2.713814841692581
 33
0.0
  0
SOLID
  5
185D7
330
1856E
100
AcDbEntity
  8
0
 62
    29
100
AcDbTrace
 10
2.503201209498342
 20
8.635832833871198
 30
0.0
 11
2.676061781592167
 21
2.713814841692581
 31
0.0
 12
2.503201209498342
 22
2.713814841692581
 32
0.0
 13
2.503201209498342
 23
2.713814841692581
 33
0.0
  0
SOLID
  5
185D8
330
1856E
100
AcDbEntity
  8
0
 62
    29
100
AcDbTrace
 10
2.65136741415019
 20
8.696025354511007
 30
0.0
 11
2.660627801940933
 21
8.688308364685397
 31
0.0
 12
2.676061781592167
 22
8.635832833871198
 32
0.0
 13
2.665257995836302
 23
8.68059137485978
 33
0.0
  0
SOLID
  5
185D9
330
1856E
100
AcDbEntity
  8
0
 62
    29
100
AcDbTrace
 10
2.676061781592167
 20
8.635832833871198
 30
0.0
 11
2.665257995836302
 21
8.68059137485978
 31
0.0
 12
2.676061781592167
 22
8.646636619627059
 32
0.0
 13
2.66834479176655
 23
8.672874385034162
 33
0.0
  0
SOLID
  5
185DA
330
1856E
100
AcDbEntity
  8
0
 62
    29
100
AcDbTrace
 10
2.676061781592167
 20
8.646636619627059
 30
0.0
 11
2.66834479176655
 21
8.672874385034162
 31
0.0
 12
2.674518383627042
 22
8.655897007417799
 32
0.0
 13
2.671431587696794
 23
8.665157395208545
 33
0.0
  0
SOLID
  5
185DB
330
1856E
100
AcDbEntity
  8
0
 62
    29
100
AcDbTrace
 10
2.674518383627042
 20
8.655897007417799
 30
0.0
 11
2.671431587696794
 21
8.665157395208545
 31
0.0
 12
2.671431587696794
 22
8.665157395208545
 32
0.0
 13
2.674518383627042
 23
8.655897007417799
 33
0.0
  0
SOLID
  5
185DC
330
1856E
100
AcDbEntity
  8
0
 62
    29
100
AcDbTrace
 10
2.654454210080437
 20
8.694481956545885
 30
0.0
 11
2.605065475196489
 21
8.720719721952988
 31
0.0
 12
2.649824016185068
 22
8.700655548406381
 32
0.0
 13
2.620499454847724
 23
8.717632926022737
 33
0.0
  0
SOLID
  5
185DD
330
1856E
100
AcDbEntity
  8
0
 62
    29
100
AcDbTrace
 10
2.649824016185068
 20
8.700655548406381
 30
0.0
 11
2.620499454847724
 21
8.717632926022737
 31
0.0
 12
2.635933434498959
 22
8.70991593619712
 32
0.0
 13
2.635933434498959
 23
8.70991593619712
 33
0.0
  0
SOLID
  5
185DE
330
1856E
100
AcDbEntity
  8
0
 62
    29
100
AcDbTrace
 10
2.589631495545255
 20
8.72226311991811
 30
0.0
 11
2.65136741415019
 21
8.696025354511007
 31
0.0
 12
2.572654117928898
 22
8.720719721952988
 32
0.0
 13
2.503201209498342
 23
8.635832833871198
 33
0.0
  0
SOLID
  5
185DF
330
1856E
100
AcDbEntity
  8
0
 62
    29
100
AcDbTrace
 10
2.572654117928898
 20
8.720719721952988
 30
0.0
 11
2.503201209498342
 21
8.635832833871198
 31
0.0
 12
2.55722013827766
 22
8.717632926022737
 32
0.0
 13
2.503201209498342
 23
8.646636619627059
 33
0.0
  0
SOLID
  5
185E0
330
1856E
100
AcDbEntity
  8
0
 62
    29
100
AcDbTrace
 10
2.55722013827766
 20
8.717632926022737
 30
0.0
 11
2.503201209498342
 21
8.646636619627059
 31
0.0
 12
2.549503148452046
 22
8.714546130092493
 32
0.0
 13
2.504744607463464
 23
8.655897007417799
 33
0.0
  0
SOLID
  5
185E1
330
1856E
100
AcDbEntity
  8
0
 62
    29
100
AcDbTrace
 10
2.549503148452046
 20
8.714546130092493
 30
0.0
 11
2.504744607463464
 21
8.655897007417799
 31
0.0
 12
2.543329556591551
 22
8.70991593619712
 32
0.0
 13
2.50628800542859
 23
8.665157395208545
 33
0.0
  0
SOLID
  5
185E2
330
1856E
100
AcDbEntity
  8
0
 62
    29
100
AcDbTrace
 10
2.543329556591551
 20
8.70991593619712
 30
0.0
 11
2.50628800542859
 21
8.665157395208545
 31
0.0
 12
2.535612566765934
 22
8.705285742301754
 32
0.0
 13
2.509374801358834
 23
8.672874385034162
 33
0.0
  0
SOLID
  5
185E3
330
1856E
100
AcDbEntity
  8
0
 62
    29
100
AcDbTrace
 10
2.535612566765934
 20
8.705285742301754
 30
0.0
 11
2.509374801358834
 21
8.672874385034162
 31
0.0
 12
2.529438974905442
 22
8.700655548406381
 32
0.0
 13
2.514004995254204
 23
8.68059137485978
 33
0.0
  0
SOLID
  5
185E4
330
1856E
100
AcDbEntity
  8
0
 62
    29
100
AcDbTrace
 10
2.529438974905442
 20
8.700655548406381
 30
0.0
 11
2.514004995254204
 21
8.68059137485978
 31
0.0
 12
2.523265383044947
 22
8.694481956545885
 32
0.0
 13
2.518635189149577
 23
8.688308364685397
 33
0.0
  0
SOLID
  5
185E5
330
1856E
100
AcDbEntity
  8
0
 62
    29
100
AcDbTrace
 10
2.523265383044947
 20
8.694481956545885
 30
0.0
 11
2.518635189149577
 21
8.688308364685397
 31
0.0
 12
2.518635189149577
 22
8.688308364685397
 32
0.0
 13
2.523265383044947
 23
8.694481956545885
 33
0.0
  0
SOLID
  5
185E6
330
1856E
100
AcDbEntity
  8
0
 62
    29
100
AcDbTrace
 10
2.605065475196489
 20
8.720719721952988
 30
0.0
 11
2.65136741415019
 21
8.696025354511007
 31
0.0
 12
2.589631495545255
 22
8.72226311991811
 32
0.0
 13
2.589631495545255
 23
8.72226311991811
 33
0.0
  0
SOLID
  5
185E7
330
1856E
100
AcDbEntity
  8
0
 62
    29
100
AcDbTrace
 10
2.605065475196489
 20
8.720719721952988
 30
0.0
 11
2.660627801940933
 21
8.688308364685397
 31
0.0
 12
2.65136741415019
 22
8.696025354511007
 32
0.0
 13
2.65136741415019
 23
8.696025354511007
 33
0.0
  0
SOLID
  5
185E8
330
1856E
100
AcDbEntity
  8
0
 62
    29
100
AcDbTrace
 10
2.605065475196489
 20
8.720719721952988
 30
0.0
 11
2.654454210080437
 21
8.694481956545885
 31
0.0
 12
2.660627801940933
 22
8.688308364685397
 32
0.0
 13
2.660627801940933
 23
8.688308364685397
 33
0.0
  0
TEXT
  5
185E9
330
1856E
100
AcDbEntity
  8
RAHMEN025
100
AcDbText
 10
10.58651758814535
 20
10.69333983401643
 30
0.0
 40
1.448241032582157
  1
DHD
  7
ISOCP
100
AcDbText
  0
TEXT
  5
185EA
330
1856E
100
AcDbEntity
  8
RAHMEN025
100
AcDbText
 10
10.58651758814535
 20
8.825220068831612
 30
0.0
 40
1.448241032582157
  1
Deubner Hoffmann Digital GmbH
  7
ISOCP
100
AcDbText
  0
TEXT
  5
185EB
330
1856E
100
AcDbEntity
  8
RAHMEN025
100
AcDbText
 10
10.58651758814535
 20
6.900366638810396
 30
0.0
 40
1.448241032582157
  1
Haferkornstrasse 5
  7
ISOCP
100
AcDbText
  0
TEXT
  5
185EC
330
1856E
100
AcDbEntity
  8
RAHMEN025
100
AcDbText
 10
10.58651758814535
 20
4.810152651797494
 30
0.0
 40
1.448241032582157
  1
04129 Leipzig
  7
ISOCP
100
AcDbText
  0
TEXT
  5
185ED
330
1856E
100
AcDbEntity
  8
RAHMEN025
100
AcDbText
 10
10.58651758814535
 20
2.359874590047247
 30
0.0
 40
1.448241032582157
  1
Phone: +49  341  5897020
  7
ISOCP
100
AcDbText
  0
TEXT
  5
185EE
330
1856E
100
AcDbEntity
  8
RAHMEN025
100
AcDbText
 10
10.58651758814535
 20
0.4350211600260323
 30
0.0
 40
1.448241032582157
  1
Fax:  +49  341  5897022
  7
ISOCP
100
AcDbText
  0
ENDBLK
  5
185F0
330
1856E
100
AcDbEntity
  8
0
100
AcDbBlockEnd
  0
BLOCK
  5
274CE
330
274C4
100
AcDbEntity
  8
0
100
AcDbBlockBegin
  2
*D1
 70
     1
 10
0.0
 20
0.0
 30
0.0
  3
*D1
  1

  0
LINE
  5
2D843
330
274C4
100
AcDbEntity
  8
Bemassung
 62
     0
100
AcDbLine
 10
120.50279018018
 20
234.7501550567406
 30
0.0
 11
120.50279018018
 21
240.9764231592293
 31
0.0
  0
LINE
  5
2D844
330
274C4
100
AcDbEntity
  8
Bemassung
 62
     0
100
AcDbLine
 10
280.0026997801799
 20
234.7501550567406
 30
0.0
 11
280.0026997801799
 21
240.9764231592293
 31
0.0
  0
LINE
  5
2D845
330
274C4
100
AcDbEntity
  8
Bemassung
 62
     0
100
AcDbLine
 10
123.00279018018
 20
239.7264231592293
 30
0.0
 11
277.5026997801799
 21
239.7264231592293
 31
0.0
  0
SOLID
  5
2D846
330
274C4
100
AcDbEntity
  8
Bemassung
 62
     0
100
AcDbTrace
 10
123.00279018018
 20
240.143089825896
 30
0.0
 11
123.00279018018
 21
239.3097564925626
 31
0.0
 12
120.50279018018
 22
239.7264231592293
 32
0.0
 13
120.50279018018
 23
239.7264231592293
 33
0.0
  0
SOLID
  5
2D847
330
274C4
100
AcDbEntity
  8
Bemassung
 62
     0
100
AcDbTrace
 10
277.5026997801799
 20
240.143089825896
 30
0.0
 11
277.5026997801799
 21
239.3097564925626
 31
0.0
 12
280.0026997801799
 22
239.7264231592293
 32
0.0
 13
280.0026997801799
 23
239.7264231592293
 33
0.0
  0
MTEXT
  5
2D848
330
274C4
100
AcDbEntity
  8
Bemassung
 62
     0
100
AcDbMText
 10
200.2527449801799
 20
241.8097564925626
 30
0.0
 40
2.5
 41
0.0
 71
     5
 72
     1
  1
\A1;159,5
 73
     1
 44
1.0
1001
ACAD
1000
MTEXTBEGIN
1070
    73
1070
     1
1070
    44
1040
1.0
1070
    74
1070
     0
1000
MTEXTEND
  0
POINT
  5
2D849
330
274C4
100
AcDbEntity
  8
DEFPOINTS
 62
     0
100
AcDbPoint
 10
120.50279018018
 20
234.1251550567406
 30
0.0
  0
POINT
  5
2D84A
330
274C4
100
AcDbEntity
  8
DEFPOINTS
 62
     0
100
AcDbPoint
 10
280.0026997801799
 20
234.1251550567406
 30
0.0
  0
POINT
  5
2D84B
330
274C4
100
AcDbEntity
  8
DEFPOINTS
 62
     0
100
AcDbPoint
 10
280.0026997801799
 20
239.7264231592293
 30
0.0
  0
ENDBLK
  5
274CF
330
274C4
100
AcDbEntity
  8
0
100
AcDbBlockEnd
  0
BLOCK
  5
274DB
330
274D1
100
AcDbEntity
  8
0
100
AcDbBlockBegin
  2
*D2
 70
     1
 10
0.0
 20
0.0
 30
0.0
  3
*D2
  1

  0
LINE
  5
2D84C
330
274D1
100
AcDbEntity
  8
Bemassung
 62
     0
100
AcDbLine
 10
119.87779018018
 20
234.1251550567406
 30
0.0
 11
112.4683101508513
 21
234.1251550567406
 31
0.0
  0
LINE
  5
2D84D
330
274D1
100
AcDbEntity
  8
Bemassung
 62
     0
100
AcDbLine
 10
119.87779018018
 20
106.1251570567406
 30
0.0
 11
112.4683101508512
 21
106.1251570567406
 31
0.0
  0
LINE
  5
2D84E
330
274D1
100
AcDbEntity
  8
Bemassung
 62
     0
100
AcDbLine
 10
113.7183101508513
 20
231.6251550567406
 30
0.0
 11
113.7183101508512
 21
108.6251570567406
 31
0.0
  0
SOLID
  5
2D84F
330
274D1
100
AcDbEntity
  8
Bemassung
 62
     0
100
AcDbTrace
 10
113.3016434841846
 20
231.6251550567406
 30
0.0
 11
114.1349768175179
 21
231.6251550567406
 31
0.0
 12
113.7183101508513
 22
234.1251550567406
 32
0.0
 13
113.7183101508513
 23
234.1251550567406
 33
0.0
  0
SOLID
  5
2D850
330
274D1
100
AcDbEntity
  8
Bemassung
 62
     0
100
AcDbTrace
 10
113.3016434841846
 20
108.6251570567406
 30
0.0
 11
114.1349768175179
 21
108.6251570567406
 31
0.0
 12
113.7183101508512
 22
106.1251570567406
 32
0.0
 13
113.7183101508512
 23
106.1251570567406
 33
0.0
  0
MTEXT
  5
2D851
330
274D1
100
AcDbEntity
  8
Bemassung
 62
     0
100
AcDbMText
 10
111.8433101508512
 20
170.1251560567406
 30
0.0
 40
2.5
 41
0.0
 71
     5
 72
     1
  1
\A1;128
 11
0.0000000000000001
 21
1.0
 31
0.0
 73
     1
 44
1.0
1001
ACAD
1000
MTEXTBEGIN
1070
    73
1070
     1
1070
    44
1040
1.0
1070
    74
1070
     0
1000
MTEXTEND
  0
POINT
  5
2D852
330
274D1
100
AcDbEntity
  8
DEFPOINTS
 62
     0
100
AcDbPoint
 10
120.50279018018
 20
234.1251550567406
 30
0.0
  0
POINT
  5
2D853
330
274D1
100
AcDbEntity
  8
DEFPOINTS
 62
     0
100
AcDbPoint
 10
120.50279018018
 20
106.1251570567406
 30
0.0
  0
POINT
  5
2D854
330
274D1
100
AcDbEntity
  8
DEFPOINTS
 62
     0
100
AcDbPoint
 10
113.7183101508512
 20
106.1251570567406
 30
0.0
  0
ENDBLK
  5
274DC
330
274D1
100
AcDbEntity
  8
0
100
AcDbBlockEnd
  0
BLOCK
  5
2D745
330
2D735
100
AcDbEntity
  8
0
100
AcDbBlockBegin
  2
A$C1BF1606D
 70
     0
 10
0.0
 20
0.0
 30
0.0
  3
A$C1BF1606D
  1

  0
CIRCLE
  5
2D736
330
2D735
100
AcDbEntity
  8
BLECH
100
AcDbCircle
 10
2.499999347997345
 20
2.500000075356297
 30
0.0
 40
2.5
  0
LINE
  5
2D737
330
2D735
100
AcDbEntity
  8
BLECH
100
AcDbLine
 10
0.997129614991195
 20
4.497844555193069
 30
0.0
 11
2.287867313641243
 21
3.207106856542964
 31
0.0
  0
LINE
  5
2D738
330
2D735
100
AcDbEntity
  8
BLECH
100
AcDbLine
 10
0.5021548681605737
 20
4.002869808362447
 30
0.0
 11
1.792892566810735
 21
2.712132109712342
 31
0.0
  0
LINE
  5
2D739
330
2D735
100
AcDbEntity
  8
BLECH
100
AcDbLine
 10
1.07203392164564
 20
1.567009395835214
 30
0.0
 11
1.792892566810735
 21
2.287868041000422
 31
0.0
  0
LINE
  5
2D73A
330
2D735
100
AcDbEntity
  8
BLECH
100
AcDbLine
 10
1.567008668476205
 20
1.072034649004649
 30
0.0
 11
2.287867313641413
 21
1.792893294169743
 31
0.0
  0
LINE
  5
2D73B
330
2D735
100
AcDbEntity
  8
BLECH
100
AcDbLine
 10
1.567008668476205
 20
1.072034649004592
 30
0.0
 11
1.07203392164564
 21
1.567009395835214
 31
0.0
  0
LINE
  5
2D73C
330
2D735
100
AcDbEntity
  8
BLECH
100
AcDbLine
 10
3.927964774348993
 20
3.432990754877437
 30
0.0
 11
3.432990027518371
 21
3.927965501708001
 31
0.0
  0
LINE
  5
2D73D
330
2D735
100
AcDbEntity
  8
BLECH
100
AcDbLine
 10
2.71213138235322
 20
3.207106856542964
 30
0.0
 11
3.432990027518371
 21
3.927965501708001
 31
0.0
  0
LINE
  5
2D73E
330
2D735
100
AcDbEntity
  8
BLECH
100
AcDbLine
 10
3.207106129183898
 20
2.287868041000308
 30
0.0
 11
4.49784382783406
 21
0.9971303423502035
 31
0.0
  0
LINE
  5
2D73F
330
2D735
100
AcDbEntity
  8
BLECH
100
AcDbLine
 10
2.712131382353334
 20
1.792893294169687
 30
0.0
 11
4.002869081003495
 21
0.5021555955195823
 31
0.0
  0
LINE
  5
2D740
330
2D735
100
AcDbEntity
  8
BLECH
100
AcDbLine
 10
3.207106129183898
 20
2.712132109712229
 30
0.0
 11
3.927964774348993
 21
3.432990754877437
 31
0.0
  0
LINE
  5
2D741
330
2D735
100
AcDbEntity
  8
BLECH
100
AcDbLine
 10
1.792892566810735
 20
2.287868041000422
 30
0.0
 11
1.792892566810735
 21
2.712132109712342
 31
0.0
  0
LINE
  5
2D742
330
2D735
100
AcDbEntity
  8
BLECH
100
AcDbLine
 10
2.287867313641243
 20
3.207106856542964
 30
0.0
 11
2.71213138235322
 21
3.207106856542964
 31
0.0
  0
LINE
  5
2D743
330
2D735
100
AcDbEntity
  8
BLECH
100
AcDbLine
 10
3.207106129183898
 20
2.712132109712229
 30
0.0
 11
3.207106129183898
 21
2.287868041000308
 31
0.0
  0
LINE
  5
2D744
330
2D735
100
AcDbEntity
  8
BLECH
100
AcDbLine
 10
2.287867313641413
 20
1.792893294169743
 30
0.0
 11
2.712131382353334
 21
1.792893294169687
 31
0.0
  0
ENDBLK
  5
2D746
330
2D735
100
AcDbEntity
  8
0
100
AcDbBlockEnd
  0
ENDSEC
  0
SECTION
  2
ENTITIES
  0
LINE
  5
18531
330
18
100
AcDbEntity
  8
RAHMEN07
100
AcDbLine
 10
227.8
 20
22.0
 30
0.0
 11
227.8
 21
5.0
 31
0.0
  0
LINE
  5
1853B
330
18
100
AcDbEntity
  8
RAHMEN07
100
AcDbLine
 10
227.8
 20
22.0
 30
0.0
 11
415.0
 21
22.0
 31
0.0
  0
LINE
  5
1853D
330
18
100
AcDbEntity
  8
RAHMEN07
100
AcDbLine
 10
227.8
 20
5.0
 30
0.0
 11
415.0
 21
5.0
 31
0.0
  0
LINE
  5
18549
330
18
100
AcDbEntity
  8
RAHMEN025
100
AcDbLine
 10
282.3999999999998
 20
22.0
 30
0.0
 11
282.3999999999998
 21
5.0
 31
0.0
  0
LINE
  5
18553
330
18
100
AcDbEntity
  8
RAHMEN025
100
AcDbLine
 10
326.6000000000001
 20
22.0
 30
0.0
 11
326.6000000000001
 21
5.0
 31
0.0
  0
TEXT
  5
1856D
330
18
100
AcDbEntity
  8
RAHMEN025
100
AcDbText
 10
284.1719162866018
 20
17.5625
 30
0.0
 40
2.5
  1
Maßstab
  7
ISOCP
100
AcDbText
  0
INSERT
  5
185FF
330
18
100
AcDbEntity
  8
RAHMEN05
100
AcDbBlockReference
  2
A$C4EFE16F9
 10
230.6712335244649
 20
6.059781767167123
 30
0.0
 41
1.199999999999999
 42
1.199999999999999
 43
1.199999999999999
  0
TEXT
  5
18600
330
18
100
AcDbEntity
  8
RAHMEN025
100
AcDbText
 10
335.4160443883504
 20
14.04955403426226
 30
0.0
 40
5.809351702482672
  1
Layout RM420-027
  7
TASTENTEXT
100
AcDbText
  0
TEXT
  5
25437
330
18
100
AcDbEntity
  8
RAHMEN025
100
AcDbText
 10
349.4698669340126
 20
8.094828887211917
 30
0.0
 40
3.0
  1
Tackback Panel
  7
TASTENTEXT
100
AcDbText
  0
TEXT
  5
26613
330
18
100
AcDbEntity
  8
RAHMEN025
100
AcDbText
 10
300.1726170171526
 20
17.39077894527963
 30
0.0
 40
2.5
  1
1:1 (DIN A3)
  7
ISOCP
100
AcDbText
  0
LINE
  5
27485
330
18
100
AcDbEntity
  8
RAHMEN025
100
AcDbLine
 10
420.0
 20
297.0
 30
0.0
 11
0.0
 21
297.0
 31
0.0
  0
LINE
  5
27486
330
18
100
AcDbEntity
  8
RAHMEN07
100
AcDbLine
 10
415.0
 20
292.0
 30
0.0
 11
17.80000000000027
 21
292.0
 31
0.0
  0
LINE
  5
27487
330
18
100
AcDbEntity
  8
RAHMEN07
100
AcDbLine
 10
17.80000000000027
 20
5.0
 30
0.0
 11
415.0
 21
5.0
 31
0.0
  0
LINE
  5
27488
330
18
100
AcDbEntity
  8
RAHMEN025
100
AcDbLine
 10
0.0
 20
0.0
 30
0.0
 11
420.0
 21
0.0
 31
0.0
  0
LINE
  5
27489
330
18
100
AcDbEntity
  8
RAHMEN025
100
AcDbLine
 10
0.0
 20
297.0
 30
0.0
 11
0.0
 21
0.0
 31
0.0
  0
LINE
  5
2748A
330
18
100
AcDbEntity
  8
RAHMEN07
100
AcDbLine
 10
17.80000000000027
 20
5.0
 30
0.0
 11
17.80000000000027
 21
292.0
 31
0.0
  0
LINE
  5
2748B
330
18
100
AcDbEntity
  8
RAHMEN025
100
AcDbLine
 10
0.0
 20
0.0
 30
0.0
 11
210.0
 21
0.0
 31
0.0
  0
LINE
  5
2748C
330
18
100
AcDbEntity
  8
RAHMEN07
100
AcDbLine
 10
415.0
 20
5.0
 30
0.0
 11
415.0
 21
292.0
 31
0.0
  0
LINE
  5
2748D
330
18
100
AcDbEntity
  8
RAHMEN025
100
AcDbLine
 10
420.0
 20
0.0
 30
0.0
 11
420.0
 21
297.0
 31
0.0
  0
LINE
  5
27492
330
18
100
AcDbEntity
  8
RAHMEN07
100
AcDbLine
 10
227.8000000000003
 20
5.0
 30
0.0
 11
415.0
 21
5.0
 31
0.0
  0
DIMENSION
  5
274C3
330
18
100
AcDbEntity
  8
Bemassung
100
AcDbDimension
  2
*D1
 10
280.0026997801799
 20
239.7264231592293
 30
0.0
 11
200.2527449801799
 21
241.8097564925626
 31
0.0
 70
    32
  1
159,5
 71
     5
 42
-1.0
  3
STANDARD
100
AcDbAlignedDimension
 13
120.50279018018
 23
234.1251550567406
 33
0.0
 14
280.0026997801799
 24
234.1251550567406
 34
0.0
100
AcDbRotatedDimension
1001
ACAD
1000
DSTYLE
1002
{
1070
   270
1070
     8
1070
   270
1070
     8
1070
   270
1070
     8
1070
   270
1070
     8
1070
   270
1070
     8
1070
    41
1040
2.5
1070
    42
1040
0.625
1070
    43
1040
3.75
1070
    44
1040
1.25
1070
    73
1070
     0
1070
    74
1070
     0
1070
    77
1070
     1
1070
    78
1070
     8
1070
   140
1040
2.5
1070
   141
1040
2.5
1070
   143
1040
0.0394
1070
   147
1040
0.625
1070
   171
1070
     4
1070
   172
1070
     1
1070
   273
1070
     8
1070
   274
1070
     4
1070
   277
1070
     6
1002
}
  0
DIMENSION
  5
274D0
330
18
100
AcDbEntity
  8
Bemassung
100
AcDbDimension
  2
*D2
 10
113.7183101508512
 20
106.1251570567406
 30
0.0
 11
111.8433101508512
 21
170.1251560567406
 31
0.0
 70
    32
 71
     5
 42
-1.0
  3
STANDARD
100
AcDbAlignedDimension
 13
120.50279018018
 23
234.1251550567406
 33
0.0
 14
120.50279018018
 24
106.1251570567406
 34
0.0
 50
90.0
100
AcDbRotatedDimension
1001
ACAD
1000
DSTYLE
1002
{
1070
   270
1070
     8
1070
   270
1070
     8
1070
   270
1070
     8
1070
   270
1070
     8
1070
   270
1070
     8
1070
    41
1040
2.5
1070
    42
1040
0.625
1070
    43
1040
3.75
1070
    44
1040
1.25
1070
    73
1070
     0
1070
    74
1070
     0
1070
    77
1070
     1
1070
    78
1070
     8
1070
   140
1040
2.5
1070
   141
1040
2.5
1070
   143
1040
0.0394
1070
   147
1040
0.625
1070
   171
1070
     4
1070
   172
1070
     1
1070
   273
1070
     8
1070
   274
1070
     4
1070
   277
1070
     6
1002
}
  0
LWPOLYLINE
  5
2A63B
330
18
100
AcDbEntity
  8
EBENE_1
  6
Continuous
100
AcDbPolyline
 90
       15
 70
     1
 43
0.07620033441
 10
129.4876351327378
 20
219.2527049115514
 10
129.915830211899
 20
219.2527049115514
 10
130.1330011649675
 20
219.2610107480021
 10
130.3005403002237
 20
219.294132493359
 10
130.4184476176674
 20
219.3644146017965
 10
130.4984325686864
 20
219.4437391499173
 10
130.5494359925182
 20
219.5643896793998
 10
130.5673430711046
 20
219.7181111540162
 10
130.5501217955279
 20
219.8497853318767
 10
130.5039443928754
 20
219.9525287827729
 10
130.4370404992634
 20
220.0346219430439
 10
130.3460827000893
 20
220.1097808728836
 10
130.2302327916747
 20
220.1518180573664
 10
130.1019368286397
 20
220.164924514885
 10
129.4876351327378
 20
220.164924514885
  0
LWPOLYLINE
  5
2A63C
330
18
100
AcDbEntity
  8
EBENE_1
  6
Continuous
100
AcDbPolyline
 90
       21
 70
     1
 43
0.07620033441
 10
129.1526330625599
 20
218.9735068862732
 10
129.1526330625599
 20
220.4069113768597
 10
130.0833439470437
 20
220.4069113768597
 10
130.3253308090184
 20
220.3917475103121
 10
130.5301065076895
 20
220.3352068621799
 10
130.6976456429456
 20
220.2207285597846
 10
130.8086441300695
 20
220.0897147848223
 10
130.8782912357203
 20
219.9173750284983
 10
130.9024467417282
 20
219.6995182724202
 10
130.8955633115199
 20
219.574727524768
 10
130.8720936085216
 20
219.4581918133437
 10
130.8279482147867
 20
219.3458217202004
 10
130.7610951213977
 20
219.2410208602752
 10
130.6776557552188
 20
219.1528062731399
 10
130.5859359527006
 20
219.0852165765182
 10
130.5239088804908
 20
219.0486658161129
 10
130.4494611537723
 20
219.0162552738772
 10
130.3626435727678
 20
218.9921251679807
 10
130.2585285158523
 20
218.9872991468014
 10
130.1378525862583
 20
218.9783329074525
 10
130.0089470205481
 20
218.9735068862732
  0
LWPOLYLINE
  5
2A63D
330
18
100
AcDbEntity
  8
EBENE_1
  6
Continuous
100
AcDbPolyline
 90
       12
 70
     1
 43
0.07620033441
 10
131.8518521082539
 20
218.9735068862732
 10
131.8518521082539
 20
220.4069113768597
 10
132.1868541784317
 20
220.4069113768597
 10
132.1868541784317
 20
219.8670066074533
 10
133.2293509534949
 20
219.8670066074533
 10
133.2293509534949
 20
220.4069113768597
 10
133.5830475057147
 20
220.4069113768597
 10
133.5830475057147
 20
218.9735068862732
 10
133.2293509534949
 20
218.9735068862732
 10
133.2293509534949
 20
219.5878085821751
 10
132.1868541784317
 20
219.5878085821751
 10
132.1868541784317
 20
218.9735068862732
  0
LWPOLYLINE
  5
2A63E
330
18
100
AcDbEntity
  8
EBENE_1
  6
Continuous
100
AcDbPolyline
 90
       15
 70
     1
 43
0.07620033441
 10
134.9605717510672
 20
219.2527049115514
 10
135.4073597118245
 20
219.2527049115514
 10
135.6203904467234
 20
219.2610107480021
 10
135.7837893638099
 20
219.294132493359
 10
135.9099771175928
 20
219.3644146017965
 10
135.9899366685004
 20
219.4437391499173
 10
136.0409400923322
 20
219.5643896793998
 10
136.05887257103
 20
219.7181111540162
 10
136.0409400923322
 20
219.8497853318767
 10
135.9899366685004
 20
219.9525287827729
 10
135.9099771175928
 20
220.0346219430439
 10
135.8230579361425
 20
220.1097808728836
 10
135.7113736460089
 20
220.1518180573664
 10
135.5748734469691
 20
220.164924514885
 10
134.9605717510672
 20
220.164924514885
  0
LWPOLYLINE
  5
2A63F
330
18
100
AcDbEntity
  8
EBENE_1
  6
Continuous
100
AcDbPolyline
 90
       21
 70
     1
 43
0.07620033441
 10
134.6440609620395
 20
218.9735068862732
 10
134.6440609620395
 20
220.4069113768597
 10
135.5562551652616
 20
220.4069113768597
 10
135.8030934485271
 20
220.3917475103121
 10
136.0168099864357
 20
220.3352068621799
 10
136.1891751428711
 20
220.2207285597846
 10
136.300173629995
 20
220.0897147848223
 10
136.3698207356457
 20
219.9173750284983
 10
136.3939762416537
 20
219.6995182724202
 10
136.3870674113339
 20
219.574727524768
 10
136.3636231084471
 20
219.4581918133437
 10
136.3194777147122
 20
219.3458217202004
 10
136.2443441849839
 20
219.2410208602752
 10
136.1650450369746
 20
219.1528062731399
 10
136.077465452626
 20
219.0852165765182
 10
136.0023573230092
 20
219.0486658161129
 10
135.9230581749999
 20
219.0162552738772
 10
135.8354531905399
 20
218.9921251679807
 10
135.7355037519054
 20
218.9872991468014
 10
135.6189934405925
 20
218.9783329074525
 10
135.4817566383201
 20
218.9735068862732
  0
LWPOLYLINE
  5
2A641
330
18
100
AcDbEntity
  8
EBENE_1
  6
Continuous
100
AcDbPolyline
 90
        3
 70
     1
 43
0.3881137032616
 10
131.5817473228819
 20
228.3147534809263
 10
135.6445713528428
 20
225.0636408132121
 10
131.5817473228819
 20
221.845116488514
  0
LWPOLYLINE
  5
2A661
330
18
100
AcDbEntity
  8
EBENE_1
  6
Continuous
100
AcDbPolyline
 90
       16
 70
     1
 43
0.07620033441
 10
246.8873567488613
 20
221.8239327955481
 10
246.1121453467969
 20
221.8239327955481
 10
246.1121453467969
 20
221.4117143865014
 10
246.8873567488613
 20
221.4117143865014
 10
246.9407223830598
 20
221.4145845990975
 10
246.9815149620806
 20
221.4231952368859
 10
247.0097598860352
 20
221.4375208997549
 10
247.0280987665166
 20
221.4591871948388
 10
247.0390970147831
 20
221.4897943291602
 10
247.0427546308347
 20
221.5293169026075
 10
247.0427546308347
 20
221.7077272855728
 10
247.0390970147831
 20
221.746437055453
 10
247.0280987665166
 20
221.7765615876565
 10
247.0097598860352
 20
221.7981262822945
 10
246.9815149620806
 20
221.8124519451636
 10
246.9407223830598
 20
221.8210625829519
  0
LWPOLYLINE
  5
2A662
330
18
100
AcDbEntity
  8
EBENE_1
  6
Continuous
100
AcDbPolyline
 90
       22
 70
     1
 43
0.07620033441
 10
245.7731554591183
 20
220.5993172212449
 10
245.7731554591183
 20
222.0802199202803
 10
247.0398590181272
 20
222.0802199202803
 10
247.1466410867471
 20
222.0727014872852
 10
247.2318584607289
 20
222.0501207881884
 10
247.2956635407415
 20
222.012325422321
 10
247.3394787330273
 20
221.957689782549
 10
247.3657932485102
 20
221.8846390619614
 10
247.3745562869674
 20
221.7933256612267
 10
247.3745562869674
 20
221.4452171335303
 10
247.3657932485102
 20
221.3543355346907
 10
247.3394787330273
 20
221.281665815775
 10
247.2956635407415
 20
221.2271317764489
 10
247.2318584607289
 20
221.1888792085751
 10
247.1466410867471
 20
221.1659683080291
 10
247.0398590181272
 20
221.1583228744767
 10
246.8466403701749
 20
221.1583228744767
 10
247.5299541689409
 20
220.5993172212449
 10
247.0355409991773
 20
220.5993172212449
 10
246.4387399800781
 20
221.1583228744767
 10
246.1121453467969
 20
221.1583228744767
 10
246.1121453467969
 20
220.5993172212449
  0
LWPOLYLINE
  5
2A663
330
18
100
AcDbEntity
  8
EBENE_1
  6
Continuous
100
AcDbPolyline
 90
       37
 70
     1
 43
0.07620033441
 10
248.0708495426945
 20
220.5993172212449
 10
248.0708495426945
 20
222.0802199202803
 10
248.3495649658548
 20
222.0802199202803
 10
249.0472552277128
 20
221.1851199920776
 10
249.7295530220199
 20
222.0802199202803
 10
250.0054744329185
 20
222.0802199202803
 10
250.0054744329185
 20
220.5993172212449
 10
249.6860680311832
 20
220.5993172212449
 10
249.6860680311832
 20
221.5140260355025
 10
249.6864236327438
 20
221.5333301202198
 10
249.687515837537
 20
221.5558346189822
 10
249.6894716461202
 20
221.5815141316784
 10
249.6920878576016
 20
221.60970825541
 10
249.695186671201
 20
221.6399343880593
 10
249.6984632855806
 20
221.6723195301836
 10
249.6806324073287
 20
221.6363529723421
 10
249.6644017360993
 20
221.6049076343422
 10
249.6497712718926
 20
221.5781359168528
 10
249.6362330124791
 20
221.554691613966
 10
249.6235583568556
 20
221.5342699243441
 10
249.6119759060253
 20
221.5169216482101
 10
249.0558658655011
 20
220.7772196019808
 10
248.986955363083
 20
220.7772196019808
 10
248.429448316428
 20
221.5198172609177
 10
248.4098394303731
 20
221.5474017819742
 10
248.3922625532358
 20
221.573817897903
 10
248.376870085685
 20
221.599116408927
 10
248.3632810260486
 20
221.6234751158268
 10
248.3513429736577
 20
221.6475036212774
 10
248.3409543280664
 20
221.6709225240527
 10
248.3436721399938
 20
221.6411535934099
 10
248.3459327499146
 20
221.6131880706814
 10
248.3476599574946
 20
221.5872291567591
 10
248.3488283626221
 20
221.5621846468497
 10
248.3493871650745
 20
221.5378005398385
 10
248.3495649658548
 20
221.5140260355025
 10
248.3495649658548
 20
220.5993172212449
  0
LWPOLYLINE
  5
2A664
330
18
100
AcDbEntity
  8
EBENE_1
  6
Continuous
100
AcDbPolyline
 90
       11
 70
     1
 43
0.07620033441
 10
251.7062658969497
 20
220.5826293480091
 10
251.7062658969497
 20
220.9259118545262
 10
250.5840635720936
 20
220.9259118545262
 10
250.5840635720936
 20
221.174121743811
 10
251.693362640323
 20
222.0969331936276
 10
252.0185856675848
 20
222.0969331936276
 10
252.0185856675848
 20
221.174121743811
 10
252.3771844413182
 20
221.174121743811
 10
252.3771844413182
 20
220.9259118545262
 10
252.0185856675848
 20
220.9259118545262
 10
252.0185856675848
 20
220.5826293480091
  0
LWPOLYLINE
  5
2A666
330
18
100
AcDbEntity
  8
EBENE_1
  6
Continuous
100
AcDbPolyline
 90
        3
 70
     1
 43
0.07620033441
 10
251.7062658969497
 20
221.174121743811
 10
251.7062658969497
 20
221.8363280499454
 10
250.8962817422829
 20
221.174121743811
  0
LWPOLYLINE
  5
2A667
330
18
100
AcDbEntity
  8
EBENE_1
  6
Continuous
100
AcDbPolyline
 90
       45
 70
     1
 43
0.07620033441
 10
252.9714708493819
 20
221.7904300485191
 10
252.9791162829344
 20
221.8897190842553
 10
253.0019763832573
 20
221.9657670179965
 10
253.0398733495706
 20
222.0185230495197
 10
253.100427215315
 20
222.0527877998927
 10
253.19019120925
 20
222.0733618901834
 10
253.3090891310411
 20
222.0802199202803
 10
254.0698732697905
 20
222.0802199202803
 10
254.1887965916931
 20
222.0733618901834
 10
254.2786875861854
 20
222.0527877998927
 10
254.3395970534905
 20
222.0185230495197
 10
254.3781798228134
 20
221.9657670179965
 10
254.4012177239167
 20
221.8897190842553
 10
254.4088885575807
 20
221.7904300485191
 10
254.4088885575807
 20
221.6953320311755
 10
254.405230941529
 20
221.628834539347
 10
254.394207293151
 20
221.5737162974571
 10
254.3758938127811
 20
221.5298249048369
 10
254.3435340707683
 20
221.4892101265963
 10
254.2906002384648
 20
221.4437439270651
 10
254.2171939163166
 20
221.3935279066889
 10
253.3468844969084
 20
220.8656119898964
 10
254.2070846719515
 20
220.8656119898964
 10
254.2070846719515
 20
221.0842307493187
 10
254.4801866704769
 20
221.0072176113416
 10
254.4801866704769
 20
220.8895134947897
 10
254.472515836813
 20
220.7898942576043
 10
254.4494017353753
 20
220.7137701235287
 10
254.4107935659409
 20
220.6610140920056
 10
254.3498840986358
 20
220.6267493416325
 10
254.2599931041435
 20
220.6061752513418
 10
254.1410951823524
 20
220.5993172212449
 10
252.895981718093
 20
220.5993172212449
 10
252.895981718093
 20
220.7337092110327
 10
252.9005791382691
 20
220.7942630767771
 10
252.9143459986859
 20
220.8448092986024
 10
252.9370790984515
 20
220.8852208759513
 10
252.971801050831
 20
220.9220510375827
 10
253.0205946649648
 20
220.9617514118104
 10
253.0833837405187
 20
221.0043219986341
 10
254.1076940357694
 20
221.6350321665456
 10
254.1076940357694
 20
221.8282254143864
 10
253.2641817339621
 20
221.8282254143864
 10
253.2641817339621
 20
221.5226366732909
 10
252.9714708493819
 20
221.5982274050256
  0
LWPOLYLINE
  5
2A669
330
18
100
AcDbEntity
  8
EBENE_1
  6
Continuous
100
AcDbPolyline
 90
        4
 70
     1
 43
0.07620033441
 10
255.366599760557
 20
220.8656119898964
 10
256.4247938045087
 20
220.8656119898964
 10
256.4247938045087
 20
221.8282254143864
 10
255.366599760557
 20
221.8282254143864
  0
LWPOLYLINE
  5
2A66A
330
18
100
AcDbEntity
  8
EBENE_1
  6
Continuous
100
AcDbPolyline
 90
       28
 70
     1
 43
0.07620033441
 10
255.0572772030753
 20
221.7302317843352
 10
255.0651004374081
 20
221.8511617150439
 10
255.0886463407408
 20
221.943313319457
 10
255.1279911134078
 20
222.0065341969059
 10
255.1889005807129
 20
222.0475553769299
 10
255.2778263709694
 20
222.0720664844985
 10
255.3947938842887
 20
222.0802199202803
 10
256.396599680777
 20
222.0802199202803
 10
256.5144053977748
 20
222.0720664844985
 10
256.6038137901492
 20
222.0475553769299
 10
256.6649010582346
 20
222.0065341969059
 10
256.7042458309016
 20
221.943313319457
 10
256.7277663341228
 20
221.8511617150439
 10
256.7355895684556
 20
221.7302317843352
 10
256.7355895684556
 20
220.9498133594195
 10
256.7277663341228
 20
220.8285278271502
 10
256.7042458309016
 20
220.7362238220682
 10
256.6649010582346
 20
220.672926744285
 10
256.6038137901492
 20
220.6319817645953
 10
256.5144053977748
 20
220.6074706570268
 10
256.396599680777
 20
220.5993172212449
 10
255.3947938842887
 20
220.5993172212449
 10
255.2778263709694
 20
220.6074706570268
 10
255.1889005807129
 20
220.6319817645953
 10
255.1279911134078
 20
220.672926744285
 10
255.0886463407408
 20
220.7362238220682
 10
255.0651004374081
 20
220.8285278271502
 10
255.0572772030753
 20
220.9498133594195
  0
LWPOLYLINE
  5
2A66C
330
18
100
AcDbEntity
  8
EBENE_1
  6
Continuous
100
AcDbPolyline
 90
        4
 70
     1
 43
0.07620033441
 10
257.5843088931141
 20
220.8656119898964
 10
258.6425029370658
 20
220.8656119898964
 10
258.6425029370658
 20
221.8282254143864
 10
257.5843088931141
 20
221.8282254143864
  0
LWPOLYLINE
  5
2A66D
330
18
100
AcDbEntity
  8
EBENE_1
  6
Continuous
100
AcDbPolyline
 90
       28
 70
     1
 43
0.07620033441
 10
257.2749863356325
 20
221.7302317843352
 10
257.2828095699652
 20
221.8511617150439
 10
257.306355473298
 20
221.943313319457
 10
257.345700245965
 20
222.0065341969059
 10
257.40660971327
 20
222.0475553769299
 10
257.4955355035265
 20
222.0720664844985
 10
257.6125030168459
 20
222.0802199202803
 10
258.6143088133341
 20
222.0802199202803
 10
258.732114530332
 20
222.0720664844985
 10
258.8215229227064
 20
222.0475553769299
 10
258.8826101907918
 20
222.0065341969059
 10
258.9219549634588
 20
221.943313319457
 10
258.94547546668
 20
221.8511617150439
 10
258.9532987010127
 20
221.7302317843352
 10
258.9532987010127
 20
220.9498133594195
 10
258.94547546668
 20
220.8285278271502
 10
258.9219549634588
 20
220.7362238220682
 10
258.8826101907918
 20
220.672926744285
 10
258.8215229227064
 20
220.6319817645953
 10
258.732114530332
 20
220.6074706570268
 10
258.6143088133341
 20
220.5993172212449
 10
257.6125030168459
 20
220.5993172212449
 10
257.4955355035265
 20
220.6074706570268
 10
257.40660971327
 20
220.6319817645953
 10
257.345700245965
 20
220.672926744285
 10
257.306355473298
 20
220.7362238220682
 10
257.2828095699652
 20
220.8285278271502
 10
257.2749863356325
 20
220.9498133594195
  0
LWPOLYLINE
  5
2A66E
330
18
100
AcDbEntity
  8
EBENE_1
  6
Continuous
100
AcDbPolyline
 90
       15
 70
     1
 43
0.07620033441
 10
261.0563263302829
 20
220.8781342448511
 10
261.5019204858011
 20
220.8781342448511
 10
261.7160180253817
 20
220.8903770985796
 10
261.8839635624214
 20
220.9271818600996
 10
262.0059094975888
 20
220.9885231292997
 10
262.0884598598663
 20
221.0785919245723
 10
262.1380662775672
 20
221.2005378597398
 10
262.1546271502457
 20
221.3543355346907
 10
262.1409110900519
 20
221.4935281455463
 10
262.0998137096934
 20
221.6080572481645
 10
262.0313096090588
 20
221.6981260434371
 10
261.9359829907119
 20
221.7631757289118
 10
261.8145196576624
 20
221.8022665004641
 10
261.6669196099102
 20
221.8153221577597
 10
261.0563263302829
 20
221.8153221577597
  0
LWPOLYLINE
  5
2A66F
330
18
100
AcDbEntity
  8
EBENE_1
  6
Continuous
100
AcDbPolyline
 90
       21
 70
     1
 43
0.07620033441
 10
260.7115198170776
 20
220.5993172212449
 10
260.7115198170776
 20
222.0802199202803
 10
261.6645065993205
 20
222.0802199202803
 10
261.9152564997524
 20
222.0590362273143
 10
262.1242232168161
 20
221.9955867488623
 10
262.2914321506231
 20
221.8899222851471
 10
262.4129970841185
 20
221.7450400493222
 10
262.4860478047062
 20
221.5647500581082
 10
262.5104319117174
 20
221.3491285118393
 10
262.5008814698047
 20
221.215193724058
 10
262.472306344401
 20
221.090733177855
 10
262.4248081359521
 20
220.975619872673
 10
262.360114052038
 20
220.872673220885
 10
262.2797988995698
 20
220.785550838543
 10
262.1838118783247
 20
220.7141257250893
 10
262.1143425734542
 20
220.6776003647955
 10
262.0342814221008
 20
220.6484156367164
 10
261.9438062250447
 20
220.6266223410752
 10
261.8390815654539
 20
220.6114584745276
 10
261.7164498272767
 20
220.6023652346213
 10
261.5761142114049
 20
220.5993172212449
  0
LWPOLYLINE
  5
2A671
330
18
100
AcDbEntity
  8
EBENE_1
  6
Continuous
100
AcDbPolyline
 90
        4
 70
     1
 43
0.07620033441
 10
263.03402980956
 20
220.5993172212449
 10
263.03402980956
 20
221.8124265450521
 10
263.3280360998252
 20
221.8124265450521
 10
263.3280360998252
 20
220.5993172212449
  0
LWPOLYLINE
  5
2A672
330
18
100
AcDbEntity
  8
EBENE_1
  6
Continuous
100
AcDbPolyline
 90
       38
 70
     1
 43
0.07620033441
 10
265.0585202941649
 20
221.5896167672373
 10
264.1352262422304
 20
221.5896167672373
 10
264.1352262422304
 20
220.8317282411954
 10
265.0585202941649
 20
220.8317282411954
 10
265.0585202941649
 20
221.089920374288
 10
264.5766293793561
 20
221.089920374288
 10
264.5766293793561
 20
221.3056181208912
 10
265.3483355660376
 20
221.3056181208912
 10
265.3483355660376
 20
220.8862114802986
 10
265.3411473344915
 20
220.7871002453426
 10
265.3195064395192
 20
220.7115095136079
 10
265.2833366807858
 20
220.6595154854288
 10
265.2265928317619
 20
220.6260889387343
 10
265.1432550660288
 20
220.606022850673
 10
265.0332217831408
 20
220.5993172212449
 10
264.1548351282852
 20
220.5993172212449
 10
264.0448018453972
 20
220.606022850673
 10
263.9614894797756
 20
220.6260889387343
 10
263.9047202306401
 20
220.6595154854288
 10
263.8685504719069
 20
220.7115095136079
 10
263.8469095769344
 20
220.7871002453426
 10
263.8397213453884
 20
220.8862114802986
 10
263.8397213453884
 20
221.5265228903458
 10
263.8469095769344
 20
221.6251769232953
 10
263.8685504719069
 20
221.700386653358
 10
263.9047202306401
 20
221.7522282808682
 10
263.9614894797756
 20
221.7856548275627
 10
264.0448018453972
 20
221.8057209156241
 10
264.1548351282852
 20
221.8124265450521
 10
265.0332217831408
 20
221.8124265450521
 10
265.1425438629076
 20
221.8058987164043
 10
265.225627627526
 20
221.7862898303495
 10
265.2823206763271
 20
221.7536252869991
 10
265.3189984372897
 20
221.7037648681834
 10
265.3409949338227
 20
221.6327461565133
 10
265.3483355660376
 20
221.5408231531034
 10
265.3483355660376
 20
221.5083364105333
 10
265.0585202941649
 20
221.4595173962879
  0
LWPOLYLINE
  5
2A674
330
18
100
AcDbEntity
  8
EBENE_1
  6
Continuous
100
AcDbPolyline
 90
        4
 70
     1
 43
0.07620033441
 10
265.8538231844021
 20
220.5993172212449
 10
265.8538231844021
 20
221.8124265450521
 10
266.1478294746673
 20
221.8124265450521
 10
266.1478294746673
 20
220.5993172212449
  0
LWPOLYLINE
  5
2A675
330
18
100
AcDbEntity
  8
EBENE_1
  6
Continuous
100
AcDbPolyline
 90
        8
 70
     1
 43
0.07620033441
 10
267.4117390214145
 20
221.595331792318
 10
267.4117390214145
 20
220.5993172212449
 10
267.1161325241267
 20
220.5993172212449
 10
267.1161325241267
 20
221.595331792318
 10
266.5304313537399
 20
221.595331792318
 10
266.5304313537399
 20
221.8124265450521
 10
267.998837197932
 20
221.8124265450521
 10
267.998837197932
 20
221.595331792318
  0
LWPOLYLINE
  5
2A676
330
18
100
AcDbEntity
  8
EBENE_1
  6
Continuous
100
AcDbPolyline
 90
        8
 70
     1
 43
0.07620033441
 10
267.9873563475476
 20
220.5993172212449
 10
268.7074495077221
 20
221.8124265450521
 10
268.9919561562977
 20
221.8124265450521
 10
269.7230475647387
 20
220.5993172212449
 10
269.391245908606
 20
220.5993172212449
 10
269.2382610372222
 20
220.8656119898964
 10
268.4358461157734
 20
220.8656119898964
 10
268.2828358442782
 20
220.5993172212449
  0
LWPOLYLINE
  5
2A678
330
18
100
AcDbEntity
  8
EBENE_1
  6
Continuous
100
AcDbPolyline
 90
        3
 70
     1
 43
0.07620033441
 10
268.5616528678843
 20
221.0870247615804
 10
269.1177375082971
 20
221.0870247615804
 10
268.8351612681933
 20
221.5925123799449
  0
LWPOLYLINE
  5
2A679
330
18
100
AcDbEntity
  8
EBENE_1
  6
Continuous
100
AcDbPolyline
 90
        6
 70
     1
 43
0.07620033441
 10
270.0253596914546
 20
220.5993172212449
 10
270.0253596914546
 20
221.8124265450521
 10
270.3236586005583
 20
221.8124265450521
 10
270.3236586005583
 20
220.8264196178982
 10
271.2747657745524
 20
220.8264196178982
 10
271.2747657745524
 20
220.5993172212449
  0
LWPOLYLINE
  5
2CA2D
330
18
100
AcDbEntity
  8
EBENE_1
  6
Continuous
100
AcDbPolyline
 90
        5
 70
     0
 43
0.3881137032616
 10
131.5817473228819
 20
226.3838587718316
 10
129.9562417892478
 20
225.0961529558937
 10
129.9562417892478
 20
231.5657645481945
 10
134.0191674196546
 20
228.3147534809263
 10
132.7943177700472
 20
227.3444424085777
  0
LWPOLYLINE
  5
2CF18
330
18
100
AcDbEntity
  8
EBENE_1
  6
Continuous
100
AcDbPolyline
 90
        2
 70
     0
 43
0.4939051675341501
 10
139.4231935355659
 20
219.1496058590947
 10
158.270760673896
 20
219.1496058590947
  0
LWPOLYLINE
  5
2D163
330
18
100
AcDbEntity
  8
EBENE_1
  6
Continuous
100
AcDbPolyline
 90
        2
 70
     0
 43
0.4939051675341501
 10
163.2679402226018
 20
219.1496058590947
 10
237.7263426964945
 20
219.1496058590947
  0
LWPOLYLINE
  5
2D169
330
18
100
AcDbEntity
  8
EBENE_1
  6
Continuous
100
AcDbPolyline
 90
        2
 70
     0
 43
0.4939051675341501
 10
242.7235222452003
 20
219.1496058590947
 10
271.206058473026
 20
219.1496058590947
  0
TEXT
  5
2D16A
330
18
100
AcDbEntity
  8
0
100
AcDbText
 10
257.5580899300411
 20
107.5517769136596
 30
0.0
 40
1.0
  1
RM420-027
  7
WMF-BANKGOTHIC-MD-BT0
100
AcDbText
  0
LWPOLYLINE
  5
2D46E
330
18
100
AcDbEntity
  8
EBENE_1
  6
Continuous
100
AcDbPolyline
 90
        2
 70
     0
 43
0.5080022293999999
 10
137.1709022800652
 20
120.4803595540664
 10
133.8631640633873
 20
114.7500671333101
  0
LWPOLYLINE
  5
2D46F
330
18
100
AcDbEntity
  8
EBENE_1
  6
Continuous
100
AcDbPolyline
 90
       54
 70
     1
 43
0.07620033441
 10
138.8093785701633
 20
138.200364446427
 10
138.8988885629836
 20
139.0743822821097
 10
140.2593947336512
 20
139.0743822821097
 10
140.2323944151586
 20
138.8061571049865
 10
139.1328743898453
 20
138.8061571049865
 10
139.0972888336758
 20
138.5001619621074
 10
139.2268040020613
 20
138.5127096171736
 10
139.3456765237409
 20
138.5225902605354
 10
139.4537793981573
 20
138.5296768916355
 10
139.5535764361229
 20
138.5348077141525
 10
139.6474044478931
 20
138.5378557275289
 10
139.7349840322416
 20
138.5388717319877
 10
139.9733386782761
 20
138.5240888671122
 10
140.1684877347001
 20
138.4796640721511
 10
140.3203042009563
 20
138.4054703465473
 10
140.4288642773791
 20
138.3016600909694
 10
140.4939901631882
 20
138.1681571050831
 10
140.5156818583835
 20
138.0048597884424
 10
140.4929487586179
 20
137.8368888512913
 10
140.4246732589865
 20
137.7026492621723
 10
140.310779159155
 20
137.6022680216429
 10
140.1461864368295
 20
137.5326717162151
 10
139.9253324675978
 20
137.490888532847
 10
139.6485982531322
 20
137.4769692717614
 10
139.4936575731652
 20
137.4788234798987
 10
139.3492325393467
 20
137.4842845038648
 10
139.2152977515654
 20
137.4932507432137
 10
139.0934026166209
 20
137.5060269992831
 10
138.9843091378573
 20
137.5219528691748
 10
138.8882967165006
 20
137.5411553534461
 10
138.8093785701633
 20
137.845575689414
 10
138.9605346335214
 20
137.8200739774982
 10
139.1057470707953
 20
137.7995760875419
 10
139.2452952832115
 20
137.7839550189878
 10
139.3802460754516
 20
137.7725503689378
 10
139.5115646517515
 20
137.7657939392868
 10
139.6393780126685
 20
137.7635587294774
 10
139.8175851947421
 20
137.7701881585711
 10
139.9567016052633
 20
137.7899240451833
 10
140.0568796449009
 20
137.8226647888681
 10
140.1238851389588
 20
137.8706963996579
 10
140.1640935154158
 20
137.9364826883652
 10
140.1774793741605
 20
138.0201760556588
 10
140.1644237168649
 20
138.0993990033338
 10
140.1252567449781
 20
138.1620102781073
 10
140.0599784585003
 20
138.2079590797565
 10
139.9632040337996
 20
138.2393790176449
 10
139.8304376511459
 20
138.2582005002442
 10
139.6617809109851
 20
138.2644743277773
 10
139.5387427710244
 20
138.26262011964
 10
139.4076781958392
 20
138.2571590956739
 10
139.2686887858754
 20
138.2481674562136
 10
139.122053942359
 20
138.2354420003671
 10
138.9689420704178
 20
138.2195669306983
  0
LWPOLYLINE
  5
2D470
330
18
100
AcDbEntity
  8
EBENE_1
  6
Continuous
100
AcDbPolyline
 90
        6
 70
     1
 43
0.07620033441
 10
147.2585224497671
 20
114.2906553171522
 10
147.2585224497671
 20
115.5673665200803
 10
146.9235203795893
 20
115.5673665200803
 10
146.9235203795893
 20
115.777577842606
 10
147.5906289072374
 20
115.8788734871484
 10
147.5906289072374
 20
114.2906553171522
  0
LWPOLYLINE
  5
2D471
330
18
100
AcDbEntity
  8
EBENE_1
  6
Continuous
100
AcDbPolyline
 90
        4
 70
     1
 43
0.07620033441
 10
149.1535231660979
 20
114.5741713613803
 10
150.2789259049992
 20
114.5741713613803
 10
150.2789259049992
 20
115.598964258749
 10
149.1535231660979
 20
115.598964258749
  0
LWPOLYLINE
  5
2D472
330
18
100
AcDbEntity
  8
EBENE_1
  6
Continuous
100
AcDbPolyline
 90
       28
 70
     1
 43
0.07620033441
 10
148.8244393218926
 20
115.4945698006073
 10
148.8327705584548
 20
115.6233483657602
 10
148.8578404684757
 20
115.7214435962573
 10
148.8997252522896
 20
115.7887792917643
 10
148.9644701364267
 20
115.8324166832697
 10
149.059060151541
 20
115.8585025977494
 10
149.183520697744
 20
115.8671640357607
 10
150.2489283733531
 20
115.8671640357607
 10
150.3742271232346
 20
115.8585025977494
 10
150.4693251405783
 20
115.8324166832697
 10
150.5342478254956
 20
115.7887792917643
 10
150.5761072091982
 20
115.7214435962573
 10
150.6012025193306
 20
115.6233483657602
 10
150.6095337558927
 20
115.4945698006073
 10
150.6095337558927
 20
114.663757554535
 10
150.6012025193306
 20
114.5346741880445
 10
150.5761072091982
 20
114.4364265568785
 10
150.5342478254956
 20
114.3690654612601
 10
150.4693251405783
 20
114.3254534698661
 10
150.3742271232346
 20
114.2993421552749
 10
150.2489283733531
 20
114.2906553171522
 10
149.183520697744
 20
114.2906553171522
 10
149.059060151541
 20
114.2993421552749
 10
148.9644701364267
 20
114.3254534698661
 10
148.8997252522896
 20
114.3690654612601
 10
148.8578404684757
 20
114.4364265568785
 10
148.8327705584548
 20
114.5346741880445
 10
148.8244393218926
 20
114.663757554535
  0
LWPOLYLINE
  5
2D473
330
18
100
AcDbEntity
  8
EBENE_1
  6
Continuous
100
AcDbPolyline
 90
        2
 70
     0
 43
0.5080022293999999
 10
139.6560912860158
 20
136.2914698691221
 10
139.6560912860158
 20
130.7955384266966
  0
LWPOLYLINE
  5
2D474
330
18
100
AcDbEntity
  8
EBENE_1
  6
Continuous
100
AcDbPolyline
 90
        2
 70
     0
 43
0.5080022293999999
 10
145.3924016601776
 20
114.8385611216716
 10
142.1795548472059
 20
120.3960928168792
  0
LWPOLYLINE
  5
2D475
330
18
100
AcDbEntity
  8
EBENE_1
  6
Continuous
100
AcDbPolyline
 90
        2
 70
     0
 43
0.5080022293999999
 10
144.135604144642
 20
132.6011384738687
 10
145.0519131659223
 20
134.188442239852
  0
LWPOLYLINE
  5
2D476
330
18
100
AcDbEntity
  8
EBENE_1
  6
Continuous
100
AcDbPolyline
 90
        2
 70
     0
 43
0.5080022293999999
 10
147.4451116686257
 20
129.3119256389496
 10
149.0322376338287
 20
130.2284378611216
  0
LWPOLYLINE
  5
2D477
330
18
100
AcDbEntity
  8
EBENE_1
  6
Continuous
100
AcDbPolyline
 90
        2
 70
     0
 43
0.5080022293999999
 10
147.4667271634867
 20
120.2903902473694
 10
149.0541325299158
 20
119.3740812260892
  0
LWPOLYLINE
  5
2D478
330
18
100
AcDbEntity
  8
EBENE_1
  6
Continuous
100
AcDbPolyline
 90
        2
 70
     0
 43
0.5080022293999999
 10
148.6605324025767
 20
124.7827047621766
 10
150.4932266454716
 20
124.7829079630683
  0
LWPOLYLINE
  5
2D479
330
18
100
AcDbEntity
  8
EBENE_1
  6
Continuous
100
AcDbPolyline
 90
        4
 70
     1
 43
0.07620033441
 10
130.8278507427223
 20
114.5741713613803
 10
131.9532534816236
 20
114.5741713613803
 10
131.9532534816236
 20
115.598964258749
 10
130.8278507427223
 20
115.598964258749
  0
LWPOLYLINE
  5
2D47A
330
18
100
AcDbEntity
  8
EBENE_1
  6
Continuous
100
AcDbPolyline
 90
       28
 70
     1
 43
0.07620033441
 10
130.4987414984055
 20
115.4945698006073
 10
130.5070981350791
 20
115.6233483657602
 10
130.5321680451
 20
115.7214435962573
 10
130.5740528289141
 20
115.7887792917643
 10
130.6387723129397
 20
115.8324166832697
 10
130.7333877281654
 20
115.8585025977494
 10
130.8578482743684
 20
115.8671640357607
 10
131.9232559499775
 20
115.8671640357607
 10
132.048554699859
 20
115.8585025977494
 10
132.1436527172027
 20
115.8324166832697
 10
132.2085500020086
 20
115.7887792917643
 10
132.2504347858226
 20
115.7214435962573
 10
132.2755046958435
 20
115.6233483657602
 10
132.2838613325171
 20
115.4945698006073
 10
132.2838613325171
 20
114.663757554535
 10
132.2755046958435
 20
114.5346741880445
 10
132.2504347858226
 20
114.4364265568785
 10
132.2085500020086
 20
114.3690654612601
 10
132.1436527172027
 20
114.3254534698661
 10
132.048554699859
 20
114.2993421552749
 10
131.9232559499775
 20
114.2906553171522
 10
130.8578482743684
 20
114.2906553171522
 10
130.7333877281654
 20
114.2993421552749
 10
130.6387723129397
 20
114.3254534698661
 10
130.5740528289141
 20
114.3690654612601
 10
130.5321680451
 20
114.4364265568785
 10
130.5070981350791
 20
114.5346741880445
 10
130.4987414984055
 20
114.663757554535
  0
LWPOLYLINE
  5
2D47B
330
18
100
AcDbEntity
  8
EBENE_1
  6
Continuous
100
AcDbPolyline
 90
        2
 70
     0
 43
0.5080022293999999
 10
135.1319758316483
 20
132.5747477580514
 10
134.2154636094762
 20
134.1619499235888
  0
LWPOLYLINE
  5
2D47C
330
18
100
AcDbEntity
  8
EBENE_1
  6
Continuous
100
AcDbPolyline
 90
        2
 70
     0
 43
0.5080022293999999
 10
131.8455570089908
 20
129.2755272792131
 10
130.2582532430075
 20
130.1918363004934
  0
LWPOLYLINE
  5
2D47D
330
18
100
AcDbEntity
  8
EBENE_1
  6
Continuous
100
AcDbPolyline
 90
        2
 70
     0
 43
0.5080022293999999
 10
130.6410583229719
 20
124.7827047621766
 10
128.8074496760641
 20
124.7826031617307
  0
LWPOLYLINE
  5
2D47E
330
18
100
AcDbEntity
  8
EBENE_1
  6
Continuous
100
AcDbPolyline
 90
        2
 70
     0
 43
0.5080022293999999
 10
131.8536596445497
 20
120.2764963863953
 10
130.2664574790124
 20
119.3599841642233
  0
TEXT
  5
2D480
330
18
100
AcDbEntity
  8
0
100
AcDbText
 10
131.4164029198026
 20
111.1695998283013
 30
0.0
 40
2.0
  1
Volume 1
  7
WMF-BANKGOTHIC-MD-BT0
100
AcDbText
  0
LWPOLYLINE
  5
2D481
330
18
100
AcDbEntity
  8
EBENE_1
  6
Continuous
100
AcDbPolyline
 90
        2
 70
     0
 43
0.5080022293999999
 10
171.2706494782598
 20
120.4803595540664
 10
167.9629112615819
 20
114.7500671333101
  0
LWPOLYLINE
  5
2D482
330
18
100
AcDbEntity
  8
EBENE_1
  6
Continuous
100
AcDbPolyline
 90
       54
 70
     1
 43
0.07620033441
 10
172.9091257683579
 20
138.200364446427
 10
172.9986357611782
 20
139.0743822821097
 10
174.3591419318458
 20
139.0743822821097
 10
174.3321416133532
 20
138.8061571049865
 10
173.2326215880398
 20
138.8061571049865
 10
173.1970360318704
 20
138.5001619621074
 10
173.3265512002559
 20
138.5127096171736
 10
173.4454237219355
 20
138.5225902605354
 10
173.5535265963518
 20
138.5296768916355
 10
173.6533236343174
 20
138.5348077141525
 10
173.7471516460876
 20
138.5378557275289
 10
173.8347312304362
 20
138.5388717319877
 10
174.0730858764707
 20
138.5240888671122
 10
174.2682349328947
 20
138.4796640721511
 10
174.4200513991509
 20
138.4054703465473
 10
174.5286114755736
 20
138.3016600909694
 10
174.5937373613827
 20
138.1681571050831
 10
174.6154290565781
 20
138.0048597884424
 10
174.5926959568124
 20
137.8368888512913
 10
174.5244204571811
 20
137.7026492621723
 10
174.4105263573496
 20
137.6022680216429
 10
174.2459336350241
 20
137.5326717162151
 10
174.0250796657924
 20
137.490888532847
 10
173.7483454513268
 20
137.4769692717614
 10
173.5934047713597
 20
137.4788234798987
 10
173.4489797375413
 20
137.4842845038648
 10
173.31504494976
 20
137.4932507432137
 10
173.1931498148155
 20
137.5060269992831
 10
173.0840563360518
 20
137.5219528691748
 10
172.9880439146952
 20
137.5411553534461
 10
172.9091257683579
 20
137.845575689414
 10
173.0602818317159
 20
137.8200739774982
 10
173.2054942689899
 20
137.7995760875419
 10
173.3450424814061
 20
137.7839550189878
 10
173.4799932736462
 20
137.7725503689378
 10
173.6113118499461
 20
137.7657939392868
 10
173.7391252108631
 20
137.7635587294774
 10
173.9173323929366
 20
137.7701881585711
 10
174.0564488034578
 20
137.7899240451833
 10
174.1566268430955
 20
137.8226647888681
 10
174.2236323371534
 20
137.8706963996579
 10
174.2638407136103
 20
137.9364826883652
 10
174.2772265723551
 20
138.0201760556588
 10
174.2641709150595
 20
138.0993990033338
 10
174.2250039431727
 20
138.1620102781073
 10
174.1597256566949
 20
138.2079590797565
 10
174.0629512319942
 20
138.2393790176449
 10
173.9301848493405
 20
138.2582005002442
 10
173.7615281091796
 20
138.2644743277773
 10
173.638489969219
 20
138.26262011964
 10
173.5074253940337
 20
138.2571590956739
 10
173.3684359840699
 20
138.2481674562136
 10
173.2218011405536
 20
138.2354420003671
 10
173.0686892686124
 20
138.2195669306983
  0
LWPOLYLINE
  5
2D483
330
18
100
AcDbEntity
  8
EBENE_1
  6
Continuous
100
AcDbPolyline
 90
        6
 70
     1
 43
0.07620033441
 10
181.3582696479616
 20
114.2906553171522
 10
181.3582696479616
 20
115.5673665200803
 10
181.0232675777839
 20
115.5673665200803
 10
181.0232675777839
 20
115.777577842606
 10
181.6903761054319
 20
115.8788734871484
 10
181.6903761054319
 20
114.2906553171522
  0
LWPOLYLINE
  5
2D484
330
18
100
AcDbEntity
  8
EBENE_1
  6
Continuous
100
AcDbPolyline
 90
        4
 70
     1
 43
0.07620033441
 10
183.2532703642925
 20
114.5741713613803
 10
184.3786731031937
 20
114.5741713613803
 10
184.3786731031937
 20
115.598964258749
 10
183.2532703642925
 20
115.598964258749
  0
LWPOLYLINE
  5
2D485
330
18
100
AcDbEntity
  8
EBENE_1
  6
Continuous
100
AcDbPolyline
 90
       28
 70
     1
 43
0.07620033441
 10
182.9241865200872
 20
115.4945698006073
 10
182.9325177566493
 20
115.6233483657602
 10
182.9575876666702
 20
115.7214435962573
 10
182.9994724504842
 20
115.7887792917643
 10
183.0642173346213
 20
115.8324166832697
 10
183.1588073497355
 20
115.8585025977494
 10
183.2832678959386
 20
115.8671640357607
 10
184.3486755715477
 20
115.8671640357607
 10
184.4739743214292
 20
115.8585025977494
 10
184.5690723387729
 20
115.8324166832697
 10
184.6339950236902
 20
115.7887792917643
 10
184.6758544073928
 20
115.7214435962573
 10
184.7009497175251
 20
115.6233483657602
 10
184.7092809540873
 20
115.4945698006073
 10
184.7092809540873
 20
114.663757554535
 10
184.7009497175251
 20
114.5346741880445
 10
184.6758544073928
 20
114.4364265568785
 10
184.6339950236902
 20
114.3690654612601
 10
184.5690723387729
 20
114.3254534698661
 10
184.4739743214292
 20
114.2993421552749
 10
184.3486755715477
 20
114.2906553171522
 10
183.2832678959386
 20
114.2906553171522
 10
183.1588073497355
 20
114.2993421552749
 10
183.0642173346213
 20
114.3254534698661
 10
182.9994724504842
 20
114.3690654612601
 10
182.9575876666702
 20
114.4364265568785
 10
182.9325177566493
 20
114.5346741880445
 10
182.9241865200872
 20
114.663757554535
  0
LWPOLYLINE
  5
2D486
330
18
100
AcDbEntity
  8
EBENE_1
  6
Continuous
100
AcDbPolyline
 90
        2
 70
     0
 43
0.5080022293999999
 10
173.7558384842104
 20
136.2914698691221
 10
173.7558384842104
 20
130.7955384266966
  0
LWPOLYLINE
  5
2D487
330
18
100
AcDbEntity
  8
EBENE_1
  6
Continuous
100
AcDbPolyline
 90
        2
 70
     0
 43
0.5080022293999999
 10
179.4921488583722
 20
114.8385611216716
 10
176.2793020454004
 20
120.3960928168792
  0
LWPOLYLINE
  5
2D488
330
18
100
AcDbEntity
  8
EBENE_1
  6
Continuous
100
AcDbPolyline
 90
        2
 70
     0
 43
0.5080022293999999
 10
178.2353513428366
 20
132.6011384738687
 10
179.1516603641168
 20
134.188442239852
  0
LWPOLYLINE
  5
2D489
330
18
100
AcDbEntity
  8
EBENE_1
  6
Continuous
100
AcDbPolyline
 90
        2
 70
     0
 43
0.5080022293999999
 10
181.5448588668203
 20
129.3119256389496
 10
183.1319848320232
 20
130.2284378611216
  0
LWPOLYLINE
  5
2D48A
330
18
100
AcDbEntity
  8
EBENE_1
  6
Continuous
100
AcDbPolyline
 90
        2
 70
     0
 43
0.5080022293999999
 10
181.5664743616813
 20
120.2903902473694
 10
183.1538797281104
 20
119.3740812260892
  0
LWPOLYLINE
  5
2D48B
330
18
100
AcDbEntity
  8
EBENE_1
  6
Continuous
100
AcDbPolyline
 90
        2
 70
     0
 43
0.5080022293999999
 10
182.7602796007713
 20
124.7827047621766
 10
184.5929738436662
 20
124.7829079630683
  0
LWPOLYLINE
  5
2D48C
330
18
100
AcDbEntity
  8
EBENE_1
  6
Continuous
100
AcDbPolyline
 90
        4
 70
     1
 43
0.07620033441
 10
164.9275979409169
 20
114.5741713613803
 10
166.0530006798182
 20
114.5741713613803
 10
166.0530006798182
 20
115.598964258749
 10
164.9275979409169
 20
115.598964258749
  0
LWPOLYLINE
  5
2D48D
330
18
100
AcDbEntity
  8
EBENE_1
  6
Continuous
100
AcDbPolyline
 90
       28
 70
     1
 43
0.07620033441
 10
164.5984886966001
 20
115.4945698006073
 10
164.6068453332737
 20
115.6233483657602
 10
164.6319152432946
 20
115.7214435962573
 10
164.6738000271086
 20
115.7887792917643
 10
164.7385195111342
 20
115.8324166832697
 10
164.8331349263599
 20
115.8585025977494
 10
164.9575954725629
 20
115.8671640357607
 10
166.0230031481721
 20
115.8671640357607
 10
166.1483018980536
 20
115.8585025977494
 10
166.2433999153973
 20
115.8324166832697
 10
166.3082972002032
 20
115.7887792917643
 10
166.3501819840172
 20
115.7214435962573
 10
166.375251894038
 20
115.6233483657602
 10
166.3836085307116
 20
115.4945698006073
 10
166.3836085307116
 20
114.663757554535
 10
166.375251894038
 20
114.5346741880445
 10
166.3501819840172
 20
114.4364265568785
 10
166.3082972002032
 20
114.3690654612601
 10
166.2433999153973
 20
114.3254534698661
 10
166.1483018980536
 20
114.2993421552749
 10
166.0230031481721
 20
114.2906553171522
 10
164.9575954725629
 20
114.2906553171522
 10
164.8331349263599
 20
114.2993421552749
 10
164.7385195111342
 20
114.3254534698661
 10
164.6738000271086
 20
114.3690654612601
 10
164.6319152432946
 20
114.4364265568785
 10
164.6068453332737
 20
114.5346741880445
 10
164.5984886966001
 20
114.663757554535
  0
LWPOLYLINE
  5
2D48E
330
18
100
AcDbEntity
  8
EBENE_1
  6
Continuous
100
AcDbPolyline
 90
        2
 70
     0
 43
0.5080022293999999
 10
169.2317230298428
 20
132.5747477580514
 10
168.3152108076708
 20
134.1619499235888
  0
LWPOLYLINE
  5
2D48F
330
18
100
AcDbEntity
  8
EBENE_1
  6
Continuous
100
AcDbPolyline
 90
        2
 70
     0
 43
0.5080022293999999
 10
165.9453042071854
 20
129.2755272792131
 10
164.3580004412021
 20
130.1918363004934
  0
LWPOLYLINE
  5
2D490
330
18
100
AcDbEntity
  8
EBENE_1
  6
Continuous
100
AcDbPolyline
 90
        2
 70
     0
 43
0.5080022293999999
 10
164.7408055211665
 20
124.7827047621766
 10
162.9071968742586
 20
124.7826031617307
  0
LWPOLYLINE
  5
2D491
330
18
100
AcDbEntity
  8
EBENE_1
  6
Continuous
100
AcDbPolyline
 90
        2
 70
     0
 43
0.5080022293999999
 10
165.9534068427443
 20
120.2764963863953
 10
164.3662046772069
 20
119.3599841642233
  0
TEXT
  5
2D493
330
18
100
AcDbEntity
  8
0
100
AcDbText
 10
165.5161501179971
 20
111.1695998283013
 30
0.0
 40
2.0
  1
Volume 1
  7
WMF-BANKGOTHIC-MD-BT0
100
AcDbText
  0
TEXT
  5
2D50D
330
18
100
AcDbEntity
  8
0
100
AcDbText
 10
168.8527370159719
 20
189.4594061038715
 30
0.0
 40
1.0
  1
Gain
  7
WMF-BANKGOTHIC-MD-BT0
100
AcDbText
  0
TEXT
  5
2D50E
330
18
100
AcDbEntity
  8
0
100
AcDbText
 10
169.0585430005564
 20
188.0298073247145
 30
0.0
 40
1.0
  1
Trim
  7
WMF-BANKGOTHIC-MD-BT0
100
AcDbText
  0
TEXT
  5
2D50F
330
18
100
AcDbEntity
  8
0
100
AcDbText
 10
137.5024993216065
 20
187.5063786061577
 30
0.0
 40
1.9
  1
Microphone
  7
WMF-BANKGOTHIC-MD-BT0
100
AcDbText
  0
TEXT
  5
2D519
330
18
100
AcDbEntity
  8
0
100
AcDbText
 10
203.2135879964893
 20
189.2120582226556
 30
0.0
 40
1.9
  1
Select
  7
WMF-BANKGOTHIC-MD-BT0
100
AcDbText
  0
LWPOLYLINE
  5
2D522
330
18
100
AcDbEntity
  8
BLECH
  6
Continuous
100
AcDbPolyline
 90
        4
 70
     1
 43
0.0
 10
203.3550337658986
 20
115.431876568298
 10
216.8550337658987
 20
115.431876568298
 10
216.8550337658987
 20
128.931876568298
 10
203.3550337658986
 20
128.931876568298
  0
LWPOLYLINE
  5
2D525
330
18
100
AcDbEntity
  8
BLECH
  6
Continuous
100
AcDbPolyline
 90
        4
 70
     1
 43
0.0
 10
223.3550337658987
 20
115.431876568298
 10
236.8550337658987
 20
115.431876568298
 10
236.8550337658987
 20
128.931876568298
 10
223.3550337658987
 20
128.931876568298
  0
LWPOLYLINE
  5
2D528
330
18
100
AcDbEntity
  8
BLECH
  6
Continuous
100
AcDbPolyline
 90
        4
 70
     1
 43
0.0
 10
243.3550337658987
 20
115.431876568298
 10
256.8550337658987
 20
115.431876568298
 10
256.8550337658987
 20
128.931876568298
 10
243.3550337658987
 20
128.931876568298
  0
LWPOLYLINE
  5
2D52B
330
18
100
AcDbEntity
  8
BLECH
  6
Continuous
100
AcDbPolyline
 90
        4
 70
     1
 43
0.0
 10
263.3550337658987
 20
115.431876568298
 10
276.8550337658987
 20
115.431876568298
 10
276.8550337658987
 20
128.931876568298
 10
263.3550337658987
 20
128.931876568298
  0
LWPOLYLINE
  5
2D531
330
18
100
AcDbEntity
  8
BLECH
  6
Continuous
100
AcDbPolyline
 90
        4
 70
     1
 43
0.0
 10
203.3550337658986
 20
135.431876568298
 10
216.8550337658987
 20
135.431876568298
 10
216.8550337658987
 20
148.931876568298
 10
203.3550337658986
 20
148.931876568298
  0
LWPOLYLINE
  5
2D534
330
18
100
AcDbEntity
  8
BLECH
  6
Continuous
100
AcDbPolyline
 90
        4
 70
     1
 43
0.0
 10
223.3550337658987
 20
135.431876568298
 10
236.8550337658987
 20
135.431876568298
 10
236.8550337658987
 20
148.931876568298
 10
223.3550337658987
 20
148.931876568298
  0
LWPOLYLINE
  5
2D537
330
18
100
AcDbEntity
  8
BLECH
  6
Continuous
100
AcDbPolyline
 90
        4
 70
     1
 43
0.0
 10
243.3550337658987
 20
135.431876568298
 10
256.8550337658987
 20
135.431876568298
 10
256.8550337658987
 20
148.931876568298
 10
243.3550337658987
 20
148.931876568298
  0
LWPOLYLINE
  5
2D53A
330
18
100
AcDbEntity
  8
BLECH
  6
Continuous
100
AcDbPolyline
 90
        4
 70
     1
 43
0.0
 10
263.3550337658987
 20
135.431876568298
 10
276.8550337658987
 20
135.431876568298
 10
276.8550337658987
 20
148.931876568298
 10
263.3550337658987
 20
148.931876568298
  0
LWPOLYLINE
  5
2D53D
330
18
100
AcDbEntity
  8
BLECH
  6
Continuous
100
AcDbPolyline
 90
        4
 70
     1
 43
0.0
 10
203.1294396357304
 20
160.5817742686634
 10
216.6294396357304
 20
160.5817742686634
 10
216.6294396357304
 20
174.0817742686634
 10
203.1294396357304
 20
174.0817742686634
  0
LWPOLYLINE
  5
2D540
330
18
100
AcDbEntity
  8
BLECH
  6
Continuous
100
AcDbPolyline
 90
        4
 70
     1
 43
0.0
 10
223.1294396357304
 20
160.5817742686634
 10
236.6294396357304
 20
160.5817742686634
 10
236.6294396357304
 20
174.0817742686634
 10
223.1294396357304
 20
174.0817742686634
  0
LWPOLYLINE
  5
2D543
330
18
100
AcDbEntity
  8
BLECH
  6
Continuous
100
AcDbPolyline
 90
        4
 70
     1
 43
0.0
 10
243.1294396357304
 20
160.5817742686634
 10
256.6294396357304
 20
160.5817742686634
 10
256.6294396357304
 20
174.0817742686634
 10
243.1294396357304
 20
174.0817742686634
  0
LWPOLYLINE
  5
2D546
330
18
100
AcDbEntity
  8
BLECH
  6
Continuous
100
AcDbPolyline
 90
        4
 70
     1
 43
0.0
 10
263.1294396357304
 20
160.5817742686634
 10
276.6294396357304
 20
160.5817742686634
 10
276.6294396357304
 20
174.0817742686634
 10
263.1294396357304
 20
174.0817742686634
  0
LWPOLYLINE
  5
2D54E
330
18
100
AcDbEntity
  8
BLECH
  6
Continuous
100
AcDbPolyline
 90
        4
 70
     1
 43
0.0
 10
226.1072687306104
 20
188.8315457210015
 10
250.2572373822133
 20
188.8315457210015
 10
250.2572373822133
 20
210.4315123186933
 10
226.1072687306104
 20
210.4315123186933
  0
LWPOLYLINE
  5
2D551
330
18
100
AcDbEntity
  8
BLECH
  6
Continuous
100
AcDbPolyline
 90
        4
 70
     1
 43
0.0
 10
250.2572373822133
 20
188.8315457210015
 10
274.4072060338161
 20
188.8315457210015
 10
274.4072060338161
 20
210.4315123186933
 10
250.2572373822133
 20
210.4315123186933
  0
TEXT
  5
2D555
330
18
100
AcDbEntity
  8
0
100
AcDbText
 10
154.1685811300673
 20
115.9794958902899
 30
0.0
 40
1.0
  1
Min
  7
WMF-BANKGOTHIC-MD-BT0
100
AcDbText
  0
TEXT
  5
2D556
330
18
100
AcDbEntity
  8
0
100
AcDbText
 10
154.0026365063567
 20
114.5498971111328
 30
0.0
 40
1.0
  1
Trim
  7
WMF-BANKGOTHIC-MD-BT0
100
AcDbText
  0
LWPOLYLINE
  5
2D557
330
18
100
AcDbEntity
  8
EBENE_1
  6
Continuous
100
AcDbPolyline
 90
        2
 70
     0
 43
0.4939051675341501
 10
207.3346187004824
 20
154.5692574540026
 10
273.3658444307362
 20
154.5692574540026
  0
LWPOLYLINE
  5
2D559
330
18
100
AcDbEntity
  8
EBENE_1
  6
Continuous
100
AcDbPolyline
 90
        2
 70
     0
 43
0.4939051675341501
 10
207.3346187004824
 20
178.8736377792919
 10
273.3658444307362
 20
178.8736377792919
  0
CIRCLE
  5
2D64C
102
{ACAD_REACTORS
330
2D6B7
102
}
330
18
100
AcDbEntity
  8
BLECH
100
AcDbCircle
 10
139.6070047331795
 20
213.2719131685114
 30
0.0
 40
2.5
  0
LWPOLYLINE
  5
2D64D
102
{ACAD_REACTORS
330
2D6B7
102
}
330
18
100
AcDbEntity
  8
BLECH
100
AcDbPolyline
 90
        6
 70
     1
 43
0.0
 10
139.1400667498566
 20
214.0806734796103
 10
138.6731287665338
 20
213.2719131685114
 10
139.1400667498566
 20
212.4631528574124
 10
140.0739427165023
 20
212.4631528574124
 10
140.5408806998252
 20
213.2719131685114
 10
140.0739427165023
 20
214.0806734796103
  0
ARC
  5
2D653
102
{ACAD_REACTORS
330
2D6B6
102
}
330
18
100
AcDbEntity
  8
TASTEN
100
AcDbCircle
 10
150.3051070701449
 20
202.3077529286242
 30
0.0
 40
6.4499999355
100
AcDbArc
 50
112.805053999996
 51
67.19494600000392
  0
CIRCLE
  5
2D654
102
{ACAD_REACTORS
330
2D6B6
102
}
330
18
100
AcDbEntity
  8
TASTEN
100
AcDbCircle
 10
147.1328717561451
 20
200.7141962586052
 30
0.0
 40
0.799999992
  0
ARC
  5
2D656
102
{ACAD_REACTORS
330
2D6B6
102
}
330
18
100
AcDbEntity
  8
TASTEN
100
AcDbCircle
 10
150.3051070701449
 20
202.3077529286242
 30
0.0
 40
10.9999598900004
100
AcDbArc
 50
105.8266791932841
 51
74.17332080671599
  0
ARC
  5
2D657
102
{ACAD_REACTORS
330
2D6B6
102
}
330
18
100
AcDbEntity
  8
TASTEN
100
AcDbCircle
 10
150.3051070701449
 20
202.3077529286242
 30
0.0
 40
9.024999909749999
100
AcDbArc
 50
142.3288689999948
 51
37.67113100000519
  0
ARC
  5
2D658
102
{ACAD_REACTORS
330
2D6B6
102
}
330
18
100
AcDbEntity
  8
TASTEN
100
AcDbCircle
 10
150.3051070701449
 20
202.3077529286242
 30
0.0
 40
7.899999920999999
100
AcDbArc
 50
140.6926960000062
 51
129.307304000007
  0
ARC
  5
2D65E
102
{ACAD_REACTORS
330
2D6B6
102
}
330
18
100
AcDbEntity
  8
TASTEN
100
AcDbCircle
 10
150.3051070701449
 20
202.3077529286242
 30
0.0
 40
9.024999909749999
100
AcDbArc
 50
106.0817319999925
 51
142.3288689999948
  0
ARC
  5
2D65F
102
{ACAD_REACTORS
330
2D6B6
102
}
330
18
100
AcDbEntity
  8
TASTEN
100
AcDbCircle
 10
150.3051070701449
 20
202.3077529286242
 30
0.0
 40
9.024999909749999
100
AcDbArc
 50
37.67113100000519
 51
73.91826800000746
  0
LINE
  5
2D660
102
{ACAD_REACTORS
330
2D6B6
102
}
330
18
100
AcDbEntity
  8
TASTEN
100
AcDbLine
 10
152.805107045145
 20
205.3010788986908
 30
0.0
 11
147.8023744285057
 21
205.3010788986908
 31
0.0
  0
ARC
  5
2D661
102
{ACAD_REACTORS
330
2D6B6
102
}
330
18
100
AcDbEntity
  8
TASTEN
100
AcDbCircle
 10
144.8603847912588
 20
207.7524752075103
 30
0.0
 40
0.799999992
100
AcDbArc
 50
56.61290134791567
 51
213.3870986520832
  0
LINE
  5
2D662
102
{ACAD_REACTORS
330
2D6B6
102
}
330
18
100
AcDbEntity
  8
TASTEN
100
AcDbLine
 10
147.805107095145
 20
208.2535495358329
 30
0.0
 11
147.805107095145
 21
205.3010788986908
 31
0.0
  0
CIRCLE
  5
2D663
102
{ACAD_REACTORS
330
2D6B6
102
}
330
18
100
AcDbEntity
  8
TASTEN
100
AcDbCircle
 10
154.0562624327644
 20
200.4409553781735
 30
0.0
 40
0.799999992
  0
CIRCLE
  5
2D664
102
{ACAD_REACTORS
330
2D6B6
102
}
330
18
100
AcDbEntity
  8
TASTEN
100
AcDbCircle
 10
150.4829186215672
 20
198.1087432002578
 30
0.0
 40
0.799999992
  0
LINE
  5
2D665
102
{ACAD_REACTORS
330
2D6B6
102
}
330
18
100
AcDbEntity
  8
TASTEN
100
AcDbLine
 10
152.805107045145
 20
208.2535495358329
 30
0.0
 11
152.805107045145
 21
205.3010788986908
 31
0.0
  0
LINE
  5
2D666
102
{ACAD_REACTORS
330
2D6B6
102
}
330
18
100
AcDbEntity
  8
TASTEN
100
AcDbLine
 10
148.7551070856449
 20
210.7577528441241
 30
0.0
 11
151.8551070546449
 21
210.7577528441241
 31
0.0
  0
LINE
  5
2D667
102
{ACAD_REACTORS
330
2D6B6
102
}
330
18
100
AcDbEntity
  8
TASTEN
100
AcDbLine
 10
149.155107081645
 20
211.3630128380715
 30
0.0
 11
151.455107058645
 21
211.3630128380715
 31
0.0
  0
LINE
  5
2D669
102
{ACAD_REACTORS
330
2D6B6
102
}
330
18
100
AcDbEntity
  8
TASTEN
100
AcDbLine
 10
147.805107095145
 20
209.8017505203508
 30
0.0
 11
147.805107095145
 21
212.6630128250716
 31
0.0
  0
ARC
  5
2D66A
102
{ACAD_REACTORS
330
2D6B6
102
}
330
18
100
AcDbEntity
  8
TASTEN
100
AcDbCircle
 10
149.1551070816449
 20
210.9630128420716
 30
0.0
 40
0.399999996
100
AcDbArc
 50
90.0
 51
180.0
  0
LINE
  5
2D66E
102
{ACAD_REACTORS
330
2D6B6
102
}
330
18
100
AcDbEntity
  8
TASTEN
100
AcDbLine
 10
145.3051071201449
 20
216.6798831182362
 30
0.0
 11
145.3051071201449
 21
215.8287137934146
 31
0.0
  0
LINE
  5
2D66F
102
{ACAD_REACTORS
330
2D6B6
102
}
330
18
100
AcDbEntity
  8
TASTEN
100
AcDbLine
 10
152.805107045145
 20
209.8017505203508
 30
0.0
 11
152.805107045145
 21
212.6630128250716
 31
0.0
  0
ARC
  5
2D670
102
{ACAD_REACTORS
330
2D6B6
102
}
330
18
100
AcDbEntity
  8
TASTEN
100
AcDbCircle
 10
151.4551070586449
 20
210.9630128420716
 30
0.0
 40
0.399999996
100
AcDbArc
 50
0.0
 51
90.0
  0
LINE
  5
2D673
102
{ACAD_REACTORS
330
2D6B6
102
}
330
18
100
AcDbEntity
  8
TASTEN
100
AcDbLine
 10
155.305107020145
 20
216.6798831182362
 30
0.0
 11
155.305107020145
 21
215.8287137934146
 31
0.0
  0
ARC
  5
2D677
102
{ACAD_REACTORS
330
2D6B6
102
}
330
18
100
AcDbEntity
  8
TASTEN
100
AcDbCircle
 10
150.3051070701449
 20
209.2630128590716
 30
0.0
 40
9.999999899999998
100
AcDbArc
 50
67.9756869999984
 51
112.0243130000015
  0
ARC
  5
2D678
102
{ACAD_REACTORS
330
2D6B6
102
}
330
18
100
AcDbEntity
  8
TASTEN
100
AcDbCircle
 10
147.3051071001449
 20
216.6792114515763
 30
0.0
 40
1.999999979999999
100
AcDbArc
 50
112.0243130000015
 51
180.0
  0
ARC
  5
2D679
102
{ACAD_REACTORS
330
2D6B6
102
}
330
18
100
AcDbEntity
  8
TASTEN
100
AcDbCircle
 10
153.3051070401449
 20
216.6792114515763
 30
0.0
 40
1.999999979999999
100
AcDbArc
 50
0.0
 51
67.9756869999984
  0
LINE
  5
2D67A
102
{ACAD_REACTORS
330
2D6B6
102
}
330
18
100
AcDbEntity
  8
TASTEN
100
AcDbLine
 10
155.305107020145
 20
216.6792114515762
 30
0.0
 11
155.305107020145
 21
215.8630127930715
 31
0.0
  0
ARC
  5
2D67B
102
{ACAD_REACTORS
330
2D6B6
102
}
330
18
100
AcDbEntity
  8
TASTEN
100
AcDbCircle
 10
153.3051070401449
 20
215.8630127930716
 30
0.0
 40
1.999999979999999
100
AcDbArc
 50
270.0
 51
0.0
  0
LINE
  5
2D67C
102
{ACAD_REACTORS
330
2D6B6
102
}
330
18
100
AcDbEntity
  8
TASTEN
100
AcDbLine
 10
145.3051071201449
 20
216.6792114515762
 30
0.0
 11
145.3051071201449
 21
215.8630127930715
 31
0.0
  0
ARC
  5
2D67D
102
{ACAD_REACTORS
330
2D6B6
102
}
330
18
100
AcDbEntity
  8
TASTEN
100
AcDbCircle
 10
147.3051071001449
 20
215.8630127930716
 30
0.0
 40
1.999999979999999
100
AcDbArc
 50
180.0
 51
270.0
  0
ARC
  5
2D67E
102
{ACAD_REACTORS
330
2D6B6
102
}
330
18
100
AcDbEntity
  8
TASTEN
100
AcDbCircle
 10
147.3051071001449
 20
215.8630127930716
 30
0.0
 40
1.999999979999999
100
AcDbArc
 50
180.0
 51
270.0
  0
ARC
  5
2D67F
102
{ACAD_REACTORS
330
2D6B6
102
}
330
18
100
AcDbEntity
  8
TASTEN
100
AcDbCircle
 10
147.6051070971449
 20
213.5630128160716
 30
0.0
 40
0.299999997
100
AcDbArc
 50
0.0
 51
90.0
  0
LINE
  5
2D680
102
{ACAD_REACTORS
330
2D6B6
102
}
330
18
100
AcDbEntity
  8
TASTEN
100
AcDbLine
 10
147.3051071001449
 20
213.8630128130715
 30
0.0
 11
147.6051070971449
 21
213.8630128130715
 31
0.0
  0
LINE
  5
2D681
102
{ACAD_REACTORS
330
2D6B6
102
}
330
18
100
AcDbEntity
  8
TASTEN
100
AcDbLine
 10
153.0051070431449
 20
213.8630128130715
 30
0.0
 11
153.3051070401449
 21
213.8630128130715
 31
0.0
  0
ARC
  5
2D682
102
{ACAD_REACTORS
330
2D6B6
102
}
330
18
100
AcDbEntity
  8
TASTEN
100
AcDbCircle
 10
153.0051070431449
 20
213.5630128160716
 30
0.0
 40
0.299999997
100
AcDbArc
 50
90.0
 51
180.0
  0
LINE
  5
2D683
102
{ACAD_REACTORS
330
2D6B6
102
}
330
18
100
AcDbEntity
  8
TASTEN
100
AcDbLine
 10
152.7051070461449
 20
213.5630128160715
 30
0.0
 11
152.7051070461449
 21
212.6630128250716
 31
0.0
  0
LINE
  5
2D684
102
{ACAD_REACTORS
330
2D6B6
102
}
330
18
100
AcDbEntity
  8
TASTEN
100
AcDbLine
 10
147.9051070941449
 20
213.5630128160715
 30
0.0
 11
147.9051070941449
 21
212.6630128250716
 31
0.0
  0
LINE
  5
2D685
102
{ACAD_REACTORS
330
2D6B6
102
}
330
18
100
AcDbEntity
  8
TASTEN
100
AcDbLine
 10
147.3051071001449
 20
213.4630128170715
 30
0.0
 11
147.9051070941449
 21
213.4630128170715
 31
0.0
  0
LINE
  5
2D686
102
{ACAD_REACTORS
330
2D6B6
102
}
330
18
100
AcDbEntity
  8
TASTEN
100
AcDbLine
 10
147.3051071001449
 20
213.4630128170715
 30
0.0
 11
147.3051071001449
 21
212.6630128250716
 31
0.0
  0
LINE
  5
2D687
102
{ACAD_REACTORS
330
2D6B6
102
}
330
18
100
AcDbEntity
  8
TASTEN
100
AcDbLine
 10
152.7051070461449
 20
213.4630128170715
 30
0.0
 11
153.3051070401449
 21
213.4630128170715
 31
0.0
  0
LINE
  5
2D688
102
{ACAD_REACTORS
330
2D6B6
102
}
330
18
100
AcDbEntity
  8
TASTEN
100
AcDbLine
 10
153.3051070401449
 20
213.4630128170715
 30
0.0
 11
153.3051070401449
 21
212.6630128250716
 31
0.0
  0
LINE
  5
2D689
102
{ACAD_REACTORS
330
2D6B6
102
}
330
18
100
AcDbEntity
  8
TASTEN
100
AcDbLine
 10
147.3051071001449
 20
212.6630128250716
 30
0.0
 11
153.3051070401449
 21
212.6630128250716
 31
0.0
  0
LINE
  5
2D68A
102
{ACAD_REACTORS
330
2D6B6
102
}
330
18
100
AcDbEntity
  8
TASTEN
100
AcDbLine
 10
148.7551070856449
 20
210.9630128420716
 30
0.0
 11
148.7551070856449
 21
210.0542035178262
 31
0.0
  0
ARC
  5
2D68B
102
{ACAD_REACTORS
330
2D6B6
102
}
330
18
100
AcDbEntity
  8
TASTEN
100
AcDbCircle
 10
149.1551070816449
 20
210.9630128420716
 30
0.0
 40
0.399999996
100
AcDbArc
 50
90.0
 51
180.0
  0
LINE
  5
2D68C
102
{ACAD_REACTORS
330
2D6B6
102
}
330
18
100
AcDbEntity
  8
TASTEN
100
AcDbLine
 10
149.155107081645
 20
211.3630128380715
 30
0.0
 11
151.455107058645
 21
211.3630128380715
 31
0.0
  0
LINE
  5
2D68D
102
{ACAD_REACTORS
330
2D6B6
102
}
330
18
100
AcDbEntity
  8
TASTEN
100
AcDbLine
 10
150.305107070145
 20
211.3630128380715
 30
0.0
 11
149.155107081645
 21
211.3630128380715
 31
0.0
  0
ARC
  5
2D68E
102
{ACAD_REACTORS
330
2D6B6
102
}
330
18
100
AcDbEntity
  8
TASTEN
100
AcDbCircle
 10
151.4551070586449
 20
210.9630128420716
 30
0.0
 40
0.399999996
100
AcDbArc
 50
0.0
 51
90.0
  0
LINE
  5
2D68F
102
{ACAD_REACTORS
330
2D6B6
102
}
330
18
100
AcDbEntity
  8
TASTEN
100
AcDbLine
 10
151.8551070546449
 20
210.9630128420716
 30
0.0
 11
151.8551070546449
 21
210.0542035178262
 31
0.0
  0
LINE
  5
2D6A6
102
{ACAD_REACTORS
330
2D6B6
102
}
330
18
100
AcDbEntity
  8
TASTEN
100
AcDbLine
 10
148.7551070856449
 20
210.8843975095244
 30
0.0
 11
148.7551070856449
 21
210.0542035178262
 31
0.0
  0
LINE
  5
2D6A7
102
{ACAD_REACTORS
330
2D6B6
102
}
330
18
100
AcDbEntity
  8
TASTEN
100
AcDbLine
 10
151.8551070546449
 20
210.8843975095244
 30
0.0
 11
151.8551070546449
 21
210.0542035178262
 31
0.0
  0
TEXT
  5
2D6A8
102
{ACAD_REACTORS
330
2D6B6
102
}
330
18
100
AcDbEntity
  8
TASTEN
100
AcDbText
 10
146.9681177701815
 20
214.4614128070875
 30
0.0
 40
1.799999982
  1
PUSH
 41
0.8571428571414177
 72
     5
 11
152.6252605707434
 21
214.4614128070875
 31
0.0
100
AcDbText
  0
CIRCLE
  5
2D6B8
102
{ACAD_REACTORS
330
2D6BA
102
}
330
18
100
AcDbEntity
  8
BLECH
100
AcDbCircle
 10
160.7693504482489
 20
219.0656467053399
 30
0.0
 40
2.5
  0
LWPOLYLINE
  5
2D6B9
102
{ACAD_REACTORS
330
2D6BA
102
}
330
18
100
AcDbEntity
  8
BLECH
100
AcDbPolyline
 90
        6
 70
     1
 43
0.0
 10
160.3024124649261
 20
219.8744070164388
 10
159.8354744816032
 20
219.0656467053399
 10
160.3024124649261
 20
218.2568863942409
 10
161.2362884315718
 20
218.2568863942409
 10
161.7032264148946
 20
219.0656467053399
 10
161.2362884315718
 20
219.8744070164388
  0
CIRCLE
  5
2D6BB
102
{ACAD_REACTORS
330
2D6BD
102
}
330
18
100
AcDbEntity
  8
BLECH
100
AcDbCircle
 10
161.0794185458939
 20
191.7360352032131
 30
0.0
 40
2.5
  0
LWPOLYLINE
  5
2D6BC
102
{ACAD_REACTORS
330
2D6BD
102
}
330
18
100
AcDbEntity
  8
BLECH
100
AcDbPolyline
 90
        6
 70
     1
 43
0.0
 10
160.6124805625711
 20
192.544795514312
 10
160.1455425792482
 20
191.7360352032131
 10
160.6124805625711
 20
190.9272748921141
 10
161.5463565292168
 20
190.9272748921141
 10
162.0132945125396
 20
191.7360352032131
 10
161.5463565292168
 20
192.544795514312
  0
CIRCLE
  5
2D6BE
102
{ACAD_REACTORS
330
2D6C0
102
}
330
18
100
AcDbEntity
  8
BLECH
100
AcDbCircle
 10
134.5042285160083
 20
185.0567755029689
 30
0.0
 40
2.5
  0
LWPOLYLINE
  5
2D6BF
102
{ACAD_REACTORS
330
2D6C0
102
}
330
18
100
AcDbEntity
  8
BLECH
100
AcDbPolyline
 90
        6
 70
     1
 43
0.0
 10
134.0372905326855
 20
185.8655358140678
 10
133.5703525493626
 20
185.0567755029689
 10
134.0372905326855
 20
184.24801519187
 10
134.9711664993312
 20
184.24801519187
 10
135.438104482654
 20
185.0567755029689
 10
134.9711664993312
 20
185.8655358140678
  0
CIRCLE
  5
2D6C1
102
{ACAD_REACTORS
330
2D6C3
102
}
330
18
100
AcDbEntity
  8
BLECH
100
AcDbCircle
 10
179.2790437108912
 20
185.0567755029689
 30
0.0
 40
2.5
  0
LWPOLYLINE
  5
2D6C2
102
{ACAD_REACTORS
330
2D6C3
102
}
330
18
100
AcDbEntity
  8
BLECH
100
AcDbPolyline
 90
        6
 70
     1
 43
0.0
 10
178.8121057275684
 20
185.8655358140678
 10
178.3451677442455
 20
185.0567755029689
 10
178.8121057275684
 20
184.24801519187
 10
179.7459816942141
 20
184.24801519187
 10
180.2129196775369
 20
185.0567755029689
 10
179.7459816942141
 20
185.8655358140678
  0
CIRCLE
  5
2D6C4
102
{ACAD_REACTORS
330
2D6C6
102
}
330
18
100
AcDbEntity
  8
BLECH
100
AcDbCircle
 10
240.2249324708474
 20
219.0656467053399
 30
0.0
 40
2.5
  0
LWPOLYLINE
  5
2D6C5
102
{ACAD_REACTORS
330
2D6C6
102
}
330
18
100
AcDbEntity
  8
BLECH
100
AcDbPolyline
 90
        6
 70
     1
 43
0.0
 10
239.7579944875246
 20
219.8744070164388
 10
239.2910565042017
 20
219.0656467053399
 10
239.7579944875246
 20
218.2568863942409
 10
240.6918704541703
 20
218.2568863942409
 10
241.1588084374931
 20
219.0656467053399
 10
240.6918704541703
 20
219.8744070164388
  0
CIRCLE
  5
2D6C7
102
{ACAD_REACTORS
330
2D6C9
102
}
330
18
100
AcDbEntity
  8
BLECH
100
AcDbCircle
 10
239.8794396357304
 20
167.0903964107188
 30
0.0
 40
2.5
  0
LWPOLYLINE
  5
2D6C8
102
{ACAD_REACTORS
330
2D6C9
102
}
330
18
100
AcDbEntity
  8
BLECH
100
AcDbPolyline
 90
        6
 70
     1
 43
0.0
 10
239.4125016524076
 20
167.8991567218177
 10
238.9455636690847
 20
167.0903964107188
 10
239.4125016524076
 20
166.2816360996199
 10
240.3463776190533
 20
166.2816360996199
 10
240.8133156023761
 20
167.0903964107188
 10
240.3463776190533
 20
167.8991567218177
  0
CIRCLE
  5
2D6CA
102
{ACAD_REACTORS
330
2D6CC
102
}
330
18
100
AcDbEntity
  8
BLECH
100
AcDbCircle
 10
239.8794396357304
 20
122.1288456480564
 30
0.0
 40
2.5
  0
LWPOLYLINE
  5
2D6CB
102
{ACAD_REACTORS
330
2D6CC
102
}
330
18
100
AcDbEntity
  8
BLECH
100
AcDbPolyline
 90
        6
 70
     1
 43
0.0
 10
239.4125016524076
 20
122.9376059591553
 10
238.9455636690847
 20
122.1288456480564
 10
239.4125016524076
 20
121.3200853369575
 10
240.3463776190533
 20
121.3200853369575
 10
240.8133156023761
 20
122.1288456480564
 10
240.3463776190533
 20
122.9376059591553
  0
CIRCLE
  5
2D6CD
102
{ACAD_REACTORS
330
2D6CF
102
}
330
18
100
AcDbEntity
  8
BLECH
100
AcDbCircle
 10
134.5042285160083
 20
140.0044570290332
 30
0.0
 40
2.5
  0
LWPOLYLINE
  5
2D6CE
102
{ACAD_REACTORS
330
2D6CF
102
}
330
18
100
AcDbEntity
  8
BLECH
100
AcDbPolyline
 90
        6
 70
     1
 43
0.0
 10
134.0372905326855
 20
140.8132173401322
 10
133.5703525493626
 20
140.0044570290332
 10
134.0372905326855
 20
139.1956967179343
 10
134.9711664993312
 20
139.1956967179343
 10
135.438104482654
 20
140.0044570290332
 10
134.9711664993312
 20
140.8132173401322
  0
CIRCLE
  5
2D6D0
102
{ACAD_REACTORS
330
2D6D2
102
}
330
18
100
AcDbEntity
  8
BLECH
100
AcDbCircle
 10
179.2790437108912
 20
140.0044570290332
 30
0.0
 40
2.5
  0
LWPOLYLINE
  5
2D6D1
102
{ACAD_REACTORS
330
2D6D2
102
}
330
18
100
AcDbEntity
  8
BLECH
100
AcDbPolyline
 90
        6
 70
     1
 43
0.0
 10
178.8121057275684
 20
140.8132173401322
 10
178.3451677442455
 20
140.0044570290332
 10
178.8121057275684
 20
139.1956967179343
 10
179.7459816942141
 20
139.1956967179343
 10
180.2129196775369
 20
140.0044570290332
 10
179.7459816942141
 20
140.8132173401322
  0
CIRCLE
  5
2D6D3
330
18
100
AcDbEntity
  8
BLECH
100
AcDbCircle
 10
138.9951275273777
 20
154.5547222306284
 30
0.0
 40
1.039517627314299
  0
CIRCLE
  5
2D6F2
330
18
100
AcDbEntity
  8
BLECH
100
AcDbCircle
 10
138.9951275273777
 20
159.7547222306284
 30
0.0
 40
1.039517627314299
  0
CIRCLE
  5
2D6F3
330
18
100
AcDbEntity
  8
BLECH
100
AcDbCircle
 10
138.9951275273777
 20
164.9547222306284
 30
0.0
 40
1.039517627314299
  0
CIRCLE
  5
2D6F4
330
18
100
AcDbEntity
  8
BLECH
100
AcDbCircle
 10
138.9951275273777
 20
170.1547222306284
 30
0.0
 40
1.039517627314299
  0
CIRCLE
  5
2D6F5
330
18
100
AcDbEntity
  8
BLECH
100
AcDbCircle
 10
144.9951275273777
 20
154.5547222306284
 30
0.0
 40
1.039517627314299
  0
CIRCLE
  5
2D6F6
330
18
100
AcDbEntity
  8
BLECH
100
AcDbCircle
 10
144.9951275273777
 20
159.7547222306284
 30
0.0
 40
1.039517627314299
  0
CIRCLE
  5
2D6F7
330
18
100
AcDbEntity
  8
BLECH
100
AcDbCircle
 10
144.9951275273777
 20
164.9547222306284
 30
0.0
 40
1.039517627314299
  0
CIRCLE
  5
2D6F8
330
18
100
AcDbEntity
  8
BLECH
100
AcDbCircle
 10
144.9951275273777
 20
170.1547222306284
 30
0.0
 40
1.039517627314299
  0
CIRCLE
  5
2D6F9
330
18
100
AcDbEntity
  8
BLECH
100
AcDbCircle
 10
150.9951275273777
 20
154.5547222306284
 30
0.0
 40
1.039517627314299
  0
CIRCLE
  5
2D6FA
330
18
100
AcDbEntity
  8
BLECH
100
AcDbCircle
 10
150.9951275273777
 20
159.7547222306284
 30
0.0
 40
1.039517627314299
  0
CIRCLE
  5
2D6FB
330
18
100
AcDbEntity
  8
BLECH
100
AcDbCircle
 10
150.9951275273777
 20
164.9547222306284
 30
0.0
 40
1.039517627314299
  0
CIRCLE
  5
2D6FC
330
18
100
AcDbEntity
  8
BLECH
100
AcDbCircle
 10
150.9951275273777
 20
170.1547222306284
 30
0.0
 40
1.039517627314299
  0
CIRCLE
  5
2D6FD
330
18
100
AcDbEntity
  8
BLECH
100
AcDbCircle
 10
156.9951275273777
 20
154.5547222306284
 30
0.0
 40
1.039517627314299
  0
CIRCLE
  5
2D6FE
330
18
100
AcDbEntity
  8
BLECH
100
AcDbCircle
 10
156.9951275273777
 20
159.7547222306284
 30
0.0
 40
1.039517627314299
  0
CIRCLE
  5
2D6FF
330
18
100
AcDbEntity
  8
BLECH
100
AcDbCircle
 10
156.9951275273777
 20
164.9547222306284
 30
0.0
 40
1.039517627314299
  0
CIRCLE
  5
2D700
330
18
100
AcDbEntity
  8
BLECH
100
AcDbCircle
 10
156.9951275273777
 20
170.1547222306284
 30
0.0
 40
1.039517627314299
  0
CIRCLE
  5
2D701
330
18
100
AcDbEntity
  8
BLECH
100
AcDbCircle
 10
162.9951275273777
 20
154.5547222306284
 30
0.0
 40
1.039517627314299
  0
CIRCLE
  5
2D702
330
18
100
AcDbEntity
  8
BLECH
100
AcDbCircle
 10
162.9951275273777
 20
159.7547222306284
 30
0.0
 40
1.039517627314299
  0
CIRCLE
  5
2D703
330
18
100
AcDbEntity
  8
BLECH
100
AcDbCircle
 10
162.9951275273777
 20
164.9547222306284
 30
0.0
 40
1.039517627314299
  0
CIRCLE
  5
2D704
330
18
100
AcDbEntity
  8
BLECH
100
AcDbCircle
 10
162.9951275273777
 20
170.1547222306284
 30
0.0
 40
1.039517627314299
  0
CIRCLE
  5
2D705
330
18
100
AcDbEntity
  8
BLECH
100
AcDbCircle
 10
168.9951275273777
 20
154.5547222306284
 30
0.0
 40
1.039517627314299
  0
CIRCLE
  5
2D706
330
18
100
AcDbEntity
  8
BLECH
100
AcDbCircle
 10
168.9951275273777
 20
159.7547222306284
 30
0.0
 40
1.039517627314299
  0
CIRCLE
  5
2D707
330
18
100
AcDbEntity
  8
BLECH
100
AcDbCircle
 10
168.9951275273777
 20
164.9547222306284
 30
0.0
 40
1.039517627314299
  0
CIRCLE
  5
2D708
330
18
100
AcDbEntity
  8
BLECH
100
AcDbCircle
 10
168.9951275273777
 20
170.1547222306284
 30
0.0
 40
1.039517627314299
  0
CIRCLE
  5
2D709
330
18
100
AcDbEntity
  8
BLECH
100
AcDbCircle
 10
174.9951275273777
 20
154.5547222306284
 30
0.0
 40
1.039517627314299
  0
CIRCLE
  5
2D70A
330
18
100
AcDbEntity
  8
BLECH
100
AcDbCircle
 10
174.9951275273777
 20
159.7547222306284
 30
0.0
 40
1.039517627314299
  0
CIRCLE
  5
2D70B
330
18
100
AcDbEntity
  8
BLECH
100
AcDbCircle
 10
174.9951275273777
 20
164.9547222306284
 30
0.0
 40
1.039517627314299
  0
CIRCLE
  5
2D70C
330
18
100
AcDbEntity
  8
BLECH
100
AcDbCircle
 10
174.9951275273777
 20
170.1547222306284
 30
0.0
 40
1.039517627314299
  0
CIRCLE
  5
2D70D
330
18
100
AcDbEntity
  8
BLECH
100
AcDbCircle
 10
144.9951275273777
 20
175.3547222306283
 30
0.0
 40
1.039517627314299
  0
CIRCLE
  5
2D70E
330
18
100
AcDbEntity
  8
BLECH
100
AcDbCircle
 10
150.9951275273777
 20
175.3547222306283
 30
0.0
 40
1.039517627314299
  0
CIRCLE
  5
2D70F
330
18
100
AcDbEntity
  8
BLECH
100
AcDbCircle
 10
156.9951275273777
 20
175.3547222306283
 30
0.0
 40
1.039517627314299
  0
CIRCLE
  5
2D710
330
18
100
AcDbEntity
  8
BLECH
100
AcDbCircle
 10
162.9951275273777
 20
175.3547222306283
 30
0.0
 40
1.039517627314299
  0
CIRCLE
  5
2D711
330
18
100
AcDbEntity
  8
BLECH
100
AcDbCircle
 10
168.9951275273777
 20
175.3547222306283
 30
0.0
 40
1.039517627314299
  0
CIRCLE
  5
2D712
330
18
100
AcDbEntity
  8
BLECH
100
AcDbCircle
 10
150.9951275273777
 20
180.5547222306283
 30
0.0
 40
1.039517627314299
  0
CIRCLE
  5
2D713
330
18
100
AcDbEntity
  8
BLECH
100
AcDbCircle
 10
156.9951275273777
 20
180.5547222306283
 30
0.0
 40
1.039517627314299
  0
CIRCLE
  5
2D714
330
18
100
AcDbEntity
  8
BLECH
100
AcDbCircle
 10
162.9951275273777
 20
180.5547222306283
 30
0.0
 40
1.039517627314299
  0
CIRCLE
  5
2D715
330
18
100
AcDbEntity
  8
BLECH
100
AcDbCircle
 10
144.9951275273777
 20
149.3547222306284
 30
0.0
 40
1.039517627314299
  0
CIRCLE
  5
2D716
330
18
100
AcDbEntity
  8
BLECH
100
AcDbCircle
 10
150.9951275273777
 20
149.3547222306284
 30
0.0
 40
1.039517627314299
  0
CIRCLE
  5
2D717
330
18
100
AcDbEntity
  8
BLECH
100
AcDbCircle
 10
156.9951275273777
 20
149.3547222306284
 30
0.0
 40
1.039517627314299
  0
CIRCLE
  5
2D718
330
18
100
AcDbEntity
  8
BLECH
100
AcDbCircle
 10
162.9951275273777
 20
149.3547222306284
 30
0.0
 40
1.039517627314299
  0
CIRCLE
  5
2D719
330
18
100
AcDbEntity
  8
BLECH
100
AcDbCircle
 10
168.9951275273777
 20
149.3547222306284
 30
0.0
 40
1.039517627314299
  0
CIRCLE
  5
2D71A
330
18
100
AcDbEntity
  8
BLECH
100
AcDbCircle
 10
150.9951275273777
 20
144.1547222306284
 30
0.0
 40
1.039517627314299
  0
CIRCLE
  5
2D71B
330
18
100
AcDbEntity
  8
BLECH
100
AcDbCircle
 10
156.9951275273777
 20
144.1547222306284
 30
0.0
 40
1.039517627314299
  0
CIRCLE
  5
2D71C
330
18
100
AcDbEntity
  8
BLECH
100
AcDbCircle
 10
162.9951275273777
 20
144.1547222306284
 30
0.0
 40
1.039517627314299
  0
LWPOLYLINE
  5
2D71D
330
18
100
AcDbEntity
  8
TASTEN
100
AcDbPolyline
 90
        8
 70
     1
 43
0.0
 10
203.9670646357304
 20
161.0813242686633
 10
215.7918146357304
 20
161.0813242686634
 42
0.4142135623730948
 10
216.1296646357304
 20
161.4191742686634
 10
216.1296646357304
 20
173.2439242686634
 42
0.4142135623730956
 10
215.7918146357304
 20
173.5817742686634
 10
203.9670646357304
 20
173.5817742686633
 42
0.4142135623730951
 10
203.6292146357304
 20
173.2439242686634
 10
203.6292146357304
 20
161.4191742686633
 42
0.4142135623730956
  0
LWPOLYLINE
  5
2D71E
330
18
100
AcDbEntity
  8
TASTEN
100
AcDbPolyline
 90
        8
 70
     1
 43
0.0
 10
204.6427646357304
 20
161.4191742686633
 10
215.1161146357304
 20
161.4191742686633
 42
0.4142135623730951
 10
215.7918146357304
 20
162.0948742686634
 10
215.7918146357304
 20
172.5682242686634
 42
0.4142135623730951
 10
215.1161146357304
 20
173.2439242686634
 10
204.6427646357304
 20
173.2439242686634
 42
0.4142135623730951
 10
203.9670646357304
 20
172.5682242686634
 10
203.9670646357304
 20
162.0948742686634
 42
0.4142135623730951
  0
LWPOLYLINE
  5
2D71F
330
18
100
AcDbEntity
  8
TASTEN
100
AcDbPolyline
 90
        8
 70
     1
 43
0.0
 10
223.9670646357304
 20
161.0813242686633
 10
235.7918146357304
 20
161.0813242686634
 42
0.4142135623730948
 10
236.1296646357304
 20
161.4191742686634
 10
236.1296646357304
 20
173.2439242686634
 42
0.4142135623730956
 10
235.7918146357304
 20
173.5817742686634
 10
223.9670646357304
 20
173.5817742686633
 42
0.4142135623730951
 10
223.6292146357304
 20
173.2439242686634
 10
223.6292146357304
 20
161.4191742686633
 42
0.4142135623730956
  0
LWPOLYLINE
  5
2D720
330
18
100
AcDbEntity
  8
TASTEN
100
AcDbPolyline
 90
        8
 70
     1
 43
0.0
 10
224.6427646357304
 20
161.4191742686633
 10
235.1161146357304
 20
161.4191742686633
 42
0.4142135623730951
 10
235.7918146357304
 20
162.0948742686634
 10
235.7918146357304
 20
172.5682242686634
 42
0.4142135623730951
 10
235.1161146357304
 20
173.2439242686634
 10
224.6427646357304
 20
173.2439242686634
 42
0.4142135623730951
 10
223.9670646357304
 20
172.5682242686634
 10
223.9670646357304
 20
162.0948742686634
 42
0.4142135623730951
  0
LWPOLYLINE
  5
2D721
330
18
100
AcDbEntity
  8
TASTEN
100
AcDbPolyline
 90
        8
 70
     1
 43
0.0
 10
243.9670646357304
 20
161.0813242686633
 10
255.7918146357304
 20
161.0813242686634
 42
0.4142135623730948
 10
256.1296646357304
 20
161.4191742686634
 10
256.1296646357304
 20
173.2439242686634
 42
0.4142135623730956
 10
255.7918146357304
 20
173.5817742686634
 10
243.9670646357304
 20
173.5817742686633
 42
0.4142135623730951
 10
243.6292146357304
 20
173.2439242686634
 10
243.6292146357304
 20
161.4191742686633
 42
0.4142135623730956
  0
LWPOLYLINE
  5
2D722
330
18
100
AcDbEntity
  8
TASTEN
100
AcDbPolyline
 90
        8
 70
     1
 43
0.0
 10
244.6427646357304
 20
161.4191742686633
 10
255.1161146357304
 20
161.4191742686633
 42
0.4142135623730951
 10
255.7918146357304
 20
162.0948742686634
 10
255.7918146357304
 20
172.5682242686634
 42
0.4142135623730951
 10
255.1161146357304
 20
173.2439242686634
 10
244.6427646357304
 20
173.2439242686634
 42
0.4142135623730951
 10
243.9670646357304
 20
172.5682242686634
 10
243.9670646357304
 20
162.0948742686634
 42
0.4142135623730951
  0
LWPOLYLINE
  5
2D723
330
18
100
AcDbEntity
  8
TASTEN
100
AcDbPolyline
 90
        8
 70
     1
 43
0.0
 10
263.9670646357304
 20
161.0813242686633
 10
275.7918146357304
 20
161.0813242686634
 42
0.4142135623730948
 10
276.1296646357304
 20
161.4191742686634
 10
276.1296646357304
 20
173.2439242686634
 42
0.4142135623730956
 10
275.7918146357304
 20
173.5817742686634
 10
263.9670646357304
 20
173.5817742686633
 42
0.4142135623730951
 10
263.6292146357304
 20
173.2439242686634
 10
263.6292146357304
 20
161.4191742686633
 42
0.4142135623730956
  0
LWPOLYLINE
  5
2D724
330
18
100
AcDbEntity
  8
TASTEN
100
AcDbPolyline
 90
        8
 70
     1
 43
0.0
 10
264.6427646357304
 20
161.4191742686633
 10
275.1161146357304
 20
161.4191742686633
 42
0.4142135623730951
 10
275.7918146357304
 20
162.0948742686634
 10
275.7918146357304
 20
172.5682242686634
 42
0.4142135623730951
 10
275.1161146357304
 20
173.2439242686634
 10
264.6427646357304
 20
173.2439242686634
 42
0.4142135623730951
 10
263.9670646357304
 20
172.5682242686634
 10
263.9670646357304
 20
162.0948742686634
 42
0.4142135623730951
  0
LWPOLYLINE
  5
2D725
330
18
100
AcDbEntity
  8
TASTEN
100
AcDbPolyline
 90
        8
 70
     1
 43
0.0
 10
204.1926587658987
 20
135.9314265682979
 10
216.0174087658987
 20
135.931426568298
 42
0.4142135623730948
 10
216.3552587658987
 20
136.269276568298
 10
216.3552587658987
 20
148.094026568298
 42
0.4142135623730956
 10
216.0174087658987
 20
148.431876568298
 10
204.1926587658987
 20
148.431876568298
 42
0.4142135623730951
 10
203.8548087658987
 20
148.094026568298
 10
203.8548087658987
 20
136.269276568298
 42
0.4142135623730956
  0
LWPOLYLINE
  5
2D726
330
18
100
AcDbEntity
  8
TASTEN
100
AcDbPolyline
 90
        8
 70
     1
 43
0.0
 10
204.8683587658986
 20
136.269276568298
 10
215.3417087658986
 20
136.269276568298
 42
0.4142135623730951
 10
216.0174087658987
 20
136.944976568298
 10
216.0174087658987
 20
147.418326568298
 42
0.4142135623730951
 10
215.3417087658986
 20
148.094026568298
 10
204.8683587658986
 20
148.094026568298
 42
0.4142135623730951
 10
204.1926587658987
 20
147.418326568298
 10
204.1926587658987
 20
136.944976568298
 42
0.4142135623730951
  0
LWPOLYLINE
  5
2D727
330
18
100
AcDbEntity
  8
TASTEN
100
AcDbPolyline
 90
        8
 70
     1
 43
0.0
 10
224.1926587658987
 20
135.9314265682979
 10
236.0174087658986
 20
135.931426568298
 42
0.4142135623730948
 10
236.3552587658987
 20
136.269276568298
 10
236.3552587658987
 20
148.094026568298
 42
0.4142135623730956
 10
236.0174087658986
 20
148.431876568298
 10
224.1926587658987
 20
148.431876568298
 42
0.4142135623730951
 10
223.8548087658987
 20
148.094026568298
 10
223.8548087658987
 20
136.269276568298
 42
0.4142135623730956
  0
LWPOLYLINE
  5
2D728
330
18
100
AcDbEntity
  8
TASTEN
100
AcDbPolyline
 90
        8
 70
     1
 43
0.0
 10
224.8683587658987
 20
136.269276568298
 10
235.3417087658987
 20
136.269276568298
 42
0.4142135623730951
 10
236.0174087658986
 20
136.944976568298
 10
236.0174087658986
 20
147.418326568298
 42
0.4142135623730951
 10
235.3417087658987
 20
148.094026568298
 10
224.8683587658987
 20
148.094026568298
 42
0.4142135623730951
 10
224.1926587658987
 20
147.418326568298
 10
224.1926587658987
 20
136.944976568298
 42
0.4142135623730951
  0
LWPOLYLINE
  5
2D729
330
18
100
AcDbEntity
  8
TASTEN
100
AcDbPolyline
 90
        8
 70
     1
 43
0.0
 10
244.1926587658987
 20
135.9314265682979
 10
256.0174087658987
 20
135.931426568298
 42
0.4142135623730948
 10
256.3552587658987
 20
136.269276568298
 10
256.3552587658987
 20
148.094026568298
 42
0.4142135623730956
 10
256.0174087658987
 20
148.431876568298
 10
244.1926587658987
 20
148.431876568298
 42
0.4142135623730951
 10
243.8548087658987
 20
148.094026568298
 10
243.8548087658987
 20
136.269276568298
 42
0.4142135623730956
  0
LWPOLYLINE
  5
2D72A
330
18
100
AcDbEntity
  8
TASTEN
100
AcDbPolyline
 90
        8
 70
     1
 43
0.0
 10
244.8683587658987
 20
136.269276568298
 10
255.3417087658987
 20
136.269276568298
 42
0.4142135623730951
 10
256.0174087658987
 20
136.944976568298
 10
256.0174087658987
 20
147.418326568298
 42
0.4142135623730951
 10
255.3417087658987
 20
148.094026568298
 10
244.8683587658987
 20
148.094026568298
 42
0.4142135623730951
 10
244.1926587658987
 20
147.418326568298
 10
244.1926587658987
 20
136.944976568298
 42
0.4142135623730951
  0
LWPOLYLINE
  5
2D72B
330
18
100
AcDbEntity
  8
TASTEN
100
AcDbPolyline
 90
        8
 70
     1
 43
0.0
 10
264.1926587658987
 20
135.9314265682979
 10
276.0174087658987
 20
135.931426568298
 42
0.4142135623730948
 10
276.3552587658987
 20
136.269276568298
 10
276.3552587658987
 20
148.094026568298
 42
0.4142135623730956
 10
276.0174087658987
 20
148.431876568298
 10
264.1926587658987
 20
148.431876568298
 42
0.4142135623730951
 10
263.8548087658987
 20
148.094026568298
 10
263.8548087658987
 20
136.269276568298
 42
0.4142135623730956
  0
LWPOLYLINE
  5
2D72C
330
18
100
AcDbEntity
  8
TASTEN
100
AcDbPolyline
 90
        8
 70
     1
 43
0.0
 10
264.8683587658986
 20
136.269276568298
 10
275.3417087658986
 20
136.269276568298
 42
0.4142135623730951
 10
276.0174087658987
 20
136.944976568298
 10
276.0174087658987
 20
147.418326568298
 42
0.4142135623730951
 10
275.3417087658986
 20
148.094026568298
 10
264.8683587658986
 20
148.094026568298
 42
0.4142135623730951
 10
264.1926587658987
 20
147.418326568298
 10
264.1926587658987
 20
136.944976568298
 42
0.4142135623730951
  0
LWPOLYLINE
  5
2D72D
330
18
100
AcDbEntity
  8
TASTEN
100
AcDbPolyline
 90
        8
 70
     1
 43
0.0
 10
204.1926587658987
 20
115.931426568298
 10
216.0174087658987
 20
115.931426568298
 42
0.4142135623730948
 10
216.3552587658987
 20
116.269276568298
 10
216.3552587658987
 20
128.094026568298
 42
0.4142135623730956
 10
216.0174087658987
 20
128.431876568298
 10
204.1926587658987
 20
128.4318765682979
 42
0.4142135623730951
 10
203.8548087658987
 20
128.094026568298
 10
203.8548087658987
 20
116.2692765682979
 42
0.4142135623730956
  0
LWPOLYLINE
  5
2D72E
330
18
100
AcDbEntity
  8
TASTEN
100
AcDbPolyline
 90
        8
 70
     1
 43
0.0
 10
204.8683587658986
 20
116.2692765682979
 10
215.3417087658986
 20
116.2692765682979
 42
0.4142135623730951
 10
216.0174087658987
 20
116.944976568298
 10
216.0174087658987
 20
127.418326568298
 42
0.4142135623730951
 10
215.3417087658986
 20
128.094026568298
 10
204.8683587658986
 20
128.094026568298
 42
0.4142135623730951
 10
204.1926587658987
 20
127.418326568298
 10
204.1926587658987
 20
116.944976568298
 42
0.4142135623730951
  0
LWPOLYLINE
  5
2D72F
330
18
100
AcDbEntity
  8
TASTEN
100
AcDbPolyline
 90
        8
 70
     1
 43
0.0
 10
224.1926587658987
 20
115.931426568298
 10
236.0174087658986
 20
115.931426568298
 42
0.4142135623730948
 10
236.3552587658987
 20
116.269276568298
 10
236.3552587658987
 20
128.094026568298
 42
0.4142135623730956
 10
236.0174087658986
 20
128.431876568298
 10
224.1926587658987
 20
128.4318765682979
 42
0.4142135623730951
 10
223.8548087658987
 20
128.094026568298
 10
223.8548087658987
 20
116.2692765682979
 42
0.4142135623730956
  0
LWPOLYLINE
  5
2D730
330
18
100
AcDbEntity
  8
TASTEN
100
AcDbPolyline
 90
        8
 70
     1
 43
0.0
 10
224.8683587658987
 20
116.2692765682979
 10
235.3417087658987
 20
116.2692765682979
 42
0.4142135623730951
 10
236.0174087658986
 20
116.944976568298
 10
236.0174087658986
 20
127.418326568298
 42
0.4142135623730951
 10
235.3417087658987
 20
128.094026568298
 10
224.8683587658987
 20
128.094026568298
 42
0.4142135623730951
 10
224.1926587658987
 20
127.418326568298
 10
224.1926587658987
 20
116.944976568298
 42
0.4142135623730951
  0
LWPOLYLINE
  5
2D731
330
18
100
AcDbEntity
  8
TASTEN
100
AcDbPolyline
 90
        8
 70
     1
 43
0.0
 10
244.1926587658987
 20
115.931426568298
 10
256.0174087658987
 20
115.931426568298
 42
0.4142135623730948
 10
256.3552587658987
 20
116.269276568298
 10
256.3552587658987
 20
128.094026568298
 42
0.4142135623730956
 10
256.0174087658987
 20
128.431876568298
 10
244.1926587658987
 20
128.4318765682979
 42
0.4142135623730951
 10
243.8548087658987
 20
128.094026568298
 10
243.8548087658987
 20
116.2692765682979
 42
0.4142135623730956
  0
LWPOLYLINE
  5
2D732
330
18
100
AcDbEntity
  8
TASTEN
100
AcDbPolyline
 90
        8
 70
     1
 43
0.0
 10
244.8683587658987
 20
116.2692765682979
 10
255.3417087658987
 20
116.2692765682979
 42
0.4142135623730951
 10
256.0174087658987
 20
116.944976568298
 10
256.0174087658987
 20
127.418326568298
 42
0.4142135623730951
 10
255.3417087658987
 20
128.094026568298
 10
244.8683587658987
 20
128.094026568298
 42
0.4142135623730951
 10
244.1926587658987
 20
127.418326568298
 10
244.1926587658987
 20
116.944976568298
 42
0.4142135623730951
  0
LWPOLYLINE
  5
2D733
330
18
100
AcDbEntity
  8
TASTEN
100
AcDbPolyline
 90
        8
 70
     1
 43
0.0
 10
264.1926587658987
 20
115.931426568298
 10
276.0174087658987
 20
115.931426568298
 42
0.4142135623730948
 10
276.3552587658987
 20
116.269276568298
 10
276.3552587658987
 20
128.094026568298
 42
0.4142135623730956
 10
276.0174087658987
 20
128.431876568298
 10
264.1926587658987
 20
128.4318765682979
 42
0.4142135623730951
 10
263.8548087658987
 20
128.094026568298
 10
263.8548087658987
 20
116.2692765682979
 42
0.4142135623730956
  0
LWPOLYLINE
  5
2D734
330
18
100
AcDbEntity
  8
TASTEN
100
AcDbPolyline
 90
        8
 70
     1
 43
0.0
 10
264.8683587658986
 20
116.2692765682979
 10
275.3417087658986
 20
116.2692765682979
 42
0.4142135623730951
 10
276.0174087658987
 20
116.944976568298
 10
276.0174087658987
 20
127.418326568298
 42
0.4142135623730951
 10
275.3417087658986
 20
128.094026568298
 10
264.8683587658986
 20
128.094026568298
 42
0.4142135623730951
 10
264.1926587658987
 20
127.418326568298
 10
264.1926587658987
 20
116.944976568298
 42
0.4142135623730951
  0
INSERT
  5
2D747
330
18
100
AcDbEntity
  8
BLECH
100
AcDbBlockReference
  2
A$C1BF1606D
 10
122.8003119356789
 20
228.7060220768342
 30
0.0
  0
INSERT
  5
2D748
330
18
100
AcDbEntity
  8
BLECH
100
AcDbBlockReference
  2
A$C1BF1606D
 10
272.790981869213
 20
228.7060220768342
 30
0.0
  0
INSERT
  5
2D749
330
18
100
AcDbEntity
  8
BLECH
100
AcDbBlockReference
  2
A$C1BF1606D
 10
272.790981869213
 20
106.6318126030858
 30
0.0
  0
INSERT
  5
2D74A
330
18
100
AcDbEntity
  8
BLECH
100
AcDbBlockReference
  2
A$C1BF1606D
 10
122.8003119356789
 20
106.6318126030858
 30
0.0
  0
CIRCLE
  5
2D74B
330
18
100
AcDbEntity
  8
TASTEN
100
AcDbCircle
 10
210.2039743793537
 20
199.4944605627249
 30
0.0
 40
5.5
  0
CIRCLE
  5
2D74C
330
18
100
AcDbEntity
  8
TASTEN
100
AcDbCircle
 10
173.8041957266475
 20
125.3374468506588
 30
0.0
 40
5.5
  0
CIRCLE
  5
2D74D
330
18
100
AcDbEntity
  8
TASTEN
100
AcDbCircle
 10
139.6848271090568
 20
125.3374468506588
 30
0.0
 40
5.5
  0
CIRCLE
  5
2D74E
330
18
100
AcDbEntity
  8
TASTEN
100
AcDbCircle
 10
210.2039743793537
 20
199.4944605627249
 30
0.0
 40
5.0
  0
CIRCLE
  5
2D74F
330
18
100
AcDbEntity
  8
TASTEN
100
AcDbCircle
 10
173.8041957266475
 20
125.3374468506588
 30
0.0
 40
5.0
  0
CIRCLE
  5
2D750
330
18
100
AcDbEntity
  8
TASTEN
100
AcDbCircle
 10
139.6848271090568
 20
125.3374468506588
 30
0.0
 40
5.0
  0
LWPOLYLINE
  5
2D751
102
{ACAD_REACTORS
330
2D756
102
}
330
18
100
AcDbEntity
  8
TASTEN
100
AcDbPolyline
 90
        8
 70
     1
 43
0.0
 10
227.6322530564119
 20
189.3315290198474
 10
248.7322530564119
 20
189.3315290198474
 42
0.4142135623730956
 10
249.7322530564119
 20
190.3315290198474
 10
249.7322530564118
 20
208.9315290198474
 42
0.4142135623730947
 10
248.7322530564118
 20
209.9315290198474
 10
227.6322530564119
 20
209.9315290198474
 42
0.4142135623730951
 10
226.6322530564119
 20
208.9315290198474
 10
226.6322530564119
 20
190.3315290198474
 42
0.4142135623730956
  0
LWPOLYLINE
  5
2D752
102
{ACAD_REACTORS
330
2D756
102
}
330
18
100
AcDbEntity
  8
TASTEN
100
AcDbPolyline
 90
        4
 70
     1
 43
0.0
 10
227.6322530564118
 20
190.3315290198474
 10
248.7322530564119
 20
190.3315290198474
 10
248.7322530564118
 20
208.9315290198474
 10
227.6322530564118
 20
208.9315290198474
  0
LWPOLYLINE
  5
2D754
102
{ACAD_REACTORS
330
2D756
102
}
330
18
100
AcDbEntity
  8
TASTEN
100
AcDbPolyline
 90
        8
 70
     1
 43
0.0
 10
231.1822530564118
 20
192.8815290198474
 10
245.1822530564118
 20
192.8815290198474
 42
0.4142135623730951
 10
246.1822530564119
 20
193.8815290198474
 10
246.1822530564119
 20
205.3815290198474
 42
0.4142135623730951
 10
245.1822530564118
 20
206.3815290198474
 10
231.1822530564118
 20
206.3815290198474
 42
0.4142135623730951
 10
230.1822530564118
 20
205.3815290198474
 10
230.1822530564118
 20
193.8815290198474
 42
0.4142135623730951
  0
LWPOLYLINE
  5
2D75F
102
{ACAD_REACTORS
330
2D762
102
}
330
18
100
AcDbEntity
  8
TASTEN
100
AcDbPolyline
 90
        8
 70
     1
 43
0.0
 10
251.7822217080147
 20
189.3315290198474
 10
272.8822217080148
 20
189.3315290198474
 42
0.4142135623730956
 10
273.8822217080147
 20
190.3315290198474
 10
273.8822217080147
 20
208.9315290198474
 42
0.4142135623730947
 10
272.8822217080146
 20
209.9315290198474
 10
251.7822217080147
 20
209.9315290198474
 42
0.4142135623730951
 10
250.7822217080147
 20
208.9315290198474
 10
250.7822217080147
 20
190.3315290198474
 42
0.4142135623730956
  0
LWPOLYLINE
  5
2D760
102
{ACAD_REACTORS
330
2D762
102
}
330
18
100
AcDbEntity
  8
TASTEN
100
AcDbPolyline
 90
        4
 70
     1
 43
0.0
 10
251.7822217080147
 20
190.3315290198474
 10
272.8822217080148
 20
190.3315290198474
 10
272.8822217080146
 20
208.9315290198474
 10
251.7822217080147
 20
208.9315290198474
  0
LWPOLYLINE
  5
2D761
102
{ACAD_REACTORS
330
2D762
102
}
330
18
100
AcDbEntity
  8
TASTEN
100
AcDbPolyline
 90
        8
 70
     1
 43
0.0
 10
255.3322217080147
 20
192.8815290198474
 10
269.3322217080147
 20
192.8815290198474
 42
0.4142135623730951
 10
270.3322217080147
 20
193.8815290198474
 10
270.3322217080147
 20
205.3815290198474
 42
0.4142135623730951
 10
269.3322217080147
 20
206.3815290198474
 10
255.3322217080147
 20
206.3815290198474
 42
0.4142135623730951
 10
254.3322217080147
 20
205.3815290198474
 10
254.3322217080147
 20
193.8815290198474
 42
0.4142135623730951
  0
LWPOLYLINE
  5
2D7D9
330
18
100
AcDbEntity
  8
BLECH
100
AcDbPolyline
 90
        4
 70
     1
 43
0.0
 10
120.5068923201784
 20
106.1308192689823
 10
280.0075018987187
 20
106.1308192689823
 10
280.0075018987187
 20
234.1313790075562
 10
120.5068923201784
 20
234.1313790075562
  0
CIRCLE
  5
2D7DA
330
18
100
AcDbEntity
  8
BLECH
100
AcDbCircle
 10
171.8736158024552
 20
194.6684189608608
 30
0.0
 40
1.0
  0
LINE
  5
2D7DC
330
18
100
AcDbEntity
  8
BLECH
100
AcDbLine
 10
171.4904421080223
 20
195.5920952677425
 30
0.0
 11
172.4819561018721
 21
193.8747426539791
 31
0.0
  0
LINE
  5
2D7DD
330
18
100
AcDbEntity
  8
BLECH
100
AcDbLine
 10
171.2652755030383
 20
195.4620952677425
 30
0.0
 11
172.2567894968881
 21
193.744742653979
 31
0.0
  0
CIRCLE
  5
2D7DE
330
18
100
AcDbEntity
  8
BLECH
100
AcDbCircle
 10
156.7673506734237
 20
121.1690550214202
 30
0.0
 40
1.0
  0
LINE
  5
2D7DF
330
18
100
AcDbEntity
  8
BLECH
100
AcDbLine
 10
156.3841769789908
 20
122.0927313283019
 30
0.0
 11
157.3756909728406
 21
120.3753787145385
 31
0.0
  0
LINE
  5
2D7E0
330
18
100
AcDbEntity
  8
BLECH
100
AcDbLine
 10
156.1590103740068
 20
121.9627313283019
 30
0.0
 11
157.1505243678566
 21
120.2453787145385
 31
0.0
  0
VIEWPORT
  5
2D862
102
{ACAD_XDICTIONARY
360
2D881
102
}
330
15
100
AcDbEntity
 67
     1
  8
0
100
AcDbViewport
 10
128.5
 20
97.5
 30
0.0
 40
424.2119999999999
 41
222.18
 68
     1
 69
     1
 12
128.5
 22
97.5
 13
0.0
 23
0.0
 14
10.0
 24
10.0
 15
10.0
 25
10.0
 16
0.0
 26
0.0
 36
1.0
 17
0.0
 27
0.0
 37
0.0
 42
50.0
 43
0.0
 44
0.0
 45
222.18
 50
0.0
 51
0.0
 72
   100
 90
    32800
  1

281
     0
 71
     1
 74
     0
110
0.0
120
0.0
130
0.0
111
1.0
121
0.0
131
0.0
112
0.0
122
1.0
132
0.0
 79
     0
146
0.0
  0
VIEWPORT
  5
2D865
102
{ACAD_XDICTIONARY
360
2D883
102
}
330
15
100
AcDbEntity
 67
     1
  8
BLECH
100
AcDbViewport
 10
128.5
 20
97.5
 30
0.0
 40
205.6
 41
156.0
 68
     2
 69
     2
 12
210.0
 22
148.5
 13
0.0
 23
0.0
 14
10.0
 24
10.0
 15
10.0
 25
10.0
 16
0.0
 26
0.0
 36
1.0
 17
0.0
 27
0.0
 37
0.0
 42
50.0
 43
0.0
 44
0.0
 45
321.2470189531818
 50
0.0
 51
0.0
 72
   100
 90
    32800
  1

281
     0
 71
     1
 74
     0
110
0.0
120
0.0
130
0.0
111
1.0
121
0.0
131
0.0
112
0.0
122
1.0
132
0.0
 79
     0
146
0.0
  0
ENDSEC
  0
SECTION
  2
OBJECTS
  0
DICTIONARY
  5
C
330
0
100
AcDbDictionary
281
     1
  3
ACAD_COLOR
350
2D857
  3
ACAD_GROUP
350
D
  3
ACAD_LAYOUT
350
1B1E4
  3
ACAD_MATERIAL
350
2D856
  3
ACAD_MLINESTYLE
350
1B
  3
ACAD_PLOTSETTINGS
350
1B1E5
  3
ACAD_PLOTSTYLENAME
350
1B1E2
  3
ACAD_TABLESTYLE
350
2D858
  3
ACDBHEADERROUNDTRIPXREC
350
2D87D
  3
ACDBVARIABLEDICTIONARY
350
9820
  0
DICTIONARY
  5
2D869
330
2
100
AcDbDictionary
280
     1
281
     1
  3
ACAD_LAYERSTATES
360
2D86A
  0
DICTIONARY
  5
9822
330
18
100
AcDbDictionary
280
     1
281
     1
  3
ACAD_LAYOUTSELFREF
360
2D83E
  3
ACAD_SORTENTS
360
9823
  0
DICTIONARY
  5
2663A
330
15
100
AcDbDictionary
280
     1
281
     1
  3
ACAD_LAYOUTSELFREF
360
2D83D
  0
DICTIONARY
  5
2D881
330
2D862
100
AcDbDictionary
280
     1
281
     1
  3
ACAD_XREC_ROUNDTRIP
360
2D882
  0
DICTIONARY
  5
2D883
330
2D865
100
AcDbDictionary
280
     1
281
     1
  3
ACAD_XREC_ROUNDTRIP
360
2D884
  0
DICTIONARY
  5
2D857
102
{ACAD_REACTORS
330
C
102
}
330
C
100
AcDbDictionary
281
     1
  0
DICTIONARY
  5
D
102
{ACAD_REACTORS
330
C
102
}
330
C
100
AcDbDictionary
281
     1
  3
*A1
350
981F
  3
*A10
350
2D46D
  3
*A11
350
1BD83
  3
*A12
350
1FC80
  3
*A13
350
A22E
  3
*A14
350
A49A
  3
*A15
350
A49B
  3
*A16
350
194F8
  3
*A17
350
194F7
  3
*A18
350
194F5
  3
*A19
350
2D6B6
  3
*A2
350
194F6
  3
*A20
350
2D6B7
  3
*A21
350
2D6BA
  3
*A22
350
2D6BD
  3
*A23
350
1BD85
  3
*A24
350
2D6C0
  3
*A25
350
2D6C3
  3
*A26
350
2D6C6
  3
*A27
350
2D6C9
  3
*A28
350
A22D
  3
*A29
350
2D6CC
  3
*A3
350
1BD89
  3
*A30
350
2D6CF
  3
*A31
350
2D6D2
  3
*A32
350
2D756
  3
*A33
350
9D4A
  3
*A34
350
9D2A
  3
*A35
350
9FC0
  3
*A36
350
9FC1
  3
*A37
350
1BD84
  3
*A38
350
1BD82
  3
*A39
350
2D762
  3
*A4
350
1BD86
  3
*A40
350
2601A
  3
*A41
350
2601B
  3
*A42
350
1BD87
  3
*A43
350
1BD88
  3
*A44
350
265C2
  3
*A5
350
1BD8A
  3
*A6
350
1BD8B
  3
*A7
350
21E84
  3
*A8
350
1FC8F
  3
*A9
350
1BD8C
  0
DICTIONARY
  5
1B1E4
102
{ACAD_REACTORS
330
C
102
}
330
C
100
AcDbDictionary
281
     1
  3
Layout1
350
1B1E7
  3
Model
350
1B1E6
  0
DICTIONARY
  5
2D856
102
{ACAD_REACTORS
330
C
102
}
330
C
100
AcDbDictionary
281
     1
  0
DICTIONARY
  5
1B
102
{ACAD_REACTORS
330
C
102
}
330
C
100
AcDbDictionary
281
     1
  3
STANDARD
350
1C
  0
DICTIONARY
  5
1B1E5
102
{ACAD_REACTORS
330
C
102
}
330
C
100
AcDbDictionary
281
     1
  0
ACDBDICTIONARYWDFLT
  5
1B1E2
102
{ACAD_REACTORS
330
C
102
}
330
C
100
AcDbDictionary
281
     1
  3
Normal
350
1B1E3
100
AcDbDictionaryWithDefault
340
1B1E3
  0
DICTIONARY
  5
2D858
102
{ACAD_REACTORS
330
C
102
}
330
C
100
AcDbDictionary
281
     1
  3
Standard
350
2D859
  0
DICTIONARY
  5
2D87D
102
{ACAD_REACTORS
330
C
102
}
330
C
100
AcDbDictionary
281
     1
  0
DICTIONARY
  5
9820
102
{ACAD_REACTORS
330
C
102
}
330
C
100
AcDbDictionary
281
     1
  3
CTABLESTYLE
350
2D870
  3
DIMASSOC
350
1FD3B
  3
PROJECTNAME
350
2D87B
  3
SORTENTS
350
9821
  0
DICTIONARY
  5
2D86A
102
{ACAD_REACTORS
330
2D869
102
}
330
2D869
100
AcDbDictionary
281
     1
  0
XRECORD
  5
2D83E
102
{ACAD_REACTORS
330
9822
102
}
330
9822
100
AcDbXrecord
280
     1
340
18
  0
SORTENTSTABLE
  5
9823
102
{ACAD_REACTORS
330
9822
102
}
330
9822
100
AcDbSortentsTable
330
18
  0
XRECORD
  5
2D83D
102
{ACAD_REACTORS
330
2663A
102
}
330
2663A
100
AcDbXrecord
280
     1
340
15
  0
XRECORD
  5
2D882
102
{ACAD_REACTORS
330
2D881
102
}
330
2D881
100
AcDbXrecord
280
     1
102
SHADEPLOT
 70
     0
  0
XRECORD
  5
2D884
102
{ACAD_REACTORS
330
2D883
102
}
330
2D883
100
AcDbXrecord
280
     1
102
SHADEPLOT
 70
     0
  0
GROUP
  5
981F
102
{ACAD_REACTORS
330
D
102
}
330
D
100
AcDbGroup
300

 70
     1
 71
     1
  0
GROUP
  5
2D46D
102
{ACAD_REACTORS
330
D
102
}
330
D
100
AcDbGroup
300

 70
     1
 71
     1
  0
GROUP
  5
1BD83
102
{ACAD_REACTORS
330
D
102
}
330
D
100
AcDbGroup
300

 70
     1
 71
     1
  0
GROUP
  5
1FC80
102
{ACAD_REACTORS
330
D
102
}
330
D
100
AcDbGroup
300

 70
     1
 71
     1
  0
GROUP
  5
A22E
102
{ACAD_REACTORS
330
D
102
}
330
D
100
AcDbGroup
300

 70
     1
 71
     1
  0
GROUP
  5
A49A
102
{ACAD_REACTORS
330
D
102
}
330
D
100
AcDbGroup
300

 70
     1
 71
     1
  0
GROUP
  5
A49B
102
{ACAD_REACTORS
330
D
102
}
330
D
100
AcDbGroup
300

 70
     1
 71
     1
  0
GROUP
  5
194F8
102
{ACAD_REACTORS
330
D
102
}
330
D
100
AcDbGroup
300

 70
     1
 71
     1
  0
GROUP
  5
194F7
102
{ACAD_REACTORS
330
D
102
}
330
D
100
AcDbGroup
300

 70
     1
 71
     1
  0
GROUP
  5
194F5
102
{ACAD_REACTORS
330
D
102
}
330
D
100
AcDbGroup
300

 70
     1
 71
     1
  0
GROUP
  5
2D6B6
102
{ACAD_REACTORS
330
D
102
}
330
D
100
AcDbGroup
300

 70
     1
 71
     1
340
2D6A7
340
2D6A6
340
2D68F
340
2D68A
340
2D66F
340
2D669
340
2D665
340
2D664
340
2D663
340
2D662
340
2D661
340
2D660
340
2D65F
340
2D65E
340
2D658
340
2D657
340
2D656
340
2D654
340
2D653
340
2D6A8
340
2D68E
340
2D68D
340
2D68C
340
2D68B
340
2D689
340
2D688
340
2D687
340
2D686
340
2D685
340
2D684
340
2D683
340
2D682
340
2D681
340
2D680
340
2D67F
340
2D67E
340
2D67D
340
2D67C
340
2D67B
340
2D67A
340
2D679
340
2D678
340
2D677
340
2D673
340
2D670
340
2D66E
340
2D66A
340
2D667
340
2D666
  0
GROUP
  5
194F6
102
{ACAD_REACTORS
330
D
102
}
330
D
100
AcDbGroup
300

 70
     1
 71
     1
  0
GROUP
  5
2D6B7
102
{ACAD_REACTORS
330
D
102
}
330
D
100
AcDbGroup
300

 70
     1
 71
     1
340
2D64D
340
2D64C
  0
GROUP
  5
2D6BA
102
{ACAD_REACTORS
330
D
102
}
330
D
100
AcDbGroup
300

 70
     1
 71
     1
340
2D6B9
340
2D6B8
  0
GROUP
  5
2D6BD
102
{ACAD_REACTORS
330
D
102
}
330
D
100
AcDbGroup
300

 70
     1
 71
     1
340
2D6BC
340
2D6BB
  0
GROUP
  5
1BD85
102
{ACAD_REACTORS
330
D
102
}
330
D
100
AcDbGroup
300

 70
     1
 71
     1
  0
GROUP
  5
2D6C0
102
{ACAD_REACTORS
330
D
102
}
330
D
100
AcDbGroup
300

 70
     1
 71
     1
340
2D6BF
340
2D6BE
  0
GROUP
  5
2D6C3
102
{ACAD_REACTORS
330
D
102
}
330
D
100
AcDbGroup
300

 70
     1
 71
     1
340
2D6C2
340
2D6C1
  0
GROUP
  5
2D6C6
102
{ACAD_REACTORS
330
D
102
}
330
D
100
AcDbGroup
300

 70
     1
 71
     1
340
2D6C5
340
2D6C4
  0
GROUP
  5
2D6C9
102
{ACAD_REACTORS
330
D
102
}
330
D
100
AcDbGroup
300

 70
     1
 71
     1
340
2D6C8
340
2D6C7
  0
GROUP
  5
A22D
102
{ACAD_REACTORS
330
D
102
}
330
D
100
AcDbGroup
300

 70
     1
 71
     1
  0
GROUP
  5
2D6CC
102
{ACAD_REACTORS
330
D
102
}
330
D
100
AcDbGroup
300

 70
     1
 71
     1
340
2D6CB
340
2D6CA
  0
GROUP
  5
1BD89
102
{ACAD_REACTORS
330
D
102
}
330
D
100
AcDbGroup
300

 70
     1
 71
     1
  0
GROUP
  5
2D6CF
102
{ACAD_REACTORS
330
D
102
}
330
D
100
AcDbGroup
300

 70
     1
 71
     1
340
2D6CE
340
2D6CD
  0
GROUP
  5
2D6D2
102
{ACAD_REACTORS
330
D
102
}
330
D
100
AcDbGroup
300

 70
     1
 71
     1
340
2D6D1
340
2D6D0
  0
GROUP
  5
2D756
102
{ACAD_REACTORS
330
D
102
}
330
D
100
AcDbGroup
300

 70
     1
 71
     1
340
2D754
340
2D752
340
2D751
  0
GROUP
  5
9D4A
102
{ACAD_REACTORS
330
D
102
}
330
D
100
AcDbGroup
300

 70
     1
 71
     1
  0
GROUP
  5
9D2A
102
{ACAD_REACTORS
330
D
102
}
330
D
100
AcDbGroup
300

 70
     1
 71
     1
  0
GROUP
  5
9FC0
102
{ACAD_REACTORS
330
D
102
}
330
D
100
AcDbGroup
300

 70
     1
 71
     1
  0
GROUP
  5
9FC1
102
{ACAD_REACTORS
330
D
102
}
330
D
100
AcDbGroup
300

 70
     1
 71
     1
  0
GROUP
  5
1BD84
102
{ACAD_REACTORS
330
D
102
}
330
D
100
AcDbGroup
300

 70
     1
 71
     1
  0
GROUP
  5
1BD82
102
{ACAD_REACTORS
330
D
102
}
330
D
100
AcDbGroup
300

 70
     1
 71
     1
  0
GROUP
  5
2D762
102
{ACAD_REACTORS
330
D
102
}
330
D
100
AcDbGroup
300

 70
     1
 71
     1
340
2D761
340
2D760
340
2D75F
  0
GROUP
  5
1BD86
102
{ACAD_REACTORS
330
D
102
}
330
D
100
AcDbGroup
300

 70
     1
 71
     1
  0
GROUP
  5
2601A
102
{ACAD_REACTORS
330
D
102
}
330
D
100
AcDbGroup
300

 70
     1
 71
     1
  0
GROUP
  5
2601B
102
{ACAD_REACTORS
330
D
102
}
330
D
100
AcDbGroup
300

 70
     1
 71
     1
  0
GROUP
  5
1BD87
102
{ACAD_REACTORS
330
D
102
}
330
D
100
AcDbGroup
300

 70
     1
 71
     1
  0
GROUP
  5
1BD88
102
{ACAD_REACTORS
330
D
102
}
330
D
100
AcDbGroup
300

 70
     1
 71
     1
  0
GROUP
  5
265C2
102
{ACAD_REACTORS
330
D
102
}
330
D
100
AcDbGroup
300

 70
     1
 71
     1
  0
GROUP
  5
1BD8A
102
{ACAD_REACTORS
330
D
102
}
330
D
100
AcDbGroup
300

 70
     1
 71
     1
  0
GROUP
  5
1BD8B
102
{ACAD_REACTORS
330
D
102
}
330
D
100
AcDbGroup
300

 70
     1
 71
     1
  0
GROUP
  5
21E84
102
{ACAD_REACTORS
330
D
102
}
330
D
100
AcDbGroup
300

 70
     1
 71
     1
  0
GROUP
  5
1FC8F
102
{ACAD_REACTORS
330
D
102
}
330
D
100
AcDbGroup
300

 70
     1
 71
     1
  0
GROUP
  5
1BD8C
102
{ACAD_REACTORS
330
D
102
}
330
D
100
AcDbGroup
300

 70
     1
 71
     1
  0
LAYOUT
  5
1B1E7
102
{ACAD_XDICTIONARY
360
2D86C
102
}
102
{ACAD_REACTORS
330
1B1E4
102
}
330
1B1E4
100
AcDbPlotSettings
  1

  2
none_device
  4
ISO_A4_(210.00_x_297.00_MM)
  6

 40
7.5
 41
20.0
 42
7.5
 43
20.0
 44
210.0
 45
297.0
 46
0.0
 47
0.0
 48
0.0
 49
0.0
140
0.0
141
0.0
142
1.0
143
1.0
 70
   688
 72
     1
 73
     1
 74
     5
  7

 75
    16
147
1.0
148
0.0
149
0.0
100
AcDbLayout
  1
Layout1
 70
     1
 71
     1
 10
-20.0
 20
-7.5
 11
277.0
 21
202.5
 12
0.0
 22
0.0
 32
0.0
 14
25.69999999999999
 24
19.5
 34
0.0
 15
231.3
 25
175.5
 35
0.0
146
0.0
 13
0.0
 23
0.0
 33
0.0
 16
1.0
 26
0.0
 36
0.0
 17
0.0
 27
1.0
 37
0.0
 76
     0
330
15
331
2D862
1001
ACAD_PSEXT
1000
Kein
1000
Kein
1000
Nicht anwendbar
1000
Das Layout wird erst geplottet, wenn ein neuer Plotter-Konfigurationsname ausgewählt wird.
1070
     0
  0
LAYOUT
  5
1B1E6
102
{ACAD_XDICTIONARY
360
2D87E
102
}
102
{ACAD_REACTORS
330
1B1E4
102
}
330
1B1E4
100
AcDbPlotSettings
  1

  2
\\SERVER1\HP Color LaserJet 4500
  4
A4
  6

 40
5.365749835968017
 41
5.450419902801513
 42
5.111740112304687
 43
5.069427490234375
 44
209.9733276367187
 45
296.9683227539062
 46
0.0
 47
0.0
 48
0.0
 49
0.0
140
0.0
141
0.0
142
1.0
143
1.0
 70
 11952
 72
     1
 73
     1
 74
     0
  7

 75
     0
147
1.0
148
-60.33810817027625
149
1.1618929753119
100
AcDbLayout
  1
Model
 70
     1
 71
     0
 10
0.0
 20
0.0
 11
12.0
 21
9.0
 12
0.0
 22
0.0
 32
0.0
 14
0.0
 24
0.0
 34
0.0
 15
0.0
 25
0.0
 35
0.0
146
0.0
 13
0.0
 23
0.0
 33
0.0
 16
1.0
 26
0.0
 36
0.0
 17
0.0
 27
1.0
 37
0.0
 76
     0
330
18
  0
MLINESTYLE
  5
1C
102
{ACAD_REACTORS
330
1B
102
}
330
1B
100
AcDbMlineStyle
  2
STANDARD
 70
     0
  3

 62
   256
 51
90.0
 52
90.0
 71
     2
 49
0.5
 62
   256
  6
BYLAYER
 49
-0.5
 62
   256
  6
BYLAYER
  0
ACDBPLACEHOLDER
  5
1B1E3
102
{ACAD_REACTORS
330
1B1E2
102
}
330
1B1E2
  0
TABLESTYLE
  5
2D859
102
{ACAD_REACTORS
330
2D858
102
}
330
2D858
100
AcDbTableStyle
  3
Standard
 70
     0
 71
     0
 40
1.5
 41
1.5
280
     0
281
     0
  7
STANDARD
140
4.5
170
     2
 62
     0
 63
     7
283
     0
274
    -2
284
     1
 64
     0
275
    -2
285
     1
 65
     0
276
    -2
286
     1
 66
     0
277
    -2
287
     1
 67
     0
278
    -2
288
     1
 68
     0
279
    -2
289
     1
 69
     0
  7
STANDARD
140
6.0
170
     5
 62
     0
 63
     7
283
     0
274
    -2
284
     1
 64
     0
275
    -2
285
     1
 65
     0
276
    -2
286
     1
 66
     0
277
    -2
287
     1
 67
     0
278
    -2
288
     1
 68
     0
279
    -2
289
     1
 69
     0
  7
STANDARD
140
4.5
170
     5
 62
     0
 63
     7
283
     0
274
    -2
284
     1
 64
     0
275
    -2
285
     1
 65
     0
276
    -2
286
     1
 66
     0
277
    -2
287
     1
 67
     0
278
    -2
288
     1
 68
     0
279
    -2
289
     1
 69
     0
  0
DICTIONARYVAR
  5
2D870
102
{ACAD_REACTORS
330
9820
102
}
330
9820
100
DictionaryVariables
280
     0
  1
STANDARD
  0
DICTIONARYVAR
  5
1FD3B
102
{ACAD_REACTORS
330
9820
102
}
330
9820
100
DictionaryVariables
280
     0
  1
1
  0
DICTIONARYVAR
  5
2D87B
102
{ACAD_REACTORS
330
9820
102
}
330
9820
100
DictionaryVariables
280
     0
  1

  0
DICTIONARYVAR
  5
9821
102
{ACAD_REACTORS
330
9820
102
}
330
9820
100
DictionaryVariables
280
     0
  1
127
  0
DICTIONARY
  5
2D86C
330
1B1E7
100
AcDbDictionary
280
     1
281
     1
  3
ACAD_XREC_ROUNDTRIP
360
2D880
  3
ADSK_XREC_LAYOUTTHUMBNAIL
360
2D86D
  0
DICTIONARY
  5
2D87E
330
1B1E6
100
AcDbDictionary
280
     1
281
     1
  3
ACAD_XREC_ROUNDTRIP
360
2D87F
  0
XRECORD
  5
2D880
102
{ACAD_REACTORS
330
2D86C
102
}
330
2D86C
100
AcDbXrecord
280
     1
102
SHADEPLOT
 70
     0
102
SHADEPLOTRESLEVEL
 70
     2
102
SHADEPLOTCUSTOMDPI
 70
   300
  0
XRECORD
  5
2D86D
102
{ACAD_REACTORS
330
2D86C
102
}
330
2D86C
100
AcDbXrecord
280
     1
310
28000000B40000007F00000001000800000000004C590000000000000000000000010000000000000000000000000000FFFFFF000000000000000000000000000000000000000000000000000000000000000000330000006600000099000000CC000000FF00000000330000333300006633000099330000CC330000FF3300
310
0000660000336600006666000099660000CC660000FF66000000990000339900006699000099990000CC990000FF99000000CC000033CC000066CC000099CC0000CCCC0000FFCC000000FF000033FF000066FF000099FF0000CCFF0000FFFF000000003300330033006600330099003300CC003300FF003300003333003333
310
33006633330099333300CC333300FF33330000663300336633006666330099663300CC663300FF66330000993300339933006699330099993300CC993300FF99330000CC330033CC330066CC330099CC3300CCCC3300FFCC330000FF330033FF330066FF330099FF3300CCFF3300FFFF330000006600330066006600660099
310
006600CC006600FF00660000336600333366006633660099336600CC336600FF33660000666600336666006666660099666600CC666600FF66660000996600339966006699660099996600CC996600FF99660000CC660033CC660066CC660099CC6600CCCC6600FFCC660000FF660033FF660066FF660099FF6600CCFF6600
310
FFFF660000009900330099006600990099009900CC009900FF00990000339900333399006633990099339900CC339900FF33990000669900336699006666990099669900CC669900FF66990000999900339999006699990099999900CC999900FF99990000CC990033CC990066CC990099CC9900CCCC9900FFCC990000FF99
310
0033FF990066FF990099FF9900CCFF9900FFFF99000000CC003300CC006600CC009900CC00CC00CC00FF00CC000033CC003333CC006633CC009933CC00CC33CC00FF33CC000066CC003366CC006666CC009966CC00CC66CC00FF66CC000099CC003399CC006699CC009999CC00CC99CC00FF99CC0000CCCC0033CCCC0066CC
310
CC0099CCCC00CCCCCC00FFCCCC0000FFCC0033FFCC0066FFCC0099FFCC00CCFFCC00FFFFCC000000FF003300FF006600FF009900FF00CC00FF00FF00FF000033FF003333FF006633FF009933FF00CC33FF00FF33FF000066FF003366FF006666FF009966FF00CC66FF00FF66FF000099FF003399FF006699FF009999FF00CC
310
99FF00FF99FF0000CCFF0033CCFF0066CCFF0099CCFF00CCCCFF00FFCCFF0000FFFF0033FFFF0066FFFF0099FFFF00CCFFFF00FFFFFF00000000000D0D0D001A1A1A00282828003535350043434300505050005D5D5D006B6B6B00787878008686860093939300A1A1A100AEAEAE00BBBBBB00C9C9C900D6D6D600E4E4E400
310
F1F1F100FFFFFF0000000000000000000000000000000000000000000000000000000000000000000000000000000000F5F5F5F5F5F5F5F5F5F5F5F5F5F5F5F5F5F5F5F5F5F5F5F5F5F5F5F5F5F5F5F5F5F5F5F5F5F5F5F5F5F5F5F5F5F5F5F5F5F5F5F5F5F5F5F5F5F5F5F5F5F5F5F5F5F5F5F5F5F5F5F5F5F5F5F5F5F5F5
310
F5F5F5F5F5F5F5F5F5F5F5F5F5F5F5F5F5F5F5F5F5F5F5F5F5F5F5F5F5F5F5F5F5F5F5F5F5F5F5F5F5F5F5F5F5F5F5F5F5F5F5F5F5F5F5F5F5F5F5F5F5F5F5F5F5F5F5F5F5F5F5F5F5F5F5F5F5F5F5F5F5F5F5F5F5F5F5F5F5F5F5F5F5F5F5F5F5F5F5F5F5F5E2E2E2E2E2E2E2E2E2E2E2E2E2E2E2E2E2E2E2E2E2E2E2E2E2
310
E2E2E2E2E2E2E2E2E2E2E2E2E2E2E2E2E2E2E2E2E2E2E2E2E2E2E2E2E2E2E2E2E2E2E2E2E2E2E2E2E2E2E2E2E2E2E2E2E2E2E2E2E2E2E2E2E2E2E2E2E2E2E2E2E2E2E2E2E2E2E2E2E2E2E2E2E2E2E2E2E2E2E2E2E2E2E2E2E2E2E2E2E2E2E2E2E2E2E2E2E2E2E2E2E2E2E2E2E2E2E2E2E2E2E2E2E2E2E2E2E2E2E2E2E2E2E2
310
E2E2E2E2E2E2E2E2E2E2E2E2E2E2E2E2E2E2E2E2E2E2E2E2E2F5F5F5E2E2E2E2E2E2E2E2E2E2E2E2E2E2E2E2E2E2E2E2E2E2E2E2E2E2E2E2E2E2E2E2E2E2E2E2E2E2E2E2E2E2E2E2E2E2E2E2E2E2E2E2E2E2E2E2E2E2E2E2E2E2E2E2E2E2E2E2E2E2E2E2E2E2E2E2E2E2E2E2E2E2E2E2E2E2E2E2E2E2E2E2E2E2E2E2E2E2E2
310
E2E2E2E2E2E2E2E2E2E2E2E2E2E2E2E2E2E2E2E2E2E2E2E2E2E2E2E2E2E2E2E2E2E2E2E2E2E2E2E2E2E2E2E2E2E2E2E2E2E2E2E2E2E2E2E2E2E2E2E2E2E2E2E2E2E2E2E2E2E2E2E2E2E2E2E2E2E2F5F5F5E2E2E2E2E2E2E2E2E2E2E2E2E2E2E2E2E2E2E2E2E2E2E2E2E2E2E2E2E2E2E2E2E2E2E2E2E2E2E2E2E2E2E2E2E2E2
310
E2E2E2E2E2E2E2E2E2E2E2E2E2E2E2E2E2E2E2E2E2E2E2E2E2E2E2E2E2E2E2E2E2E2E2E2E2E2E2E2E2E2E2E2E2E2E2E2E2E2E2E2E2E2E2E2E2E2E2E2E2E2E2E2E2E2E2E2E2E2E2E2E2E2E2E2E2E2E2E2E2E2E2E2E2E2E2E2E2E2E2E2E2E2E2E2E2E2E2E2E2E2E2E2E2E2E2E2E2E2E2E2E2E2E2E2E2E2E2E2E2E2E2E2E2E2E2
310
E2E2E2E2F5F5F5E2E2E2E2E2E2E2E2E2E2E2E2E2E2E2E2E2E2E2E2E2E2E2E2E2E2E2E2E2E2E2E2E2E2E2E2E2E2E2E2E2E2E2E2E2E2E2E2E2E2E2E2E2E2E2E2E2E2E2E2E2E2E2E2E2E2E2E2E2E2E2E2E2E2E2E2E2E2E2E2E2E2E2E2E2E2E2E2E2E2E2E2E2E2E2E2E2E2E2E2E2E2E2E2E2E2E2E2E2E2E2E2E2E2E2E2E2E2E2E2
310
E2E2E2E2E2E2E2E2E2E2E2E2E2E2E2E2E2E2E2E2E2E2E2E2E2E2E2E2E2E2E2E2E2E2E2E2E2E2E2E2E2E2E2E2E2E2E2E2E2E2E2E2E2E2E2E2E2F5F5F5E2E2E2E2E2E2E2E2E2E2E2F5F5F5F5F5F5F5F5F5E2E2E2E2E2E2E2E2E2F5F5F5F5F5F5F5F5F5F5F5F5F5F5F5F5E2E2E2E2E2E2E2E2E2E2F5F5F5F5F5F5F5F5F5F5F5F5
310
F5F5F5F5E2E2E2E2E2E2E2E2E2F5F5F5F5F5F5F5F5F5F5F5F5F5F5F5F5F5E2E2E2E2E2E2E2E2E2F5F5F5F5F5F5F5F5F5F5F5F5F5F5F5F5E2E2E2E2E2E2E2E2E2E2F5F5F5F5F5F5F5F5F5F5F5F5F5F5F5F5E2E2E2E2E2E2E2E2E2F5F5F5F5F5F5F5F5F5E2E2E2E2E2E2E2E2E2E2E2F5F5F5E2E2E2E2E2E2E2E2E2E2E2F5E2E2
310
E2E2E2E2E2E2E2E2E2E2E2E2E2E2E2E2E2E2E2E2E2E2E2E2E2E2E2E2E2E2E2E2E2E2E2E2E2E2E2E2E2E2E2E2E2E2E2E2E2E2E2E2E2E2E2E2E2E2E2E2E2E2E2E2E2E2E2E2E2E2E2E2E2E2E2E2E2E2E2E2E2E2E2E2E2E2E2E2E2E2E2E2E2E2E2E2E2E2E2E2E2E2E2E2E2E2E2E2E2E2E2E2E2E2E2E2E2E2E2E2E2E2E2E2E2E2E2
310
E2E2E2E2E2E2E2E2E2E2E2E2E2E2E2E2E2E2E2E2E2E2E2E2F5E2E2E2E2E2E2E2E2E2E2E2F5F5F5E2E2E2E2E2E2E2E2E2E2E2F5E2E2E2E2E2E2E2E2E2E2E2E2E2E2E2E2E2E2E2E2E2E2E2E2E2E2E2E2E2E2E2E2E2E2E2E2E2E2E2E2E2E2E2E2E2E2E2E2E2E2E2E2E2E2E2E2E2E2E2E2E2E2E2E2E2E2E2E2E2E2E2E2E2E2E2E2
310
E2E2E2E2E2E2E2E2E2E2E2E2E2E2E2E2E2E2E2E2E2E2E2E2E2E2E2E2E2E2E2E2E2E2E2E2E2E2E2E2E2E2E2E2E2E2E2E2E2E2E2E2E2E2E2E2E2E2E2E2E2E2E2E2E2E2E2E2E2E2E2E2E2E2E2E2E2F5E2E2E2E2E2E2E2E2E2E2E2F5F5F5E2E2E2E2E2E2E2E2E2E2E2F5E2E2E2E2E2E2E2E2E2E2E2E2E2E2E2E2E2E2E2E2E2E2E2
310
E2E2E2E2E2E2E2E2E2E2E2E2E2E2E2E2E2E2E2E2E2E2E2E2E2E2E2E2E2E2E2E2E2E2E2E2E2E2E2E2E2E2E2E2E2E2E2E2E2E2E2E2E2E2E2E2E2E2E2E2E2E2E2E2E2E2E2E2E2E2E2E2E2E2E2E2E2E2E2E2E2E2E2E2E2E2E2E2E2E2E2E2E2E2E2E2E2E2E2E2E2E2E2E2E2E2E2E2E2E2E2E2E2E2E2E2E2E2E2E2E2E2E2E2E2E2E2
310
E2E2E2F5E2E2E2E2E2E2E2E2E2E2E2F5F5F5E2E2E2E2E2E2E2E2E2E2E2F5E2E2E2E2E2E2E2E2E2E2E2E2E2E2E2E2E2E2E2E2E2E2E2E2E2E2E2E2E2E2E2E2E2E2E2E2E2E2E2E2E2E2E2E2E2E2E2E2E2E2E2E2E2E2E2E2E2E2E2E2E2E2E2E2E2E2E2E2E2E2E2E2E2E2E2E2E2E2E2E2E2E2E2E2E2E2E2E2E2E2E2E2E2E2E2E2E2
310
E2E2E2E2E2E2E2E2E2E2E2E2E2E2E2E2E2E2E2E2E2E2E2E2E2E2E2E2E2E2E2E2E2E2E2E2E2E2E2E2E2E2E2E2E2E2E2E2E2E2E2E2E2E2E2E2F5E2E2E2E2E2E2E2E2E2E2E2F5F5F5E2E2E2E2E2E2E2E2E2E2E2F5E2E2E2E2E2E2E2E2E2E2E2E2E2E2E2E2E2E2E2E2E2E2E2E2E2E2E2E2E2E2E2E2E2E2E2E2E2E2E2E2E2E2E2E2
310
E2E2E2E2E2E2E2E2E2E2E2E2E2E2E2E2E2E2E2E2E2E2E2E2E2E2E2E2E2E2E2E2E2E2E2E2E2E2E2E2E2E2E2E2E2E2E2E2E2E2E2E2E2E2E2E2E2E2E2E2E2E2E2E2E2E2E2E2E2E2E2E2E2E2E2E2E2E2E2E2E2E2E2E2E2E2E2E2E2E2E2E2E2E2E2E2E2E2E2E2E2E2E2E2E2E2E2E2E2F5E2E2E2E2E2E2E2E2E2E2E2F5F5F5E2E2E2
310
E2E2E2E2E2E2E2E2F5E2E2E2E2E2E2E2E2E2E2E2E2E2E2E2E2E2E2E2E2E2E2E2E2E2E2E2E2E2E2E2E2E2E2E2E2E2E2E2E2E2E2E2E2E2E2E2E2E2E2E2E2E2E2E2E2E2E2E2E2E2E2E2E2E2E2E2E2E2E2E2E2E2E2E2E2E2E2E2E2E2E2E2E2E2E2E2E2E2E2E2E2E2E2E2E2E2E2E2E2E2E2E2E2E2E2E2E2E2E2E2E2E2E2E2E2E2E2
310
E2E2E2E2E2E2E2E2E2E2E2E2E2E2E2E2E2E2E2E2E2E2E2E2E2E2E2E2E2E2E2E2E2E2E2F5E2E2E2E2E2E2E2E2E2E2E2F5F5F5E2E2E2E2E2E2E2E2E2E2E2F5E2E2E2E2E2E2E2E2E2E2E2E2E2E2E2E2E2E2E2E2E2E2E2E2E2E2E2E2E2E2E2E2E2E2E2E2E2E2E2E2E2E2E2E2E2E2E2E2E2E2E2E2E2E2E2E2E2E2E2E2E2E2E2E2E2
310
E2E2E2E2E2E2E2E2E2E2E2E2E2E2E2E2E2E2E2E2E2E2E2E2E2E2E2E2E2E2E2E2E2E2E2E2E2E2E2E2E2E2E2E2E2E2E2E2E2E2E2E2E2E2E2E2E2E2E2E2E2E2E2E2E2E2E2E2E2E2E2E2E2E2E2E2E2E2E2E2E2E2E2E2E2E2E2E2F5E2E2E2E2E2E2E2E2E2E2E2F5F5F5E2E2E2E2E2E2E2E2E2E2E2E2E2E2E2E2E2E2E2E2E2E2E2E2
310
E2E2E2E2E2E2E2E2E2E2E2E2E2E2E2E2E2E2E2E2E2E2E2E2E2E2E2E2E2E2E2E2E2E2E2E2E2E2E2E2E2E2E2E2E2E2E2E2E2E2E2E2E2E2E2E2E2E2E2E2E2E2E2E2E2E2E2E2E2E2E2E2E2E2E2E2E2E2E2E2E2E2E2E2E2E2E2E2E2E2E2E2E2E2E2E2E2E2E2E2E2E2E2E2E2E2E2E2E2E2E2E2E2E2E2E2E2E2E2E2E2E2E2E2E2E2E2
310
E2E2E2E2E2E2E2E2E2E2E2E2E2E2E2E2E2E2E2E2E2E2E2E2E2E2F5F5F5E2E2E2E2E2E2E2E2E2E2E2E2E2E2E2E2E2E2E2E2E2E2E2E2E2E2E2E2E2E2E2E2E2E2E2E2E2E2E2E2E2E2E2E2E2E2E2E2E2E2E2E2E2E2E2E2E2E2E2E2E2E2E2E2E2E2E2E2E2E2E2E2E2E2E2E2E2E2E2E2E2E2E2E2E2E2E2E2E2E2E2E2E2E2E2E2E2E2
310
E2E2E2E2E2E2E2E2E2E2E2E2E2E2E2E2E2E2E2E2E2E2E2E2E2E2E2E2E2E2E2E2E2E2E2E2E2E2E2E2E2E2E2E2E2E2E2E2E2E2E2E2E2E2E2E2E2E2E2E2E2E2E2E2E2E2E2E2E2E2E2E2E2E2E2E2E2E2E2F5F5F5E2E2E2E2E2E2E2E2E2E2E2E2E2E2E2E2E2E2E2E2E2E2E2E2E2E2E2E2E2E2E2E2E2E2E2E2E2E2E2E2E2E2E2E2E2
310
E2E2E2E2E2E2E2E2E2E2E2E2E2E2E2E2E2E2E2E2E2E2E2E2E2E2E2E2E2E2E2E2E2E2E2E2E2E2E2E2E2E2E2E2E2E2E2E2E2E2E2E2E2E2E2E2E2E2E2E2E2E2E2E2E2E2E2E2E2E2E2E2E2E2E2E2E2E2E2E2E2E2E2E2E2E2E2E2E2E2E2E2E2E2E2E2E2E2E2E2E2E2E2E2E2E2E2E2E2E2E2E2E2E2E2E2E2E2E2E2E2E2E2E2E2E2E2
310
E2E2E2E2E2F5F5F5E2E2E2E2E2E2E2E2E2E2E2E2E2E2E2E2E2E2E2E2E2E2E2E2E2E2F5F5F5F5F5F5F5F5F5F5F5F5F5F5F5F5F5F5F5F5F5F5F5F5F5F5F5F5F5F5F5F5F5F5F5F5F5F5F5F5F5F5F5F5F5F5F5F5F5F5F5F5F5F5F5F5F5F5F5F5F5F5F5F5F5F5F5F5F5F5F5F5F5F5F5F5F5F5F5F5F5F5F5F5F5F5F5F5F5F5F5F5F5
310
F5F5F5F5F5F5F5F5F5F5F5F5F5F5F5F5F5F5F5F5F5F5F5F5F5F5F5F5F5F5F5F5E2E2E2E2E2E2E2E2E2E2E2E2E2E2E2E2E2E2E2E2E2E2E2E2E2E2F5F5F5E2E2E2E2E2E2E2E2E2E2E2E2E2E2E2E2E2E2E2E2E2E2E2E2E2E2F5E2E2E2E2E2E2E2E2E2E2E2E2E2E2E2E2E2E2E2E2E2E2E2E2E2E2E2E2E2E2E2E2E2E2E2E2E2E2E2
310
E2E2E2E2E2E2E2E2E2E2E2E2E2E2E2E2E2E2E2E2E2E2E2E2E2E2E2E2E2E2E2E2E2E2E2E2E2E2E2E2E2E2E2E2E2E2E2E2E2E2E2E2E2E2E2E2E2E2E2E2E2E2E2E2E2E2E2E2E2E2E2E2E2E2E2E2E2E2E2E2E2E2E2E2F5E2E2E2E2E2E2E2E2E2E2E2E2E2E2E2E2E2E2E2E2E2E2E2E2E2E2F5F5F5E2E2E2E2E2E2E2E2E2E2E2E2E2
310
E2E2E2E2E2E2E2E2E2E2E2E2E2F5E2E2E2E2E2E2E2E2E2E2E2E2E2E2E2E2E2E2E2E2E2E2E2E2E2E2E2E2E2E2E2E2E2E2E2E2E2E2E2E2E2E2E2E2E2E2E2E2E2E2E2E2E2E2E2E2E2E2E2E2E2E2E2E2E2E2E2E2E2E2E2E2E2E2E2E2E2E2E2E2E2E2E2E2E2E2E2E2E2E2E2E2E2E2E2E2E2E2E2E2E2E2E2E2E2E2E2E2E2E2E2E2E2
310
E2E2E2E2E2E2E2E2E2E2F5E2E2E2E2E2E2E2E2E2E2E2E2E2E2E2E2E2E2E2E2E2E2E2E2E2E2F5F5F5E2E2E2E2E2E2E2E2E2E2E2E2E2E2E2E2E2E2E2E2E2E2E2E2E2E2F5E2E2E2E2E2E2E2E2E2E2E2E2E2E2E2E2E2E2E2E2E2E2E2E2E2E2E2E2E2E2E2E2E2E2E2E2E2E2E2E2E2E2E2E2E2E2E2E2E2E2E2E2E2E2E2E2E2E2E2E2
310
E2E2E2E2E2E2E2E2E2E2E2E2E2E2E2E2E2E2E2E2E2E2E2E2E2E2E2E2E2E2E2E2E2E2E2E2E2E2E2E2E2E2E2E2E2E2E2E2E2E2E2E2E2E2E2E2E2E2E2E2E2E2E2F5E2E2E2E2E2E2E2E2E2E2E2E2E2E2E2E2E2E2E2E2E2E2E2E2E2E2F5F5F5E2E2E2E2E2E2E2E2E2E2E2E2E2E2E2E2E2E2E2E2E2E2E2E2E2E2F5F5F5F5F5F5F5F5
310
F5F5F5F5F5F5F5F5F5F5F5F5F5F5F5F5F5F5F5F5F5F5F5F5F5F5F5F5F5F5F5F5F5F5F5F5F5F5F5F5F5F5F5F5F5F5F5F5F5F5F5F5F5F5F5F5F5F5F5F5F5F5F5F5F5F5F5F5F5F5F5F5F5F5F5F5F5F5F5F5F5F5F5F5F5F5F5F5F5F5F5F5F5F5F5F5F5F5F5F5F5F5F5F5F5F5F5F5F5F5F5F5F5F5F5F5F5E2E2E2E2E2E2E2E2E2E2
310
E2E2E2E2E2E2E2E2E2E2E2E2E2E2E2E2F5F5F5E2E2E2E2E2E2E2E2E2E2E2F5E2E2E2E2E2E2E2E2E2E2E2E2E2E2F5F5E2E2E2E2E2E2E2E2E2E2E2E2E2E2E2E2E2E2E2E2E2E2E2E2E2E2E2E2E2E2E2E2E2E2E2E2E2E2E2E2E2E2E2E2E2E2E2E2E2E2E2E2E2E2E2E2E2E2E2E2E2E2E2E2E2E2E2E2E2E2E2E2E2E2E2E2E2E2E2E2
310
E2E2E2E2E2E2E2E2E2E2E2E2E2E2E2E2E2E2E2E2E2E2E2E2E2E2E2E2E2E2E2E2E2E2E2E2E2E2E2E2E2F5F5E2E2E2E2E2E2E2E2E2E2E2E2E2E2F5E2E2E2E2E2E2E2E2E2E2E2F5F5F5E2E2E2E2E2E2E2E2E2E2E2F5E2E2E2E2E2E2E2E2E2E2E2E2E2E2F5F5E2E2E2E20F0F0F0F0F0F0F0F0F0F0F0F0F0F0F0F0F0F0F0F0F0F0F
310
0F0F0F0F0F0F0F0F0F0F0F0F0F0F0F0F0F0F0F0F0F0F0F0F0F0F0F0F0F0F0F0F0F0F0F0F0F0F0F0F0F0F0F0F0F0F0F0F0F0F0F0F0F0F0F0F0F0F0F0F0F0F0F0F0F0F0F0F0F0F0F0F0F0F0F0F0F0F0F0F0F0F0F0F0F0F0F0F0F0F0F0F0FE2F5F5E2E2E2E2E2E2E2E2E2E2E2E2E2E2F5E2E2E2E2E2E2E2E2E2E2E2F5F5F5E2E2
310
E2E2E2E2E2E2E2E2E2F5E2E2E2E2E2E2E2E2E2E2E2E2E2E2F5F5E2E2E2E20FE2E2E2E2E2E2E2E2E2E2E2E2E2E2E2E2E2E2E2E2E2E2E2E2E2E2E2E2E2E2E2E2E2E2E2E2E2E2E2E2E2E2E2E2E2E2E2E2E2E2E2E2E2E2E2E2E2E2E2E20FE235E2E2F5F5F5F5F5F5F5F5E2E2E2F5E2E2E2E2E2E2E2E2E2E2E2E2F5E2E2E2E2E2F5
310
F5F5F5F5F5F5F5F5E2E2E2E2E2E2E2E2E2E20FE2F5F5E2E2E2E2E2E2E2E2E2E2E2E2E2E2F5E2E2E2E2E2E2E2E2E2E2E2F5F5F5E2E2E2E2E2E2E2E2E2E2E2F5E2E2E2E2E2E2E2E2E2E2E2E2E2E2F5F5E2E2E2E20FE2E2E2E2E2E2E2E2E2E2E2E2E2E2E2E2E2E2E2E2E2E2E2E2E2E2E2E2E2E2E2E2E2E2E2E2E2E2E2E2E2E2E2
310
E2E2E2E2E2E2E2E2E2E2E2E2E2E2E2E2E20F353535E2F5F5F5F5F5F5E2E2E2E2E2F5E2E2E2E2E2E2E2E2E2E2E2E2F5E2F5F5F5F5F5F5F5F5F5F5F5F5F5F5F5F5F5F5F5F5E2E2E20FE2F5F5E2E2E2E2E2E2E2E2E2E2E2E2E2E2F5E2E2E2E2E2E2E2E2E2E2E2F5F5F5E2E2E2E2E2E2E2E2E2E2E2F5E2E2E2E2E2E2E2E2E2E2E2
310
E2E2E2F5F5E2E2E2E20FE2E2E2E2E2E2E2E2E2E2E2E2E2E2E2E2E2E2E2E2E2E2E2E2E2E2E2E2E2E2E2E2E2E2E2E2E2E2E2E2E2E2E2E2E2E2E2E2E2E2E2E2E2E2E2E2E2E2E2E20F3535E2E2F5F5F5F5F5F5F5F5F5F5E2F5F5F5F5F5F5F5F5F5F5E2E2E2F5E2F5F5F5F5F5F5F5F5F5F5F5F5F5F5F5F5F5F5F5F5E2E2E20FE2F5
310
F5E2E2E2E2E2E2E2E2E2E2E2E2E2E2F5E2E2E2E2E2E2E2E2E2E2E2F5F5F5E2E2E2E2E2E2E2E2E2E2E2F5E2E2E2E2E2E2E2E2E2E2E2E2E2E2F5F5E2E2E2E20FE2E2E2E2E2E2E2E2E2E2E2E2E2E2E2E2E2E2E2E2E2E2E2E2E2E2E2E2E2E2E2E2E2E2E2E2E2E2E2E2E2E2E2E2E2E2E2E2E2E2E2E2E2E2E2E2E2E2E2E20F35E2E2
310
E2F5F5F5F5F5F5F5F5F5F5E2F5F5F5F5F5F5F5F5F5F5E2E2E2F5E2E2E2E2E2E2E2E2E2E2E2E2E2E2E2E2E2E2E2E2E2E2E2E20FE2F5F5E2E2E2E2E2E2E2E2E2E2E2E2E2E2F5E2E2E2E2E2E2E2E2E2E2E2F5F5F5E2E2E2E2E2E2E2E2E2E2E2F5E2E2E2E2E2E2E2E2E2E2E2E2E2E2F5F5E2E2E2E20FE2E2E2E2E2E2E2E2E2E2E2
310
E2E2E2E2E2E2E2E2E2E2E2E2E2E2E2E2E2E2E2E2E2E2E2E2E2E2E2E2E2E2E2E2E2E2E2E2E2E2E2E2E2E2E2E2E2E2E2E2E20F0F0F0F0F0F0F0F0F0F0F0F0F0F0F0FF50F0F0F0F0F0F0F0F0F0F0F0FF50F0F0F0F0F0F0F0F0F0F0F0F0F0F0F0F0F0F0F0F0F0F0F0F0FE2F5F5E2E2E2E2E2E2E2E2E2E2E2E2E2E2F5E2E2E2E2E2
310
E2E2E2E2E2E2F5F5F5E2E2E2E2E2E2E2E2E2E2E2F5E2E2E2E2E2E2E2E2E2E2E2E2E2E2F5F5E2E2E2E20FE2E2E2E2E2E2E2E2E2E2E2E2E2E2E2E2E2E2E2E2E2E2E2E2E2E2E2E2E2E2E2E2E2E2E2E2E2E2E2E2E2E2E2E2E2E2E2E2E2E2E2E2E2E2E2E2E2E2E2E2E2E2E2E2E2E2E2E2E2E2E2E2E2E2E2E2E2E2E2E2E2E2E2E2E2
310
E2E2E2E2E2E2E2E2E2E2E2E2E2E2E2E2E2E2E2E2E2E2E2E2E2E2E2E2E20FE2F5F5E2E2E2E2E2E2E2E2E2E2E2E2E2E2F5E2E2E2E2E2E2E2E2E2E2E2F5F5F5E2E2E2E2E2E2E2E2E2E2E2F5E2E2E2E2E2E2E2E2E2E2E2E2E2E2F5F5E2E2E2E20FE2E2E2E2E2E2E2E2E2E2E2E2E2E2E2E2E2E2E2E2E2E2E2E2E2E2E2E2E2E2E2E2
310
E2E2E2E2E2E2E2E2E2E2E2E2E2E2E2E2E2E2E2E2E2E2E2E2E2E2E2E2E2E2E2E2E2E2E2E2E2E2E2E2E2E2E2E2E2E2E2E2E2E2E2E2E2E2E2E2E2E2E2E2E2E2E2E2E2E2E2E2E2E2E2E2E2E2E2E2E2E2E2E2E2E20FE2F5F5E2E2E2E2E2E2E2E2E2E2E2E2E2E2F5E2E2E2E2E2E2E2E2E2E2E2F5F5F5E2E2E2E2E2E2E2E2E2E2E2F5
310
E2E2E2E2E2E2E2E2E2E2E2E2E2E2F5F5E2E2E2E20FE2E2E2E2E2E2E2E2E2E2E2E2E2E2E2E2E2E2E2E2E2E2E2E2E2E2E2E2E2E2E2E2E2E2E2E2E2E2E2E2E2E2E2E2E2E2E2E2E2E2E2E2E2E2E2E2E2E2E2E2E2E2E2E2E2E2E2E2E2E2E2E2E2E2E2E2E2E2E2E2E2E2E2E2E2E2E2E2E2E2E2E2E2E2E2E2E2E2E2E2E2E2E2E2E2E2
310
E2E2E2E2E2E2E2E20FE2F5F5E2E2E2E2E2E2E2E2E2E2E2E2E2E2F5E2E2E2E2E2E2E2E2E2E2E2F5F5F5E2E2E2E2E2E2E2E2E2E2E2F5E2E2E2E2E2E2E2E2E2E2E2E2E2E2F5F5E2E2E2E20FE2E2E2E2E2E2E2E2E2E2E2E2E2E2E2E2E2E2E2E2E2E2E2E2E2E2E2E2E2E2E2E2E2E2E2E2E2E2E2E2E2E2E2E2E2E2E2E2E2E2E2E2E2
310
E2E2E2E2E2E2E2E2E2E2E2E2E2E2E2E2E2E2E2E2E2E2E2E2E2E2E2E2E2E2E2E2E2E2E2E2E2E2E2E2E2E2E2E2E2E2E2E2E2E2E2E2E2E2E2E2E2E2E2E2E20FE2F5F5E2E2E2E2E2E2E2E2E2E2E2E2E2E2F5E2E2E2E2E2E2E2E2E2E2E2F5F5F5E2E2E2E2E2E2E2E2E2E2E2F5E2E2E2E2E2E2E2E2E2E2E2E2E2E2F5F5E2E2E2E20F
310
E2E2E2E2E2E2E2E2E2E2E2E2E2E2E2E2E2E2E2E2E2E2E2E2E2E2E2E2E2E2E2E2E2E2E2E2E2E2E2E2E2E2E2E2E2E2E2E2E2E2E2E2E2E2E2E2E2E2E2E2E2E2E2E2E2E2E2E2E2E2E2E2E2E2E2E2E2E2E2E2E2E2E2E2E2E2E2E2E2E2E2E2E2E2E2E2E2E2E2E2E2E2E2E2E2E2E2E2E2E2E2E2E2E20FE2F5F5E2E2E2E2E2E2E2E2E2
310
E2E2E2E2E2F5E2E2E2E2E2E2E2E2E2E2E2F5F5F5E2E2E2E2E2E2E2E2E2E2E2F5E2E2E2E2E2E2E2E2E2E2E2E2E2E2F5F5E2E2E2E20FE2E2E2E2E2E2E2E2E2E2E2E2E2E2E2E2E2E2E2E2E2E2E2E2E2E2E2E2E2E2E2E2E2E2E2E2E2E2E2E2E2E2E2E2E2E2E2E2E2E2E2E2E2E2E2E2E2E2E2E2E2E2E2E2E2E2E2E2E2E2E2E2E2E2
310
E2E2E2E2E2E2E2E2E2E2E2E2E2E2E2E2E2E2E2E2E2E2E2E2E2E2E2E2E2E2E2E2E2E2E2E2E2E2E2E20FE2F5F5E2E2E2E2E2E2E2E2E2E2E2E2E2E2F5E2E2E2E2E2E2E2E2E2E2E2F5F5F5E2E2E2E2E2E2E2E2E2E2E2F5E2E2E2E2E2E2E2E2E2E2E2E2E2E2F5F5E2E2E2E20FE2E2E2E2E2E2E2E2E2E2E2E2E2E2E2E2E2E2E2E2E2
310
E2E2E2E2E2E2E2E2E2E2E2E2E2E2E2E2E2E2E2E2E2E2E2E2E2E2E2E2E2E2E2E2E2E2E2E2E2E2E2E2E2E2E2E2E2E2E2E2E2E2E2E2E2E2E2E2E2E2E2E2E2E2E2E2E2E2E2E2E2E2E2E2E2E2E2E2E2E2E2E2E2E2E2E2E2E2E2E2E2E2E2E2E20FE2F5F5E2E2E2E2E2E2E2E2E2E2E2E2E2E2F5E2E2E2E2E2E2E2E2E2E2E2F5F5F5E2
310
E2E2E2E2E2E2E2E2E2E2F5E2E2E2E2E2E2E2E2E2E2E2E2E2E2F5F5E2E2E2E20FE2E2E2E2E2E2E2E2E2E2E2E2E2E2E2E2E2E2E2E2E2E2E2E2E2E2E2E2E2E2E2E2E2E2E2E2E2E2E2E2E2E2E2E2E2E2E2E2E2E2E2E2E2E2E2E2E2E2E2E2E2E2E2E2E2E2E2E2E2E2E2E2E2E2E2E2E2E2E2E2E2E2E2E2E2E2E2E2E2E2E2E2E2E2E2
310
E2E2E2E2E2E2E2E2E2E2E2E2E2E2E2E2E2E2E20FE2F5F5E2E2E2E2E2E2E2E2E2E2E2E2E2E2F5E2E2E2E2E2E2E2E2E2E2E2F5F5F5E2E2E2E2E2E2E2E2E2E2E2E2E2E2E2E2E2E2E2E2E2E2E2E2E2E2F5F5E2E2E2E20FE2E2E2E2E2E2E2E2E2E2E2E2E2E2E2E2E2E2E2E2E2E2E2E2E2E2E2E2E2E2E2E2E2E2E2E2E2E2E2E2E2E2
310
E2E2E2E2E2E2E2E2E2E2E2E2E2E2E2E2E2E2E2E2E2E2E2E2E2E2E2E2E2E2E2E2E2E2E2E2E2E2E2E2E2E2E2E2E2E2E2E2E2E2E2E2E2E2E2E2E2E2E2E2E2E2E2E2E2E2E2E2E2E2E2E20FE2F5F5E2E2E2E2E2E2E2E2E2E2E2E2E2E2E2E2E2E2E2E2E2E2E2E2E2E2F5F5F5E2E2E2E2E2E2E2E2E2E2E2E2E2E2E2E2E2E2E2E2E2E2
310
E2E2E2E2F5F5E2E2E2E20FE2E2E2E2E2E2E2E2E2E2E2E2E2E2E2E2E2E2E2E2E2E2E2E2E2E2E2E2E2E2E2E2E2E2E2E2E2E2E2E2E2E2E2E2E2E2E2E2E2E2E2E2E2E2E2E2E2E2E2E2E2E2E2E2E2E2E2E2E2E2E2E2E2E2E2E2E2E2E2E2E2E2E2E2E2E2E2E2E2E2E2E2E2E2E2E2E2E2E2E2E2E2E2E2E2E2E2E2E2E2E2E2E2E20FE2
310
F5F5E2E2E2E2E2E2E2E2E2E2E2E2E2E2E2E2E2E2E2E2E2E2E2E2E2E2F5F5F5E2E2E2E2E2E2E2E2E2E2E2E2E2E2E2E2E2E2E2E2E2E2E2E2E2E2F5F5E2E2E2E20FE2E2E2E2E2E2E2E2E2E2E2E2E2E2E2E2E2E2E2E2E2E2E2E2E2E2E2E2E2E2E2E2E2E2E2E2E2E2E2E2E2E2E2E2E2E2E2E2E2E2E2E2E2E2E2E2E2E2E2E2E2E2E2
310
E2E2E2E2E2E2E2E2E2E2E2E2E2E2E2E2E2E2E2E2E2E2E2E2E2E2E2E2E2E2E2E2E2E2E2E2E2E2E2E2E2E2E2E2E2E2E2E2E2E2E20FE2F5F5E2E2E2E2E2E2E2E2E2E2E2E2E2E2E2E2E2E2E2E2E2E2E2E2E2E2F5F5F5E2E2E2E2E2E2E2E2E2E2E2E2E2E2E2E2E2E2E2E2E2E2E2E2E2E2F5F5E2E2E2E20FE2E2E2E2E2E2E2E2E2E2
310
E2E2E2E2E2E2E2E2E2E2E2E2E2E2E2E2E2E2E2E2E2E2E2E2E2E2E2E2E2E2E2E2E2E2E2E2E2E2E2E2E2E2E2E2E2E2E2E2E2E2E2E2E2E2E2E2E2E2E2E2E2E2E2E2E2E2E2E2E2E2E2E2E2E2E2E2E2E2E2E2E2E2E2E2E2E2E2E2E2E2E2E2E2E2E2E2E2E2E2E2E2E2E2E20FE2F5F5E2E2E2E2E2E2E2E2E2E2E2E2E2E2E2E2E2E2E2
310
E2E2E2E2E2E2E2F5F5F5E2E2E2E2E2E2E2E2E2E2E2E2E2E2E2E2E2E2E2E2E2E2E2E2E2E2F5F5E2E2E2E20FE2E2E2E2E2E2E2E2E2E2E2E2E2E2E2E2E2E2E2E2E2E2E2E2E2E2E2E2E2E2E2E2E2E2E2E2E2E2E2E2E2E2E2E2E2E2E2E2E2E2E2E2E2E2E2E2E2E2E2E2E2E2E2E2E2E2E2E2E2E2E2E2E2E2E2E2E2E2E2E2E2E2E2E2
310
E2E2E2E2E2E2E2E2E2E2E2E2E2E2E2E2E2E2E2E2E2E2E2E2E2E2E2E2E2E20FE2F5F5E2E2E2E2E2E2E2E2E2E2E2E2E2E2E2E2E2E2E2E2E2E2E2E2E2E2F5F5F5E2E2E2E2E2E2E2E2E2E2E2E2E2E2E2E2E2E2E2E2E2E2E2E2E2E2F5F5E2E2E2E20FE2E2E2E2E2E2E2E2E2E2E2E2E2E2E2E2E2E2E2E2E2E2E2E2E2E2E2E2E2E2E2
310
E2E2E2E2E2E2E2E2E2E2E2E2E2E2E2E2E2E2E2E2E2E2E2E2E2E2E2E2E2E2E2E2E2E2E2E2E2E2E2E2E2E2E2E2E2E2E2E2E2E2E2E2E2E2E2E2E2E2E2E2E2E2E2E2E2E2E2E2E2E2E2E2E2E2E2E2E2E2E2E2E2E2E20FE2F5F5E2E2E2E2E2E2E2E2E2E2E2E2E2E2E2E2E2E2E2E2E2E2E2E2E2E2F5F5F5E2E2E2E2E2E2E2E2E2E2E2
310
E2E2E2E2E2E2E2E2E2E2E2E2E2E2E2F5F5E2E2E2E20FE2E2E2E2E2E2E2E2E2E2E2E2E2E2E2E2E2E2E2E2E2E2E2E2E2E2E2E2E2E2E2E2E2E2E2E2E2E2E2E2E2E2E2E2E2E2E2E2E2E2E2E2E2E2E2E2E2E2E2E2E2E2E2E2E2E2E2E2E2E2E2E2E2E2E2E2E2E2E2E2E2E2E2E2E2E2E2E2E2E2E2E2E2E2E2E2E2E2E2E2E2E2E2E2E2
310
E2E2E2E2E2E2E2E2E20FE2F5F5E2E2E2E2E2E2E2E2E2E2E2E2E2E2E2E2E2E2E2E2E2E2E2E2E2E2F5F5F5E2E2E2E2E2E2E2E2E2E2E2E2E2E2E2E2E2E2E2E2E2E2E2E2E2E2F5F5E2E2E2E20FE2E2E2E2E2E2E2E2E2E2E2E2E2E2E2E2E2E2E2E2E2E2E2E2E2E2E2E2E2E2E2E2E2E2E2E2E2E2E2E2E2E2E2E2E2E2E2E2E2E2E2E2
310
E2E2E2E2E2E2E2E2E2E2E2E2E2E2E2E2E2E2E2E2E2E2E2E2E2E2E2E2E2E2E2E2E2E2E2E2E2E2E2E2E2E2E2E2E2E2E2E2E2E2E2E2E2E2E2E2E2E2E2E2E2E20FE2F5F5E2E2E2E2E2E2E2E2E2E2E2E2E2E2E2E2E2E2E2E2E2E2E2E2E2E2F5F5F5E2E2E2E2E2E2E2E2E2E2E2F5E2E2E2E2E2E2E2E2E2E2E2E2E2E2F5F5E2E2E2E2
310
0FE2E2E2E2E2E2E2E2E2E2E2E2E2E2E2E2E2E2E2E2E2E2E2E2E2E2E2E2E2E2E2E2E2E2E2E2E2E2E2E2E2E2E2E2E2E2E2E2E2E2E2E2E2E2E2E2E2E2E2E2E2E2E2E2E2E2E2E2E2E2E2E2E2E2E2E2E2E2E2E2E2E2E2E2E2E2E2E2E2E2E2E2E2E2E2E2E2E2E2E2E2E2E2E2E2E2E2E2E2E2E2E2E2E20FE2F5F5E2E2E2E2E2E2E2E2
310
E2E2E2E2E2E2F5E2E2E2E2E2E2E2E2E2E2E2F5F5F5E2E2E2E2E2E2E2E2E2E2E2F5E2E2E2E2E2E2E2E2E2E2E2E2E2E2F5F5E2E2E2E20FE2E2E2E2E2E2E2E2E2E2E2E2E2E2E2E2E2E2E2E2E2E2E2E2E2E2E2E2E2E2E2E2E2E2E2E2E2E2E2E2E2E2E2E2E2E2E2E2E2E2E2E2E2E2E2E2E2E2E2E2E2E2E2E2E2E2E2E2E2E2E2E2E2
310
E2E2E2E2E2E2E2E2E2E2E2E2E2E2E2E2E2E2E2E2E2E2E2E2E2E2E2E2E2E2E2E2E2E2E2E2E2E2E2E2E20FE2F5F5E2E2E2E2E2E2E2E2E2E2E2E2E2E2F5E2E2E2E2E2E2E2E2E2E2E2F5F5F5E2E2E2E2E2E2E2E2E2E2E2F5E2E2E2E2E2E2E2E2E2E2E2E2E2E2F5F5E2E2E2E20FE2E2E2E2E2E2E2E2E2E2E2E2E2E2E2E2E2E2E2E2
310
E2E2E2E2E2E2E2E2E2E2E2E2E2E2E2E2E2E2E2E2E2E2E2E2E2E2E2E2E2E2E2E2E2E2E2E2E2E2E2E2E2E2E2E2E2E2E2E2E2E2E2E2E2E2E2E2E2E2E2E2E2E2E2E2E2E2E2E2E2E2E2E2E2E2E2E2E2E2E2E2E2E2E2E2E2E2E2E2E2E2E2E2E2E20FE2F5F5E2E2E2E2E2E2E2E2E2E2E2E2E2E2F5E2E2E2E2E2E2E2E2E2E2E2F5F5F5
310
E2E2E2E2E2E2E2E2E2E2E2F5E2E2E2E2E2E2E2E2E2E2E2E2E2E2F5F5E2E2E2E20FE2E2E2E2E2E2E2E2E2E2E2E2E2E2E2E2E2E2E2E2E2E2E2E2E2E2E2E2E2E2E2E2E2E2E2E2E2E2E2E2E2E2E2E2E2E2E2E2E2E2E2E2E2E2E2E2E2E2E2E2E2E2E2E2E2E2E2E2E2E2E2E2E2E2E2E2E2E2E2E2E2E2E2E2E2E2E2E2E2E2E2E2E2E2
310
E2E2E2E2E2E2E2E2E2E2E2E2E2E2E2E2E2E2E2E20FE2F5F5E2E2E2E2E2E2E2E2E2E2E2E2E2E2F5E2E2E2E2E2E2E2E2E2E2E2F5F5F5E2E2E2E2E2E2E2E2E2E2E2F5E2E2E2E2E2E2E2E2E2E2E2E2E2E2F5F5E2E2E2E20FE2E2E2E2E2E2E2E2E2E2E2E2E2E2E2E2E2E2E2E2E2E2E2E2E2E2E2E2E2E2E2E2E2E2E2E2E2E2E2E2E2
310
E2E2E2E2E2E2E2E2E2E2E2E2E2E2E2E2E2E2E2E2E2E2E2E2E2E2E2E2E2E2E2E2E2E2E2E2E2E2E2E2E2E2E2E2E2E2E2E2E2E2E2E2E2E2E2E2E2E2E2E2E2E2E2E2E2E2E2E2E2E2E2E2E20FE2F5F5E2E2E2E2E2E2E2E2E2E2E2E2E2E2F5E2E2E2E2E2E2E2E2E2E2E2F5F5F5E2E2E2E2E2E2E2E2E2E2E2F5E2E2E2E2E2E2E2E2E2
310
E2E2E2E2E2F5F5E2E2E2E20FE2E2E2E2E2E2E2E2E2E2E2E2E2E2E2E2E2E2E2E2E2E2E2E2E2E2E2E2E2E2E2E2E2E2E2E2E2E2E2E2E2E2E2E2E2E2E2E2E2E2E2E2E2E2E2E2E2E2E2E2E2E2E2E2E2E2E2E2E2E2E2E2E2E2E2E2E2E2E2E2E2E2E2E2E2E2E2E2E2E2E2E2E2E2E2E2E2E2E2E2E2E2E2E2E2E2E2E2E2E2E2E2E2E20F
310
E2F5F5E2E2E2E2E2E2E2E2E2E2E2E2E2E2F5E2E2E2E2E2E2E2E2E2E2E2F5F5F5E2E2E2E2E2E2E2E2E2E2E2F5E2E2E2E2E2E2E2E2E2E2E2E2E2E2F5F5E2E2E2E20FE2E2E2E2E2E2E2E2E2E2E2E2E2E2E2E2E2E2E2E2E2E2E2E2E2E2E2E2E2E2E2E2E2E2E2E2E2E2E2E2E2E2E2E2E2E2E2E2E2E2E2E2E2E2E2E2E2E2E2E2E2E2
310
E2E2E2E2E2E2E2E2E2E2E2E2E2E2E2E2E2E2E2E2E2E2E2E2E2E2E2E2E2E2E2E2E2E2E2E2E2E2E2E2E2E2E2E2E2E2E2E2E2E2E2E20FE2F5F5E2E2E2E2E2E2E2E2E2E2E2E2E2E2F5E2E2E2E2E2E2E2E2E2E2E2F5F5F5E2E2E2E2E2E2E2E2E2E2E2F5E2E2E2E2E2E2E2E2E2E2E2E2E2E2F5F5E2E2E2E20FE2E2E2E2E2E2E2E2E2
310
E2E2E2E2E2E2E2E2E2E2E2E2E2E2E2E2E2E22828F5F5F5F5F5F5F5F5F5F5F5F5F5F5F5F5F5F5F5F5F5F5F5F5F5F5F5F5F5F5F5F5F5F5F5F5F5F5F5F5F5F5F5F5F5F5F5E2E2E2E2E2E2E2E2E2E2E2E2E2E2E2E2E2E2E2E2E2E2E2E2E2E2E2E2E2E2E2E2E2E2E2E2E2E20FE2F5F5E2E2E2E2E2E2E2E2E2E2E2E2E2E2F5E2E2E2
310
E2E2E2E2E2E2E2E2F5F5F5E2E2E2E2E2E2E2E2E2E2E2F5E2E2E2E2E2E2E2E2E2E2E2E2E2E2F5F5E2E2E2E20FE2E2E2E2E2E2E2E2E2E2E2E2E2E2E2E2E2E2E2E2E2E2E2E2E2E2E228E2F5F5F5F5F5F5F5F5F5E2E2E2E2F5F5F5F5F5F5E2E2E2E2E2E2E2E2E2E2E2E2E2E2E2E2E2E2E2E2E2E2E2E2E2F5F5F5E2E2E2E2E2E2E2
310
E2E2E2E2E2E2E2E2E2E2E2E2E2E2E2E2E2E2E2E2E2E2E2E2E2E2E2E2E2E2E20FE2F5F5E2E2E2E2E2E2E2E2E2E2E2E2E2E2F5E2E2E2E2E2E2E2E2E2E2E2F5F5F5E2E2E2E2E2E2E2E2E2E2E2F5E2E2E2E2E2E2E2E2E2E2E2E2E2E2F5F5E2E2E2E20FE2E2E2E2E2E2E2E2E2E2E2E2E2E2E2E2E2E2E2E2E2E2E2E2E2E2E228E2F5
310
E2E2F5F5E2E2F5F5F5F5E2E2F5F5E2E2F5F5F5E2E2E2E2F5F5F5F5F5E2F5F5F5F5F5E2F5F5F5F5F5F5F5F5F5F5F5E2E2E2E2E2E2E2E2E2E2E2E2E2E2E2E2E2E2E2E2E2E2E2E2E2E2E2E2E2E2E2E2E2E2E2E2E2E20FE2F5F5E2E2E2E2E2E2E2E2E2E2E2E2E2E2F5E2E2E2E2E2E2E2E2E2E2E2F5F5F5E2E2E2E2E2E2E2E2E2E2
310
E2F5E2E2E2E2E2E2E2E2E2E2E2E2E2E2F5F5E2E2E2E20FE2E2E2E2E2E2E2E2E2E2E2E2E2E2E2E2E2E2E2E2E2E2E2E2E2E2E228E2F5E2E2F5F5F5E2F5F5F5E2E2E2F5E2F5E2F5F5F5E2E2E2E20F0F0F0F0FE20F0F0F0F0FE20F0F0F0FF5F50F0F0F0FF5E2E2E2E2E2E2E2E2E2E2E2E2E2E2E2E2E2E2E2E2E2E2E2E2E2E2E2E2
310
E2E2E2E2E2E2E2E2E2E20FE2F5F5E2E2E2E2E2E2E2E2E2E2E2E2E2E2F5E2E2E2E2E2E2E2E2E2E2E2F5F5F5E2E2E2E2E2E2E2E2E2E2E2F5E2E2E2E2E2E2E2E2E2E2E2E2E2E2F5F5E2E2E2E20FE2E2E2E2E2E2E2E2E2E2E2E2E2E2E2E2E2E2E2E2E2E2E2E2E2E2E228E2F5E2E2F5E20F0FE2F5E2F5F5E2F5E20F0FE2F5E2E2E2
310
E2E20FE2E2E20FE20FE2E2E20FF50FE2E20FF5F50FE2E20FF5E2E2E2E2E2E2E2E2E2E2E2E2E2E2E2E2E2E2E2E2E2E2E2E2E2E2E2E2E2E2E2E2E2E2E2E2E2E20FE2F5F5E2E2E2E2E2E2E2E2E2E2E2E2E2E2F5E2E2E2E2E2E2E2E2E2E2E2F5F5F5E2E2E2E2E2E2E2E2E2E2E2F5E2E2E2E2E2E2E2E2E2E2E2E2E2E2F5F5E2E2E2
310
E20FE2E2E2E2E2E2E2E2E2E2E2E2E2E2E2E2E2E2E2E2E2E2E2E2E2E2E228E2F5E2E2F50FE2E20FF5F5E2E2F5F50FE2E20FF5F5E2E2E2E20FE2E2E20FE20FE2E2E20FF50FE2E20FF5F50FE2E20FF5E2E2E2E2E2E2E2E2E2E2E2E2E2E2E2E2E2E2E2E2E2E2E2E2E2E2E2E2E2E2E2E2E2E2E2E2E2E20FE2F5F5E2E2E2E2E2E2E2
310
E2E2E2E2E2E2E2F5E2E2E2E2E2E2E2E2E2E2E2F5F5F5E2E2E2E2E2E2E2E2E2E2E2F5E2E2E2E2E2E2E2E2E2E2E2E2E2E2F5F5E2E2E2E20FE2E2E2E2E2E2E2E2E2E2E2E2E2E2E2E2E2E2E2E2E2E2E2E2E2E2E228E2F5E2E2F50FE2E20FF5E2E2E2E2F50FE2E20FF5E2E2E2E2E20F0F0F0F0FE20F0F0F0F0FE20F0F0F0FF5F50F
310
0F0F0FF5E2E2E2E2E2E2E2E2E2E2E2E2E2E2E2E2E2E2E2E2E2E2E2E2E2E2E2E2E2E2E2E2E2E2E2E2E2E20FE2F5F5E2E2E2E2E2E2E2E2E2E2E2E2E2E2F5E2E2E2E2E2E2E2E2E2E2E2F5F5F5E2E2E2E2E2E2E2E2E2E2E2F5E2E2E2E2E2E2E2E2E2E2E2E2E2E2F5F5E2E2E2E20FE2E2E2E2E2E2E2E2E2E2E2E2E2E2E2E2E2E2E2
310
E2E2E2E2E2E2E2E228E2F5E2E2F5F50F0FF5F5E2E2E2E2F5F50F0FF5F5E2E2E2E2E2E2E2E2E2E2E2E2E2E2E2E2E2E2E2E2E2E2E2E2E2E2E2F5E2E2E2E2E2E2E2E2E2E2E2E2E2E2E2E2E2E2E2E2E2E2E2E2E2E2E2E2E2E2E2E2E2E2E2E2E2E20FE2F5F5E2E2E2E2E2E2E2E2E2E2E2E2E2E2F5E2E2E2E2E2E2E2E2E2E2E2F5F5
310
F5E2E2E2E2E2E2E2E2E2E2E2E2E2E2E2E2E2E2E2E2E2E2E2E2E2E2F5F5E2E2E2E20FE2E2E2E2E2E2E2E2E2E2E2E2E2E2E2E2E2E2E2E2E2E2E2E2E2E2E228E2F5E2E2E2F5E2F5F5E2E2E2E2E2E2F5F5F5F5E2E2E2E2E2E20F0F0F0F0FE20F0F0F0F0FE20F0F0F0FF5F50F0F0F0FF5E2E2E2E2E2E2E2E2E2E2E2E2E2E2E2E2E2
310
E2E2E2E2E2E2E2E2E2E2E2E2E2E2E2E2E2E2E2E2E20FE2F5F5E2E2E2E2E2E2E2E2E2E2E2E2E2E2E2E2E2E2E2E2E2E2E2E2E2E2F5F5F5E2E2E2E2E2E2E2E2E2E2E2E2E2E2E2E2E2E2E2E2E2E2E2E2E2E2F5F5E2E2E2E20FE2E2E2E2E2E2E2E2E2E2E2E2E2E2E2E2E2E2E2E2E2E2E2E2E2E2E228E2F5E2E2E2F5F5F5E2E2E2E2
310
E2E2E2E2F5F5F5F5E2E2E2E2E20FE2E2E20FE20FE2E20F0FE20FE2E20FF5F50FE2E20FF5E2E2E2E2E2E2E2E2E2E2E2E2E2E2E2E2E2E2E2E2E2E2E2E2E2E2E2E2E2E2E2E2E2E2E2E2E2E20FE2F5F5E2E2E2E2E2E2E2E2E2E2E2E2E2E2E2E2E2E2E2E2E2E2E2E2E2E2F5F5F5E2E2E2E2E2E2E2E2E2E2E2E2E2E2E2E2E2E2E2E2
310
E2E2E2E2E2E2F5F5E2E2E2E20FE2E2E2E2E2E2E2E2E2E2E2E2E2E2E2E2E2E2E2E2E2E2E2E2E2E2E228E2F5E2E2F5F5F5E2E2E2F5E2F5F5E2E2E2F5F5F5E2E2E2E2E20FE2E2E20FE20FE2E2E20FE20FE2E20FF5F50FE2E20FF5E2E2E2E2E2E2E2E2E2E2E2E2E2E2E2E2E2E2E2E2E2E2E2E2E2E2E2E2E2E2E2E2E2E2E2E2E2E2
310
0FE2F5F5E2E2E2E2E2E2E2E2E2E2E2E2E2E2E2E2E2E2E2E2E2E2E2E2E2E2F5F5F5E2E2E2E2E2E2E2E2E2E2E2E2E2E2E2E2E2E2E2E2E2E2E2E2E2E2F5F5E2E2E2E20FE2E2E2E2E2E2E2E2E2E2E2E2E2E2E2E2E2E2E2E2E2E2E2E2E2E2E228E2F5E2E2E2E2E2E2E2E2F5F5F5F5F5E2E2E2E2E2E2E2E2E2E20FE2E2E20FE20FE2
310
E2E20FE20FE2E20FF5F50FE2E20FF5E2E2E2E2E2E2E2E2E2E2E2E2E2E2E2E2E2E2E2E2E2E2E2E2E2E2E2E2E2E2E2E2E2E2E2E2E2E20FE2F5F5E2E2E2E2E2E2E2E2E2E2E2E2E2E2E2E2E2E2E2E2E2E2E2E2E2E2F5F5F5E2E2E2E2E2E2E2E2E2E2E2E2E2E2E2E2E2E2E2E2E2E2E2E2E2E2F5F5E2E2E2E20FE2E2E2E2E2E2E2E2
310
E2E2E2E2E2E2E2E2E2E2E2E2E2E2E2E2E2E2E228E2F5E2E2E2E2E2E2F5F5F5F5F5F5F5F5E2E2E2E2E2E2E2E2E20F0F0F0F0FE20F0F0F0F0FE20F0F0F0FF5F50F0F0F0FF5E2E2E2E2E2E2E2E2E2E2E2E2E2E2E2E2E2E2E2E2E2E2E2E2E2E2E2E2E2E2E2E2E2E2E2E2E2E20FE2F5F5E2E2E2E2E2E2E2E2E2E2E2E2E2E2E2E2E2
310
E2E2E2E2E2E2E2E2E2F5F5F5E2E2E2E2E2E2E2E2E2E2E2E2E2E2E2E2E2E2E2E2E2E2E2E2E2E2F5F5E2E2E2E20FE2E2E2E2E2E2E2E2E2E2E2E2E2E2E2E2E2E2E2E2E2E2E2E2E2E2E228E2F5E2E2E2E2F5E2F5E2F5E2F5F5E2F5E2F5E2E2E2E2E2E2E2E2E2E2E2E2E2E2E2E2E2E2E2E2E2E2E2E2E2E2E2E2E2F5E2E2E2E2E2E2
310
E2E2E2E2E2E2E2E2E2E2E2E2E2E2E2E2E2E2E2E2E2E2E2E2E2E2E2E2E2E2E2E20FE2F5F5E2E2E2E2E2E2E2E2E2E2E2E2E2E2E2E2E2E2E2E2E2E2E2E2E2E2F5F5F5E2E2E2E2E2E2E2E2E2E2E2E2E2E2E2E2E2E2E2E2E2E2E2E2E2E2F5F5E2E2E2E20FE2E2E2E2E2E2E2E2E2E2E2E2E2E2E2E2E2E2E2E2E2E2E2E2E2E2E228E2
310
F5E2E2E2E2F5F5F5F5F5F5F5F5F5F5E2F5E2E2E2E2E2E2E2E2F5F5F5F5F5F5F5F5F5F5F5F5F5F5F5F5F5F5F5F5E2F5E2E2E2E2E2E2E2E2E2E2E2E2E2E2E2E2E2E2E2E2E2E2E2E2E2E2E2E2E2E2E2E2E2E2E2E2E2E20FE2F5F5E2E2E2E2E2E2E2E2E2E2E2E2E2E2E2E2E2E2E2E2E2E2E2E2E2E2F5F5F5E2E2E2E2E2E2E2E2E2
310
E2E2E2E2E2E2E2E2E2E2E2E2E2E2E2E2E2F5F5E2E2E2E20FE2E2E2E2E2E2E2E2E2E2E2E2E2E2E2E2E2E2E2E2E2E2E2E2E2E2E228E2F5E2E2E2E2F5F5F5F5F5F5F5F5F5F5E2F5E2E2E2E2E2E2E2F5F5F5F5F5E2F5F5F5F5F5E2F5F5F5F5E2F5F5F5F5F5F5E2E2E2E2E2E2E2E2E2E2E2E2E2E2E2E2E2E2E2E2E2E2E2E2E2E2E2
310
E2E2E2E2E2E2E2E2E2E2E20FE2F5F5E2E2E2E2E2E2E2E2E2E2E2E2E2E2E2E2E2E2E2E2E2E2E2E2E2E2F5F5F5E2E2E2E2E2E2E2E2E2E2E2E2E2E2E2E2E2E2E2E2E2E2E2E2E2E2F5F5E2E2E2E20FE2E2E2E2E2E2E2E2E2E2E2E2E2E2E2E2E2E2E2E2E2E2E2E2E2E2E228E2F5E2E2E2E2F5E2F5E2F5E2F5F5E2F5E2F5E2E2E2E2
310
E2E2E20F0F0F0F0FE20F0F0F0F0FE20F0F0F0FE20F0F0F0F0FF5E2E2E2E2E2E2E2E2E2E2E2E2E2E2E2E2E2E2E2E2E2E2E2E2E2E2E2E2E2E2E2E2E2E2E2E2E2E20FE2F5F5E2E2E2E2E2E2E2E2E2E2E2E2E2E2E2E2E2E2E2E2E2E2E2E2E2E2F5F5F5E2E2E2E2E2E2E2E2E2E2E2F5E2E2E2E2E2E2E2E2E2E2E2E2E2E2F5F5E2E2
310
E2E20FE2E2E2E2E2E2E2E2E2E2E2E2E2E2E2E2E2E2E2E2E2E2E2E2E2E22828E2F5E2E2E2E2F5F5F5F5F5F5F5F5F5F5E2F5E2E2E2E2E2E2E20FE2E2E20FE20FE2E20F0FF50FE2E20FE20F0FE2E20FF5E2E2E2E2E2E2E2E2E2E2E2E2E2E2E2E2E2E2E2E2E2E2E2E2E2E2E2E2E2E2E2E2E2E2E2E2E2E20FE2F5F5E2E2E2E2E2E2
310
E2E2E2E2E2E2E2E2F5E2E2E2E2E2E2E2E2E2E2E2F5F5F5E2E2E2E2E2E2E2E2E2E2E2F5E2E2E2E2E2E2E2E2E2E2E2E2E2E2F5F5E2E2E2E20FE2E2E2E2E2E2E2E2E2E2E2E2E2E2E2E2E2E2E2E2E2E2E2E2E2E22828E2F5E2E2E2E2F5F5F5F5F5F5F5F5F5F5E2F5E2E2E2E2E2E2E20FE2E2E20FE20FE2E20F0FF50FE2E20FE20F
310
0FE2E20FF5E2E2E2E2E2E2E2E2E2E2E2E2E2E2E2E2E2E2E2E2E2E2E2E2E2E2E2E2E2E2E2E2E2E2E2E2E2E20FE2F5F5E2E2E2E2E2E2E2E2E2E2E2E2E2E2F5E2E2E2E2E2E2E2E2E2E2E2F5F5F5E2E2E2E2E2E2E2E2E2E2E2F5E2E2E2E2E2E2E2E2E2E2E2E2E2E2F5F5E2E2E2E20FE2E2E2E2E2E2E2E2E2E2E2E2E2E2E2E2E2E2
310
E2E2E2E2E2E2E2E22828E2F5E2E2E2E2F5E2F5E2F5E2F5F5E2F5E2F5E2E2E2E2E2E2E20F0F0F0F0FE20F0F0F0F0FE20F0F0F0FE20F0F0F0F0FF5E2E2E2E2E2E2E2E2E2E2E2E2E2E2E2E2E2E2E2E2E2E2E2E2E2E2E2E2E2E2E2E2E2E2E2E2E2E20FE2F5F5E2E2E2E2E2E2E2E2E2E2E2E2E2E2F5E2E2E2E2E2E2E2E2E2E2E2F5
310
F5F5E2E2E2E2E2E2E2E2E2E2E2F5E2E2E2E2E2E2E2E2E2E2E2E2E2E2F5F5E2E2E2E20FE2E2E2E2E2E2E2E2E2E2E2E2E2E2E2E2E2E2E2E2E2E2E2E2E2E2E228E2F5E2E2E2E2E2E2F5F5F5F5F5F5F5F5E2E2E2E2E2E2E2E2E2E2E2E2E2E2E2E2E2E2E2E2E2E2E2E2E2E2E2E2E2E2E2F5E2E2E2E2E2E2E2E2E2E2E2E2E2E2E2E2
310
E2E2E2E2E2E2E2E2E2E2E2E2E2E2E2E2E2E2E2E2E2E20FE2F5F5E2E2E2E2E2E2E2E2E2E2E2E2E2E2F5E2E2E2E2E2E2E2E2E2E2E2F5F5F5E2E2E2E2E2E2E2E2E2E2E2F5E2E2E2E2E2E2E2E2E2E2E2E2E2E2F5F5E2E2E2E20FE2E2E2E2E2E2E2E2E2E2E2E2E2E2E2E2E2E2E2E2E2E2E2E2E2E2E228E2F5E2E2E2E2E2E2E2E2F5
310
F5F5F5F5E2E2E2E2E2E2E2E2E2E2E2F5F5F5F5F5F5F5F5F5F5F5F5F5F5F5F5F5F5F5F5E2F5E2E2E2E2E2E2E2E2E2E2E2E2E2E2E2E2E2E2E2E2E2E2E2E2E2E2E2E2E2E2E2E2E2E2E2E2E2E20FE2F5F5E2E2E2E2E2E2E2E2E2E2E2E2E2E2F5E2E2E2E2E2E2E2E2E2E2E2F5F5F5E2E2E2E2E2E2E2E2E2E2E2F5E2E2E2E2E2E2E2
310
E2E2E2E2E2E2E2F5F5E2E2E2E20FE2E2E2E2E2E2E2E2E2E2E2E2E2E2E2E2E2E2E2E2E2E2E2E2E2E2E228E2F5E2E2E2F5F5E2E2E2F5E2F5F5E2E2E2E2F5F5E2E2E2E2E2E2E2E2E2E2E2E2E2E2E2E2E2E2E2E2E2E2E2E2E2E2E2F5E2E2E2E2E2E2E2E2E2E2E2E2E2E2E2E2E2E2E2E2E2E2E2E2E2E2E2E2E2E2E2E2E2E2E2E2E2
310
E20FE2F5F5E2E2E2E2E2E2E2E2E2E2E2E2E2E2F5E2E2E2E2E2E2E2E2E2E2E2F5F5F5E2E2E2E2E2E2E2E2E2E2E2F5E2E2E2E2E2E2E2E2E2E2E2E2E2E2F5F5E2E2E2E20FE2E2E2E2E2E2E2E2E2E2E2E2E2E2E2E2E2E2E2E2E2E2E2E2E2E2E228E2F5E2E2F5F5F5F5F5F5F5F5F5E2E2F5E2F5F5F5E2E2E2E2E2F5F5F5F5E2E2E2
310
E2E2E2E2E2E2E2E2E2E2E2E2E2E2E2F5E2E2E2E2E2E2E2E2E2E2E2E2E2E2E2E2E2E2E2E2E2E2E2E2E2E2E2E2E2E2E2E2E2E2E2E2E2E20FE2F5F5E2E2E2E2E2E2E2E2E2E2E2E2E2E2F5E2E2E2E2E2E2E2E2E2E2E2F5F5F5E2E2E2E2E2E2E2E2E2E2E2F5E2E2E2E2E2E2E2E2E2E2E2E2E2E2F5F5E2E2E2E20FE2E2E2E2E2E2E2
310
E2E2E2E2E2E2E2E2E2E2E2E2E2E2E2E2E2E2E2E228E2F5E2E2E2E2E2E2E20F0FE2F5F5F5E2E2E2E2E2E2E2E2E2E2F5F5F5F5E2E2E20F0F0F0F0F0F0F0F0F0F0F0F0F0FF5F5E2E2E2E2E2E2E2E2E2E2E2E2E2E2E2E2E2E2E2E2E2E2E2E2E2E2E2E2E2E2E2E2E2E2E2E2E2E20FE2F5F5E2E2E2E2E2E2E2E2E2E2E2E2E2E2F5E2
310
E2E2E2E2E2E2E2E2E2E2F5F5F5E2E2E2E2E2E2E2E2E2E2E2F5E2E2E2E2E2E2E2E2E2E2E2E2E2E2F5F5E2E2E2E20FE2E2E2E2E2E2E2E2E2E2E2E2E2E2E2E2E2E2E2E2E2E2E2E2E2E2E228E2F5E2E2E2E2E2E20F0F0F0FF5F5E2E2F5E2E2E2E2E2E2E2E2E20F0F0FE2E2E20F0F0F0F0F0F0F0F0F0F0F0F0F0FF5F5E2E2E2E2E2
310
E2E2E2E2E2E2E2E2E2E2E2E2E2E2E2E2E2E2E2E2E2E2E2E2E2E2E2E2E2E2E2E2E20FE2F5F5E2E2E2E2E2E2E2E2E2E2E2E2E2E2F5E2E2E2E2E2E2E2E2E2E2E2F5F5F5E2E2E2E2E2E2E2E2E2E2E2F5E2E2E2E2E2E2E2E2E2E2E2E2E2E2F5F5E2E2E2E20FE2E2E2E2E2E2E2E2E2E2E2E2E2E2E2E2E2E2E2E2E2E2E2E2E2E2E228
310
E2F5E2E2E2E2E20F0F0F0F0F0FE2E2E2F5E2E2E2E2E2E2E2E2E20FE20FE2E2E20F0FE2E2E20F0F0F0FE2E2E20F0FF5F5E2E2E2E2E2E2E2E2E2E2E2E2E2E2E2E2E2E2E2E2E2E2E2E2E2E2E2E2E2E2E2E2E2E2E2E2E2E20FE2F5F5E2E2E2E2E2E2E2E2E2E2E2E2E2E2F5E2E2E2E2E2E2E2E2E2E2E2F5F5F5E2E2E2E2E2E2E2E2
310
E2E2E2F5E2E2E2E2E2E2E2E2E2E2E2E2E2E2F5F5E2E2E2E20FE2E2E2E2E2E2E2E2E2E2E2E2E2E2E2E2E2E2E2E2E2E2E2E2E2E2E228E2F5E2E2E2E2E20F0F0FE20F0F0FE2E2E2E2E2E2E2E2E2E2E20F0FE20F0FE2E20F0FE2E2E20F0F0F0FE2E2E20F0FF5F5E2E2E2E2E2E2E2E2E2E2E2E2E2E2E2E2E2E2E2E2E2E2E2E2E2E2
310
E2E2E2E2E2E2E2E2E2E2E2E20FE2F5F5E2E2E2E2E2E2E2E2E2E2E2E2E2E2F5E2E2E2E2E2E2E2E2E2E2E2F5F5F5E2E2E2E2E2E2E2E2E2E2E2F5E2E2E2E2E2E2E2E2E2E2E2E2E2E2F5F5E2E2E2E20FE2E2E2E2E2E2E2E2E2E2E2E2E2E2E2E2E2E2E2E2E2E2E2E2E2E2E228E2F5E2E2E2E2E20F0F0F0FE20F0FE2F5F5F5E2E2E2
310
E2E2E2E2E20F0F0FE2E2E20F0FE2E2E20F0F0F0FE2E2E20F0FF5F5E2E2E2E2E2E2E2E2E2E2E2E2E2E2E2E2E2E2E2E2E2E2E2E2E2E2E2E2E2E2E2E2E2E2E2E2E2E20FE2F5F5E2E2E2E2E2E2E2E2E2E2E2E2E2E2F5E2E2E2E2E2E2E2E2E2E2E2F5F5F5E2E2E2E2E2E2E2E2E2E2E2F5E2E2E2E2E2E2E2E2E2E2E2E2E2E2F5F5E2
310
E2E2E20FE2E2E2E2E2E2E2E2E2E2E2E2E2E2E2E2E2E2E2E2E2E2E2E2E2E2E228E2F5E2E2E2E2E20F0F0F0F0F0FE2E2F5F5F5E2E2E2E2E2E2E2E2E2E2E2E2E2E20F0F0F0F0F0F0F0F0F0F0F0F0F0FF5F5E2E2E2E2E2E2E2E2E2E2E2E2E2E2E2E2E2E2E2E2E2E2E2E2E2E2E2E2E2E2E2E2E2E2E2E2E2E20FE2F5F5E2E2E2E2E2
310
E2E2E2E2E2E2E2E2E2F5E2E2E2E2E2E2E2E2E2E2E2F5F5F5E2E2E2E2E2E2E2E2E2E2E2F5E2E2E2E2E2E2E2E2E2E2E2E2E2E2F5F5E2E2E2E20FE2E2E2E2E2E2E2E2E2E2E2E2E2E2E2E2E2E2E2E2E2E2E2E2E2E2E228E2F5E2E2E2E2F5F50F0F0F0F0FE2E2E2F5E2E2E2E2E2E2E2E2E2E2E2E2E2E2E20F0F0F0F0F0F0F0F0F0F
310
0F0F0F0FF5F5E2E2E2E2E2E2E2E2E2E2E2E2E2E2E2E2E2E2E2E2E2E2E2E2E2E2E2E2E2E2E2E2E2E2E2E2E2E20FE2F5F5E2E2E2E2E2E2E2E2E2E2E2E2E2E2F5E2E2E2E2E2E2E2E2E2E2E2F5F5F5E2E2E2E2E2E2E2E2E2E2E2F5E2E2E2E2E2E2E2E2E2E2E2E2E2E2F5F5E2E2E2E20FE2E2E2E2E2E2E2E2E2E2E2E2E2E2E2E2E2
310
E2E2E2E2E2E2E2E2E2E228E2F5E2E2E2E2F5F50F0F0F0FE2E2E2E2E2E2E2E2E2E2E2E2E2E2E2E2E2E2E2E2E2E2E2E2E2E2E2E2E2E2E2E2E2E2E2F5E2E2E2E2E2E2E2E2E2E2E2E2E2E2E2E2E2E2E2E2E2E2E2E2E2E2E2E2E2E2E2E2E2E2E2E2E2E20FE2F5F5E2E2E2E2E2E2E2E2E2E2E2E2E2E2F5E2E2E2E2E2E2E2E2E2E2E2
310
F5F5F5E2E2E2E2E2E2E2E2E2E2E2E2E2E2E2E2E2E2E2E2E2E2E2E2E2E2F5F5E2E2E2E20FE2E2E2E2E2E2E2E2E2E2E2E2E2E2E2E2E2E2E2E2E2E2E2E2E2E2E228E2F5E2E2F5F5F5F50F0F0F0FF5F5F5F5F5F5F5F5F5F5F5F5F5F5F5F5F5F5F5F5F5F5F5F5F5F5F5F5F5F5F5F5F5F5E2F5E2E2E2E2E2E2E2E2E2E2E2E2E2E2E2
310
E2E2E2E2E2E2E2E2E2E2E2E2E2E2E2E2E2E2E2E2E2E2E20FE2F5F5E2E2E2E2E2E2E2E2E2E2E2E2E2E2E2E2E2E2E2E2E2E2E2E2E2E2F5F5F5E2E2E2E2E2E2E2E2E2E2E2E2E2E2E2E2E2E2E2E2E2E2E2E2E2E2F5F5E2E2E2E20FE2E2E2E2E2E2E2E2E2E2E2E2E2E2E2E2E2E2E2E2E2E2E2E2E2E2E228E2F5E2E2F5F5F5E2E2E2
310
E2E2F5F5E2E2E2E2E2E2E2E2E2E2E2E2E2E2E2E2E2E2E2E2E2F5F5F5F5F5F5F5F5F5F5F5E2F5E2E2E2E2E2E2E2E2E2E2E2E2E2E2E2E2E2E2E2E2E2E2E2E2E2E2E2E2E2E2E2E2E2E2E2E2E2E20FE2F5F5E2E2E2E2E2E2E2E2E2E2E2E2E2E2E2E2E2E2E2E2E2E2E2E2E2E2F5F5F5E2E2E2E2E2E2E2E2E2E2E2E2E2E2E2E2E2E2
310
E2E2E2E2E2E2E2E2F5F5E2E2E2E20FE2E2E2E2E2E2E2E2E2E2E2E2E2E2E2E2E2E2E2E2E2E2E2E2E2E2E228E2F5E2E2F5F5F5E2E2E2E2E2E2E2E2E2E2E2E2E2E2E2E2E2E2E2E2E2E2E2E2E2E2E2E2E2E2E2E2E2E2E2E2E2E2E2E2F5E2E2E2E2E2E2E2E2E2E2E2E2E2E2E2E2E2E2E2E2E2E2E2E2E2E2E2E2E2E2E2E2E2E2E2E2
310
E2E20FE2F5F5E2E2E2E2E2E2E2E2E2E2E2E2E2E2E2E2E2E2E2E2E2E2E2E2E2E2F5F5F5E2E2E2E2E2E2E2E2E2E2E2E2E2E2E2E2E2E2E2E2E2E2E2E2E2E2F5F5E2E2E2E20FE2E2E2E2E2E2E2E2E2E2E2E2E2E2E2E2E2E2E2E2E2E2E2E2E2E2E228E2F5F5F5F5F5E2E2E2E2E2E2E2E2E2E2E2E2E2E2E2E2E2E2E2E2E2E2E2E2E2
310
E2E2E2E2E2E2E2E2E2E2E2E2E2E2F5F5F5E2E2E2E2E2E2E2E2E2E2E2E2E2E2E2E2E2E2E2E2E2E2E2E2E2E2E2E2E2E2E2E2E2E2E2E2E2E20FE2F5F5E2E2E2E2E2E2E2E2E2E2E2E2E2E2E2E2E2E2E2E2E2E2E2E2E2E2F5F5F5E2E2E2E2E2E2E2E2E2E2E2E2E2E2E2E2E2E2E2E2E2E2E2E2E2E2F5F5E2E2E2E20FE2E2E2E2E2E2
310
E2E2E2E2E2E2E2E2E2E2E2E2E2E2E2E2E2E2E2E2E228E2F5F5F5F5E2E2E2E2E2E2E2E2E2E2E2E2E2E2E2E2E2E2E2E2E2E2E2E2E2E2E2E2E2E2E2E2E2E2E2E2E2E2E2E2F5F5F5E2E2E2E2E2E2E2E2E2E2E2E2E2E2E2E2E2E2E2E2E2E2E2E2E2E2E2E2E2E2E2E2E2E2E2E2E2E20FE2F5F5E2E2E2E2E2E2E2E2E2E2E2E2E2E2E2
310
E2E2E2E2E2E2E2E2E2E2E2F5F5F5E2E2E2E2E2E2E2E2E2E2E2E2E2E2E2E2E2E2E2E2E2E2E2E2E2E2F5F5E2E2E2E20FE2E2E2E2E2E2E2E2E2E2E2E2E2E2E2E2E2E2E2E2E2E2E2E2E2E2E22828F5F5F5F5F5F5F5F5F5F5F5F5F5F5F5F5F5F5F5F5F5F5F5F5F5F5F5F5F5F5F5F5F5F5F5F5F5F5F5F5F5F5F5F5F5F5F5E2E2E2E2
310
E2E2E2E2E2E2E2E2E2E2E2E2E2E2E2E2E2E2E2E2E2E2E2E2E2E2E2E2E2E2E2E2E2E20FE2F5F5E2E2E2E2E2E2E2E2E2E2E2E2E2E2E2E2E2E2E2E2E2E2E2E2E2E2F5F5F5E2E2E2E2E2E2E2E2E2E2E2E2E2E2E2E2E2E2E2E2E2E2E2E2E2E2F5F5E2E2E2E20FE2E2E2E2E2E2E2E2E2E2E2E2E2E2E2E2E2E2E2E2E2E2E2E2E2E2E2
310
E2E22828282828282828282828282828282828282828282828282828282828282828282828282828282828282828282828E2E2E2E2E2E2E2E2E2E2E2E2E2E2E2E2E2E2E2E2E2E2E2E2E2E2E2E2E2E2E2E2E2E2E2E2E2E20FE2F5F5E2E2E2E2E2E2E2E2E2E2E2E2E2E2E2E2E2E2E2E2E2E2E2E2E2E2F5F5F5E2E2E2E2E2E2E2
310
E2E2E2E2E2E2E2E2E2E2E2E2E2E2E2E2E2E2E2F5F5E2E2E2E20FE2E2E2E2E2E2E2E2E2E2E2E2E2E2E2E2E2E2E2E2E2E2E2E2E2E2E2E2E228E2E2E2E2E2E2E2E2E2E2E2E2E2E2E2E2E2E2E2E2E228282828E2E2E2E2E2E2E2E2E2E2E2E2E2E2E2E2E2E2E2E228E2E2E2E2E2E2E2E2E2E2E2E2E2E2E2E2E2E2E2E2E2E2E2E2E2
310
E2E2E2E2E2E2E2E2E2E2E2E2E20FE2F5F5E2E2E2E2E2E2E2E2E2E2E2E2E2E2E2E2E2E2E2E2E2E2E2E2E2E2F5F5F5E2E2E2E2E2E2E2E2E2E2E2F5E2E2E2E2E2E2E2E2E2E2E2E2E2E2F5F5E2E2E2E20FE2E2E2E2E2E2E2E2E2E2E2E2E2E2E2E2E2E2E2E2E2E2E2E2E2E2E2E2E2E2E2E2E2E2E2E2E2E2E2E2E2E2E2E2E2E2E2E2
310
E2E2E2E2E2E2E2E2E2E2E2E2E2E2E2E2E2E2E2E2E2E2E2E2E2E2E2E2E2E2E2E2E2E2E2E2E2E2E2E2E2E2E2E2E2E2E2E2E2E2E2E2E2E2E2E2E2E2E2E2E2E2E2E2E2E20FE2F5F5E2E2E2E2E2E2E2E2E2E2E2E2E2E2F5E2E2E2E2E2E2E2E2E2E2E2F5F5F5E2E2E2E2E2E2E2E2E2E2E2F5E2E2E2E2E2E2E2E2E2E2E2E2E2E2F5F5
310
E2E2E2E20FE2E2E2E2E2E2E2E2E2E2E2E2E2E2E2E2E2E2E2E2E2E2E2E2E2E2E2E2E2E2E2E2E2E2E2E2E2E2E2E2E2E2E2E2E2E2E2E2E2E2E2E2E2E2E2E2E2E2E2E2E2E2E2E2E2E2E2E2E2E2E2E2E2E2E2E2E2E2E2E2E2E2E2E2E2E2E2E2E2E2E2E2E2E2E2E2E2E2E2E2E2E2E2E2E2E2E2E2E2E2E2E2E2E20FE2F5F5E2E2E2E2
310
E2E2E2E2E2E2E2E2E2E2F5E2E2E2E2E2E2E2E2E2E2E2F5F5F5E2E2E2E2E2E2E2E2E2E2E2F5E2E2E2E2E2E2E2E2E2E2E2E2E2E2F5F5E2E2E2E20FE2E2E2E2E2E2E2E2E2E2E2E2E2E2E2E2E2E2E2E2E2E2E2E2E2E2E2E2E2E2E2E2E2E2E2E2E2E2E2E2E2E2E2E2E2E2E2E2E2E2E2E2E2E2E2E2E2E2E2E2E2E2E2E2E2E2E2E2E2
310
E2E2E2E2E2E2E2E2E2E2E2E2E2E2E2E2E2E2E2E2E2E2E2E2E2E2E2E2E2E2E2E2E2E2E2E2E2E2E2E2E2E2E2E2E20FE2F5F5E2E2E2E2E2E2E2E2E2E2E2E2E2E2F5E2E2E2E2E2E2E2E2E2E2E2F5F5F5E2E2E2E2E2E2E2E2E2E2E2F5E2E2E2E2E2E2E2E2E2E2E2E2E2E2F5F5E2E2E2E20FE2E2E2E2E2E2E2E2E2E2E2E2E2E2E2E2
310
E2E2E2E2E2E2E2E2E2E2E2E2E2E2E2E2E2E2E2E2E2E2E2E2E2E2E2E2E2E2E2E2E2E2E2E2E2E2E2E2E2E2E2E2E2E2E2E2E2E2E2E2E2E2E2E2E2E2E2E2E2E2E2E2E2E2E2E2E2E2E2E2E2E2E2E2E2E2E2E2E2E2E2E2E2E2E2E2E2E2E2E2E2E2E2E2E2E20FE2F5F5E2E2E2E2E2E2E2E2E2E2E2E2E2E2F5E2E2E2E2E2E2E2E2E2E2
310
E2F5F5F5E2E2E2E2E2E2E2E2E2E2E2F5E2E2E2E2E2E2E2E2E2E2E2E2E2E2F5F5E2E2E2E20FE2E2E2E2E2E2E2E2E2E2E2E2E2E2E2E2E2E2E2E2E2E2E2E2E2E2E2E2E2E2E2E2E2E2E2E2E2E2E2E2E2E2E2E2E2E2E2E2E2E2E2E2E2E2E2E2E2E2E2E2E2E2E2E2E2E2E2E2E2E2E2E2E2E2E2E2E2E2E2E2E2E2E2E2E2E2E2E2E2E2
310
E2E2E2E2E2E2E2E2E2E2E2E2E2E2E2E2E2E2E2E2E2E2E2E20FE2F5F5E2E2E2E2E2E2E2E2E2E2E2E2E2E2F5E2E2E2E2E2E2E2E2E2E2E2F5F5F5E2E2E2E2E2E2E2E2E2E2E2F5E2E2E2E2E2E2E2E2E2E2E2E2E2E2F5F5E2E2E2E20FE2E2E2E2E2E2E2E2E2E2E2E2E2E2E2E2E2E2E2E2E2E2E2E2E2E2E2E2E2E2E2E2E2E2E2E2E2
310
E2E2E2E2E2E2E2E2E2E2E2E2E2E2E2E2E2E2E2E2E2E2E2E2E2E2E2E2E2E2E2E2E2E2E2E2E2E2E2E2E2E2E2E2E2E2E2E2E2E2E2E2E2E2E2E2E2E2E2E2E2E2E2E2E2E2E2E2E2E2E2E2E2E2E2E2E20FE2F5F5E2E2E2E2E2E2E2E2E2E2E2E2E2E2F5E2E2E2E2E2E2E2E2E2E2E2F5F5F5E2E2E2E2E2E2E2E2E2E2E2F5E2E2E2E2E2
310
E2E2E2E2E2E2E2E2E2F5F5E2E2E2E20FE2E2E2E2E2E2E2E2E2E2E2E2E2E2E2E2E2E2E2E2E2E2E2E2E2E2E2E2E2E2E2E2E2E2E2E2E2E2E2E2E2E2E2E2E2E2E2E2E2E2E2E2E2E2E2E2E2E2E2E2E2E2E2E2E2E2E2E2E2E2E2E2E2E2E2E2E2E2E2E2E2E2E2E2E2E2E2E2E2E2E2E2E2E2E2E2E2E2E2E2E2E2E2E2E2E2E2E2E2E2E2
310
E2E2E20FE2F5F5E2E2E2E2E2E2E2E2E2E2E2E2E2E2F5E2E2E2E2E2E2E2E2E2E2E2F5F5F5E2E2E2E2E2E2E2E2E2E2E2F5E2E2E2E2E2E2E2E2E2E2E2E2E2E2F5F5E2E2E2E20FE2E2E2E2E2E2E2E2E2E2E2E2E2E2E2E2E2E2E2E2E2E2E2E2E2E2E2E2E2E2E2E2E2E2E2E2E2E2E2E2E2E2E2E2E2E2E2E2E2E2E2E2E2E2E2E2E2E2
310
E2E2E2E2E2E2E2E2E2E2E2E2E2E2E2E2E2E2E2E2E2E2E2E2E2E2E2E2E2E2E2E2E2E2E2E2E2E2E2E2E2E2E2E2E2E2E2E2E2E2E2E2E2E2E2E20FE2F5F5E2E2E2E2E2E2E2E2E2E2E2E2E2E2F5E2E2E2E2E2E2E2E2E2E2E2F5F5F5E2E2E2E2E2E2E2E2E2E2E2F5E2E2E2E2E2E2E2E2E2E2E2E2E2E2F5F5E2E2E2E20FE2E2E2E2E2
310
E2E2E2E2E2E2E2E2E2E2E2E2E2E2E2E2E2E2E2E2E2E2E2E2E2E2E2E2E2E2E2E2E2E2E2E2E2E2E2E2E2E2E2E2E2E2E2E2E2E2E2E2E2E2E2E2E2E2E2E2E2E2E2E2E2E2E2E2E2E2E2E2E2E2E2E2E2E2E2E2E2E2E2E2E2E2E2E2E2E2E2E2E2E2E2E2E2E2E2E2E2E2E2E2E2E2E2E2E20FE2F5F5E2E2E2E2E2E2E2E2E2E2E2E2E2E2
310
F5E2E2E2E2E2E2E2E2E2E2E2F5F5F5E2E2E2E2E2E2E2E2E2E2E2F5E2E2E2E2E2E2E2E2E2E2E2E2E2E2F5F5E2E2E2E20FE2E2E2E2E2E2E2E2E2E2E2E2E2E2E2E2E2E2E2E2E2E2E2E2E2E2E2E2E2E2E2E2E2E2E2E2E2E2E2E2E2E2E2E2E2E2E2E2E2E2E2E2E2E2E2E2E2E2E2E2E2E2E2E2E2E2E2E2E2E2E2E2E2E2E2E2E2E2E2
310
E2E2E2E2E2E2E2E2E2E2E2E2E2E2E2E2E2E2E2E2E2E2E2E2E2E2E2E2E2E2E2E2E2E2E20FE2F5F5E2E2E2E2E2E2E2E2E2E2E2E2E2E2F5E2E2E2E2E2E2E2E2E2E2E2F5F5F5E2E2E2E2E2E2E2E2E2E2E2F5E2E2E2E2E2E2E2E2E2E2E2E2E2E2F5F5E2E2E2E20FE2E2E2E2E2E2E2E2E2E2E2E2E2E2E2E2E2E2E2E2E2E2E2E2E2E2
310
E2E2E2E2E2E2E2E2E2E2E2E2E2E2E2E2E2E2E2E2E2E2E2E2E2E2E2E2E2E2E2E2E2E2E2E2E2E2E2E2E2E2E2E2E2E2E2E2E2E2E2E2E2E2E2E2E2E2E2E2E2E2E2E2E2E2E2E2E2E2E2E2E2E2E2E2E2E2E2E2E2E2E2E2E2E2E2E20FE2F5F5E2E2E2E2E2E2E2E2E2E2E2E2E2E2F5E2E2E2E2E2E2E2E2E2E2E2F5F5F5E2E2E2E2E2E2
310
E2E2E2E2E2F5E2E2E2E2E2E2E2E2E2E2E2E2E2E2F5F5E2E2E2E20FE2E2E2E2E2E2E2E2E2E2E2E2E2E2E2E2E2E2E2E2E2E2E2E2E2E2E2E2E2E2E2E2E2E2E2E2E2E2E2E2E2E2E2E2E2E2E2E2E2E2E2E2E2E2E2E2E2E2E2E2E2E2E2E2E2E2E2E2E2E2E2E2E2E2E2E2E2E2E2E2E2E2E2E2E2E2E2E2E2E2E2E2E2E2E2E2E2E2E2E2
310
E2E2E2E2E2E2E2E2E2E2E2E2E2E20FE2F5F5E2E2E2E2E2E2E2E2E2E2E2E2E2E2F5E2E2E2E2E2E2E2E2E2E2E2F5F5F5E2E2E2E2E2E2E2E2E2E2E2F5E2E2E2E2E2E2E2E2E2E2E2E2E2E2F5F5E2E2E2E20FE2E2E2E2E2E2E2E2E2E2E2E2E2E2E2E2E2E2E2E2E2E2E2E2E2E2E2E2E2E2E2E2E2E2E2E2E2E2E2E2E2E2E2E2E2E2E2
310
E2E2E2E2E2E2E2E2E2E2E2E2E2E2E2E2E2E2E2E2E2E2E2E2E2E2E2E2E2E2E2E2E2E2E2E2E2E2E2E2E2E2E2E2E2E2E2E2E2E2E2E2E2E2E2E2E2E2E2E2E2E2E2E2E2E2E20FE2F5F5E2E2E2E2E2E2E2E2E2E2E2E2E2E2F5E2E2E2E2E2E2E2E2E2E2E2F5F5F5E2E2E2E2E2E2E2E2E2E2E2F5E2E2E2E2E2E2E2E2E2E2E2E2E2E2F5
310
F5E2E2E2E20F0F0F0F0F0F0F0F0F0F0F0F0F0F0F0F0F0F0F0F0F0F0F0F0F0F0F0F0F0F0F0F0F0F0F0F0F0F0F0F0F0F0F0F0F0F0F0F0F0F0F0F0F0F0F0F0F0F0F0F0F0F0F0F0F0F0F0F0F0F0F0F0F0F0F0F0F0F0F0F0F0F0F0F0F0F0F0F0F0F0F0F0F0F0F0F0F0F0F0F0F0F0F0F0F0F0F0F0F0F0F0F0F0F0F0FE2F5F5E2E2E2
310
E2E2E2E2E2E2E2E2E2E2E2F5E2E2E2E2E2E2E2E2E2E2E2F5F5F5E2E2E2E2E2E2E2E2E2E2E2F5E2E2E2E2E2E2E2E2E2E2E2E2E2E2F5F5E2E2E2E2E2E2E2E2E2E2E2E2E2E2E2E2E2E2E2E2E2E2E2E2E2E2E2E2E2E2E2E2E2E2E2E2E2E2E2E2E2E2E2E2E2E2E2E2E2E2E2E2E2E2E2E2E2E2E2E2E2E2E2E2E2E2E2E2E2E2E2E2E2
310
E2E2E2E2E2E2E2E2E2E2E2E2E2E2E2E2E2E2E2E2E2E2E2E2E2E2E2E2E2E2E2E2E2E2E2E2E2E2E2E2E2E2E2E2E2E2E2E2F5F5E2E2E2E2E2E2E2E2E2E2E2E2E2E2F5E2E2E2E2E2E2E2E2E2E2E2F5F5F5E2E2E2E2E2E2E2E2E2E2E2E2E2E2E2E2E2E2E2E2E2E2E2E2E2E2F5F5F5F5F5F5F5F5F5F5F5F5F5F5F5F5F5F5F5F5F5F5
310
F5F5F5F5F5F5F5F5F5F5F5F5F5F5F5F5F5F5F5F5F5F5F5F5F5F5F5F5F5F5F5F5F5F5F5F5F5F5F5F5F5F5F5F5F5F5F5F5F5F5F5F5F5F5F5F5F5F5F5F5F5F5F5F5F5F5F5F5F5F5F5F5F5F5F5F5F5F5F5F5F5F5F5F5F5F5F5F5F5F5F5F5F5F5F5F5F5F5F5F5F5F5F5E2E2E2E2E2E2E2E2E2E2E2E2E2E2E2E2E2E2E2E2E2E2E2E2
310
E2E2F5F5F5E2E2E2E2E2E2E2E2E2E2E2E2E2E2E2E2E2E2E2E2E2E2E2E2E2E2F5E2E2E2E2E2E2E2E2E2E2E2E2E2E2E2E2E2E2E2E2E2E2E2E2E2E2E2E2E2E2E2E2E2E2E2E2E2E2E2E2E2E2E2E2E2E2E2E2E2E2E2E2E2E2E2E2E2E2E2E2E2E2E2E2E2E2E2E2E2E2E2E2E2E2E2E2E2E2E2E2E2E2E2E2E2E2E2E2E2E2E2E2E2E2E2
310
E2E2E2E2E2E2E2E2E2E2E2E2E2E2E2E2E2E2E2E2E2E2E2E2E2E2E2E2F5E2E2E2E2E2E2E2E2E2E2E2E2E2E2E2E2E2E2E2E2E2E2E2E2E2E2F5F5F5E2E2E2E2E2E2E2E2E2E2E2E2E2E2E2E2E2E2E2E2E2E2E2E2E2E2F5E2E2E2E2E2E2E2E2E2E2E2E2E2E2E2E2E2E2E2E2E2E2E2E2E2E2E2E2E2E2E2E2E2E2E2E2E2E2E2E2E2E2
310
E2E2E2E2E2E2E2E2E2E2E2E2E2E2E2E2E2E2E2E2E2E2E2E2E2E2E2E2E2E2E2E2E2E2E2E2E2E2E2E2E2E2E2E2E2E2E2E2E2E2E2E2E2E2E2E2E2E2E2E2E2E2E2E2E2E2E2E2E2E2E2E2E2E2E2E2E2E2E2E2E2F5E2E2E2E2E2E2E2E2E2E2E2E2E2E2E2E2E2E2E2E2E2E2E2E2E2E2F5F5F5E2E2E2E2E2E2E2E2E2E2E2E2E2E2E2E2
310
E2E2E2E2E2E2E2E2E2E2F5E2E2E2E2E2E2E2E2E2E2E2E2E2E2E2E2E2E2E2E2E2E2E2E2E2E2E2E2E2E2E2E2E2E2E2E2E2E2E2E2E2E2E2E2E2E2E2E2E2E2E2E2E2E2E2E2E2E2E2E2E2E2E2E2E2E2E2E2E2E2E2E2E2E2E2E2E2E2E2E2E2E2E2E2E2E2E2E2E2E2E2E2E2E2E2E2E2E2E2E2E2E2E2E2E2E2E2E2E2E2E2E2E2E2E2E2
310
E2E2E2E2E2E2E2F5E2E2E2E2E2E2E2E2E2E2E2E2E2E2E2E2E2E2E2E2E2E2E2E2E2E2F5F5F5E2E2E2E2E2E2E2E2E2E2E2E2E2E2E2E2E2E2E2E2E2E2E2E2E2E2F5F5F5F5F5F5F5F5F5F5F5F5F5F5F5F5F5F5F5F5F5F5F5F5F5F5F5F5F5F5F5F5F5F5F5F5F5F5F5F5F5F5F5F5F5F5F5F5F5F5F5F5F5F5F5F5F5F5F5F5F5F5F5F5
310
F5F5F5F5F5F5F5F5F5F5F5F5F5F5F5F5F5F5F5F5F5F5F5F5F5F5F5F5F5F5F5F5F5F5F5F5F5F5F5F5F5F5F5F5F5F5F5F5F5F5F5F5F5F5F5F5F5F5F5F5F5E2E2E2E2E2E2E2E2E2E2E2E2E2E2E2E2E2E2E2E2E2E2E2E2E2E2F5F5F5E2E2E2E2E2E2E2E2E2E2E2E2E2E2E2E2E2E2E2E2E2E2E2E2E2E2E2E2E2E2E2E2E2E2E2E2E2
310
E2E2E2E2E2E2E2E2E2E2E2E2E2E2E2E2E2E2E2E2E2E2E2E2E2E2E2E2E2E2E2E2E2E2E2E2E2E2E2E2E2E2E2E2E2E2E2E2E2E2E2E2E2E2E2E2E2E2E2E2E2E2E2E2E2E2E2E2E2E2E2E2E2E2E2E2E2E2E2E2E2E2E2E2E2E2E2E2E2E2E2E2E2E2E2E2E2E2E2E2E2E2E2E2E2E2E2E2E2E2E2E2E2E2E2E2E2E2E2E2E2E2E2E2E2E2E2
310
E2E2E2E2E2E2E2E2E2E2E2E2E2F5F5F5E2E2E2E2E2E2E2E2E2E2E2E2E2E2E2E2E2E2E2E2E2E2E2E2E2E2E2E2E2E2E2E2E2E2E2E2E2E2E2E2E2E2E2E2E2E2E2E2E2E2E2E2E2E2E2E2E2E2E2E2E2E2E2E2E2E2E2E2E2E2E2E2E2E2E2E2E2E2E2E2E2E2E2E2E2E2E2E2E2E2E2E2E2E2E2E2E2E2E2E2E2E2E2E2E2E2E2E2E2E2E2
310
E2E2E2E2E2E2E2E2E2E2E2E2E2E2E2E2E2E2E2E2E2E2E2E2E2E2E2E2E2E2E2E2E2E2E2E2E2E2E2E2E2E2E2E2E2E2E2E2E2E2E2E2E2E2E2E2E2E2E2E2E2E2E2E2E2E2F5F5F5E2E2E2E2E2E2E2E2E2E2E2E2E2E2E2E2E2E2E2E2E2E2E2E2E2E2E2E2E2E2E2E2E2E2E2E2E2E2E2E2E2E2E2E2E2E2E2E2E2E2E2E2E2E2E2E2E2E2
310
E2E2E2E2E2E2E2E2E2E2E2E2E2E2E2E2E2E2E2E2E2E2E2E2E2E2E2E2E2E2E2E2E2E2E2E2E2E2E2E2E2E2E2E2E2E2E2E2E2E2E2E2E2E2E2E2E2E2E2E2E2E2E2E2E2E2E2E2E2E2E2E2E2E2E2E2E2E2E2E2E2E2E2E2E2E2E2E2E2E2E2E2E2E2E2E2E2E2E2E2E2E2E2E2E2E2E2E2E2E2E2E2E2E2E2E2E2E2E2F5F5F5E2E2E2E2E2
310
E2E2E2E2E2E2F5E2E2E2E2E2E2E2E2E2E2E2E2E2E2E2E2E2E2E2E2E2E2E2E2E2E2E2E2E2E2E2E2E2E2E2E2E2E2E2E2E2E2E2E2E2E2E2E2E2E2E2E2E2E2E2E2E2E2E2E2E2E2E2E2E2E2E2E2E2E2E2E2E2E2E2E2E2E2E2E2E2E2E2E2E2E2E2E2E2E2E2E2E2E2E2E2E2E2E2E2E2E2E2E2E2E2E2E2E2E2E2E2E2E2E2E2E2E2E2E2
310
E2E2E2E2E2E2E2E2E2E2E2E2E2E2E2E2E2E2E2E2E2E2E2E2E2E2E2E2E2E2E2E2E2F5E2E2E2E2E2E2E2E2E2E2E2F5F5F5E2E2E2E2E2E2E2E2E2E2E2F5E2E2E2E2E2E2E2E2E2E2E2E2E2E2E2E2E2E2E2E2E2E2E2E2E2E2E2E2E2E2E2E2E2E2E2E2E2E2E2E2E2E2E2E2E2E2E2E2E2E2E2E2E2E2E2E2E2E2E2E2E2E2E2E2E2E2E2
310
E2E2E2E2E2E2E2E2E2E2E2E2E2E2E2E2E2E2E2E2E2E2E2E2E2E2E2E2E2E2E2E2E2E2E2E2E2E2E2E2E2E2E2E2E2E2E2E2E2E2E2E2E2E2E2E2E2E2E2E2E2E2E2E2E2E2E2E2E2E2E2E2E2E2E2E2E2E2E2E2E2E2E2E2E2E2F5E2E2E2E2E2E2E2E2E2E2E2F5F5F5E2E2E2E2E2E2E2E2E2E2E2F5E2E2E2E2E2E2E2E2E2E2E2E2E2E2
310
E2E2E2E2E2E2E2E2E2E2E2E2E2E2E2E2E2E2E2E2E2E2E2E2E2E2E2E2E2E2E2E2E2E2E2E2E2E2E2E2E2E2E2E2E2E2E2E2E2E2E2E2E2E2E2E2E2E2E2E2E2E2E2E2E2E2E2E2E2E2E2E2E2E2E2E2E2E2E2E2E2E2E2E2E2E2E2E2E2E2E2E2E2E2E2E2E2E2E2E2E2E2E2E2E2E2E2E2E2E2E2E2E2E2E2E2E2E2E2E2E2E2E2E2E2E2E2
310
E2E2E2E2E2E2E2E2E2E2E2E2F5E2E2E2E2E2E2E2E2E2E2E2F5F5F5E2E2E2E2E2E2E2E2E2E2E2F5E2E2E2E2E2E2E2E2E2E2E2E2E2E2E2E2E2E2E2E2E2E2E2E2E2E2E2E2E2E2E2E2E2E2E2E2E2E2E2E2E2E2E2E2E2E2E2E2E2E2E2E2E2E2E2E2E2E2E2E2E2E2E2E2E2E2E2E2E2E2E2E2E2E2E2E2E2E2E2E2E2E2E2E2E2E2E2E2
310
E2E2E2E2E2E2E2E2E2E2E2E2E2E2E2E2E2E2E2E2E2E2E2E2E2E2E2E2E2E2E2E2E2E2E2E2E2E2E2E2E2E2E2E2E2E2E2E2E2E2E2E2E2E2E2E2E2E2E2E2E2E2E2E2E2F5E2E2E2E2E2E2E2E2E2E2E2F5F5F5E2E2E2E2E2E2E2E2E2E2E2F5E2E2E2E2E2E2E2E2E2E2E2E2E2E2E2E2E2E2E2E2E2E2E2E2E2E2E2E2E2E2E2E2E2E2E2
310
E2E2E2E2E2E2E2E2E2E2E2E2E2E2E2E2E2E2E2E2E2E2E2E2E2E2E2E2E2E2E2E2E2E2E2E2E2E2E2E2E2E2E2E2E2E2E2E2E2E2E2E2E2E2E2E2E2E2E2E2E2E2E2E2E2E2E2E2E2E2E2E2E2E2E2E2E2E2E2E2E2E2E2E2E2E2E2E2E2E2E2E2E2E2E2E2E2E2E2E2E2E2E2E2E2E2E2E2E2E2E2E2E2E2E2E2E2E2F5E2E2E2E2E2E2E2E2
310
E2E2E2F5F5F5E2E2E2E2E2E2E2E2E2E2E2F5E2E2E2E2E2E2E2E2E2E2E2E2E2E2E2E2E2E2E2E2E2E2E2E2E2E2E2E2E2E2E2E2E2E2E2E2E2E2E2E2E2E2E2E2E2E2E2E2E2E2E2E2E2E2E2E2E2E2E2E2E2E2E2E2E2E2E2E2E2E2E2E2E2E2E2E2E2E2E2E2E2E2E2E2E2E2E2E2E2E2E2E2E2E2E2E2E2E2E2E2E2E2E2E2E2E2E2E2E2
310
E2E2E2E2E2E2E2E2E2E2E2E2E2E2E2E2E2E2E2E2E2E2E2E2E2E2E2E2E2E2E2E2E2E2E2E2E2E2E2E2E2E2E2E2F5E2E2E2E2E2E2E2E2E2E2E2F5F5F5E2E2E2E2E2E2E2E2E2E2E2F5E2E2E2E2E2E2E2E2E2E2E2E2E2E2E2E2E2E2E2E2E2E2E2E2E2E2E2E2E2E2E2E2E2E2E2E2E2E2E2E2E2E2E2E2E2E2E2E2E2E2E2E2E2E2E2E2
310
E2E2E2E2E2E2E2E2E2E2E2E2E2E2E2E2E2E2E2E2E2E2E2E2E2E2E2E2E2E2E2E2E2E2E2E2E2E2E2E2E2E2E2E2E2E2E2E2E2E2E2E2E2E2E2E2E2E2E2E2E2E2E2E2E2E2E2E2E2E2E2E2E2E2E2E2E2E2E2E2E2E2E2E2E2E2E2E2E2E2E2E2E2E2E2E2E2F5E2E2E2E2E2E2E2E2E2E2E2F5F5F5E2E2E2E2E2E2E2E2E2E2E2F5F5F5F5
310
F5F5F5F5F5E2E2E2E2E2E2E2E2E2F5F5F5F5F5F5F5F5F5F5F5F5F5F5F5F5E2E2E2E2E2E2E2E2E2E2F5F5F5F5F5F5F5F5F5F5F5F5F5F5F5F5E2E2E2E2E2E2E2E2E2F5F5F5F5F5F5F5F5F5F5F5F5F5F5F5F5F5E2E2E2E2E2E2E2E2E2F5F5F5F5F5F5F5F5F5F5F5F5F5F5F5F5E2E2E2E2E2E2E2E2E2E2F5F5F5F5F5F5F5F5F5F5
310
F5F5F5F5F5F5E2E2E2E2E2E2E2E2E2F5F5F5F5F5F5F5F5F5E2E2E2E2E2E2E2E2E2E2E2F5F5F5E2E2E2E2E2E2E2E2E2E2E2E2E2E2E2E2E2E2E2E2E2E2E2E2E2E2E2E2E2E2E2E2E2E2E2E2E2E2E2E2E2E2E2E2E2E2E2E2E2E2E2E2E2E2E2E2E2E2E2E2E2E2E2E2E2E2E2E2E2E2E2E2E2E2E2E2E2E2E2E2E2E2E2E2E2E2E2E2E2
310
E2E2E2E2E2E2E2E2E2E2E2E2E2E2E2E2E2E2E2E2E2E2E2E2E2E2E2E2E2E2E2E2E2E2E2E2E2E2E2E2E2E2E2E2E2E2E2E2E2E2E2E2E2E2E2E2E2E2E2E2E2E2E2E2E2E2E2E2E2E2E2E2E2E2E2E2E2E2E2E2E2E2E2E2E2E2E2E2F5F5F5E2E2E2E2E2E2E2E2E2E2E2E2E2E2E2E2E2E2E2E2E2E2E2E2E2E2E2E2E2E2E2E2E2E2E2E2
310
E2E2E2E2E2E2E2E2E2E2E2E2E2E2E2E2E2E2E2E2E2E2E2E2E2E2E2E2E2E2E2E2E2E2E2E2E2E2E2E2E2E2E2E2E2E2E2E2E2E2E2E2E2E2E2E2E2E2E2E2E2E2E2E2E2E2E2E2E2E2E2E2E2E2E2E2E2E2E2E2E2E2E2E2E2E2E2E2E2E2E2E2E2E2E2E2E2E2E2E2E2E2E2E2E2E2E2E2E2E2E2E2E2E2E2E2E2E2E2E2E2E2E2E2E2E2E2
310
E2E2E2E2E2E2E2E2E2E2E2E2E2E2F5F5F5E2E2E2E2E2E2E2E2E2E2E2E2E2E2E2E2E2E2E2E2E2E2E2E2E2E2E2E2E2E2E2E2E2E2E2E2E2E2E2E2E2E2E2E2E2E2E2E2E2E2E2E2E2E2E2E2E2E2E2E2E2E2E2E2E2E2E2E2E2E2E2E2E2E2E2E2E2E2E2E2E2E2E2E2E2E2E2E2E2E2E2E2E2E2E2E2E2E2E2E2E2E2E2E2E2E2E2E2E2E2
310
E2E2E2E2E2E2E2E2E2E2E2E2E2E2E2E2E2E2E2E2E2E2E2E2E2E2E2E2E2E2E2E2E2E2E2E2E2E2E2E2E2E2E2E2E2E2E2E2E2E2E2E2E2E2E2E2E2E2E2E2E2E2E2E2E2E2E2F5F5F5E2E2E2E2E2E2E2E2E2E2E2E2E2E2E2E2E2E2E2E2E2E2E2E2E2E2E2E2E2E2E2E2E2E2E2E2E2E2E2E2E2E2E2E2E2E2E2E2E2E2E2E2E2E2E2E2E2
310
E2E2E2E2E2E2E2E2E2E2E2E2E2E2E2E2E2E2E2E2E2E2E2E2E2E2E2E2E2E2E2E2E2E2E2E2E2E2E2E2E2E2E2E2E2E2E2E2E2E2E2E2E2E2E2E2E2E2E2E2E2E2E2E2E2E2E2E2E2E2E2E2E2E2E2E2E2E2E2E2E2E2E2E2E2E2E2E2E2E2E2E2E2E2E2E2E2E2E2E2E2E2E2E2E2E2E2E2E2E2E2E2E2E2E2E2E2E2E2E2F5EFF5F5F5F5F5
310
F5F5F5F5F5F5F5F5F5F5F5F5F5F5F5F5F5F5F5F5F5F5F5F5F5F5F5F5F5F5F5F5F5F5F5F5F5F5F5F5F5F5F5F5F5F5F5F5F5F5F5F5F5F5F5F5F5F5F5F5F5F5F5F5F5F5F5F5F5F5F5F5F5F5F5F5F5F5F5F5F5F5F5F5F5F5F5F5F5F5F5F5F5F5F5F5F5F5F5F5F5F5F5F5F5F5F5F5F5F5F5F5F5F5F5F5F5F5F5F5F5F5F5F5F5F5F5
310
F5F5F5F5F5F5F5F5F5F5F5F5F5F5F5F5F5F5F5F5F5F5F5F5F5F5F5F5F5F5F5F5F5F5F5F5F5F5F5F5F5F5F5F5F5F5F5EF
  0
XRECORD
  5
2D87F
102
{ACAD_REACTORS
330
2D87E
102
}
330
2D87E
100
AcDbXrecord
280
     1
102
SHADEPLOT
 70
     0
102
SHADEPLOTRESLEVEL
 70
     2
102
SHADEPLOTCUSTOMDPI
 70
   300
  0
ENDSEC
  0
EOF
