  0
SECTION
  2
HEADER
  9
$ACADVER
  1
AC1014
  9
$ACADMAINTVER
 70
     9
  9
$DWGCODEPAGE
  3
ANSI_1252
  9
$INSBASE
 10
0.0
 20
0.0
 30
0.0
  9
$EXTMIN
 10
-0.0128164049386896
 20
-0.0090630292066862
 30
-0.0015258207003583
  9
$EXTMAX
 10
420.0128183607161
 20
297.0090644122207
 30
0.0000000349246037
  9
$LIMMIN
 10
0.0
 20
0.0
  9
$LIMMAX
 10
420.0
 20
297.0
  9
$ORTHOMODE
 70
     1
  9
$REGENMODE
 70
     1
  9
$FILLMODE
 70
     1
  9
$QTEXTMODE
 70
     0
  9
$MIRRTEXT
 70
     1
  9
$DRAGMODE
 70
     2
  9
$LTSCALE
 40
1.0
  9
$OSMODE
 70
    37
  9
$ATTMODE
 70
     1
  9
$TEXTSIZE
 40
2.0
  9
$TRACEWID
 40
1.0
  9
$TEXTSTYLE
  7
TASTENTEXT
  9
$CLAYER
  8
BLECH
  9
$CELTYPE
  6
BYLAYER
  9
$CECOLOR
 62
   256
  9
$CELTSCALE
 40
1.0
  9
$DELOBJ
 70
     1
  9
$DISPSILH
 70
     0
  9
$DIMSCALE
 40
1.0
  9
$DIMASZ
 40
2.5
  9
$DIMEXO
 40
0.625
  9
$DIMDLI
 40
3.75
  9
$DIMRND
 40
0.0
  9
$DIMDLE
 40
0.0
  9
$DIMEXE
 40
1.25
  9
$DIMTP
 40
0.0
  9
$DIMTM
 40
0.0
  9
$DIMTXT
 40
2.5
  9
$DIMCEN
 40
2.5
  9
$DIMTSZ
 40
0.0
  9
$DIMTOL
 70
     0
  9
$DIMLIM
 70
     0
  9
$DIMTIH
 70
     0
  9
$DIMTOH
 70
     0
  9
$DIMSE1
 70
     0
  9
$DIMSE2
 70
     0
  9
$DIMTAD
 70
     1
  9
$DIMZIN
 70
     8
  9
$DIMBLK
  1

  9
$DIMASO
 70
     1
  9
$DIMSHO
 70
     1
  9
$DIMPOST
  1

  9
$DIMAPOST
  1

  9
$DIMALT
 70
     0
  9
$DIMALTD
 70
     4
  9
$DIMALTF
 40
0.0394
  9
$DIMLFAC
 40
1.0
  9
$DIMTOFL
 70
     1
  9
$DIMTVP
 40
0.0
  9
$DIMTIX
 70
     0
  9
$DIMSOXD
 70
     0
  9
$DIMSAH
 70
     0
  9
$DIMBLK1
  1

  9
$DIMBLK2
  1

  9
$DIMSTYLE
  2
STANDARD
  9
$DIMCLRD
 70
     0
  9
$DIMCLRE
 70
     0
  9
$DIMCLRT
 70
     0
  9
$DIMTFAC
 40
1.0
  9
$DIMGAP
 40
0.625
  9
$DIMJUST
 70
     0
  9
$DIMSD1
 70
     0
  9
$DIMSD2
 70
     0
  9
$DIMTOLJ
 70
     1
  9
$DIMTZIN
 70
     0
  9
$DIMALTZ
 70
     0
  9
$DIMALTTZ
 70
     0
  9
$DIMFIT
 70
     3
  9
$DIMUPT
 70
     0
  9
$DIMUNIT
 70
     8
  9
$DIMDEC
 70
     4
  9
$DIMTDEC
 70
     4
  9
$DIMALTU
 70
     8
  9
$DIMALTTD
 70
     4
  9
$DIMTXSTY
  7
STANDARD
  9
$DIMAUNIT
 70
     0
  9
$LUNITS
 70
     2
  9
$LUPREC
 70
     4
  9
$SKETCHINC
 40
1.0
  9
$FILLETRAD
 40
1.0
  9
$AUNITS
 70
     0
  9
$AUPREC
 70
     0
  9
$MENU
  1
acad
  9
$ELEVATION
 40
0.0
  9
$PELEVATION
 40
0.0
  9
$THICKNESS
 40
0.0
  9
$LIMCHECK
 70
     0
  9
$BLIPMODE
 70
     0
  9
$CHAMFERA
 40
0.0
  9
$CHAMFERB
 40
0.0
  9
$CHAMFERC
 40
20.0
  9
$CHAMFERD
 40
0.0
  9
$SKPOLY
 70
     0
  9
$TDCREATE
 40
2451774.355798842
  9
$TDUPDATE
 40
2452695.473385416
  9
$TDINDWG
 40
0.3467220370
  9
$TDUSRTIMER
 40
0.3467220370
  9
$USRTIMER
 70
     1
  9
$ANGBASE
 50
0.0
  9
$ANGDIR
 70
     0
  9
$PDMODE
 70
     0
  9
$PDSIZE
 40
0.0
  9
$PLINEWID
 40
0.0
  9
$COORDS
 70
     1
  9
$SPLFRAME
 70
     0
  9
$SPLINETYPE
 70
     6
  9
$SPLINESEGS
 70
     8
  9
$ATTDIA
 70
     0
  9
$ATTREQ
 70
     1
  9
$HANDLING
 70
 22529
  9
$HANDSEED
  5
27D7D
  9
$SURFTAB1
 70
     6
  9
$SURFTAB2
 70
     6
  9
$SURFTYPE
 70
     6
  9
$SURFU
 70
     6
  9
$SURFV
 70
     6
  9
$UCSNAME
  2

  9
$UCSORG
 10
0.0
 20
0.0
 30
0.0
  9
$UCSXDIR
 10
1.0
 20
0.0
 30
0.0
  9
$UCSYDIR
 10
0.0
 20
1.0
 30
0.0
  9
$PUCSNAME
  2

  9
$PUCSORG
 10
0.0
 20
0.0
 30
0.0
  9
$PUCSXDIR
 10
1.0
 20
0.0
 30
0.0
  9
$PUCSYDIR
 10
0.0
 20
1.0
 30
0.0
  9
$USERI1
 70
     0
  9
$USERI2
 70
     0
  9
$USERI3
 70
     0
  9
$USERI4
 70
     0
  9
$USERI5
 70
     0
  9
$USERR1
 40
0.0
  9
$USERR2
 40
0.0
  9
$USERR3
 40
0.0
  9
$USERR4
 40
0.0
  9
$USERR5
 40
0.0
  9
$WORLDVIEW
 70
     1
  9
$SHADEDGE
 70
     3
  9
$SHADEDIF
 70
    70
  9
$TILEMODE
 70
     1
  9
$MAXACTVP
 70
    48
  9
$PINSBASE
 10
0.0
 20
0.0
 30
0.0
  9
$PLIMCHECK
 70
     0
  9
$PEXTMIN
 10
1.000000000000000E+20
 20
1.000000000000000E+20
 30
1.000000000000000E+20
  9
$PEXTMAX
 10
-1.000000000000000E+20
 20
-1.000000000000000E+20
 30
-1.000000000000000E+20
  9
$PLIMMIN
 10
0.0
 20
0.0
  9
$PLIMMAX
 10
420.0
 20
297.0
  9
$UNITMODE
 70
     0
  9
$VISRETAIN
 70
     1
  9
$PLINEGEN
 70
     0
  9
$PSLTSCALE
 70
     1
  9
$TREEDEPTH
 70
  3020
  9
$PICKSTYLE
 70
     1
  9
$CMLSTYLE
  2
STANDARD
  9
$CMLJUST
 70
     0
  9
$CMLSCALE
 40
20.0
  9
$PROXYGRAPHICS
 70
     1
  9
$MEASUREMENT
 70
     1
  0
ENDSEC
  0
SECTION
  2
CLASSES
  0
CLASS
  1
LWPOLYLINE
  2
AcDbPolyline
  3
AutoCAD 2000
 90
        0
280
     0
281
     1
  0
CLASS
  1
DICTIONARYVAR
  2
AcDbDictionaryVar
  3
AutoCAD 2000
 90
        0
280
     0
281
     0
  0
CLASS
  1
SORTENTSTABLE
  2
AcDbSortentsTable
  3
AutoCAD 2000
 90
        0
280
     0
281
     0
  0
CLASS
  1
HATCH
  2
AcDbHatch
  3
AutoCAD 2000
 90
        0
280
     0
281
     1
  0
CLASS
  1
ACDBDICTIONARYWDFLT
  2
AcDbDictionaryWithDefault
  3
AutoCAD 2000
 90
        0
280
     0
281
     0
  0
CLASS
  1
ACDBPLACEHOLDER
  2
AcDbPlaceHolder
  3
AutoCAD 2000
 90
        0
280
     0
281
     0
  0
CLASS
  1
LAYOUT
  2
AcDbLayout
  3
AutoCAD 2000
 90
        0
280
     0
281
     0
  0
CLASS
  1
LONG_TRANSACTION
  2
AcDbLongTransaction
  3
AutoCAD 2000
 90
        0
280
     0
281
     0
  0
CLASS
  1
LWPOLYLINE
  2
AcDbPolyline
  3
AutoCAD 2000
 90
        0
280
     0
281
     1
  0
CLASS
  1
HATCH
  2
AcDbHatch
  3
AutoCAD 2000
 90
        0
280
     0
281
     1
  0
CLASS
  1
XRECORD
  2
AcDbXrecord
  3
AutoCAD 2000
 90
        0
280
     0
281
     0
  0
CLASS
  1
LONG_TRANSACTION
  2
AcDbLongTransaction
  3
AutoCAD 2000
 90
        0
280
     0
281
     0
  0
CLASS
  1
LWPOLYLINE
  2
AcDbPolyline
  3
AutoCAD 2000
 90
        0
280
     0
281
     1
  0
CLASS
  1
HATCH
  2
AcDbHatch
  3
AutoCAD 2000
 90
        0
280
     0
281
     1
  0
CLASS
  1
XRECORD
  2
AcDbXrecord
  3
AutoCAD 2000
 90
        0
280
     0
281
     0
  0
CLASS
  1
LONG_TRANSACTION
  2
AcDbLongTransaction
  3
AutoCAD 2000
 90
        0
280
     0
281
     0
  0
CLASS
  1
LWPOLYLINE
  2
AcDbPolyline
  3
AutoCAD 2000
 90
        0
280
     0
281
     1
  0
CLASS
  1
HATCH
  2
AcDbHatch
  3
AutoCAD 2000
 90
        0
280
     0
281
     1
  0
CLASS
  1
XRECORD
  2
AcDbXrecord
  3
AutoCAD 2000
 90
        0
280
     0
281
     0
  0
CLASS
  1
LONG_TRANSACTION
  2
AcDbLongTransaction
  3
AutoCAD 2000
 90
        0
280
     0
281
     0
  0
CLASS
  1
LWPOLYLINE
  2
AcDbPolyline
  3
AutoCAD 2000
 90
        0
280
     0
281
     1
  0
CLASS
  1
HATCH
  2
AcDbHatch
  3
AutoCAD 2000
 90
        0
280
     0
281
     1
  0
CLASS
  1
XRECORD
  2
AcDbXrecord
  3
AutoCAD 2000
 90
        0
280
     0
281
     0
  0
CLASS
  1
LONG_TRANSACTION
  2
AcDbLongTransaction
  3
AutoCAD 2000
 90
        0
280
     0
281
     0
  0
CLASS
  1
LWPOLYLINE
  2
AcDbPolyline
  3
AutoCAD 2000
 90
        0
280
     0
281
     1
  0
CLASS
  1
HATCH
  2
AcDbHatch
  3
AutoCAD 2000
 90
        0
280
     0
281
     1
  0
CLASS
  1
XRECORD
  2
AcDbXrecord
  3
AutoCAD 2000
 90
        0
280
     0
281
     0
  0
ENDSEC
  0
SECTION
  2
TABLES
  0
TABLE
  2
VPORT
  5
8
330
0
100
AcDbSymbolTable
 70
     3
  0
VPORT
  5
27D47
330
8
100
AcDbSymbolTableRecord
100
AcDbViewportTableRecord
  2
*ACTIVE
 70
     0
 10
0.0
 20
0.0
 11
1.0
 21
1.0
 12
210.0000009778888
 22
148.500000691507
 13
0.0
 23
0.0
 14
10.0
 24
10.0
 15
10.0
 25
10.0
 16
0.0
 26
0.0
 36
1.0
 17
0.0
 27
0.0
 37
0.0
 40
328.793476890576
 41
1.28516129032258
 42
50.0
 43
0.0
 44
0.0
 50
0.0
 51
0.0
 71
     0
 72
   100
 73
     1
 74
     1
 75
     0
 76
     0
 77
     0
 78
     0
  0
ENDTAB
  0
TABLE
  2
LTYPE
  5
5
330
0
100
AcDbSymbolTable
 70
     1
  0
LTYPE
  5
12
330
5
100
AcDbSymbolTableRecord
100
AcDbLinetypeTableRecord
  2
BYBLOCK
 70
     0
  3

 72
    65
 73
     0
 40
0.0
  0
LTYPE
  5
13
330
5
100
AcDbSymbolTableRecord
100
AcDbLinetypeTableRecord
  2
BYLAYER
 70
     0
  3

 72
    65
 73
     0
 40
0.0
  0
LTYPE
  5
14
330
5
100
AcDbSymbolTableRecord
100
AcDbLinetypeTableRecord
  2
CONTINUOUS
 70
     0
  3
Solid line
 72
    65
 73
     0
 40
0.0
  0
ENDTAB
  0
TABLE
  2
LAYER
  5
2
330
0
100
AcDbSymbolTable
 70
     9
  0
LAYER
  5
E
330
2
100
AcDbSymbolTableRecord
100
AcDbLayerTableRecord
  2
0
 70
     0
 62
     7
  6
CONTINUOUS
  0
LAYER
  5
137
330
2
100
AcDbSymbolTableRecord
100
AcDbLayerTableRecord
  2
TASTEN
 70
     0
 62
     5
  6
CONTINUOUS
  0
LAYER
  5
143
330
2
100
AcDbSymbolTableRecord
100
AcDbLayerTableRecord
  2
DEFPOINTS
 70
     0
 62
     7
  6
CONTINUOUS
  0
LAYER
  5
1848A
330
2
100
AcDbSymbolTableRecord
100
AcDbLayerTableRecord
  2
RAHMEN025
 70
     0
 62
     7
  6
CONTINUOUS
  0
LAYER
  5
1848B
330
2
100
AcDbSymbolTableRecord
100
AcDbLayerTableRecord
  2
RAHMEN07
 70
     0
 62
     5
  6
CONTINUOUS
  0
LAYER
  5
1848C
330
2
100
AcDbSymbolTableRecord
100
AcDbLayerTableRecord
  2
RAHMEN05
 70
     0
 62
     6
  6
CONTINUOUS
  0
LAYER
  5
26712
330
2
100
AcDbSymbolTableRecord
100
AcDbLayerTableRecord
  2
BEMASSUNG
 70
     0
 62
     3
  6
CONTINUOUS
  0
LAYER
  5
27275
330
2
100
AcDbSymbolTableRecord
100
AcDbLayerTableRecord
  2
BLECH
 70
     0
 62
     7
  6
CONTINUOUS
  0
LAYER
  5
27C33
330
2
100
AcDbSymbolTableRecord
100
AcDbLayerTableRecord
  2
BESCHRIFTUNG
 70
     0
 62
     7
  6
CONTINUOUS
  0
ENDTAB
  0
TABLE
  2
STYLE
  5
3
330
0
100
AcDbSymbolTable
 70
     4
  0
STYLE
  5
F
330
3
100
AcDbSymbolTableRecord
100
AcDbTextStyleTableRecord
  2
STANDARD
 70
     0
 40
0.0
 41
1.0
 50
0.0
 71
     0
 42
2.5
  3
txt
  4

  0
STYLE
  5
220D
330
3
100
AcDbSymbolTableRecord
100
AcDbTextStyleTableRecord
  2
TASTENTEXT
 70
     0
 40
2.0
 41
1.0
 50
0.0
 71
     0
 42
2.0
  3
ARIAL.TTF
  4

1001
ACAD
1000
Arial
1071
       34
  0
STYLE
  5
18491
330
3
100
AcDbSymbolTableRecord
100
AcDbTextStyleTableRecord
  2
ISOCP
 70
     0
 40
0.0
 41
1.0
 50
0.0
 71
     0
 42
2.5
  3
isocp.shx
  4

  0
STYLE
  5
185F2
330
3
100
AcDbSymbolTableRecord
100
AcDbTextStyleTableRecord
  2
WMF-BANKGOTHIC-MD-BT0
 70
     0
 40
0.0
 41
1.0
 50
0.0
 71
     0
 42
2.5
  3
bgothm.ttf
  4

1001
ACAD
1000
BankGothic Md BT
1071
       34
  0
ENDTAB
  0
TABLE
  2
VIEW
  5
6
330
0
100
AcDbSymbolTable
 70
     0
  0
ENDTAB
  0
TABLE
  2
UCS
  5
7
330
0
100
AcDbSymbolTable
 70
     0
  0
ENDTAB
  0
TABLE
  2
APPID
  5
9
330
0
100
AcDbSymbolTable
 70
     2
  0
APPID
  5
10
330
9
100
AcDbSymbolTableRecord
100
AcDbRegAppTableRecord
  2
ACAD
 70
     0
  0
APPID
  5
26F8A
330
9
100
AcDbSymbolTableRecord
100
AcDbRegAppTableRecord
  2
PHOENIX7010
 70
     0
  0
ENDTAB
  0
TABLE
  2
DIMSTYLE
  5
A
330
0
100
AcDbSymbolTable
 70
     1
  0
DIMSTYLE
105
1D
102
{ACAD_REACTORS
330
274C3
330
274D0
102
}
330
A
100
AcDbSymbolTableRecord
100
AcDbDimStyleTableRecord
  2
STANDARD
 70
     0
  3

  4

  5

  6

  7

 40
1.0
 41
0.18
 42
0.0625
 43
0.38
 44
0.18
 45
0.0
 46
0.0
 47
0.0
 48
0.0
140
0.18
141
0.09
142
0.0
143
25.4
144
1.0
145
0.0
146
1.0
147
0.09
 71
     0
 72
     0
 73
     1
 74
     1
 75
     0
 76
     0
 77
     0
 78
     0
170
     0
171
     2
172
     0
173
     0
174
     0
175
     0
176
     0
177
     0
178
     0
270
     2
271
     4
272
     4
273
     2
274
     2
340
F
275
     0
280
     0
281
     0
282
     0
283
     1
284
     0
285
     0
286
     0
287
     3
288
     0
  0
ENDTAB
  0
TABLE
  2
BLOCK_RECORD
  5
1
330
0
100
AcDbSymbolTable
 70
     5
  0
BLOCK_RECORD
  5
18
102
{ACAD_XDICTIONARY
360
9822
102
}
330
1
100
AcDbSymbolTableRecord
100
AcDbBlockTableRecord
  2
*MODEL_SPACE
  0
BLOCK_RECORD
  5
15
102
{ACAD_XDICTIONARY
360
2663A
102
}
330
1
100
AcDbSymbolTableRecord
100
AcDbBlockTableRecord
  2
*PAPER_SPACE
  0
BLOCK_RECORD
  5
1856E
330
1
100
AcDbSymbolTableRecord
100
AcDbBlockTableRecord
  2
A$C4EFE16F9
  0
BLOCK_RECORD
  5
274C4
330
1
100
AcDbSymbolTableRecord
100
AcDbBlockTableRecord
  2
*D1
  0
BLOCK_RECORD
  5
274D1
330
1
100
AcDbSymbolTableRecord
100
AcDbBlockTableRecord
  2
*D2
  0
BLOCK_RECORD
  5
27C35
330
1
100
AcDbSymbolTableRecord
100
AcDbBlockTableRecord
  2
A$C1BF1606D
  0
ENDTAB
  0
ENDSEC
  0
SECTION
  2
BLOCKS
  0
BLOCK
  5
19
330
18
100
AcDbEntity
  8
0
100
AcDbBlockBegin
  2
*MODEL_SPACE
 70
     2
 10
0.0
 20
0.0
 30
0.0
  3
*MODEL_SPACE
  1

  0
ENDBLK
  5
1A
330
18
100
AcDbEntity
  8
0
100
AcDbBlockEnd
  0
BLOCK
  5
16
330
15
100
AcDbEntity
 67
     1
  8
0
100
AcDbBlockBegin
  2
*PAPER_SPACE
 70
     0
 10
0.0
 20
0.0
 30
0.0
  3
*PAPER_SPACE
  1

  0
ENDBLK
  5
17
330
15
100
AcDbEntity
 67
     1
  8
0
100
AcDbBlockEnd
  0
BLOCK
  5
185EF
330
1856E
100
AcDbEntity
  8
0
100
AcDbBlockBegin
  2
A$C4EFE16F9
 70
     0
 10
0.0
 20
0.0
 30
0.0
  3
A$C4EFE16F9
  1

  0
TEXT
  5
1856F
330
1856E
100
AcDbEntity
  8
0
 62
    29
100
AcDbText
 10
0.1140211594872653
 20
0.7536994259858148
 30
0.0
 40
1.502652258844175
  1
DHD
 41
0.75
  7
WMF-BANKGOTHIC-MD-BT0
100
AcDbText
  0
SOLID
  5
18570
330
1856E
100
AcDbEntity
  8
0
 62
    30
100
AcDbTrace
 10
1.232984684201756
 20
11.6392852740014
 30
0.0
 11
1.232984684201756
 21
11.6392852740014
 31
0.0
 12
4.193221981308504
 22
8.660527201313172
 32
0.0
 13
1.232984684201756
 23
5.717267281822785
 33
0.0
  0
SOLID
  5
18571
330
1856E
100
AcDbEntity
  8
0
 62
    30
100
AcDbTrace
 10
4.193221981308504
 20
8.660527201313172
 30
0.0
 11
1.232984684201756
 21
5.717267281822785
 31
0.0
 12
1.232984684201756
 22
5.717267281822785
 32
0.0
 13
4.193221981308504
 23
8.660527201313172
 33
0.0
  0
SOLID
  5
18572
330
1856E
100
AcDbEntity
  8
0
 62
    29
100
AcDbTrace
 10
4.254957899913442
 20
8.598791282708234
 30
0.0
 11
1.171248765596818
 21
11.57909275336158
 31
0.0
 12
4.254957899913442
 22
8.720719721952988
 32
0.0
 13
1.294720602806691
 23
11.70102119260634
 33
0.0
  0
SOLID
  5
18573
330
1856E
100
AcDbEntity
  8
0
 62
    29
100
AcDbTrace
 10
4.254957899913442
 20
8.720719721952988
 30
0.0
 11
1.294720602806691
 21
11.70102119260634
 31
0.0
 12
1.294720602806691
 22
11.70102119260634
 32
0.0
 13
4.254957899913442
 23
8.720719721952988
 33
0.0
  0
SOLID
  5
18574
330
1856E
100
AcDbEntity
  8
0
 62
    29
100
AcDbTrace
 10
4.254957899913442
 20
8.598791282708234
 30
0.0
 11
4.131486062703565
 21
8.598791282708234
 31
0.0
 12
1.171248765596818
 22
11.57909275336158
 32
0.0
 13
1.171248765596818
 23
11.57909275336158
 33
0.0
  0
SOLID
  5
18575
330
1856E
100
AcDbEntity
  8
0
 62
    29
100
AcDbTrace
 10
4.254957899913442
 20
8.598791282708234
 30
0.0
 11
4.242610716192452
 21
8.587987496952372
 31
0.0
 12
4.131486062703565
 22
8.598791282708234
 32
0.0
 13
4.228720134506342
 23
8.580270507126755
 33
0.0
  0
SOLID
  5
18576
330
1856E
100
AcDbEntity
  8
0
 62
    29
100
AcDbTrace
 10
4.131486062703565
 20
8.598791282708234
 30
0.0
 11
4.228720134506342
 21
8.580270507126755
 31
0.0
 12
4.139203052529182
 22
8.592617690847738
 32
0.0
 13
4.221003144680722
 23
8.577183711196504
 33
0.0
  0
SOLID
  5
18577
330
1856E
100
AcDbEntity
  8
0
 62
    29
100
AcDbTrace
 10
4.139203052529182
 20
8.592617690847738
 30
0.0
 11
4.221003144680722
 21
8.577183711196504
 31
0.0
 12
4.148463440319922
 22
8.58644409898725
 32
0.0
 13
4.213286154855108
 23
8.57409691526626
 33
0.0
  0
SOLID
  5
18578
330
1856E
100
AcDbEntity
  8
0
 62
    29
100
AcDbTrace
 10
4.148463440319922
 20
8.58644409898725
 30
0.0
 11
4.213286154855108
 21
8.57409691526626
 31
0.0
 12
4.156180430145539
 22
8.581813905091877
 32
0.0
 13
4.205569165029491
 23
8.572553517301138
 33
0.0
  0
SOLID
  5
18579
330
1856E
100
AcDbEntity
  8
0
 62
    29
100
AcDbTrace
 10
4.156180430145539
 20
8.581813905091877
 30
0.0
 11
4.205569165029491
 21
8.572553517301138
 31
0.0
 12
4.163897419971156
 22
8.577183711196504
 32
0.0
 13
4.19785217520387
 23
8.572553517301138
 33
0.0
  0
SOLID
  5
1857A
330
1856E
100
AcDbEntity
  8
0
 62
    29
100
AcDbTrace
 10
4.163897419971156
 20
8.577183711196504
 30
0.0
 11
4.19785217520387
 21
8.572553517301138
 31
0.0
 12
4.171614409796774
 22
8.57409691526626
 32
0.0
 13
4.18859178741313
 23
8.572553517301138
 33
0.0
  0
SOLID
  5
1857B
330
1856E
100
AcDbEntity
  8
0
 62
    29
100
AcDbTrace
 10
4.171614409796774
 20
8.57409691526626
 30
0.0
 11
4.18859178741313
 21
8.572553517301138
 31
0.0
 12
4.180874797587513
 22
8.572553517301138
 32
0.0
 13
4.180874797587513
 23
8.572553517301138
 33
0.0
  0
SOLID
  5
1857C
330
1856E
100
AcDbEntity
  8
0
 62
    29
100
AcDbTrace
 10
4.254957899913442
 20
8.598791282708234
 30
0.0
 11
4.281195665320538
 21
8.672874385034162
 31
0.0
 12
4.265761685669303
 22
8.611138466429224
 32
0.0
 13
4.281195665320538
 23
8.663613997243416
 33
0.0
  0
SOLID
  5
1857D
330
1856E
100
AcDbEntity
  8
0
 62
    29
100
AcDbTrace
 10
4.265761685669303
 20
8.611138466429224
 30
0.0
 11
4.281195665320538
 21
8.663613997243416
 31
0.0
 12
4.273478675494921
 22
8.625029048115337
 32
0.0
 13
4.281195665320538
 23
8.655897007417799
 33
0.0
  0
SOLID
  5
1857E
330
1856E
100
AcDbEntity
  8
0
 62
    29
100
AcDbTrace
 10
4.273478675494921
 20
8.625029048115337
 30
0.0
 11
4.281195665320538
 21
8.655897007417799
 31
0.0
 12
4.276565471425168
 22
8.632746037940947
 32
0.0
 13
4.281195665320538
 23
8.648180017592181
 33
0.0
  0
SOLID
  5
1857F
330
1856E
100
AcDbEntity
  8
0
 62
    29
100
AcDbTrace
 10
4.276565471425168
 20
8.632746037940947
 30
0.0
 11
4.281195665320538
 21
8.648180017592181
 31
0.0
 12
4.279652267355416
 22
8.640463027766564
 32
0.0
 13
4.279652267355416
 23
8.640463027766564
 33
0.0
  0
SOLID
  5
18580
330
1856E
100
AcDbEntity
  8
0
 62
    29
100
AcDbTrace
 10
4.254957899913442
 20
8.598791282708234
 30
0.0
 11
4.279652267355416
 21
8.68059137485978
 31
0.0
 12
4.281195665320538
 22
8.672874385034162
 32
0.0
 13
4.281195665320538
 23
8.672874385034162
 33
0.0
  0
SOLID
  5
18581
330
1856E
100
AcDbEntity
  8
0
 62
    29
100
AcDbTrace
 10
4.279652267355416
 20
8.68059137485978
 30
0.0
 11
4.254957899913442
 21
8.598791282708234
 31
0.0
 12
4.276565471425168
 22
8.688308364685397
 32
0.0
 13
4.276565471425168
 23
8.688308364685397
 33
0.0
  0
SOLID
  5
18582
330
1856E
100
AcDbEntity
  8
0
 62
    29
100
AcDbTrace
 10
4.276565471425168
 20
8.688308364685397
 30
0.0
 11
4.254957899913442
 21
8.598791282708234
 31
0.0
 12
4.273478675494921
 22
8.697568752476136
 32
0.0
 13
4.273478675494921
 23
8.697568752476136
 33
0.0
  0
SOLID
  5
18583
330
1856E
100
AcDbEntity
  8
0
 62
    29
100
AcDbTrace
 10
4.273478675494921
 20
8.697568752476136
 30
0.0
 11
4.254957899913442
 21
8.598791282708234
 31
0.0
 12
4.267305083634425
 22
8.705285742301754
 32
0.0
 13
4.267305083634425
 23
8.705285742301754
 33
0.0
  0
SOLID
  5
18584
330
1856E
100
AcDbEntity
  8
0
 62
    29
100
AcDbTrace
 10
4.267305083634425
 20
8.705285742301754
 30
0.0
 11
4.254957899913442
 21
8.598791282708234
 31
0.0
 12
4.262674889739056
 22
8.713002732127371
 32
0.0
 13
4.262674889739056
 23
8.713002732127371
 33
0.0
  0
SOLID
  5
18585
330
1856E
100
AcDbEntity
  8
0
 62
    29
100
AcDbTrace
 10
4.262674889739056
 20
8.713002732127371
 30
0.0
 11
4.254957899913442
 21
8.598791282708234
 31
0.0
 12
4.254957899913442
 22
8.720719721952988
 32
0.0
 13
4.254957899913442
 23
8.598791282708234
 33
0.0
  0
SOLID
  5
18586
330
1856E
100
AcDbEntity
  8
0
 62
    29
100
AcDbTrace
 10
4.254957899913442
 20
8.720719721952988
 30
0.0
 11
4.254957899913442
 21
8.598791282708234
 31
0.0
 12
4.254957899913442
 22
8.598791282708234
 32
0.0
 13
4.254957899913442
 23
8.598791282708234
 33
0.0
  0
SOLID
  5
18587
330
1856E
100
AcDbEntity
  8
0
 62
    29
100
AcDbTrace
 10
1.146554398154844
 20
5.717267281822785
 30
0.0
 11
4.133029460668687
 21
8.720719721952988
 31
0.0
 12
1.293177204841569
 22
5.657074761182968
 32
0.0
 13
4.254957899913442
 23
8.598791282708234
 33
0.0
  0
SOLID
  5
18588
330
1856E
100
AcDbEntity
  8
0
 62
    29
100
AcDbTrace
 10
1.293177204841569
 20
5.657074761182968
 30
0.0
 11
4.254957899913442
 21
8.598791282708234
 31
0.0
 12
4.254957899913442
 22
8.598791282708234
 32
0.0
 13
1.293177204841569
 23
5.657074761182968
 33
0.0
  0
SOLID
  5
18589
330
1856E
100
AcDbEntity
  8
0
 62
    29
100
AcDbTrace
 10
1.146554398154844
 20
5.717267281822785
 30
0.0
 11
1.171248765596818
 21
5.779003200427716
 31
0.0
 12
4.133029460668687
 22
8.720719721952988
 32
0.0
 13
4.133029460668687
 23
8.720719721952988
 33
0.0
  0
SOLID
  5
1858A
330
1856E
100
AcDbEntity
  8
0
 62
    29
100
AcDbTrace
 10
1.146554398154844
 20
5.717267281822785
 30
0.0
 11
1.146554398154844
 21
5.738874853334507
 31
0.0
 12
1.171248765596818
 22
5.779003200427716
 32
0.0
 13
1.149641194085088
 23
5.746591843160125
 33
0.0
  0
SOLID
  5
1858B
330
1856E
100
AcDbEntity
  8
0
 62
    29
100
AcDbTrace
 10
1.171248765596818
 20
5.779003200427716
 30
0.0
 11
1.149641194085088
 21
5.746591843160125
 31
0.0
 12
1.165075173736322
 22
5.771286210602099
 32
0.0
 13
1.154271387980461
 23
5.755852230950864
 33
0.0
  0
SOLID
  5
1858C
330
1856E
100
AcDbEntity
  8
0
 62
    29
100
AcDbTrace
 10
1.165075173736322
 20
5.771286210602099
 30
0.0
 11
1.154271387980461
 21
5.755852230950864
 31
0.0
 12
1.158901581875831
 22
5.763569220776489
 32
0.0
 13
1.158901581875831
 23
5.763569220776489
 33
0.0
  0
SOLID
  5
1858D
330
1856E
100
AcDbEntity
  8
0
 62
    29
100
AcDbTrace
 10
1.145011000189718
 20
5.714180485892534
 30
0.0
 11
1.293177204841569
 21
5.657074761182968
 31
0.0
 12
1.145011000189718
 22
5.706463496066916
 32
0.0
 13
1.285460215015952
 23
5.649357771357351
 33
0.0
  0
SOLID
  5
1858E
330
1856E
100
AcDbEntity
  8
0
 62
    29
100
AcDbTrace
 10
1.145011000189718
 20
5.706463496066916
 30
0.0
 11
1.285460215015952
 21
5.649357771357351
 31
0.0
 12
1.146554398154844
 22
5.698746506241299
 32
0.0
 13
1.277743225190334
 23
5.643184179496856
 33
0.0
  0
SOLID
  5
1858F
330
1856E
100
AcDbEntity
  8
0
 62
    29
100
AcDbTrace
 10
1.146554398154844
 20
5.698746506241299
 30
0.0
 11
1.277743225190334
 21
5.643184179496856
 31
0.0
 12
1.149641194085088
 22
5.691029516415682
 32
0.0
 13
1.270026235364717
 23
5.63855398560149
 33
0.0
  0
SOLID
  5
18590
330
1856E
100
AcDbEntity
  8
0
 62
    29
100
AcDbTrace
 10
1.149641194085088
 20
5.691029516415682
 30
0.0
 11
1.270026235364717
 21
5.63855398560149
 31
0.0
 12
1.152727990015335
 22
5.683312526590064
 32
0.0
 13
1.2623092455391
 23
5.635467189671238
 33
0.0
  0
SOLID
  5
18591
330
1856E
100
AcDbEntity
  8
0
 62
    29
100
AcDbTrace
 10
1.152727990015335
 20
5.683312526590064
 30
0.0
 11
1.2623092455391
 21
5.635467189671238
 31
0.0
 12
1.160444979840953
 22
5.669421944903959
 32
0.0
 13
1.25304885774836
 23
5.632380393740994
 33
0.0
  0
SOLID
  5
18592
330
1856E
100
AcDbEntity
  8
0
 62
    29
100
AcDbTrace
 10
1.160444979840953
 20
5.669421944903959
 30
0.0
 11
1.25304885774836
 21
5.632380393740994
 31
0.0
 12
1.171248765596818
 22
5.657074761182968
 32
0.0
 13
1.245331867922743
 23
5.630836995775872
 33
0.0
  0
SOLID
  5
18593
330
1856E
100
AcDbEntity
  8
0
 62
    29
100
AcDbTrace
 10
1.171248765596818
 20
5.657074761182968
 30
0.0
 11
1.245331867922743
 21
5.630836995775872
 31
0.0
 12
1.183595949317805
 22
5.646270975427107
 32
0.0
 13
1.237614878097126
 23
5.630836995775872
 33
0.0
  0
SOLID
  5
18594
330
1856E
100
AcDbEntity
  8
0
 62
    29
100
AcDbTrace
 10
1.183595949317805
 20
5.646270975427107
 30
0.0
 11
1.237614878097126
 21
5.630836995775872
 31
0.0
 12
1.197486531003917
 22
5.63855398560149
 32
0.0
 13
1.228354490306386
 23
5.630836995775872
 33
0.0
  0
SOLID
  5
18595
330
1856E
100
AcDbEntity
  8
0
 62
    29
100
AcDbTrace
 10
1.197486531003917
 20
5.63855398560149
 30
0.0
 11
1.228354490306386
 21
5.630836995775872
 31
0.0
 12
1.205203520829535
 22
5.635467189671238
 32
0.0
 13
1.220637500480766
 23
5.630836995775872
 33
0.0
  0
SOLID
  5
18596
330
1856E
100
AcDbEntity
  8
0
 62
    29
100
AcDbTrace
 10
1.205203520829535
 20
5.635467189671238
 30
0.0
 11
1.220637500480766
 21
5.630836995775872
 31
0.0
 12
1.212920510655152
 22
5.632380393740994
 32
0.0
 13
1.212920510655152
 23
5.632380393740994
 33
0.0
  0
SOLID
  5
18597
330
1856E
100
AcDbEntity
  8
0
 62
    29
100
AcDbTrace
 10
1.293177204841569
 20
5.657074761182968
 30
0.0
 11
1.146554398154844
 21
5.717267281822785
 31
0.0
 12
1.146554398154844
 22
5.717267281822785
 32
0.0
 13
1.146554398154844
 23
5.717267281822785
 33
0.0
  0
SOLID
  5
18598
330
1856E
100
AcDbEntity
  8
0
 62
    29
100
AcDbTrace
 10
1.294720602806691
 20
11.70102119260634
 30
0.0
 11
1.319414970248669
 21
11.6392852740014
 31
0.0
 12
1.146554398154844
 22
11.6392852740014
 32
0.0
 13
1.319414970248669
 23
5.717267281822785
 33
0.0
  0
SOLID
  5
18599
330
1856E
100
AcDbEntity
  8
0
 62
    29
100
AcDbTrace
 10
1.146554398154844
 20
11.6392852740014
 30
0.0
 11
1.319414970248669
 21
5.717267281822785
 31
0.0
 12
1.146554398154844
 22
5.717267281822785
 32
0.0
 13
1.146554398154844
 23
5.717267281822785
 33
0.0
  0
SOLID
  5
1859A
330
1856E
100
AcDbEntity
  8
0
 62
    29
100
AcDbTrace
 10
1.294720602806691
 20
11.70102119260634
 30
0.0
 11
1.308611184492804
 21
11.6855872129551
 31
0.0
 12
1.319414970248669
 22
11.6392852740014
 32
0.0
 13
1.311697980423051
 23
11.67787022312948
 33
0.0
  0
SOLID
  5
1859B
330
1856E
100
AcDbEntity
  8
0
 62
    29
100
AcDbTrace
 10
1.319414970248669
 20
11.6392852740014
 30
0.0
 11
1.311697980423051
 21
11.67787022312948
 31
0.0
 12
1.319414970248669
 22
11.65008905975726
 32
0.0
 13
1.314784776353295
 23
11.66860983533875
 33
0.0
  0
SOLID
  5
1859C
330
1856E
100
AcDbEntity
  8
0
 62
    29
100
AcDbTrace
 10
1.319414970248669
 20
11.65008905975726
 30
0.0
 11
1.314784776353295
 21
11.66860983533875
 31
0.0
 12
1.317871572283543
 22
11.659349447548
 32
0.0
 13
1.317871572283543
 23
11.659349447548
 33
0.0
  0
SOLID
  5
1859D
330
1856E
100
AcDbEntity
  8
0
 62
    29
100
AcDbTrace
 10
1.293177204841569
 20
11.70410798853658
 30
0.0
 11
1.186682745248052
 21
11.71336837632732
 31
0.0
 12
1.279286623155456
 22
11.71336837632732
 32
0.0
 13
1.192856337108544
 23
11.71799857022269
 33
0.0
  0
SOLID
  5
1859E
330
1856E
100
AcDbEntity
  8
0
 62
    29
100
AcDbTrace
 10
1.279286623155456
 20
11.71336837632732
 30
0.0
 11
1.192856337108544
 21
11.71799857022269
 31
0.0
 12
1.265396041469347
 22
11.72108536615294
 32
0.0
 13
1.200573326934161
 23
11.72108536615294
 33
0.0
  0
SOLID
  5
1859F
330
1856E
100
AcDbEntity
  8
0
 62
    29
100
AcDbTrace
 10
1.265396041469347
 20
11.72108536615294
 30
0.0
 11
1.200573326934161
 21
11.72108536615294
 31
0.0
 12
1.248418663852987
 22
11.72417216208319
 32
0.0
 13
1.216007306585396
 23
11.72417216208319
 33
0.0
  0
SOLID
  5
185A0
330
1856E
100
AcDbEntity
  8
0
 62
    29
100
AcDbTrace
 10
1.248418663852987
 20
11.72417216208319
 30
0.0
 11
1.216007306585396
 21
11.72417216208319
 31
0.0
 12
1.232984684201756
 22
11.72571556004831
 32
0.0
 13
1.232984684201756
 23
11.72571556004831
 33
0.0
  0
SOLID
  5
185A1
330
1856E
100
AcDbEntity
  8
0
 62
    29
100
AcDbTrace
 10
1.293177204841569
 20
11.70410798853658
 30
0.0
 11
1.178965755422435
 21
11.70873818243195
 31
0.0
 12
1.186682745248052
 22
11.71336837632732
 32
0.0
 13
1.186682745248052
 23
11.71336837632732
 33
0.0
  0
SOLID
  5
185A2
330
1856E
100
AcDbEntity
  8
0
 62
    29
100
AcDbTrace
 10
1.157358183910705
 20
11.6855872129551
 30
0.0
 11
1.294720602806691
 21
11.70102119260634
 31
0.0
 12
1.152727990015335
 22
11.67787022312948
 32
0.0
 13
1.294720602806691
 23
11.70102119260634
 33
0.0
  0
SOLID
  5
185A3
330
1856E
100
AcDbEntity
  8
0
 62
    29
100
AcDbTrace
 10
1.152727990015335
 20
11.67787022312948
 30
0.0
 11
1.294720602806691
 21
11.70102119260634
 31
0.0
 12
1.149641194085088
 22
11.66860983533875
 32
0.0
 13
1.146554398154844
 23
11.6392852740014
 33
0.0
  0
SOLID
  5
185A4
330
1856E
100
AcDbEntity
  8
0
 62
    29
100
AcDbTrace
 10
1.149641194085088
 20
11.66860983533875
 30
0.0
 11
1.146554398154844
 21
11.6392852740014
 31
0.0
 12
1.148097796119966
 22
11.659349447548
 32
0.0
 13
1.146554398154844
 23
11.65008905975726
 33
0.0
  0
SOLID
  5
185A5
330
1856E
100
AcDbEntity
  8
0
 62
    29
100
AcDbTrace
 10
1.148097796119966
 20
11.659349447548
 30
0.0
 11
1.146554398154844
 21
11.65008905975726
 31
0.0
 12
1.146554398154844
 22
11.65008905975726
 32
0.0
 13
1.148097796119966
 23
11.659349447548
 33
0.0
  0
SOLID
  5
185A6
330
1856E
100
AcDbEntity
  8
0
 62
    29
100
AcDbTrace
 10
1.161988377806078
 20
11.6917608048156
 30
0.0
 11
1.294720602806691
 21
11.70102119260634
 31
0.0
 12
1.157358183910705
 22
11.6855872129551
 32
0.0
 13
1.157358183910705
 23
11.6855872129551
 33
0.0
  0
SOLID
  5
185A7
330
1856E
100
AcDbEntity
  8
0
 62
    29
100
AcDbTrace
 10
1.166618571701448
 20
11.69793439667609
 30
0.0
 11
1.294720602806691
 21
11.70102119260634
 31
0.0
 12
1.161988377806078
 22
11.6917608048156
 32
0.0
 13
1.161988377806078
 23
11.6917608048156
 33
0.0
  0
SOLID
  5
185A8
330
1856E
100
AcDbEntity
  8
0
 62
    29
100
AcDbTrace
 10
1.17279216356194
 20
11.70410798853658
 30
0.0
 11
1.294720602806691
 21
11.70102119260634
 31
0.0
 12
1.166618571701448
 22
11.69793439667609
 32
0.0
 13
1.166618571701448
 23
11.69793439667609
 33
0.0
  0
SOLID
  5
185A9
330
1856E
100
AcDbEntity
  8
0
 62
    29
100
AcDbTrace
 10
1.178965755422435
 20
11.70873818243195
 30
0.0
 11
1.294720602806691
 21
11.70102119260634
 31
0.0
 12
1.17279216356194
 22
11.70410798853658
 32
0.0
 13
1.17279216356194
 23
11.70410798853658
 33
0.0
  0
SOLID
  5
185AA
330
1856E
100
AcDbEntity
  8
0
 62
    29
100
AcDbTrace
 10
1.293177204841569
 20
11.70410798853658
 30
0.0
 11
1.294720602806691
 21
11.70102119260634
 31
0.0
 12
1.178965755422435
 22
11.70873818243195
 32
0.0
 13
1.178965755422435
 23
11.70873818243195
 33
0.0
  0
SOLID
  5
185AB
330
1856E
100
AcDbEntity
  8
0
 62
    29
100
AcDbTrace
 10
1.297807398736939
 20
11.69793439667609
 30
0.0
 11
1.294720602806691
 21
11.70102119260634
 31
0.0
 12
1.293177204841569
 22
11.70410798853658
 32
0.0
 13
1.293177204841569
 23
11.70410798853658
 33
0.0
  0
SOLID
  5
185AC
330
1856E
100
AcDbEntity
  8
0
 62
    29
100
AcDbTrace
 10
1.297807398736939
 20
11.69793439667609
 30
0.0
 11
1.303980990597434
 21
11.6917608048156
 31
0.0
 12
1.294720602806691
 22
11.70102119260634
 32
0.0
 13
1.308611184492804
 23
11.6855872129551
 33
0.0
  0
SOLID
  5
185AD
330
1856E
100
AcDbEntity
  8
0
 62
    29
100
AcDbTrace
 10
1.294720602806691
 20
11.70102119260634
 30
0.0
 11
1.308611184492804
 21
11.6855872129551
 31
0.0
 12
1.308611184492804
 22
11.6855872129551
 32
0.0
 13
1.294720602806691
 23
11.70102119260634
 33
0.0
  0
SOLID
  5
185AE
330
1856E
100
AcDbEntity
  8
0
 62
    30
100
AcDbTrace
 10
2.589631495545255
 20
8.635832833871198
 30
0.0
 11
2.589631495545255
 21
8.635832833871198
 31
0.0
 12
5.549868792652002
 22
5.655531363217846
 32
0.0
 13
2.589631495545255
 23
2.713814841692581
 33
0.0
  0
SOLID
  5
185AF
330
1856E
100
AcDbEntity
  8
0
 62
    30
100
AcDbTrace
 10
5.549868792652002
 20
5.655531363217846
 30
0.0
 11
2.589631495545255
 21
2.713814841692581
 31
0.0
 12
2.589631495545255
 22
2.713814841692581
 32
0.0
 13
5.549868792652002
 23
5.655531363217846
 33
0.0
  0
SOLID
  5
185B0
330
1856E
100
AcDbEntity
  8
0
 62
    29
100
AcDbTrace
 10
5.611604711256937
 20
5.59533884257803
 30
0.0
 11
2.527895576940316
 21
8.575640313231382
 31
0.0
 12
5.611604711256937
 22
5.717267281822785
 32
0.0
 13
2.65136741415019
 23
8.696025354511007
 33
0.0
  0
SOLID
  5
185B1
330
1856E
100
AcDbEntity
  8
0
 62
    29
100
AcDbTrace
 10
5.611604711256937
 20
5.717267281822785
 30
0.0
 11
2.65136741415019
 21
8.696025354511007
 31
0.0
 12
2.65136741415019
 22
8.696025354511007
 32
0.0
 13
5.611604711256937
 23
5.717267281822785
 33
0.0
  0
SOLID
  5
185B2
330
1856E
100
AcDbEntity
  8
0
 62
    29
100
AcDbTrace
 10
5.611604711256937
 20
5.59533884257803
 30
0.0
 11
5.488132874047064
 21
5.59533884257803
 31
0.0
 12
2.527895576940316
 22
8.575640313231382
 32
0.0
 13
2.527895576940316
 23
8.575640313231382
 33
0.0
  0
SOLID
  5
185B3
330
1856E
100
AcDbEntity
  8
0
 62
    29
100
AcDbTrace
 10
5.611604711256937
 20
5.59533884257803
 30
0.0
 11
5.599257527535954
 21
5.584535056822168
 31
0.0
 12
5.488132874047064
 22
5.59533884257803
 32
0.0
 13
5.585366945849841
 23
5.576818066996551
 33
0.0
  0
SOLID
  5
185B4
330
1856E
100
AcDbEntity
  8
0
 62
    29
100
AcDbTrace
 10
5.488132874047064
 20
5.59533884257803
 30
0.0
 11
5.585366945849841
 21
5.576818066996551
 31
0.0
 12
5.495849863872681
 22
5.587621852752413
 32
0.0
 13
5.577649956024224
 23
5.5737312710663
 33
0.0
  0
SOLID
  5
185B5
330
1856E
100
AcDbEntity
  8
0
 62
    29
100
AcDbTrace
 10
5.495849863872681
 20
5.587621852752413
 30
0.0
 11
5.577649956024224
 21
5.5737312710663
 31
0.0
 12
5.50511025166342
 22
5.582991658857039
 32
0.0
 13
5.569932966198607
 23
5.570644475136056
 33
0.0
  0
SOLID
  5
185B6
330
1856E
100
AcDbEntity
  8
0
 62
    29
100
AcDbTrace
 10
5.50511025166342
 20
5.582991658857039
 30
0.0
 11
5.569932966198607
 21
5.570644475136056
 31
0.0
 12
5.512827241489041
 22
5.576818066996551
 32
0.0
 13
5.562215976372989
 23
5.569101077170934
 33
0.0
  0
SOLID
  5
185B7
330
1856E
100
AcDbEntity
  8
0
 62
    29
100
AcDbTrace
 10
5.512827241489041
 20
5.576818066996551
 30
0.0
 11
5.562215976372989
 21
5.569101077170934
 31
0.0
 12
5.520544231314655
 22
5.5737312710663
 32
0.0
 13
5.554498986547372
 23
5.569101077170934
 33
0.0
  0
SOLID
  5
185B8
330
1856E
100
AcDbEntity
  8
0
 62
    29
100
AcDbTrace
 10
5.520544231314655
 20
5.5737312710663
 30
0.0
 11
5.554498986547372
 21
5.569101077170934
 31
0.0
 12
5.528261221140272
 22
5.570644475136056
 32
0.0
 13
5.545238598756633
 23
5.569101077170934
 33
0.0
  0
SOLID
  5
185B9
330
1856E
100
AcDbEntity
  8
0
 62
    29
100
AcDbTrace
 10
5.528261221140272
 20
5.570644475136056
 30
0.0
 11
5.545238598756633
 21
5.569101077170934
 31
0.0
 12
5.537521608931015
 22
5.569101077170934
 32
0.0
 13
5.537521608931015
 23
5.569101077170934
 33
0.0
  0
SOLID
  5
185BA
330
1856E
100
AcDbEntity
  8
0
 62
    29
100
AcDbTrace
 10
5.611604711256937
 20
5.59533884257803
 30
0.0
 11
5.637842476664037
 21
5.66787854693883
 31
0.0
 12
5.622408497012802
 22
5.60768602629902
 32
0.0
 13
5.637842476664037
 23
5.660161557113212
 33
0.0
  0
SOLID
  5
185BB
330
1856E
100
AcDbEntity
  8
0
 62
    29
100
AcDbTrace
 10
5.622408497012802
 20
5.60768602629902
 30
0.0
 11
5.637842476664037
 21
5.660161557113212
 31
0.0
 12
5.630125486838419
 22
5.621576607985133
 32
0.0
 13
5.637842476664037
 23
5.652444567287595
 33
0.0
  0
SOLID
  5
185BC
330
1856E
100
AcDbEntity
  8
0
 62
    29
100
AcDbTrace
 10
5.630125486838419
 20
5.621576607985133
 30
0.0
 11
5.637842476664037
 21
5.652444567287595
 31
0.0
 12
5.633212282768667
 22
5.627750199845621
 32
0.0
 13
5.637842476664037
 23
5.644727577461978
 33
0.0
  0
SOLID
  5
185BD
330
1856E
100
AcDbEntity
  8
0
 62
    29
100
AcDbTrace
 10
5.633212282768667
 20
5.627750199845621
 30
0.0
 11
5.637842476664037
 21
5.644727577461978
 31
0.0
 12
5.636299078698915
 22
5.635467189671238
 32
0.0
 13
5.636299078698915
 23
5.635467189671238
 33
0.0
  0
SOLID
  5
185BE
330
1856E
100
AcDbEntity
  8
0
 62
    29
100
AcDbTrace
 10
5.611604711256937
 20
5.59533884257803
 30
0.0
 11
5.636299078698915
 21
5.677138934729576
 31
0.0
 12
5.637842476664037
 22
5.66787854693883
 32
0.0
 13
5.637842476664037
 23
5.66787854693883
 33
0.0
  0
SOLID
  5
185BF
330
1856E
100
AcDbEntity
  8
0
 62
    29
100
AcDbTrace
 10
5.636299078698915
 20
5.677138934729576
 30
0.0
 11
5.611604711256937
 21
5.59533884257803
 31
0.0
 12
5.633212282768667
 22
5.684855924555193
 32
0.0
 13
5.633212282768667
 23
5.684855924555193
 33
0.0
  0
SOLID
  5
185C0
330
1856E
100
AcDbEntity
  8
0
 62
    29
100
AcDbTrace
 10
5.633212282768667
 20
5.684855924555193
 30
0.0
 11
5.611604711256937
 21
5.59533884257803
 31
0.0
 12
5.628582088873297
 22
5.692572914380804
 32
0.0
 13
5.628582088873297
 23
5.692572914380804
 33
0.0
  0
SOLID
  5
185C1
330
1856E
100
AcDbEntity
  8
0
 62
    29
100
AcDbTrace
 10
5.628582088873297
 20
5.692572914380804
 30
0.0
 11
5.611604711256937
 21
5.59533884257803
 31
0.0
 12
5.623951894977928
 22
5.70183330217155
 32
0.0
 13
5.623951894977928
 23
5.70183330217155
 33
0.0
  0
SOLID
  5
185C2
330
1856E
100
AcDbEntity
  8
0
 62
    29
100
AcDbTrace
 10
5.623951894977928
 20
5.70183330217155
 30
0.0
 11
5.611604711256937
 21
5.59533884257803
 31
0.0
 12
5.619321701082554
 22
5.709550291997167
 32
0.0
 13
5.619321701082554
 23
5.709550291997167
 33
0.0
  0
SOLID
  5
185C3
330
1856E
100
AcDbEntity
  8
0
 62
    29
100
AcDbTrace
 10
5.619321701082554
 20
5.709550291997167
 30
0.0
 11
5.611604711256937
 21
5.59533884257803
 31
0.0
 12
5.611604711256937
 22
5.717267281822785
 32
0.0
 13
5.611604711256937
 23
5.59533884257803
 33
0.0
  0
SOLID
  5
185C4
330
1856E
100
AcDbEntity
  8
0
 62
    29
100
AcDbTrace
 10
5.611604711256937
 20
5.717267281822785
 30
0.0
 11
5.611604711256937
 21
5.59533884257803
 31
0.0
 12
5.611604711256937
 22
5.59533884257803
 32
0.0
 13
5.611604711256937
 23
5.59533884257803
 33
0.0
  0
SOLID
  5
185C5
330
1856E
100
AcDbEntity
  8
0
 62
    29
100
AcDbTrace
 10
2.503201209498342
 20
2.713814841692581
 30
0.0
 11
5.489676272012189
 21
5.717267281822785
 31
0.0
 12
2.649824016185068
 22
2.653622321052765
 32
0.0
 13
5.611604711256937
 23
5.59533884257803
 33
0.0
  0
SOLID
  5
185C6
330
1856E
100
AcDbEntity
  8
0
 62
    29
100
AcDbTrace
 10
2.649824016185068
 20
2.653622321052765
 30
0.0
 11
5.611604711256937
 21
5.59533884257803
 31
0.0
 12
5.611604711256937
 22
5.59533884257803
 32
0.0
 13
2.649824016185068
 23
2.653622321052765
 33
0.0
  0
SOLID
  5
185C7
330
1856E
100
AcDbEntity
  8
0
 62
    29
100
AcDbTrace
 10
2.503201209498342
 20
2.713814841692581
 30
0.0
 11
2.527895576940316
 21
2.77555076029752
 31
0.0
 12
5.489676272012189
 22
5.717267281822785
 32
0.0
 13
5.489676272012189
 23
5.717267281822785
 33
0.0
  0
SOLID
  5
185C8
330
1856E
100
AcDbEntity
  8
0
 62
    29
100
AcDbTrace
 10
2.503201209498342
 20
2.713814841692581
 30
0.0
 11
2.503201209498342
 21
2.735422413204304
 31
0.0
 12
2.527895576940316
 22
2.77555076029752
 32
0.0
 13
2.50628800542859
 23
2.743139403029921
 33
0.0
  0
SOLID
  5
185C9
330
1856E
100
AcDbEntity
  8
0
 62
    29
100
AcDbTrace
 10
2.527895576940316
 20
2.77555076029752
 30
0.0
 11
2.50628800542859
 21
2.743139403029921
 31
0.0
 12
2.521721985079821
 22
2.767833770471895
 32
0.0
 13
2.51091819932396
 23
2.75239979082066
 33
0.0
  0
SOLID
  5
185CA
330
1856E
100
AcDbEntity
  8
0
 62
    29
100
AcDbTrace
 10
2.521721985079821
 20
2.767833770471895
 30
0.0
 11
2.51091819932396
 21
2.75239979082066
 31
0.0
 12
2.515548393219329
 22
2.760116780646285
 32
0.0
 13
2.515548393219329
 23
2.760116780646285
 33
0.0
  0
SOLID
  5
185CB
330
1856E
100
AcDbEntity
  8
0
 62
    29
100
AcDbTrace
 10
2.501657811533217
 20
2.71072804576233
 30
0.0
 11
2.649824016185068
 21
2.653622321052765
 31
0.0
 12
2.501657811533217
 22
2.703011055936713
 32
0.0
 13
2.64210702635945
 23
2.645905331227147
 33
0.0
  0
SOLID
  5
185CC
330
1856E
100
AcDbEntity
  8
0
 62
    29
100
AcDbTrace
 10
2.501657811533217
 20
2.703011055936713
 30
0.0
 11
2.64210702635945
 21
2.645905331227147
 31
0.0
 12
2.503201209498342
 22
2.695294066111095
 32
0.0
 13
2.634390036533833
 23
2.639731739366652
 33
0.0
  0
SOLID
  5
185CD
330
1856E
100
AcDbEntity
  8
0
 62
    29
100
AcDbTrace
 10
2.503201209498342
 20
2.695294066111095
 30
0.0
 11
2.634390036533833
 21
2.639731739366652
 31
0.0
 12
2.50628800542859
 22
2.687577076285478
 32
0.0
 13
2.626673046708216
 23
2.635101545471286
 33
0.0
  0
SOLID
  5
185CE
330
1856E
100
AcDbEntity
  8
0
 62
    29
100
AcDbTrace
 10
2.50628800542859
 20
2.687577076285478
 30
0.0
 11
2.626673046708216
 21
2.635101545471286
 31
0.0
 12
2.509374801358834
 22
2.679860086459861
 32
0.0
 13
2.618956056882598
 23
2.632014749541035
 33
0.0
  0
SOLID
  5
185CF
330
1856E
100
AcDbEntity
  8
0
 62
    29
100
AcDbTrace
 10
2.509374801358834
 20
2.679860086459861
 30
0.0
 11
2.618956056882598
 21
2.632014749541035
 31
0.0
 12
2.517091791184451
 22
2.665969504773755
 32
0.0
 13
2.609695669091859
 23
2.628927953610791
 33
0.0
  0
SOLID
  5
185D0
330
1856E
100
AcDbEntity
  8
0
 62
    29
100
AcDbTrace
 10
2.517091791184451
 20
2.665969504773755
 30
0.0
 11
2.609695669091859
 21
2.628927953610791
 31
0.0
 12
2.527895576940316
 22
2.653622321052765
 32
0.0
 13
2.601978679266242
 23
2.627384555645662
 33
0.0
  0
SOLID
  5
185D1
330
1856E
100
AcDbEntity
  8
0
 62
    29
100
AcDbTrace
 10
2.527895576940316
 20
2.653622321052765
 30
0.0
 11
2.601978679266242
 21
2.627384555645662
 31
0.0
 12
2.540242760661303
 22
2.642818535296903
 32
0.0
 13
2.592718291475499
 23
2.62584115768054
 33
0.0
  0
SOLID
  5
185D2
330
1856E
100
AcDbEntity
  8
0
 62
    29
100
AcDbTrace
 10
2.540242760661303
 20
2.642818535296903
 30
0.0
 11
2.592718291475499
 21
2.62584115768054
 31
0.0
 12
2.554133342347416
 22
2.635101545471286
 32
0.0
 13
2.585001301649885
 23
2.627384555645662
 33
0.0
  0
SOLID
  5
185D3
330
1856E
100
AcDbEntity
  8
0
 62
    29
100
AcDbTrace
 10
2.554133342347416
 20
2.635101545471286
 30
0.0
 11
2.585001301649885
 21
2.627384555645662
 31
0.0
 12
2.561850332173033
 22
2.632014749541035
 32
0.0
 13
2.577284311824268
 23
2.627384555645662
 33
0.0
  0
SOLID
  5
185D4
330
1856E
100
AcDbEntity
  8
0
 62
    29
100
AcDbTrace
 10
2.561850332173033
 20
2.632014749541035
 30
0.0
 11
2.577284311824268
 21
2.627384555645662
 31
0.0
 12
2.569567321998651
 22
2.628927953610791
 32
0.0
 13
2.569567321998651
 23
2.628927953610791
 33
0.0
  0
SOLID
  5
185D5
330
1856E
100
AcDbEntity
  8
0
 62
    29
100
AcDbTrace
 10
2.649824016185068
 20
2.653622321052765
 30
0.0
 11
2.503201209498342
 21
2.713814841692581
 31
0.0
 12
2.503201209498342
 22
2.713814841692581
 32
0.0
 13
2.503201209498342
 23
2.713814841692581
 33
0.0
  0
SOLID
  5
185D6
330
1856E
100
AcDbEntity
  8
0
 62
    29
100
AcDbTrace
 10
2.65136741415019
 20
8.696025354511007
 30
0.0
 11
2.676061781592167
 21
8.635832833871198
 31
0.0
 12
2.503201209498342
 22
8.635832833871198
 32
0.0
 13
2.676061781592167
 23
2.713814841692581
 33
0.0
  0
SOLID
  5
185D7
330
1856E
100
AcDbEntity
  8
0
 62
    29
100
AcDbTrace
 10
2.503201209498342
 20
8.635832833871198
 30
0.0
 11
2.676061781592167
 21
2.713814841692581
 31
0.0
 12
2.503201209498342
 22
2.713814841692581
 32
0.0
 13
2.503201209498342
 23
2.713814841692581
 33
0.0
  0
SOLID
  5
185D8
330
1856E
100
AcDbEntity
  8
0
 62
    29
100
AcDbTrace
 10
2.65136741415019
 20
8.696025354511007
 30
0.0
 11
2.660627801940933
 21
8.688308364685397
 31
0.0
 12
2.676061781592167
 22
8.635832833871198
 32
0.0
 13
2.665257995836302
 23
8.68059137485978
 33
0.0
  0
SOLID
  5
185D9
330
1856E
100
AcDbEntity
  8
0
 62
    29
100
AcDbTrace
 10
2.676061781592167
 20
8.635832833871198
 30
0.0
 11
2.665257995836302
 21
8.68059137485978
 31
0.0
 12
2.676061781592167
 22
8.646636619627059
 32
0.0
 13
2.66834479176655
 23
8.672874385034162
 33
0.0
  0
SOLID
  5
185DA
330
1856E
100
AcDbEntity
  8
0
 62
    29
100
AcDbTrace
 10
2.676061781592167
 20
8.646636619627059
 30
0.0
 11
2.66834479176655
 21
8.672874385034162
 31
0.0
 12
2.674518383627042
 22
8.655897007417799
 32
0.0
 13
2.671431587696794
 23
8.665157395208545
 33
0.0
  0
SOLID
  5
185DB
330
1856E
100
AcDbEntity
  8
0
 62
    29
100
AcDbTrace
 10
2.674518383627042
 20
8.655897007417799
 30
0.0
 11
2.671431587696794
 21
8.665157395208545
 31
0.0
 12
2.671431587696794
 22
8.665157395208545
 32
0.0
 13
2.674518383627042
 23
8.655897007417799
 33
0.0
  0
SOLID
  5
185DC
330
1856E
100
AcDbEntity
  8
0
 62
    29
100
AcDbTrace
 10
2.654454210080437
 20
8.694481956545885
 30
0.0
 11
2.605065475196489
 21
8.720719721952988
 31
0.0
 12
2.649824016185068
 22
8.700655548406381
 32
0.0
 13
2.620499454847724
 23
8.717632926022737
 33
0.0
  0
SOLID
  5
185DD
330
1856E
100
AcDbEntity
  8
0
 62
    29
100
AcDbTrace
 10
2.649824016185068
 20
8.700655548406381
 30
0.0
 11
2.620499454847724
 21
8.717632926022737
 31
0.0
 12
2.635933434498959
 22
8.70991593619712
 32
0.0
 13
2.635933434498959
 23
8.70991593619712
 33
0.0
  0
SOLID
  5
185DE
330
1856E
100
AcDbEntity
  8
0
 62
    29
100
AcDbTrace
 10
2.589631495545255
 20
8.72226311991811
 30
0.0
 11
2.65136741415019
 21
8.696025354511007
 31
0.0
 12
2.572654117928898
 22
8.720719721952988
 32
0.0
 13
2.503201209498342
 23
8.635832833871198
 33
0.0
  0
SOLID
  5
185DF
330
1856E
100
AcDbEntity
  8
0
 62
    29
100
AcDbTrace
 10
2.572654117928898
 20
8.720719721952988
 30
0.0
 11
2.503201209498342
 21
8.635832833871198
 31
0.0
 12
2.55722013827766
 22
8.717632926022737
 32
0.0
 13
2.503201209498342
 23
8.646636619627059
 33
0.0
  0
SOLID
  5
185E0
330
1856E
100
AcDbEntity
  8
0
 62
    29
100
AcDbTrace
 10
2.55722013827766
 20
8.717632926022737
 30
0.0
 11
2.503201209498342
 21
8.646636619627059
 31
0.0
 12
2.549503148452046
 22
8.714546130092493
 32
0.0
 13
2.504744607463464
 23
8.655897007417799
 33
0.0
  0
SOLID
  5
185E1
330
1856E
100
AcDbEntity
  8
0
 62
    29
100
AcDbTrace
 10
2.549503148452046
 20
8.714546130092493
 30
0.0
 11
2.504744607463464
 21
8.655897007417799
 31
0.0
 12
2.543329556591551
 22
8.70991593619712
 32
0.0
 13
2.50628800542859
 23
8.665157395208545
 33
0.0
  0
SOLID
  5
185E2
330
1856E
100
AcDbEntity
  8
0
 62
    29
100
AcDbTrace
 10
2.543329556591551
 20
8.70991593619712
 30
0.0
 11
2.50628800542859
 21
8.665157395208545
 31
0.0
 12
2.535612566765934
 22
8.705285742301754
 32
0.0
 13
2.509374801358834
 23
8.672874385034162
 33
0.0
  0
SOLID
  5
185E3
330
1856E
100
AcDbEntity
  8
0
 62
    29
100
AcDbTrace
 10
2.535612566765934
 20
8.705285742301754
 30
0.0
 11
2.509374801358834
 21
8.672874385034162
 31
0.0
 12
2.529438974905442
 22
8.700655548406381
 32
0.0
 13
2.514004995254204
 23
8.68059137485978
 33
0.0
  0
SOLID
  5
185E4
330
1856E
100
AcDbEntity
  8
0
 62
    29
100
AcDbTrace
 10
2.529438974905442
 20
8.700655548406381
 30
0.0
 11
2.514004995254204
 21
8.68059137485978
 31
0.0
 12
2.523265383044947
 22
8.694481956545885
 32
0.0
 13
2.518635189149577
 23
8.688308364685397
 33
0.0
  0
SOLID
  5
185E5
330
1856E
100
AcDbEntity
  8
0
 62
    29
100
AcDbTrace
 10
2.523265383044947
 20
8.694481956545885
 30
0.0
 11
2.518635189149577
 21
8.688308364685397
 31
0.0
 12
2.518635189149577
 22
8.688308364685397
 32
0.0
 13
2.523265383044947
 23
8.694481956545885
 33
0.0
  0
SOLID
  5
185E6
330
1856E
100
AcDbEntity
  8
0
 62
    29
100
AcDbTrace
 10
2.605065475196489
 20
8.720719721952988
 30
0.0
 11
2.65136741415019
 21
8.696025354511007
 31
0.0
 12
2.589631495545255
 22
8.72226311991811
 32
0.0
 13
2.589631495545255
 23
8.72226311991811
 33
0.0
  0
SOLID
  5
185E7
330
1856E
100
AcDbEntity
  8
0
 62
    29
100
AcDbTrace
 10
2.605065475196489
 20
8.720719721952988
 30
0.0
 11
2.660627801940933
 21
8.688308364685397
 31
0.0
 12
2.65136741415019
 22
8.696025354511007
 32
0.0
 13
2.65136741415019
 23
8.696025354511007
 33
0.0
  0
SOLID
  5
185E8
330
1856E
100
AcDbEntity
  8
0
 62
    29
100
AcDbTrace
 10
2.605065475196489
 20
8.720719721952988
 30
0.0
 11
2.654454210080437
 21
8.694481956545885
 31
0.0
 12
2.660627801940933
 22
8.688308364685397
 32
0.0
 13
2.660627801940933
 23
8.688308364685397
 33
0.0
  0
TEXT
  5
185E9
330
1856E
100
AcDbEntity
  8
RAHMEN025
100
AcDbText
 10
10.58651758814535
 20
10.69333983401643
 30
0.0
 40
1.448241032582157
  1
DHD
  7
ISOCP
100
AcDbText
  0
TEXT
  5
185EA
330
1856E
100
AcDbEntity
  8
RAHMEN025
100
AcDbText
 10
10.58651758814535
 20
8.825220068831612
 30
0.0
 40
1.448241032582157
  1
Deubner Hoffmann Digital GmbH
  7
ISOCP
100
AcDbText
  0
TEXT
  5
185EB
330
1856E
100
AcDbEntity
  8
RAHMEN025
100
AcDbText
 10
10.58651758814535
 20
6.900366638810396
 30
0.0
 40
1.448241032582157
  1
Haferkornstrasse 5
  7
ISOCP
100
AcDbText
  0
TEXT
  5
185EC
330
1856E
100
AcDbEntity
  8
RAHMEN025
100
AcDbText
 10
10.58651758814535
 20
4.810152651797494
 30
0.0
 40
1.448241032582157
  1
04129 Leipzig
  7
ISOCP
100
AcDbText
  0
TEXT
  5
185ED
330
1856E
100
AcDbEntity
  8
RAHMEN025
100
AcDbText
 10
10.58651758814535
 20
2.359874590047247
 30
0.0
 40
1.448241032582157
  1
Phone: +49  341  5897020
  7
ISOCP
100
AcDbText
  0
TEXT
  5
185EE
330
1856E
100
AcDbEntity
  8
RAHMEN025
100
AcDbText
 10
10.58651758814535
 20
0.4350211600260323
 30
0.0
 40
1.448241032582157
  1
Fax:  +49  341  5897022
  7
ISOCP
100
AcDbText
  0
ENDBLK
  5
185F0
330
1856E
100
AcDbEntity
  8
0
100
AcDbBlockEnd
  0
BLOCK
  5
274CE
330
274C4
100
AcDbEntity
  8
0
100
AcDbBlockBegin
  2
*D1
 70
     1
 10
0.0
 20
0.0
 30
0.0
  3
*D1
  1

  0
LINE
  5
27D6B
330
274C4
100
AcDbEntity
  8
BEMASSUNG
 62
     0
100
AcDbLine
 10
120.5027901801799
 20
234.7501550567406
 30
0.0
 11
120.5027901801799
 21
240.9764231592292
 31
0.0
  0
LINE
  5
27D6C
330
274C4
100
AcDbEntity
  8
BEMASSUNG
 62
     0
100
AcDbLine
 10
280.0026997801799
 20
234.7501550567406
 30
0.0
 11
280.0026997801799
 21
240.9764231592292
 31
0.0
  0
LINE
  5
27D6D
330
274C4
100
AcDbEntity
  8
BEMASSUNG
 62
     0
100
AcDbLine
 10
123.00279018018
 20
239.7264231592292
 30
0.0
 11
277.5026997801798
 21
239.7264231592292
 31
0.0
  0
SOLID
  5
27D6E
330
274C4
100
AcDbEntity
  8
BEMASSUNG
 62
     0
100
AcDbTrace
 10
123.00279018018
 20
240.1430898258959
 30
0.0
 11
123.00279018018
 21
239.3097564925626
 31
0.0
 12
120.5027901801799
 22
239.7264231592292
 32
0.0
 13
120.5027901801799
 23
239.7264231592292
 33
0.0
  0
SOLID
  5
27D6F
330
274C4
100
AcDbEntity
  8
BEMASSUNG
 62
     0
100
AcDbTrace
 10
277.5026997801798
 20
240.1430898258959
 30
0.0
 11
277.5026997801798
 21
239.3097564925626
 31
0.0
 12
280.0026997801799
 22
239.7264231592292
 32
0.0
 13
280.0026997801799
 23
239.7264231592292
 33
0.0
  0
MTEXT
  5
27D70
330
274C4
100
AcDbEntity
  8
BEMASSUNG
 62
     0
100
AcDbMText
 10
200.2527449801799
 20
241.8097564925626
 30
0.0
 40
2.5
 41
0.0
 71
     5
 72
     1
  1
\A1;159,5
  0
POINT
  5
27D71
330
274C4
100
AcDbEntity
  8
DEFPOINTS
 62
     0
100
AcDbPoint
 10
120.5027901801799
 20
234.1251550567406
 30
0.0
  0
POINT
  5
27D72
330
274C4
100
AcDbEntity
  8
DEFPOINTS
 62
     0
100
AcDbPoint
 10
280.0026997801799
 20
234.1251550567406
 30
0.0
  0
POINT
  5
27D73
330
274C4
100
AcDbEntity
  8
DEFPOINTS
 62
     0
100
AcDbPoint
 10
280.0026997801799
 20
239.7264231592292
 30
0.0
  0
ENDBLK
  5
274CF
330
274C4
100
AcDbEntity
  8
0
100
AcDbBlockEnd
  0
BLOCK
  5
274DB
330
274D1
100
AcDbEntity
  8
0
100
AcDbBlockBegin
  2
*D2
 70
     1
 10
0.0
 20
0.0
 30
0.0
  3
*D2
  1

  0
LINE
  5
27D74
330
274D1
100
AcDbEntity
  8
BEMASSUNG
 62
     0
100
AcDbLine
 10
119.87779018018
 20
234.1251550567406
 30
0.0
 11
112.4683101508513
 21
234.1251550567406
 31
0.0
  0
LINE
  5
27D75
330
274D1
100
AcDbEntity
  8
BEMASSUNG
 62
     0
100
AcDbLine
 10
119.87779018018
 20
106.1251570567405
 30
0.0
 11
112.4683101508512
 21
106.1251570567405
 31
0.0
  0
LINE
  5
27D76
330
274D1
100
AcDbEntity
  8
BEMASSUNG
 62
     0
100
AcDbLine
 10
113.7183101508512
 20
231.6251550567406
 30
0.0
 11
113.7183101508512
 21
108.6251570567405
 31
0.0
  0
SOLID
  5
27D77
330
274D1
100
AcDbEntity
  8
BEMASSUNG
 62
     0
100
AcDbTrace
 10
113.3016434841846
 20
231.6251550567406
 30
0.0
 11
114.1349768175179
 21
231.6251550567406
 31
0.0
 12
113.7183101508512
 22
234.1251550567406
 32
0.0
 13
113.7183101508512
 23
234.1251550567406
 33
0.0
  0
SOLID
  5
27D78
330
274D1
100
AcDbEntity
  8
BEMASSUNG
 62
     0
100
AcDbTrace
 10
113.3016434841845
 20
108.6251570567405
 30
0.0
 11
114.1349768175179
 21
108.6251570567405
 31
0.0
 12
113.7183101508512
 22
106.1251570567405
 32
0.0
 13
113.7183101508512
 23
106.1251570567405
 33
0.0
  0
MTEXT
  5
27D79
330
274D1
100
AcDbEntity
  8
BEMASSUNG
 62
     0
100
AcDbMText
 10
111.8433101508512
 20
170.1251560567406
 30
0.0
 40
2.5
 41
0.0
 71
     5
 72
     1
  1
\A1;128
 11
0.0000000000000001
 21
1.0
 31
0.0
  0
POINT
  5
27D7A
330
274D1
100
AcDbEntity
  8
DEFPOINTS
 62
     0
100
AcDbPoint
 10
120.5027901801799
 20
234.1251550567406
 30
0.0
  0
POINT
  5
27D7B
330
274D1
100
AcDbEntity
  8
DEFPOINTS
 62
     0
100
AcDbPoint
 10
120.5027901801799
 20
106.1251570567405
 30
0.0
  0
POINT
  5
27D7C
330
274D1
100
AcDbEntity
  8
DEFPOINTS
 62
     0
100
AcDbPoint
 10
113.7183101508512
 20
106.1251570567405
 30
0.0
  0
ENDBLK
  5
274DC
330
274D1
100
AcDbEntity
  8
0
100
AcDbBlockEnd
  0
BLOCK
  5
27C45
330
27C35
100
AcDbEntity
  8
0
100
AcDbBlockBegin
  2
A$C1BF1606D
 70
     0
 10
0.0
 20
0.0
 30
0.0
  3
A$C1BF1606D
  1

  0
CIRCLE
  5
27C36
330
27C35
100
AcDbEntity
  8
BLECH
100
AcDbCircle
 10
2.499999347997345
 20
2.500000075356297
 30
0.0
 40
2.5
  0
LINE
  5
27C37
330
27C35
100
AcDbEntity
  8
BLECH
100
AcDbLine
 10
0.997129614991195
 20
4.497844555193069
 30
0.0
 11
2.287867313641243
 21
3.207106856542964
 31
0.0
  0
LINE
  5
27C38
330
27C35
100
AcDbEntity
  8
BLECH
100
AcDbLine
 10
0.5021548681605737
 20
4.002869808362447
 30
0.0
 11
1.792892566810735
 21
2.712132109712342
 31
0.0
  0
LINE
  5
27C39
330
27C35
100
AcDbEntity
  8
BLECH
100
AcDbLine
 10
1.07203392164564
 20
1.567009395835214
 30
0.0
 11
1.792892566810735
 21
2.287868041000422
 31
0.0
  0
LINE
  5
27C3A
330
27C35
100
AcDbEntity
  8
BLECH
100
AcDbLine
 10
1.567008668476205
 20
1.072034649004649
 30
0.0
 11
2.287867313641413
 21
1.792893294169743
 31
0.0
  0
LINE
  5
27C3B
330
27C35
100
AcDbEntity
  8
BLECH
100
AcDbLine
 10
1.567008668476205
 20
1.072034649004592
 30
0.0
 11
1.07203392164564
 21
1.567009395835214
 31
0.0
  0
LINE
  5
27C3C
330
27C35
100
AcDbEntity
  8
BLECH
100
AcDbLine
 10
3.927964774348993
 20
3.432990754877437
 30
0.0
 11
3.432990027518371
 21
3.927965501708001
 31
0.0
  0
LINE
  5
27C3D
330
27C35
100
AcDbEntity
  8
BLECH
100
AcDbLine
 10
2.71213138235322
 20
3.207106856542964
 30
0.0
 11
3.432990027518371
 21
3.927965501708001
 31
0.0
  0
LINE
  5
27C3E
330
27C35
100
AcDbEntity
  8
BLECH
100
AcDbLine
 10
3.207106129183898
 20
2.287868041000308
 30
0.0
 11
4.49784382783406
 21
0.9971303423502035
 31
0.0
  0
LINE
  5
27C3F
330
27C35
100
AcDbEntity
  8
BLECH
100
AcDbLine
 10
2.712131382353334
 20
1.792893294169687
 30
0.0
 11
4.002869081003495
 21
0.5021555955195823
 31
0.0
  0
LINE
  5
27C40
330
27C35
100
AcDbEntity
  8
BLECH
100
AcDbLine
 10
3.207106129183898
 20
2.712132109712229
 30
0.0
 11
3.927964774348993
 21
3.432990754877437
 31
0.0
  0
LINE
  5
27C41
330
27C35
100
AcDbEntity
  8
BLECH
100
AcDbLine
 10
1.792892566810735
 20
2.287868041000422
 30
0.0
 11
1.792892566810735
 21
2.712132109712342
 31
0.0
  0
LINE
  5
27C42
330
27C35
100
AcDbEntity
  8
BLECH
100
AcDbLine
 10
2.287867313641243
 20
3.207106856542964
 30
0.0
 11
2.71213138235322
 21
3.207106856542964
 31
0.0
  0
LINE
  5
27C43
330
27C35
100
AcDbEntity
  8
BLECH
100
AcDbLine
 10
3.207106129183898
 20
2.712132109712229
 30
0.0
 11
3.207106129183898
 21
2.287868041000308
 31
0.0
  0
LINE
  5
27C44
330
27C35
100
AcDbEntity
  8
BLECH
100
AcDbLine
 10
2.287867313641413
 20
1.792893294169743
 30
0.0
 11
2.712131382353334
 21
1.792893294169687
 31
0.0
  0
ENDBLK
  5
27C46
330
27C35
100
AcDbEntity
  8
0
100
AcDbBlockEnd
  0
ENDSEC
  0
SECTION
  2
ENTITIES
  0
LINE
  5
18531
330
18
100
AcDbEntity
  8
RAHMEN07
100
AcDbLine
 10
227.7999999999999
 20
22.0
 30
0.0
 11
227.7999999999999
 21
5.0
 31
0.0
  0
LINE
  5
1853B
330
18
100
AcDbEntity
  8
RAHMEN07
100
AcDbLine
 10
227.7999999999999
 20
22.0
 30
0.0
 11
415.0
 21
22.0
 31
0.0
  0
LINE
  5
1853D
330
18
100
AcDbEntity
  8
RAHMEN07
100
AcDbLine
 10
227.7999999999999
 20
5.0
 30
0.0
 11
415.0
 21
5.0
 31
0.0
  0
LINE
  5
18549
330
18
100
AcDbEntity
  8
RAHMEN025
100
AcDbLine
 10
282.3999999999998
 20
22.0
 30
0.0
 11
282.3999999999998
 21
5.0
 31
0.0
  0
LINE
  5
18553
330
18
100
AcDbEntity
  8
RAHMEN025
100
AcDbLine
 10
326.6000000000001
 20
22.0
 30
0.0
 11
326.6
 21
5.0
 31
0.0
  0
TEXT
  5
1856D
330
18
100
AcDbEntity
  8
RAHMEN025
100
AcDbText
 10
284.1719162866017
 20
17.5625
 30
0.0
 40
2.5
  1
Maßstab
  7
ISOCP
100
AcDbText
  0
INSERT
  5
185FF
330
18
100
AcDbEntity
  8
RAHMEN05
100
AcDbBlockReference
  2
A$C4EFE16F9
 10
230.6712335244649
 20
6.059781767167123
 30
0.0
 41
1.199999999999999
 42
1.199999999999999
 43
1.199999999999999
  0
TEXT
  5
18600
330
18
100
AcDbEntity
  8
RAHMEN025
100
AcDbText
 10
335.4160443883504
 20
14.04955403426225
 30
0.0
 40
5.809351702482672
  1
Layout RM420-025
  7
TASTENTEXT
100
AcDbText
  0
TEXT
  5
25437
330
18
100
AcDbEntity
  8
RAHMEN025
100
AcDbText
 10
349.4698669340125
 20
8.094828887211917
 30
0.0
 40
3.0
  1
40 Pushbutton Panel
  7
TASTENTEXT
100
AcDbText
  0
TEXT
  5
26613
330
18
100
AcDbEntity
  8
RAHMEN025
100
AcDbText
 10
300.1726170171525
 20
17.39077894527963
 30
0.0
 40
2.5
  1
1:1 (DIN A3)
  7
ISOCP
100
AcDbText
  0
LINE
  5
27485
330
18
100
AcDbEntity
  8
RAHMEN025
100
AcDbLine
 10
420.0
 20
297.0
 30
0.0
 11
0.0
 21
297.0
 31
0.0
  0
LINE
  5
27486
330
18
100
AcDbEntity
  8
RAHMEN07
100
AcDbLine
 10
415.0
 20
292.0
 30
0.0
 11
17.80000000000026
 21
292.0
 31
0.0
  0
LINE
  5
27487
330
18
100
AcDbEntity
  8
RAHMEN07
100
AcDbLine
 10
17.80000000000026
 20
5.0
 30
0.0
 11
415.0
 21
5.0
 31
0.0
  0
LINE
  5
27488
330
18
100
AcDbEntity
  8
RAHMEN025
100
AcDbLine
 10
0.0
 20
0.0
 30
0.0
 11
420.0
 21
0.0
 31
0.0
  0
LINE
  5
27489
330
18
100
AcDbEntity
  8
RAHMEN025
100
AcDbLine
 10
0.0
 20
297.0
 30
0.0
 11
0.0
 21
0.0
 31
0.0
  0
LINE
  5
2748A
330
18
100
AcDbEntity
  8
RAHMEN07
100
AcDbLine
 10
17.80000000000026
 20
5.0
 30
0.0
 11
17.80000000000026
 21
292.0
 31
0.0
  0
LINE
  5
2748B
330
18
100
AcDbEntity
  8
RAHMEN025
100
AcDbLine
 10
0.0
 20
0.0
 30
0.0
 11
210.0
 21
0.0
 31
0.0
  0
LINE
  5
2748C
330
18
100
AcDbEntity
  8
RAHMEN07
100
AcDbLine
 10
415.0
 20
5.0
 30
0.0
 11
415.0
 21
292.0
 31
0.0
  0
LINE
  5
2748D
330
18
100
AcDbEntity
  8
RAHMEN025
100
AcDbLine
 10
420.0
 20
0.0
 30
0.0
 11
420.0
 21
297.0
 31
0.0
  0
LINE
  5
27492
330
18
100
AcDbEntity
  8
RAHMEN07
100
AcDbLine
 10
227.8000000000002
 20
5.0
 30
0.0
 11
415.0
 21
5.0
 31
0.0
  0
DIMENSION
  5
274C3
330
18
100
AcDbEntity
  8
BEMASSUNG
100
AcDbDimension
  2
*D1
 10
280.0026997801799
 20
239.7264231592292
 30
0.0
 11
200.2527449801799
 21
241.8097564925626
 31
0.0
 70
    32
  1
159,5
  3
STANDARD
100
AcDbAlignedDimension
 13
120.5027901801799
 23
234.1251550567406
 33
0.0
 14
280.0026997801799
 24
234.1251550567406
 34
0.0
100
AcDbRotatedDimension
1001
ACAD
1000
DSTYLE
1002
{
1070
   270
1070
     8
1070
   270
1070
     8
1070
   270
1070
     8
1070
    41
1040
2.5
1070
    42
1040
0.625
1070
    43
1040
3.75
1070
    44
1040
1.25
1070
    73
1070
     0
1070
    74
1070
     0
1070
    77
1070
     1
1070
    78
1070
     8
1070
   140
1040
2.5
1070
   141
1040
2.5
1070
   143
1040
0.0394
1070
   147
1040
0.625
1070
   171
1070
     4
1070
   172
1070
     1
1070
   273
1070
     8
1070
   274
1070
     4
1070
   277
1070
     6
1002
}
  0
DIMENSION
  5
274D0
330
18
100
AcDbEntity
  8
BEMASSUNG
100
AcDbDimension
  2
*D2
 10
113.7183101508512
 20
106.1251570567405
 30
0.0
 11
111.8433101508512
 21
170.1251560567406
 31
0.0
 70
    32
  3
STANDARD
100
AcDbAlignedDimension
 13
120.5027901801799
 23
234.1251550567406
 33
0.0
 14
120.5027901801799
 24
106.1251570567405
 34
0.0
 50
90.0
100
AcDbRotatedDimension
1001
ACAD
1000
DSTYLE
1002
{
1070
   270
1070
     8
1070
   270
1070
     8
1070
   270
1070
     8
1070
    41
1040
2.5
1070
    42
1040
0.625
1070
    43
1040
3.75
1070
    44
1040
1.25
1070
    73
1070
     0
1070
    74
1070
     0
1070
    77
1070
     1
1070
    78
1070
     8
1070
   140
1040
2.5
1070
   141
1040
2.5
1070
   143
1040
0.0394
1070
   147
1040
0.625
1070
   171
1070
     4
1070
   172
1070
     1
1070
   273
1070
     8
1070
   274
1070
     4
1070
   277
1070
     6
1002
}
  0
LWPOLYLINE
  5
27819
330
18
100
AcDbEntity
  8
BESCHRIFTUNG
100
AcDbPolyline
 90
       15
 70
     1
 43
0.0762
 10
129.5215927319045
 20
219.2846454030746
 10
129.9497859319044
 20
219.2846454030746
 10
130.1669559319043
 20
219.2929512030744
 10
130.3344943319043
 20
219.3260474030745
 10
130.4524011319044
 20
219.3963546030744
 10
130.5323857319044
 20
219.4756788030745
 10
130.5833889319044
 20
219.5963288030744
 10
130.6012959319043
 20
219.7500496030745
 10
130.5840747319043
 20
219.8817232030745
 10
130.5378975319045
 20
219.9844662030745
 10
130.4709939319043
 20
220.0665590030745
 10
130.3800365319043
 20
220.1417176030745
 10
130.2641871319044
 20
220.1837546030745
 10
130.1358917319044
 20
220.1968610030744
 10
129.5215927319045
 20
220.1968610030744
  0
LWPOLYLINE
  5
2781A
330
18
100
AcDbEntity
  8
BESCHRIFTUNG
100
AcDbPolyline
 90
       21
 70
     1
 43
0.0762
 10
129.1865921319044
 20
219.0054486030745
 10
129.1865921319044
 20
220.4388468030744
 10
130.1172989319045
 20
220.4388468030744
 10
130.3592847319043
 20
220.4236830030745
 10
130.5640595319043
 20
220.3671426030745
 10
130.7315979319043
 20
220.2526394030744
 10
130.8425959319045
 20
220.1216516030744
 10
130.9122681319045
 20
219.9493126030745
 10
130.9363981319045
 20
219.7314568030744
 10
130.9295147319044
 20
219.6066666030745
 10
130.9060451319044
 20
219.4901314030745
 10
130.8618999319044
 20
219.3777618030744
 10
130.7950471319043
 20
219.2729614030745
 10
130.7116081319045
 20
219.1847472030744
 10
130.6198887319044
 20
219.1171578030745
 10
130.5578619319044
 20
219.0806072030745
 10
130.4834145319043
 20
219.0481968030744
 10
130.3965973319045
 20
219.0240414030744
 10
130.2924827319043
 20
219.0192408030744
 10
130.1718073319043
 20
219.0102746030744
 10
130.0429023319045
 20
219.0054486030745
  0
LWPOLYLINE
  5
2781B
330
18
100
AcDbEntity
  8
BESCHRIFTUNG
100
AcDbPolyline
 90
       12
 70
     1
 43
0.0762
 10
131.8857993319043
 20
219.0054486030745
 10
131.8857993319043
 20
220.4388468030744
 10
132.2207999319043
 20
220.4388468030744
 10
132.2207999319043
 20
219.8989444030744
 10
133.2632921319043
 20
219.8989444030744
 10
133.2632921319043
 20
220.4388468030744
 10
133.6169871319043
 20
220.4388468030744
 10
133.6169871319043
 20
219.0054486030745
 10
133.2632921319043
 20
219.0054486030745
 10
133.2632921319043
 20
219.6197476030744
 10
132.2207999319043
 20
219.6197476030744
 10
132.2207999319043
 20
219.0054486030745
  0
LWPOLYLINE
  5
2781C
330
18
100
AcDbEntity
  8
BESCHRIFTUNG
100
AcDbPolyline
 90
       15
 70
     1
 43
0.0762
 10
134.9945053319045
 20
219.2846454030746
 10
135.4412913319045
 20
219.2846454030746
 10
135.6543211319044
 20
219.2929512030744
 10
135.8177193319042
 20
219.3260474030745
 10
135.9439065319043
 20
219.3963546030744
 10
136.0238657319043
 20
219.4756788030745
 10
136.0748943319044
 20
219.5963288030744
 10
136.0928013319044
 20
219.7500496030745
 10
136.0748943319044
 20
219.8817232030745
 10
136.0238657319043
 20
219.9844662030745
 10
135.9439065319043
 20
220.0665590030745
 10
135.8569877319043
 20
220.1417176030745
 10
135.7453039319043
 20
220.1837546030745
 10
135.6088043319043
 20
220.1968610030744
 10
134.9945053319045
 20
220.1968610030744
  0
LWPOLYLINE
  5
2781D
330
18
100
AcDbEntity
  8
BESCHRIFTUNG
100
AcDbPolyline
 90
       21
 70
     1
 43
0.0762
 10
134.6779959319044
 20
219.0054486030745
 10
134.6779959319044
 20
220.4388468030744
 10
135.5901861319043
 20
220.4388468030744
 10
135.8370233319044
 20
220.4236830030745
 10
136.0507389319045
 20
220.3671426030745
 10
136.2231033319044
 20
220.2526394030744
 10
136.3341013319043
 20
220.1216516030744
 10
136.4037481319044
 20
219.9493126030745
 10
136.4279035319043
 20
219.7314568030744
 10
136.4209947319045
 20
219.6066666030745
 10
136.3975505319044
 20
219.4901314030745
 10
136.3534053319044
 20
219.3777618030744
 10
136.2782721319044
 20
219.2729614030745
 10
136.1989733319044
 20
219.1847472030744
 10
136.1113941319044
 20
219.1171578030745
 10
136.0362863319044
 20
219.0806072030745
 10
135.9569875319043
 20
219.0481968030744
 10
135.8694083319044
 20
219.0240414030744
 10
135.7694339319043
 20
219.0192408030744
 10
135.6529241319044
 20
219.0102746030744
 10
135.5156879319044
 20
219.0054486030745
  0
LWPOLYLINE
  5
2781E
330
18
100
AcDbEntity
  8
BESCHRIFTUNG
100
AcDbPolyline
 90
        5
 70
     0
 43
0.3881120000000001
 10
131.6156957319044
 20
226.4157527299297
 10
129.9901973319044
 20
225.1280424030744
 10
129.9901973319044
 20
231.5976510030746
 10
134.0531051319044
 20
228.3466542030744
 10
132.82826566629
 20
227.3763435410574
  0
LWPOLYLINE
  5
2781F
330
18
100
AcDbEntity
  8
BESCHRIFTUNG
100
AcDbPolyline
 90
        3
 70
     1
 43
0.3881120000000001
 10
131.6156957319044
 20
228.3466542030744
 10
135.6785019319045
 20
225.0955558030744
 10
131.6156957319044
 20
221.8770456030745
  0
LWPOLYLINE
  5
27820
330
18
100
AcDbEntity
  8
BESCHRIFTUNG
100
AcDbPolyline
 90
        2
 70
     0
 43
0.4939030000000001
 10
139.4569043319045
 20
219.1590424030745
 10
157.9859674623854
 20
219.1590424030745
  0
LWPOLYLINE
  5
278BB
330
18
100
AcDbEntity
  8
BESCHRIFTUNG
100
AcDbPolyline
 90
        2
 70
     0
 43
0.4939030000000001
 10
242.5957208014235
 20
219.1590424030745
 10
271.2391909319045
 20
219.1590424030745
  0
LWPOLYLINE
  5
278BC
330
18
100
AcDbEntity
  8
BESCHRIFTUNG
100
AcDbPolyline
 90
        2
 70
     0
 43
0.4939030000000001
 10
162.4859674623854
 20
219.1590424030745
 10
238.0957208014235
 20
219.1590424030745
  0
LINE
  5
278FD
330
18
100
AcDbEntity
  8
BESCHRIFTUNG
100
AcDbLine
 10
245.8752418363646
 20
220.453699778664
 30
0.0
 11
245.8752418363646
 21
221.9333067719089
 31
0.0
  0
LINE
  5
278FE
330
18
100
AcDbEntity
  8
BESCHRIFTUNG
100
AcDbLine
 10
245.8752418363646
 20
221.9333067719089
 30
0.0
 11
247.136546158475
 21
221.9333067719089
 31
0.0
  0
LINE
  5
278FF
330
18
100
AcDbEntity
  8
BESCHRIFTUNG
100
AcDbLine
 10
247.136546158475
 20
221.9333067719089
 30
0.0
 11
247.3063371249128
 21
221.9090509195605
 31
0.0
  0
LINE
  5
27900
330
18
100
AcDbEntity
  8
BESCHRIFTUNG
100
AcDbLine
 10
247.3063371249128
 20
221.9090509195605
 30
0.0
 11
247.403360534306
 21
221.860539214864
 31
0.0
  0
LINE
  5
27901
330
18
100
AcDbEntity
  8
BESCHRIFTUNG
100
AcDbLine
 10
247.403360534306
 20
221.860539214864
 30
0.0
 11
247.4276163866543
 21
221.8362833625158
 31
0.0
  0
LINE
  5
27902
330
18
100
AcDbEntity
  8
BESCHRIFTUNG
100
AcDbLine
 10
247.4276163866543
 20
221.8362833625158
 30
0.0
 11
247.4518722390028
 21
221.7635158054708
 31
0.0
  0
LINE
  5
27903
330
18
100
AcDbEntity
  8
BESCHRIFTUNG
100
AcDbLine
 10
247.4518722390028
 20
221.7635158054708
 30
0.0
 11
247.4761280913507
 21
221.7150041007744
 31
0.0
  0
LINE
  5
27904
330
18
100
AcDbEntity
  8
BESCHRIFTUNG
100
AcDbLine
 10
247.4761280913507
 20
221.7150041007744
 30
0.0
 11
247.4761280913507
 21
221.6422365437297
 31
0.0
  0
LINE
  5
27905
330
18
100
AcDbEntity
  8
BESCHRIFTUNG
100
AcDbLine
 10
247.4761280913507
 20
221.6422365437297
 30
0.0
 11
247.4761280913507
 21
221.3026546108537
 31
0.0
  0
LINE
  5
27906
330
18
100
AcDbEntity
  8
BESCHRIFTUNG
100
AcDbLine
 10
247.4761280913507
 20
221.3026546108537
 30
0.0
 11
247.4761280913507
 21
221.2298870538088
 31
0.0
  0
LINE
  5
27907
330
18
100
AcDbEntity
  8
BESCHRIFTUNG
100
AcDbLine
 10
247.4761280913507
 20
221.2298870538088
 30
0.0
 11
247.4518722390028
 21
221.1571194967641
 31
0.0
  0
LINE
  5
27908
330
18
100
AcDbEntity
  8
BESCHRIFTUNG
100
AcDbLine
 10
247.4518722390028
 20
221.1571194967641
 30
0.0
 11
247.4276163866543
 21
221.1086077920675
 31
0.0
  0
LINE
  5
27909
330
18
100
AcDbEntity
  8
BESCHRIFTUNG
100
AcDbLine
 10
247.4276163866543
 20
221.1086077920675
 30
0.0
 11
247.403360534306
 21
221.0843519397192
 31
0.0
  0
LINE
  5
2790A
330
18
100
AcDbEntity
  8
BESCHRIFTUNG
100
AcDbLine
 10
247.403360534306
 20
221.0843519397192
 30
0.0
 11
247.3063371249128
 21
221.0358402350226
 31
0.0
  0
LINE
  5
2790B
330
18
100
AcDbEntity
  8
BESCHRIFTUNG
100
AcDbLine
 10
247.3063371249128
 20
221.0358402350226
 30
0.0
 11
247.136546158475
 21
221.0115843826745
 31
0.0
  0
LINE
  5
2790C
330
18
100
AcDbEntity
  8
BESCHRIFTUNG
100
AcDbLine
 10
247.136546158475
 20
221.0115843826745
 30
0.0
 11
246.9424993396888
 21
221.0115843826745
 31
0.0
  0
LINE
  5
2790D
330
18
100
AcDbEntity
  8
BESCHRIFTUNG
100
AcDbLine
 10
246.9424993396888
 20
221.0115843826745
 30
0.0
 11
247.6216632054405
 21
220.453699778664
 31
0.0
  0
LINE
  5
2790E
330
18
100
AcDbEntity
  8
BESCHRIFTUNG
100
AcDbLine
 10
247.6216632054405
 20
220.453699778664
 30
0.0
 11
247.136546158475
 21
220.453699778664
 31
0.0
  0
LINE
  5
2790F
330
18
100
AcDbEntity
  8
BESCHRIFTUNG
100
AcDbLine
 10
247.136546158475
 20
220.453699778664
 30
0.0
 11
246.530149849768
 21
221.0115843826745
 31
0.0
  0
LINE
  5
27910
330
18
100
AcDbEntity
  8
BESCHRIFTUNG
100
AcDbLine
 10
246.530149849768
 20
221.0115843826745
 30
0.0
 11
246.2148237692403
 21
221.0115843826745
 31
0.0
  0
LINE
  5
27911
330
18
100
AcDbEntity
  8
BESCHRIFTUNG
100
AcDbLine
 10
246.2148237692403
 20
221.0115843826745
 30
0.0
 11
246.2148237692403
 21
220.453699778664
 31
0.0
  0
LINE
  5
27912
330
18
100
AcDbEntity
  8
BESCHRIFTUNG
100
AcDbLine
 10
246.2148237692403
 20
220.453699778664
 30
0.0
 11
245.8752418363646
 21
220.453699778664
 31
0.0
  0
LINE
  5
27913
330
18
100
AcDbEntity
  8
BESCHRIFTUNG
100
AcDbLine
 10
245.8752418363646
 20
220.453699778664
 30
0.0
 11
245.8752418363646
 21
220.453699778664
 31
0.0
  0
LINE
  5
27914
330
18
100
AcDbEntity
  8
BESCHRIFTUNG
100
AcDbLine
 10
246.9910110443852
 20
221.6664923960777
 30
0.0
 11
246.2148237692403
 21
221.6664923960777
 31
0.0
  0
LINE
  5
27915
330
18
100
AcDbEntity
  8
BESCHRIFTUNG
100
AcDbLine
 10
246.2148237692403
 20
221.6664923960777
 30
0.0
 11
246.2148237692403
 21
221.2541429061571
 31
0.0
  0
LINE
  5
27916
330
18
100
AcDbEntity
  8
BESCHRIFTUNG
100
AcDbLine
 10
246.2148237692403
 20
221.2541429061571
 30
0.0
 11
246.9910110443852
 21
221.2541429061571
 31
0.0
  0
LINE
  5
27917
330
18
100
AcDbEntity
  8
BESCHRIFTUNG
100
AcDbLine
 10
246.9910110443852
 20
221.2541429061571
 30
0.0
 11
247.0637786014303
 21
221.2783987585053
 31
0.0
  0
LINE
  5
27918
330
18
100
AcDbEntity
  8
BESCHRIFTUNG
100
AcDbLine
 10
247.0637786014303
 20
221.2783987585053
 30
0.0
 11
247.1122903061266
 21
221.2783987585053
 31
0.0
  0
LINE
  5
27919
330
18
100
AcDbEntity
  8
BESCHRIFTUNG
100
AcDbLine
 10
247.1122903061266
 20
221.2783987585053
 30
0.0
 11
247.136546158475
 21
221.326910463202
 31
0.0
  0
LINE
  5
2791A
330
18
100
AcDbEntity
  8
BESCHRIFTUNG
100
AcDbLine
 10
247.136546158475
 20
221.326910463202
 30
0.0
 11
247.136546158475
 21
221.3754221678984
 31
0.0
  0
LINE
  5
2791B
330
18
100
AcDbEntity
  8
BESCHRIFTUNG
100
AcDbLine
 10
247.136546158475
 20
221.3754221678984
 30
0.0
 11
247.136546158475
 21
221.5694689866846
 31
0.0
  0
LINE
  5
2791C
330
18
100
AcDbEntity
  8
BESCHRIFTUNG
100
AcDbLine
 10
247.136546158475
 20
221.5694689866846
 30
0.0
 11
247.136546158475
 21
221.6179806913812
 31
0.0
  0
LINE
  5
2791D
330
18
100
AcDbEntity
  8
BESCHRIFTUNG
100
AcDbLine
 10
247.136546158475
 20
221.6179806913812
 30
0.0
 11
247.1122903061266
 21
221.6422365437297
 31
0.0
  0
LINE
  5
2791E
330
18
100
AcDbEntity
  8
BESCHRIFTUNG
100
AcDbLine
 10
247.1122903061266
 20
221.6422365437297
 30
0.0
 11
247.0637786014303
 21
221.6664923960777
 31
0.0
  0
LINE
  5
2791F
330
18
100
AcDbEntity
  8
BESCHRIFTUNG
100
AcDbLine
 10
247.0637786014303
 20
221.6664923960777
 30
0.0
 11
246.9910110443852
 21
221.6664923960777
 31
0.0
  0
LINE
  5
27920
330
18
100
AcDbEntity
  8
BESCHRIFTUNG
100
AcDbLine
 10
246.9910110443852
 20
221.6664923960777
 30
0.0
 11
246.9910110443852
 21
221.6664923960777
 31
0.0
  0
LINE
  5
27921
330
18
100
AcDbEntity
  8
BESCHRIFTUNG
100
AcDbLine
 10
248.1795478094507
 20
220.453699778664
 30
0.0
 11
248.1795478094507
 21
221.9333067719089
 31
0.0
  0
LINE
  5
27922
330
18
100
AcDbEntity
  8
BESCHRIFTUNG
100
AcDbLine
 10
248.1795478094507
 20
221.9333067719089
 30
0.0
 11
248.4463621852821
 21
221.9333067719089
 31
0.0
  0
LINE
  5
27923
330
18
100
AcDbEntity
  8
BESCHRIFTUNG
100
AcDbLine
 10
248.4463621852821
 20
221.9333067719089
 30
0.0
 11
249.1497819033818
 21
221.0358402350226
 31
0.0
  0
LINE
  5
27924
330
18
100
AcDbEntity
  8
BESCHRIFTUNG
100
AcDbLine
 10
249.1497819033818
 20
221.0358402350226
 30
0.0
 11
249.828945769134
 21
221.9333067719089
 31
0.0
  0
LINE
  5
27925
330
18
100
AcDbEntity
  8
BESCHRIFTUNG
100
AcDbLine
 10
249.828945769134
 20
221.9333067719089
 30
0.0
 11
250.1200159973134
 21
221.9333067719089
 31
0.0
  0
LINE
  5
27926
330
18
100
AcDbEntity
  8
BESCHRIFTUNG
100
AcDbLine
 10
250.1200159973134
 20
221.9333067719089
 30
0.0
 11
250.1200159973134
 21
220.453699778664
 31
0.0
  0
LINE
  5
27927
330
18
100
AcDbEntity
  8
BESCHRIFTUNG
100
AcDbLine
 10
250.1200159973134
 20
220.453699778664
 30
0.0
 11
249.7804340644372
 21
220.453699778664
 31
0.0
  0
LINE
  5
27928
330
18
100
AcDbEntity
  8
BESCHRIFTUNG
100
AcDbLine
 10
249.7804340644372
 20
220.453699778664
 30
0.0
 11
249.7804340644372
 21
221.3754221678984
 31
0.0
  0
LINE
  5
27929
330
18
100
AcDbEntity
  8
BESCHRIFTUNG
100
AcDbLine
 10
249.7804340644372
 20
221.3754221678984
 30
0.0
 11
249.7804340644372
 21
221.3996780202469
 31
0.0
  0
LINE
  5
2792A
330
18
100
AcDbEntity
  8
BESCHRIFTUNG
100
AcDbLine
 10
249.7804340644372
 20
221.3996780202469
 30
0.0
 11
249.8046899167857
 21
221.423933872595
 31
0.0
  0
LINE
  5
2792B
330
18
100
AcDbEntity
  8
BESCHRIFTUNG
100
AcDbLine
 10
249.8046899167857
 20
221.423933872595
 30
0.0
 11
249.8046899167857
 21
221.4724455772916
 31
0.0
  0
LINE
  5
2792C
330
18
100
AcDbEntity
  8
BESCHRIFTUNG
100
AcDbLine
 10
249.8046899167857
 20
221.4724455772916
 30
0.0
 11
249.8046899167857
 21
221.5209572819881
 31
0.0
  0
LINE
  5
2792D
330
18
100
AcDbEntity
  8
BESCHRIFTUNG
100
AcDbLine
 10
249.8046899167857
 20
221.5209572819881
 30
0.0
 11
249.7804340644372
 21
221.4724455772916
 31
0.0
  0
LINE
  5
2792E
330
18
100
AcDbEntity
  8
BESCHRIFTUNG
100
AcDbLine
 10
249.7804340644372
 20
221.4724455772916
 30
0.0
 11
249.7561782120889
 21
221.423933872595
 31
0.0
  0
LINE
  5
2792F
330
18
100
AcDbEntity
  8
BESCHRIFTUNG
100
AcDbLine
 10
249.7561782120889
 20
221.423933872595
 30
0.0
 11
249.7319223597409
 21
221.3996780202469
 31
0.0
  0
LINE
  5
27930
330
18
100
AcDbEntity
  8
BESCHRIFTUNG
100
AcDbLine
 10
249.7319223597409
 20
221.3996780202469
 30
0.0
 11
249.7076665073925
 21
221.3754221678984
 31
0.0
  0
LINE
  5
27931
330
18
100
AcDbEntity
  8
BESCHRIFTUNG
100
AcDbLine
 10
249.7076665073925
 20
221.3754221678984
 30
0.0
 11
249.1497819033818
 21
220.6234907451019
 31
0.0
  0
LINE
  5
27932
330
18
100
AcDbEntity
  8
BESCHRIFTUNG
100
AcDbLine
 10
249.1497819033818
 20
220.6234907451019
 30
0.0
 11
249.1012701986856
 21
220.6234907451019
 31
0.0
  0
LINE
  5
27933
330
18
100
AcDbEntity
  8
BESCHRIFTUNG
100
AcDbLine
 10
249.1012701986856
 20
220.6234907451019
 30
0.0
 11
248.5433855946753
 21
221.3754221678984
 31
0.0
  0
LINE
  5
27934
330
18
100
AcDbEntity
  8
BESCHRIFTUNG
100
AcDbLine
 10
248.5433855946753
 20
221.3754221678984
 30
0.0
 11
248.4948738899785
 21
221.423933872595
 31
0.0
  0
LINE
  5
27935
330
18
100
AcDbEntity
  8
BESCHRIFTUNG
100
AcDbLine
 10
248.4948738899785
 20
221.423933872595
 30
0.0
 11
248.4706180376301
 21
221.4481897249434
 31
0.0
  0
LINE
  5
27936
330
18
100
AcDbEntity
  8
BESCHRIFTUNG
100
AcDbLine
 10
248.4706180376301
 20
221.4481897249434
 30
0.0
 11
248.4706180376301
 21
221.4967014296399
 31
0.0
  0
LINE
  5
27937
330
18
100
AcDbEntity
  8
BESCHRIFTUNG
100
AcDbLine
 10
248.4706180376301
 20
221.4967014296399
 30
0.0
 11
248.4463621852821
 21
221.5209572819881
 31
0.0
  0
LINE
  5
27938
330
18
100
AcDbEntity
  8
BESCHRIFTUNG
100
AcDbLine
 10
248.4463621852821
 20
221.5209572819881
 30
0.0
 11
248.4463621852821
 21
221.4724455772916
 31
0.0
  0
LINE
  5
27939
330
18
100
AcDbEntity
  8
BESCHRIFTUNG
100
AcDbLine
 10
248.4463621852821
 20
221.4724455772916
 30
0.0
 11
248.4463621852821
 21
221.4481897249434
 31
0.0
  0
LINE
  5
2793A
330
18
100
AcDbEntity
  8
BESCHRIFTUNG
100
AcDbLine
 10
248.4463621852821
 20
221.4481897249434
 30
0.0
 11
248.4463621852821
 21
221.3996780202469
 31
0.0
  0
LINE
  5
2793B
330
18
100
AcDbEntity
  8
BESCHRIFTUNG
100
AcDbLine
 10
248.4463621852821
 20
221.3996780202469
 30
0.0
 11
248.4463621852821
 21
221.3754221678984
 31
0.0
  0
LINE
  5
2793C
330
18
100
AcDbEntity
  8
BESCHRIFTUNG
100
AcDbLine
 10
248.4463621852821
 20
221.3754221678984
 30
0.0
 11
248.4463621852821
 21
220.453699778664
 31
0.0
  0
LINE
  5
2793D
330
18
100
AcDbEntity
  8
BESCHRIFTUNG
100
AcDbLine
 10
248.4463621852821
 20
220.453699778664
 30
0.0
 11
248.1795478094507
 21
220.453699778664
 31
0.0
  0
LINE
  5
2793E
330
18
100
AcDbEntity
  8
BESCHRIFTUNG
100
AcDbLine
 10
248.1795478094507
 20
220.453699778664
 30
0.0
 11
248.1795478094507
 21
220.453699778664
 31
0.0
  0
LINE
  5
2793F
330
18
100
AcDbEntity
  8
BESCHRIFTUNG
100
AcDbLine
 10
255.4805593662826
 20
220.7205141544951
 30
0.0
 11
256.5235610172587
 21
220.7205141544951
 31
0.0
  0
LINE
  5
27940
330
18
100
AcDbEntity
  8
BESCHRIFTUNG
100
AcDbLine
 10
256.5235610172587
 20
220.7205141544951
 30
0.0
 11
256.5235610172587
 21
221.6907482484261
 31
0.0
  0
LINE
  5
27941
330
18
100
AcDbEntity
  8
BESCHRIFTUNG
100
AcDbLine
 10
256.5235610172587
 20
221.6907482484261
 30
0.0
 11
255.4805593662826
 21
221.6907482484261
 31
0.0
  0
LINE
  5
27942
330
18
100
AcDbEntity
  8
BESCHRIFTUNG
100
AcDbLine
 10
255.4805593662826
 20
221.6907482484261
 30
0.0
 11
255.4805593662826
 21
220.7205141544951
 31
0.0
  0
LINE
  5
27943
330
18
100
AcDbEntity
  8
BESCHRIFTUNG
100
AcDbLine
 10
255.4805593662826
 20
220.7205141544951
 30
0.0
 11
255.4805593662826
 21
220.7205141544951
 31
0.0
  0
LINE
  5
27944
330
18
100
AcDbEntity
  8
BESCHRIFTUNG
100
AcDbLine
 10
255.1652332857553
 20
221.593724839033
 30
0.0
 11
255.1652332857553
 21
221.6664923960777
 31
0.0
  0
LINE
  5
27945
330
18
100
AcDbEntity
  8
BESCHRIFTUNG
100
AcDbLine
 10
255.1652332857553
 20
221.6664923960777
 30
0.0
 11
255.1894891381032
 21
221.7635158054708
 31
0.0
  0
LINE
  5
27946
330
18
100
AcDbEntity
  8
BESCHRIFTUNG
100
AcDbLine
 10
255.1894891381032
 20
221.7635158054708
 30
0.0
 11
255.2137449904516
 21
221.8120275101674
 31
0.0
  0
LINE
  5
27947
330
18
100
AcDbEntity
  8
BESCHRIFTUNG
100
AcDbLine
 10
255.2137449904516
 20
221.8120275101674
 30
0.0
 11
255.2380008428
 21
221.860539214864
 31
0.0
  0
LINE
  5
27948
330
18
100
AcDbEntity
  8
BESCHRIFTUNG
100
AcDbLine
 10
255.2380008428
 20
221.860539214864
 30
0.0
 11
255.2865125474963
 21
221.8847950672123
 31
0.0
  0
LINE
  5
27949
330
18
100
AcDbEntity
  8
BESCHRIFTUNG
100
AcDbLine
 10
255.2865125474963
 20
221.8847950672123
 30
0.0
 11
255.3350242521931
 21
221.9090509195605
 31
0.0
  0
LINE
  5
2794A
330
18
100
AcDbEntity
  8
BESCHRIFTUNG
100
AcDbLine
 10
255.3350242521931
 20
221.9090509195605
 30
0.0
 11
255.4077918092378
 21
221.9333067719089
 31
0.0
  0
LINE
  5
2794B
330
18
100
AcDbEntity
  8
BESCHRIFTUNG
100
AcDbLine
 10
255.4077918092378
 20
221.9333067719089
 30
0.0
 11
255.5048152186309
 21
221.9333067719089
 31
0.0
  0
LINE
  5
2794C
330
18
100
AcDbEntity
  8
BESCHRIFTUNG
100
AcDbLine
 10
255.5048152186309
 20
221.9333067719089
 30
0.0
 11
256.4993051649104
 21
221.9333067719089
 31
0.0
  0
LINE
  5
2794D
330
18
100
AcDbEntity
  8
BESCHRIFTUNG
100
AcDbLine
 10
256.4993051649104
 20
221.9333067719089
 30
0.0
 11
256.5963285743034
 21
221.9333067719089
 31
0.0
  0
LINE
  5
2794E
330
18
100
AcDbEntity
  8
BESCHRIFTUNG
100
AcDbLine
 10
256.5963285743034
 20
221.9333067719089
 30
0.0
 11
256.6690961313482
 21
221.9090509195605
 31
0.0
  0
LINE
  5
2794F
330
18
100
AcDbEntity
  8
BESCHRIFTUNG
100
AcDbLine
 10
256.6690961313482
 20
221.9090509195605
 30
0.0
 11
256.717607836045
 21
221.8847950672123
 31
0.0
  0
LINE
  5
27950
330
18
100
AcDbEntity
  8
BESCHRIFTUNG
100
AcDbLine
 10
256.717607836045
 20
221.8847950672123
 30
0.0
 11
256.7661195407413
 21
221.860539214864
 31
0.0
  0
LINE
  5
27951
330
18
100
AcDbEntity
  8
BESCHRIFTUNG
100
AcDbLine
 10
256.7661195407413
 20
221.860539214864
 30
0.0
 11
256.7903753930897
 21
221.8120275101674
 31
0.0
  0
LINE
  5
27952
330
18
100
AcDbEntity
  8
BESCHRIFTUNG
100
AcDbLine
 10
256.7903753930897
 20
221.8120275101674
 30
0.0
 11
256.8146312454381
 21
221.7635158054708
 31
0.0
  0
LINE
  5
27953
330
18
100
AcDbEntity
  8
BESCHRIFTUNG
100
AcDbLine
 10
256.8146312454381
 20
221.7635158054708
 30
0.0
 11
256.8388870977865
 21
221.6664923960777
 31
0.0
  0
LINE
  5
27954
330
18
100
AcDbEntity
  8
BESCHRIFTUNG
100
AcDbLine
 10
256.8388870977865
 20
221.6664923960777
 30
0.0
 11
256.8388870977865
 21
221.593724839033
 31
0.0
  0
LINE
  5
27955
330
18
100
AcDbEntity
  8
BESCHRIFTUNG
100
AcDbLine
 10
256.8388870977865
 20
221.593724839033
 30
0.0
 11
256.8388870977865
 21
220.7932817115398
 31
0.0
  0
LINE
  5
27956
330
18
100
AcDbEntity
  8
BESCHRIFTUNG
100
AcDbLine
 10
256.8388870977865
 20
220.7932817115398
 30
0.0
 11
256.8388870977865
 21
220.6962583021468
 31
0.0
  0
LINE
  5
27957
330
18
100
AcDbEntity
  8
BESCHRIFTUNG
100
AcDbLine
 10
256.8388870977865
 20
220.6962583021468
 30
0.0
 11
256.8146312454381
 21
220.6234907451019
 31
0.0
  0
LINE
  5
27958
330
18
100
AcDbEntity
  8
BESCHRIFTUNG
100
AcDbLine
 10
256.8146312454381
 20
220.6234907451019
 30
0.0
 11
256.7903753930897
 21
220.5749790404054
 31
0.0
  0
LINE
  5
27959
330
18
100
AcDbEntity
  8
BESCHRIFTUNG
100
AcDbLine
 10
256.7903753930897
 20
220.5749790404054
 30
0.0
 11
256.7661195407413
 21
220.5264673357089
 31
0.0
  0
LINE
  5
2795A
330
18
100
AcDbEntity
  8
BESCHRIFTUNG
100
AcDbLine
 10
256.7661195407413
 20
220.5264673357089
 30
0.0
 11
256.717607836045
 21
220.5022114833604
 31
0.0
  0
LINE
  5
2795B
330
18
100
AcDbEntity
  8
BESCHRIFTUNG
100
AcDbLine
 10
256.717607836045
 20
220.5022114833604
 30
0.0
 11
256.6690961313482
 21
220.4779556310121
 31
0.0
  0
LINE
  5
2795C
330
18
100
AcDbEntity
  8
BESCHRIFTUNG
100
AcDbLine
 10
256.6690961313482
 20
220.4779556310121
 30
0.0
 11
256.5963285743034
 21
220.453699778664
 31
0.0
  0
LINE
  5
2795D
330
18
100
AcDbEntity
  8
BESCHRIFTUNG
100
AcDbLine
 10
256.5963285743034
 20
220.453699778664
 30
0.0
 11
256.4993051649104
 21
220.453699778664
 31
0.0
  0
LINE
  5
2795E
330
18
100
AcDbEntity
  8
BESCHRIFTUNG
100
AcDbLine
 10
256.4993051649104
 20
220.453699778664
 30
0.0
 11
255.5048152186309
 21
220.453699778664
 31
0.0
  0
LINE
  5
2795F
330
18
100
AcDbEntity
  8
BESCHRIFTUNG
100
AcDbLine
 10
255.5048152186309
 20
220.453699778664
 30
0.0
 11
255.4077918092378
 21
220.453699778664
 31
0.0
  0
LINE
  5
27960
330
18
100
AcDbEntity
  8
BESCHRIFTUNG
100
AcDbLine
 10
255.4077918092378
 20
220.453699778664
 30
0.0
 11
255.3350242521931
 21
220.4779556310121
 31
0.0
  0
LINE
  5
27961
330
18
100
AcDbEntity
  8
BESCHRIFTUNG
100
AcDbLine
 10
255.3350242521931
 20
220.4779556310121
 30
0.0
 11
255.2865125474963
 21
220.5022114833604
 31
0.0
  0
LINE
  5
27962
330
18
100
AcDbEntity
  8
BESCHRIFTUNG
100
AcDbLine
 10
255.2865125474963
 20
220.5022114833604
 30
0.0
 11
255.2380008428
 21
220.5264673357089
 31
0.0
  0
LINE
  5
27963
330
18
100
AcDbEntity
  8
BESCHRIFTUNG
100
AcDbLine
 10
255.2380008428
 20
220.5264673357089
 30
0.0
 11
255.2137449904516
 21
220.5749790404054
 31
0.0
  0
LINE
  5
27964
330
18
100
AcDbEntity
  8
BESCHRIFTUNG
100
AcDbLine
 10
255.2137449904516
 20
220.5749790404054
 30
0.0
 11
255.1894891381032
 21
220.6234907451019
 31
0.0
  0
LINE
  5
27965
330
18
100
AcDbEntity
  8
BESCHRIFTUNG
100
AcDbLine
 10
255.1894891381032
 20
220.6234907451019
 30
0.0
 11
255.1652332857553
 21
220.6962583021468
 31
0.0
  0
LINE
  5
27966
330
18
100
AcDbEntity
  8
BESCHRIFTUNG
100
AcDbLine
 10
255.1652332857553
 20
220.6962583021468
 30
0.0
 11
255.1652332857553
 21
220.7932817115398
 31
0.0
  0
LINE
  5
27967
330
18
100
AcDbEntity
  8
BESCHRIFTUNG
100
AcDbLine
 10
255.1652332857553
 20
220.7932817115398
 30
0.0
 11
255.1652332857553
 21
221.593724839033
 31
0.0
  0
LINE
  5
27968
330
18
100
AcDbEntity
  8
BESCHRIFTUNG
100
AcDbLine
 10
255.1652332857553
 20
221.593724839033
 30
0.0
 11
255.1652332857553
 21
221.593724839033
 31
0.0
  0
LINE
  5
27969
330
18
100
AcDbEntity
  8
BESCHRIFTUNG
100
AcDbLine
 10
253.0792299838032
 20
221.6422365437297
 30
0.0
 11
253.1034858361513
 21
221.7877716578193
 31
0.0
  0
LINE
  5
2796A
330
18
100
AcDbEntity
  8
BESCHRIFTUNG
100
AcDbLine
 10
253.1034858361513
 20
221.7877716578193
 30
0.0
 11
253.151997540848
 21
221.860539214864
 31
0.0
  0
LINE
  5
2796B
330
18
100
AcDbEntity
  8
BESCHRIFTUNG
100
AcDbLine
 10
253.151997540848
 20
221.860539214864
 30
0.0
 11
253.2490209502411
 21
221.9090509195605
 31
0.0
  0
LINE
  5
2796C
330
18
100
AcDbEntity
  8
BESCHRIFTUNG
100
AcDbLine
 10
253.2490209502411
 20
221.9090509195605
 30
0.0
 11
253.418811916679
 21
221.9333067719089
 31
0.0
  0
LINE
  5
2796D
330
18
100
AcDbEntity
  8
BESCHRIFTUNG
100
AcDbLine
 10
253.418811916679
 20
221.9333067719089
 30
0.0
 11
254.1707433394758
 21
221.9333067719089
 31
0.0
  0
LINE
  5
2796E
330
18
100
AcDbEntity
  8
BESCHRIFTUNG
100
AcDbLine
 10
254.1707433394758
 20
221.9333067719089
 30
0.0
 11
254.3405343059137
 21
221.9090509195605
 31
0.0
  0
LINE
  5
2796F
330
18
100
AcDbEntity
  8
BESCHRIFTUNG
100
AcDbLine
 10
254.3405343059137
 20
221.9090509195605
 30
0.0
 11
254.4375577153068
 21
221.860539214864
 31
0.0
  0
LINE
  5
27970
330
18
100
AcDbEntity
  8
BESCHRIFTUNG
100
AcDbLine
 10
254.4375577153068
 20
221.860539214864
 30
0.0
 11
254.4860694200031
 21
221.7877716578193
 31
0.0
  0
LINE
  5
27971
330
18
100
AcDbEntity
  8
BESCHRIFTUNG
100
AcDbLine
 10
254.4860694200031
 20
221.7877716578193
 30
0.0
 11
254.5103252723515
 21
221.6422365437297
 31
0.0
  0
LINE
  5
27972
330
18
100
AcDbEntity
  8
BESCHRIFTUNG
100
AcDbLine
 10
254.5103252723515
 20
221.6422365437297
 30
0.0
 11
254.5103252723515
 21
221.5452131343365
 31
0.0
  0
LINE
  5
27973
330
18
100
AcDbEntity
  8
BESCHRIFTUNG
100
AcDbLine
 10
254.5103252723515
 20
221.5452131343365
 30
0.0
 11
254.5103252723515
 21
221.4481897249434
 31
0.0
  0
LINE
  5
27974
330
18
100
AcDbEntity
  8
BESCHRIFTUNG
100
AcDbLine
 10
254.5103252723515
 20
221.4481897249434
 30
0.0
 11
254.4860694200031
 21
221.3754221678984
 31
0.0
  0
LINE
  5
27975
330
18
100
AcDbEntity
  8
BESCHRIFTUNG
100
AcDbLine
 10
254.4860694200031
 20
221.3754221678984
 30
0.0
 11
254.4133018629584
 21
221.326910463202
 31
0.0
  0
LINE
  5
27976
330
18
100
AcDbEntity
  8
BESCHRIFTUNG
100
AcDbLine
 10
254.4133018629584
 20
221.326910463202
 30
0.0
 11
254.3162784535653
 21
221.2541429061571
 31
0.0
  0
LINE
  5
27977
330
18
100
AcDbEntity
  8
BESCHRIFTUNG
100
AcDbLine
 10
254.3162784535653
 20
221.2541429061571
 30
0.0
 11
253.4430677690273
 21
220.7205141544951
 31
0.0
  0
LINE
  5
27978
330
18
100
AcDbEntity
  8
BESCHRIFTUNG
100
AcDbLine
 10
253.4430677690273
 20
220.7205141544951
 30
0.0
 11
254.3162784535653
 21
220.7205141544951
 31
0.0
  0
LINE
  5
27979
330
18
100
AcDbEntity
  8
BESCHRIFTUNG
100
AcDbLine
 10
254.3162784535653
 20
220.7205141544951
 30
0.0
 11
254.3162784535653
 21
220.9388168256296
 31
0.0
  0
LINE
  5
2797A
330
18
100
AcDbEntity
  8
BESCHRIFTUNG
100
AcDbLine
 10
254.3162784535653
 20
220.9388168256296
 30
0.0
 11
254.5830928293962
 21
220.8660492685847
 31
0.0
  0
LINE
  5
2797B
330
18
100
AcDbEntity
  8
BESCHRIFTUNG
100
AcDbLine
 10
254.5830928293962
 20
220.8660492685847
 30
0.0
 11
254.5830928293962
 21
220.7447700068432
 31
0.0
  0
LINE
  5
2797C
330
18
100
AcDbEntity
  8
BESCHRIFTUNG
100
AcDbLine
 10
254.5830928293962
 20
220.7447700068432
 30
0.0
 11
254.5588369770482
 21
220.5992348927536
 31
0.0
  0
LINE
  5
2797D
330
18
100
AcDbEntity
  8
BESCHRIFTUNG
100
AcDbLine
 10
254.5588369770482
 20
220.5992348927536
 30
0.0
 11
254.5103252723515
 21
220.5022114833604
 31
0.0
  0
LINE
  5
2797E
330
18
100
AcDbEntity
  8
BESCHRIFTUNG
100
AcDbLine
 10
254.5103252723515
 20
220.5022114833604
 30
0.0
 11
254.4133018629584
 21
220.4779556310121
 31
0.0
  0
LINE
  5
2797F
330
18
100
AcDbEntity
  8
BESCHRIFTUNG
100
AcDbLine
 10
254.4133018629584
 20
220.4779556310121
 30
0.0
 11
254.2435108965205
 21
220.453699778664
 31
0.0
  0
LINE
  5
27980
330
18
100
AcDbEntity
  8
BESCHRIFTUNG
100
AcDbLine
 10
254.2435108965205
 20
220.453699778664
 30
0.0
 11
253.0064624267581
 21
220.453699778664
 31
0.0
  0
LINE
  5
27981
330
18
100
AcDbEntity
  8
BESCHRIFTUNG
100
AcDbLine
 10
253.0064624267581
 20
220.453699778664
 30
0.0
 11
253.0064624267581
 21
220.5749790404054
 31
0.0
  0
LINE
  5
27982
330
18
100
AcDbEntity
  8
BESCHRIFTUNG
100
AcDbLine
 10
253.0064624267581
 20
220.5749790404054
 30
0.0
 11
253.0064624267581
 21
220.6720024497986
 31
0.0
  0
LINE
  5
27983
330
18
100
AcDbEntity
  8
BESCHRIFTUNG
100
AcDbLine
 10
253.0064624267581
 20
220.6720024497986
 30
0.0
 11
253.0307182791065
 21
220.7447700068432
 31
0.0
  0
LINE
  5
27984
330
18
100
AcDbEntity
  8
BESCHRIFTUNG
100
AcDbLine
 10
253.0307182791065
 20
220.7447700068432
 30
0.0
 11
253.1034858361513
 21
220.7932817115398
 31
0.0
  0
LINE
  5
27985
330
18
100
AcDbEntity
  8
BESCHRIFTUNG
100
AcDbLine
 10
253.1034858361513
 20
220.7932817115398
 30
0.0
 11
253.1762533931964
 21
220.8660492685847
 31
0.0
  0
LINE
  5
27986
330
18
100
AcDbEntity
  8
BESCHRIFTUNG
100
AcDbLine
 10
253.1762533931964
 20
220.8660492685847
 30
0.0
 11
254.2192550441721
 21
221.4967014296399
 31
0.0
  0
LINE
  5
27987
330
18
100
AcDbEntity
  8
BESCHRIFTUNG
100
AcDbLine
 10
254.2192550441721
 20
221.4967014296399
 30
0.0
 11
254.2192550441721
 21
221.6907482484261
 31
0.0
  0
LINE
  5
27988
330
18
100
AcDbEntity
  8
BESCHRIFTUNG
100
AcDbLine
 10
254.2192550441721
 20
221.6907482484261
 30
0.0
 11
253.3703002119827
 21
221.6907482484261
 31
0.0
  0
LINE
  5
27989
330
18
100
AcDbEntity
  8
BESCHRIFTUNG
100
AcDbLine
 10
253.3703002119827
 20
221.6907482484261
 30
0.0
 11
253.3703002119827
 21
221.3754221678984
 31
0.0
  0
LINE
  5
2798A
330
18
100
AcDbEntity
  8
BESCHRIFTUNG
100
AcDbLine
 10
253.3703002119827
 20
221.3754221678984
 30
0.0
 11
253.0792299838032
 21
221.4481897249434
 31
0.0
  0
LINE
  5
2798B
330
18
100
AcDbEntity
  8
BESCHRIFTUNG
100
AcDbLine
 10
253.0792299838032
 20
221.4481897249434
 30
0.0
 11
253.0792299838032
 21
221.6422365437297
 31
0.0
  0
LINE
  5
2798C
330
18
100
AcDbEntity
  8
BESCHRIFTUNG
100
AcDbLine
 10
253.0792299838032
 20
221.6422365437297
 30
0.0
 11
253.0792299838032
 21
221.6422365437297
 31
0.0
  0
LINE
  5
2798D
330
18
100
AcDbEntity
  8
BESCHRIFTUNG
100
AcDbLine
 10
257.6878419299761
 20
220.7205141544951
 30
0.0
 11
258.7550994333001
 21
220.7205141544951
 31
0.0
  0
LINE
  5
2798E
330
18
100
AcDbEntity
  8
BESCHRIFTUNG
100
AcDbLine
 10
258.7550994333001
 20
220.7205141544951
 30
0.0
 11
258.7550994333001
 21
221.6907482484261
 31
0.0
  0
LINE
  5
2798F
330
18
100
AcDbEntity
  8
BESCHRIFTUNG
100
AcDbLine
 10
258.7550994333001
 20
221.6907482484261
 30
0.0
 11
257.6878419299761
 21
221.6907482484261
 31
0.0
  0
LINE
  5
27990
330
18
100
AcDbEntity
  8
BESCHRIFTUNG
100
AcDbLine
 10
257.6878419299761
 20
221.6907482484261
 30
0.0
 11
257.6878419299761
 21
220.7205141544951
 31
0.0
  0
LINE
  5
27991
330
18
100
AcDbEntity
  8
BESCHRIFTUNG
100
AcDbLine
 10
257.6878419299761
 20
220.7205141544951
 30
0.0
 11
257.6878419299761
 21
220.7205141544951
 31
0.0
  0
LINE
  5
27992
330
18
100
AcDbEntity
  8
BESCHRIFTUNG
100
AcDbLine
 10
257.3725158494484
 20
221.593724839033
 30
0.0
 11
257.3725158494484
 21
221.6664923960777
 31
0.0
  0
LINE
  5
27993
330
18
100
AcDbEntity
  8
BESCHRIFTUNG
100
AcDbLine
 10
257.3725158494484
 20
221.6664923960777
 30
0.0
 11
257.3967717017967
 21
221.7635158054708
 31
0.0
  0
LINE
  5
27994
330
18
100
AcDbEntity
  8
BESCHRIFTUNG
100
AcDbLine
 10
257.3967717017967
 20
221.7635158054708
 30
0.0
 11
257.421027554145
 21
221.8120275101674
 31
0.0
  0
LINE
  5
27995
330
18
100
AcDbEntity
  8
BESCHRIFTUNG
100
AcDbLine
 10
257.421027554145
 20
221.8120275101674
 30
0.0
 11
257.4452834064931
 21
221.860539214864
 31
0.0
  0
LINE
  5
27996
330
18
100
AcDbEntity
  8
BESCHRIFTUNG
100
AcDbLine
 10
257.4452834064931
 20
221.860539214864
 30
0.0
 11
257.4937951111899
 21
221.8847950672123
 31
0.0
  0
LINE
  5
27997
330
18
100
AcDbEntity
  8
BESCHRIFTUNG
100
AcDbLine
 10
257.4937951111899
 20
221.8847950672123
 30
0.0
 11
257.5423068158861
 21
221.9090509195605
 31
0.0
  0
LINE
  5
27998
330
18
100
AcDbEntity
  8
BESCHRIFTUNG
100
AcDbLine
 10
257.5423068158861
 20
221.9090509195605
 30
0.0
 11
257.6393302252797
 21
221.9333067719089
 31
0.0
  0
LINE
  5
27999
330
18
100
AcDbEntity
  8
BESCHRIFTUNG
100
AcDbLine
 10
257.6393302252797
 20
221.9333067719089
 30
0.0
 11
257.7120977823244
 21
221.9333067719089
 31
0.0
  0
LINE
  5
2799A
330
18
100
AcDbEntity
  8
BESCHRIFTUNG
100
AcDbLine
 10
257.7120977823244
 20
221.9333067719089
 30
0.0
 11
258.7308435809518
 21
221.9333067719089
 31
0.0
  0
LINE
  5
2799B
330
18
100
AcDbEntity
  8
BESCHRIFTUNG
100
AcDbLine
 10
258.7308435809518
 20
221.9333067719089
 30
0.0
 11
258.8036111379969
 21
221.9333067719089
 31
0.0
  0
LINE
  5
2799C
330
18
100
AcDbEntity
  8
BESCHRIFTUNG
100
AcDbLine
 10
258.8036111379969
 20
221.9333067719089
 30
0.0
 11
258.8763786950416
 21
221.9090509195605
 31
0.0
  0
LINE
  5
2799D
330
18
100
AcDbEntity
  8
BESCHRIFTUNG
100
AcDbLine
 10
258.8763786950416
 20
221.9090509195605
 30
0.0
 11
258.9491462520864
 21
221.8847950672123
 31
0.0
  0
LINE
  5
2799E
330
18
100
AcDbEntity
  8
BESCHRIFTUNG
100
AcDbLine
 10
258.9491462520864
 20
221.8847950672123
 30
0.0
 11
258.9976579567832
 21
221.860539214864
 31
0.0
  0
LINE
  5
2799F
330
18
100
AcDbEntity
  8
BESCHRIFTUNG
100
AcDbLine
 10
258.9976579567832
 20
221.860539214864
 30
0.0
 11
259.0219138091311
 21
221.8120275101674
 31
0.0
  0
LINE
  5
279A0
330
18
100
AcDbEntity
  8
BESCHRIFTUNG
100
AcDbLine
 10
259.0219138091311
 20
221.8120275101674
 30
0.0
 11
259.0461696614795
 21
221.7635158054708
 31
0.0
  0
LINE
  5
279A1
330
18
100
AcDbEntity
  8
BESCHRIFTUNG
100
AcDbLine
 10
259.0461696614795
 20
221.7635158054708
 30
0.0
 11
259.0461696614795
 21
221.6664923960777
 31
0.0
  0
LINE
  5
279A2
330
18
100
AcDbEntity
  8
BESCHRIFTUNG
100
AcDbLine
 10
259.0461696614795
 20
221.6664923960777
 30
0.0
 11
259.0704255138279
 21
221.593724839033
 31
0.0
  0
LINE
  5
279A3
330
18
100
AcDbEntity
  8
BESCHRIFTUNG
100
AcDbLine
 10
259.0704255138279
 20
221.593724839033
 30
0.0
 11
259.0704255138279
 21
220.7932817115398
 31
0.0
  0
LINE
  5
279A4
330
18
100
AcDbEntity
  8
BESCHRIFTUNG
100
AcDbLine
 10
259.0704255138279
 20
220.7932817115398
 30
0.0
 11
259.0461696614795
 21
220.6962583021468
 31
0.0
  0
LINE
  5
279A5
330
18
100
AcDbEntity
  8
BESCHRIFTUNG
100
AcDbLine
 10
259.0461696614795
 20
220.6962583021468
 30
0.0
 11
259.0461696614795
 21
220.6234907451019
 31
0.0
  0
LINE
  5
279A6
330
18
100
AcDbEntity
  8
BESCHRIFTUNG
100
AcDbLine
 10
259.0461696614795
 20
220.6234907451019
 30
0.0
 11
259.0219138091311
 21
220.5749790404054
 31
0.0
  0
LINE
  5
279A7
330
18
100
AcDbEntity
  8
BESCHRIFTUNG
100
AcDbLine
 10
259.0219138091311
 20
220.5749790404054
 30
0.0
 11
258.9976579567832
 21
220.5264673357089
 31
0.0
  0
LINE
  5
279A8
330
18
100
AcDbEntity
  8
BESCHRIFTUNG
100
AcDbLine
 10
258.9976579567832
 20
220.5264673357089
 30
0.0
 11
258.9491462520864
 21
220.5022114833604
 31
0.0
  0
LINE
  5
279A9
330
18
100
AcDbEntity
  8
BESCHRIFTUNG
100
AcDbLine
 10
258.9491462520864
 20
220.5022114833604
 30
0.0
 11
258.8763786950416
 21
220.4779556310121
 31
0.0
  0
LINE
  5
279AA
330
18
100
AcDbEntity
  8
BESCHRIFTUNG
100
AcDbLine
 10
258.8763786950416
 20
220.4779556310121
 30
0.0
 11
258.8036111379969
 21
220.453699778664
 31
0.0
  0
LINE
  5
279AB
330
18
100
AcDbEntity
  8
BESCHRIFTUNG
100
AcDbLine
 10
258.8036111379969
 20
220.453699778664
 30
0.0
 11
258.7308435809518
 21
220.453699778664
 31
0.0
  0
LINE
  5
279AC
330
18
100
AcDbEntity
  8
BESCHRIFTUNG
100
AcDbLine
 10
258.7308435809518
 20
220.453699778664
 30
0.0
 11
257.7120977823244
 21
220.453699778664
 31
0.0
  0
LINE
  5
279AD
330
18
100
AcDbEntity
  8
BESCHRIFTUNG
100
AcDbLine
 10
257.7120977823244
 20
220.453699778664
 30
0.0
 11
257.6393302252797
 21
220.453699778664
 31
0.0
  0
LINE
  5
279AE
330
18
100
AcDbEntity
  8
BESCHRIFTUNG
100
AcDbLine
 10
257.6393302252797
 20
220.453699778664
 30
0.0
 11
257.5423068158861
 21
220.4779556310121
 31
0.0
  0
LINE
  5
279AF
330
18
100
AcDbEntity
  8
BESCHRIFTUNG
100
AcDbLine
 10
257.5423068158861
 20
220.4779556310121
 30
0.0
 11
257.4937951111899
 21
220.5022114833604
 31
0.0
  0
LINE
  5
279B0
330
18
100
AcDbEntity
  8
BESCHRIFTUNG
100
AcDbLine
 10
257.4937951111899
 20
220.5022114833604
 30
0.0
 11
257.4452834064931
 21
220.5264673357089
 31
0.0
  0
LINE
  5
279B1
330
18
100
AcDbEntity
  8
BESCHRIFTUNG
100
AcDbLine
 10
257.4452834064931
 20
220.5264673357089
 30
0.0
 11
257.421027554145
 21
220.5749790404054
 31
0.0
  0
LINE
  5
279B2
330
18
100
AcDbEntity
  8
BESCHRIFTUNG
100
AcDbLine
 10
257.421027554145
 20
220.5749790404054
 30
0.0
 11
257.3967717017967
 21
220.6234907451019
 31
0.0
  0
LINE
  5
279B3
330
18
100
AcDbEntity
  8
BESCHRIFTUNG
100
AcDbLine
 10
257.3967717017967
 20
220.6234907451019
 30
0.0
 11
257.3725158494484
 21
220.6962583021468
 31
0.0
  0
LINE
  5
279B4
330
18
100
AcDbEntity
  8
BESCHRIFTUNG
100
AcDbLine
 10
257.3725158494484
 20
220.6962583021468
 30
0.0
 11
257.3725158494484
 21
220.7932817115398
 31
0.0
  0
LINE
  5
279B5
330
18
100
AcDbEntity
  8
BESCHRIFTUNG
100
AcDbLine
 10
257.3725158494484
 20
220.7932817115398
 30
0.0
 11
257.3725158494484
 21
221.593724839033
 31
0.0
  0
LINE
  5
279B6
330
18
100
AcDbEntity
  8
BESCHRIFTUNG
100
AcDbLine
 10
257.3725158494484
 20
221.593724839033
 30
0.0
 11
257.3725158494484
 21
221.593724839033
 31
0.0
  0
LINE
  5
279B7
330
18
100
AcDbEntity
  8
BESCHRIFTUNG
100
AcDbLine
 10
267.5114621310285
 20
221.4481897249434
 30
0.0
 11
267.5114621310285
 21
220.453699778664
 31
0.0
  0
LINE
  5
279B8
330
18
100
AcDbEntity
  8
BESCHRIFTUNG
100
AcDbLine
 10
267.5114621310285
 20
220.453699778664
 30
0.0
 11
267.2203919028496
 21
220.453699778664
 31
0.0
  0
LINE
  5
279B9
330
18
100
AcDbEntity
  8
BESCHRIFTUNG
100
AcDbLine
 10
267.2203919028496
 20
220.453699778664
 30
0.0
 11
267.2203919028496
 21
221.4481897249434
 31
0.0
  0
LINE
  5
279BA
330
18
100
AcDbEntity
  8
BESCHRIFTUNG
100
AcDbLine
 10
267.2203919028496
 20
221.4481897249434
 30
0.0
 11
266.6382514464905
 21
221.4481897249434
 31
0.0
  0
LINE
  5
279BB
330
18
100
AcDbEntity
  8
BESCHRIFTUNG
100
AcDbLine
 10
266.6382514464905
 20
221.4481897249434
 30
0.0
 11
266.6382514464905
 21
221.6664923960777
 31
0.0
  0
LINE
  5
279BC
330
18
100
AcDbEntity
  8
BESCHRIFTUNG
100
AcDbLine
 10
266.6382514464905
 20
221.6664923960777
 30
0.0
 11
268.1178584397355
 21
221.6664923960777
 31
0.0
  0
LINE
  5
279BD
330
18
100
AcDbEntity
  8
BESCHRIFTUNG
100
AcDbLine
 10
268.1178584397355
 20
221.6664923960777
 30
0.0
 11
268.1178584397355
 21
221.4481897249434
 31
0.0
  0
LINE
  5
279BE
330
18
100
AcDbEntity
  8
BESCHRIFTUNG
100
AcDbLine
 10
268.1178584397355
 20
221.4481897249434
 30
0.0
 11
267.5114621310285
 21
221.4481897249434
 31
0.0
  0
LINE
  5
279BF
330
18
100
AcDbEntity
  8
BESCHRIFTUNG
100
AcDbLine
 10
267.5114621310285
 20
221.4481897249434
 30
0.0
 11
267.5114621310285
 21
221.4481897249434
 31
0.0
  0
LINE
  5
279C0
330
18
100
AcDbEntity
  8
BESCHRIFTUNG
100
AcDbLine
 10
261.1564288157799
 20
220.7205141544951
 30
0.0
 11
261.617290010397
 21
220.7205141544951
 31
0.0
  0
LINE
  5
279C1
330
18
100
AcDbEntity
  8
BESCHRIFTUNG
100
AcDbLine
 10
261.617290010397
 20
220.7205141544951
 30
0.0
 11
261.762825124487
 21
220.7447700068432
 31
0.0
  0
LINE
  5
279C2
330
18
100
AcDbEntity
  8
BESCHRIFTUNG
100
AcDbLine
 10
261.762825124487
 20
220.7447700068432
 30
0.0
 11
261.9083602385763
 21
220.7690258591917
 31
0.0
  0
LINE
  5
279C3
330
18
100
AcDbEntity
  8
BESCHRIFTUNG
100
AcDbLine
 10
261.9083602385763
 20
220.7690258591917
 30
0.0
 11
262.0296395003179
 21
220.7932817115398
 31
0.0
  0
LINE
  5
279C4
330
18
100
AcDbEntity
  8
BESCHRIFTUNG
100
AcDbLine
 10
262.0296395003179
 20
220.7932817115398
 30
0.0
 11
262.1024070573625
 21
220.8417934162364
 31
0.0
  0
LINE
  5
279C5
330
18
100
AcDbEntity
  8
BESCHRIFTUNG
100
AcDbLine
 10
262.1024070573625
 20
220.8417934162364
 30
0.0
 11
262.1751746144077
 21
220.9145609732813
 31
0.0
  0
LINE
  5
279C6
330
18
100
AcDbEntity
  8
BESCHRIFTUNG
100
AcDbLine
 10
262.1751746144077
 20
220.9145609732813
 30
0.0
 11
262.223686319104
 21
220.987328530326
 31
0.0
  0
LINE
  5
279C7
330
18
100
AcDbEntity
  8
BESCHRIFTUNG
100
AcDbLine
 10
262.223686319104
 20
220.987328530326
 30
0.0
 11
262.2479421714524
 21
221.0843519397192
 31
0.0
  0
LINE
  5
279C8
330
18
100
AcDbEntity
  8
BESCHRIFTUNG
100
AcDbLine
 10
262.2479421714524
 20
221.0843519397192
 30
0.0
 11
262.2721980238009
 21
221.2056312014606
 31
0.0
  0
LINE
  5
279C9
330
18
100
AcDbEntity
  8
BESCHRIFTUNG
100
AcDbLine
 10
262.2721980238009
 20
221.2056312014606
 30
0.0
 11
262.2479421714524
 21
221.3026546108537
 31
0.0
  0
LINE
  5
279CA
330
18
100
AcDbEntity
  8
BESCHRIFTUNG
100
AcDbLine
 10
262.2479421714524
 20
221.3026546108537
 30
0.0
 11
262.223686319104
 21
221.3996780202469
 31
0.0
  0
LINE
  5
279CB
330
18
100
AcDbEntity
  8
BESCHRIFTUNG
100
AcDbLine
 10
262.223686319104
 20
221.3996780202469
 30
0.0
 11
262.1994304667557
 21
221.4967014296399
 31
0.0
  0
LINE
  5
279CC
330
18
100
AcDbEntity
  8
BESCHRIFTUNG
100
AcDbLine
 10
262.1994304667557
 20
221.4967014296399
 30
0.0
 11
262.1266629097109
 21
221.5452131343365
 31
0.0
  0
LINE
  5
279CD
330
18
100
AcDbEntity
  8
BESCHRIFTUNG
100
AcDbLine
 10
262.1266629097109
 20
221.5452131343365
 30
0.0
 11
262.0781512050147
 21
221.593724839033
 31
0.0
  0
LINE
  5
279CE
330
18
100
AcDbEntity
  8
BESCHRIFTUNG
100
AcDbLine
 10
262.0781512050147
 20
221.593724839033
 30
0.0
 11
261.981127795621
 21
221.6422365437297
 31
0.0
  0
LINE
  5
279CF
330
18
100
AcDbEntity
  8
BESCHRIFTUNG
100
AcDbLine
 10
261.981127795621
 20
221.6422365437297
 30
0.0
 11
261.8841043862285
 21
221.6664923960777
 31
0.0
  0
LINE
  5
279D0
330
18
100
AcDbEntity
  8
BESCHRIFTUNG
100
AcDbLine
 10
261.8841043862285
 20
221.6664923960777
 30
0.0
 11
261.762825124487
 21
221.6664923960777
 31
0.0
  0
LINE
  5
279D1
330
18
100
AcDbEntity
  8
BESCHRIFTUNG
100
AcDbLine
 10
261.762825124487
 20
221.6664923960777
 30
0.0
 11
261.1564288157799
 21
221.6664923960777
 31
0.0
  0
LINE
  5
279D2
330
18
100
AcDbEntity
  8
BESCHRIFTUNG
100
AcDbLine
 10
261.1564288157799
 20
221.6664923960777
 30
0.0
 11
261.1564288157799
 21
220.7205141544951
 31
0.0
  0
LINE
  5
279D3
330
18
100
AcDbEntity
  8
BESCHRIFTUNG
100
AcDbLine
 10
261.1564288157799
 20
220.7205141544951
 30
0.0
 11
261.1564288157799
 21
220.7205141544951
 31
0.0
  0
LINE
  5
279D4
330
18
100
AcDbEntity
  8
BESCHRIFTUNG
100
AcDbLine
 10
260.8168468829038
 20
220.453699778664
 30
0.0
 11
260.8168468829038
 21
221.9333067719089
 31
0.0
  0
LINE
  5
279D5
330
18
100
AcDbEntity
  8
BESCHRIFTUNG
100
AcDbLine
 10
260.8168468829038
 20
221.9333067719089
 30
0.0
 11
261.762825124487
 21
221.9333067719089
 31
0.0
  0
LINE
  5
279D6
330
18
100
AcDbEntity
  8
BESCHRIFTUNG
100
AcDbLine
 10
261.762825124487
 20
221.9333067719089
 30
0.0
 11
261.9568719432732
 21
221.9090509195605
 31
0.0
  0
LINE
  5
279D7
330
18
100
AcDbEntity
  8
BESCHRIFTUNG
100
AcDbLine
 10
261.9568719432732
 20
221.9090509195605
 30
0.0
 11
262.1266629097109
 21
221.8847950672123
 31
0.0
  0
LINE
  5
279D8
330
18
100
AcDbEntity
  8
BESCHRIFTUNG
100
AcDbLine
 10
262.1266629097109
 20
221.8847950672123
 30
0.0
 11
262.2721980238009
 21
221.8362833625158
 31
0.0
  0
LINE
  5
279D9
330
18
100
AcDbEntity
  8
BESCHRIFTUNG
100
AcDbLine
 10
262.2721980238009
 20
221.8362833625158
 30
0.0
 11
262.3934772855419
 21
221.7392599531227
 31
0.0
  0
LINE
  5
279DA
330
18
100
AcDbEntity
  8
BESCHRIFTUNG
100
AcDbLine
 10
262.3934772855419
 20
221.7392599531227
 30
0.0
 11
262.490500694935
 21
221.6422365437297
 31
0.0
  0
LINE
  5
279DB
330
18
100
AcDbEntity
  8
BESCHRIFTUNG
100
AcDbLine
 10
262.490500694935
 20
221.6422365437297
 30
0.0
 11
262.5632682519801
 21
221.5209572819881
 31
0.0
  0
LINE
  5
279DC
330
18
100
AcDbEntity
  8
BESCHRIFTUNG
100
AcDbLine
 10
262.5632682519801
 20
221.5209572819881
 30
0.0
 11
262.6117799566765
 21
221.3754221678984
 31
0.0
  0
LINE
  5
279DD
330
18
100
AcDbEntity
  8
BESCHRIFTUNG
100
AcDbLine
 10
262.6117799566765
 20
221.3754221678984
 30
0.0
 11
262.6117799566765
 21
221.2056312014606
 31
0.0
  0
LINE
  5
279DE
330
18
100
AcDbEntity
  8
BESCHRIFTUNG
100
AcDbLine
 10
262.6117799566765
 20
221.2056312014606
 30
0.0
 11
262.5875241043281
 21
221.0115843826745
 31
0.0
  0
LINE
  5
279DF
330
18
100
AcDbEntity
  8
BESCHRIFTUNG
100
AcDbLine
 10
262.5875241043281
 20
221.0115843826745
 30
0.0
 11
262.5390123996317
 21
220.8175375638881
 31
0.0
  0
LINE
  5
279E0
330
18
100
AcDbEntity
  8
BESCHRIFTUNG
100
AcDbLine
 10
262.5390123996317
 20
220.8175375638881
 30
0.0
 11
262.490500694935
 21
220.7447700068432
 31
0.0
  0
LINE
  5
279E1
330
18
100
AcDbEntity
  8
BESCHRIFTUNG
100
AcDbLine
 10
262.490500694935
 20
220.7447700068432
 30
0.0
 11
262.4177331378902
 21
220.6720024497986
 31
0.0
  0
LINE
  5
279E2
330
18
100
AcDbEntity
  8
BESCHRIFTUNG
100
AcDbLine
 10
262.4177331378902
 20
220.6720024497986
 30
0.0
 11
262.3692214331939
 21
220.6234907451019
 31
0.0
  0
LINE
  5
279E3
330
18
100
AcDbEntity
  8
BESCHRIFTUNG
100
AcDbLine
 10
262.3692214331939
 20
220.6234907451019
 30
0.0
 11
262.2964538761487
 21
220.5749790404054
 31
0.0
  0
LINE
  5
279E4
330
18
100
AcDbEntity
  8
BESCHRIFTUNG
100
AcDbLine
 10
262.2964538761487
 20
220.5749790404054
 30
0.0
 11
262.1751746144077
 21
220.5022114833604
 31
0.0
  0
LINE
  5
279E5
330
18
100
AcDbEntity
  8
BESCHRIFTUNG
100
AcDbLine
 10
262.1751746144077
 20
220.5022114833604
 30
0.0
 11
262.0538953526662
 21
220.4779556310121
 31
0.0
  0
LINE
  5
279E6
330
18
100
AcDbEntity
  8
BESCHRIFTUNG
100
AcDbLine
 10
262.0538953526662
 20
220.4779556310121
 30
0.0
 11
261.8841043862285
 21
220.453699778664
 31
0.0
  0
LINE
  5
279E7
330
18
100
AcDbEntity
  8
BESCHRIFTUNG
100
AcDbLine
 10
261.8841043862285
 20
220.453699778664
 30
0.0
 11
261.6900575674421
 21
220.453699778664
 31
0.0
  0
LINE
  5
279E8
330
18
100
AcDbEntity
  8
BESCHRIFTUNG
100
AcDbLine
 10
261.6900575674421
 20
220.453699778664
 30
0.0
 11
260.8168468829038
 21
220.453699778664
 31
0.0
  0
LINE
  5
279E9
330
18
100
AcDbEntity
  8
BESCHRIFTUNG
100
AcDbLine
 10
260.8168468829038
 20
220.453699778664
 30
0.0
 11
260.8168468829038
 21
220.453699778664
 31
0.0
  0
LINE
  5
279EA
330
18
100
AcDbEntity
  8
BESCHRIFTUNG
100
AcDbLine
 10
263.1454087083387
 20
220.453699778664
 30
0.0
 11
263.1454087083387
 21
221.6664923960777
 31
0.0
  0
LINE
  5
279EB
330
18
100
AcDbEntity
  8
BESCHRIFTUNG
100
AcDbLine
 10
263.1454087083387
 20
221.6664923960777
 30
0.0
 11
263.4364789365181
 21
221.6664923960777
 31
0.0
  0
LINE
  5
279EC
330
18
100
AcDbEntity
  8
BESCHRIFTUNG
100
AcDbLine
 10
263.4364789365181
 20
221.6664923960777
 30
0.0
 11
263.4364789365181
 21
220.453699778664
 31
0.0
  0
LINE
  5
279ED
330
18
100
AcDbEntity
  8
BESCHRIFTUNG
100
AcDbLine
 10
263.4364789365181
 20
220.453699778664
 30
0.0
 11
263.1454087083387
 21
220.453699778664
 31
0.0
  0
LINE
  5
279EE
330
18
100
AcDbEntity
  8
BESCHRIFTUNG
100
AcDbLine
 10
263.1454087083387
 20
220.453699778664
 30
0.0
 11
263.1454087083387
 21
220.453699778664
 31
0.0
  0
LINE
  5
279EF
330
18
100
AcDbEntity
  8
BESCHRIFTUNG
100
AcDbLine
 10
265.1586444532456
 20
221.4481897249434
 30
0.0
 11
264.2369220640114
 21
221.4481897249434
 31
0.0
  0
LINE
  5
279F0
330
18
100
AcDbEntity
  8
BESCHRIFTUNG
100
AcDbLine
 10
264.2369220640114
 20
221.4481897249434
 30
0.0
 11
264.2369220640114
 21
220.6720024497986
 31
0.0
  0
LINE
  5
279F1
330
18
100
AcDbEntity
  8
BESCHRIFTUNG
100
AcDbLine
 10
264.2369220640114
 20
220.6720024497986
 30
0.0
 11
265.1586444532456
 21
220.6720024497986
 31
0.0
  0
LINE
  5
279F2
330
18
100
AcDbEntity
  8
BESCHRIFTUNG
100
AcDbLine
 10
265.1586444532456
 20
220.6720024497986
 30
0.0
 11
265.1586444532456
 21
220.9388168256296
 31
0.0
  0
LINE
  5
279F3
330
18
100
AcDbEntity
  8
BESCHRIFTUNG
100
AcDbLine
 10
265.1586444532456
 20
220.9388168256296
 30
0.0
 11
264.6735274062801
 21
220.9388168256296
 31
0.0
  0
LINE
  5
279F4
330
18
100
AcDbEntity
  8
BESCHRIFTUNG
100
AcDbLine
 10
264.6735274062801
 20
220.9388168256296
 30
0.0
 11
264.6735274062801
 21
221.1571194967641
 31
0.0
  0
LINE
  5
279F5
330
18
100
AcDbEntity
  8
BESCHRIFTUNG
100
AcDbLine
 10
264.6735274062801
 20
221.1571194967641
 30
0.0
 11
265.449714681425
 21
221.1571194967641
 31
0.0
  0
LINE
  5
279F6
330
18
100
AcDbEntity
  8
BESCHRIFTUNG
100
AcDbLine
 10
265.449714681425
 20
221.1571194967641
 30
0.0
 11
265.449714681425
 21
220.7447700068432
 31
0.0
  0
LINE
  5
279F7
330
18
100
AcDbEntity
  8
BESCHRIFTUNG
100
AcDbLine
 10
265.449714681425
 20
220.7447700068432
 30
0.0
 11
265.449714681425
 21
220.5992348927536
 31
0.0
  0
LINE
  5
279F8
330
18
100
AcDbEntity
  8
BESCHRIFTUNG
100
AcDbLine
 10
265.449714681425
 20
220.5992348927536
 30
0.0
 11
265.4012029767286
 21
220.5022114833604
 31
0.0
  0
LINE
  5
279F9
330
18
100
AcDbEntity
  8
BESCHRIFTUNG
100
AcDbLine
 10
265.4012029767286
 20
220.5022114833604
 30
0.0
 11
265.3041795673355
 21
220.4779556310121
 31
0.0
  0
LINE
  5
279FA
330
18
100
AcDbEntity
  8
BESCHRIFTUNG
100
AcDbLine
 10
265.3041795673355
 20
220.4779556310121
 30
0.0
 11
265.1343886008977
 21
220.453699778664
 31
0.0
  0
LINE
  5
279FB
330
18
100
AcDbEntity
  8
BESCHRIFTUNG
100
AcDbLine
 10
265.1343886008977
 20
220.453699778664
 30
0.0
 11
264.2611779163593
 21
220.453699778664
 31
0.0
  0
LINE
  5
279FC
330
18
100
AcDbEntity
  8
BESCHRIFTUNG
100
AcDbLine
 10
264.2611779163593
 20
220.453699778664
 30
0.0
 11
264.1156428022699
 21
220.4779556310121
 31
0.0
  0
LINE
  5
279FD
330
18
100
AcDbEntity
  8
BESCHRIFTUNG
100
AcDbLine
 10
264.1156428022699
 20
220.4779556310121
 30
0.0
 11
264.0186193928767
 21
220.5022114833604
 31
0.0
  0
LINE
  5
279FE
330
18
100
AcDbEntity
  8
BESCHRIFTUNG
100
AcDbLine
 10
264.0186193928767
 20
220.5022114833604
 30
0.0
 11
263.9701076881799
 21
220.5992348927536
 31
0.0
  0
LINE
  5
279FF
330
18
100
AcDbEntity
  8
BESCHRIFTUNG
100
AcDbLine
 10
263.9701076881799
 20
220.5992348927536
 30
0.0
 11
263.945851835832
 21
220.7447700068432
 31
0.0
  0
LINE
  5
27A00
330
18
100
AcDbEntity
  8
BESCHRIFTUNG
100
AcDbLine
 10
263.945851835832
 20
220.7447700068432
 30
0.0
 11
263.945851835832
 21
221.3754221678984
 31
0.0
  0
LINE
  5
27A01
330
18
100
AcDbEntity
  8
BESCHRIFTUNG
100
AcDbLine
 10
263.945851835832
 20
221.3754221678984
 30
0.0
 11
263.9701076881799
 21
221.5209572819881
 31
0.0
  0
LINE
  5
27A02
330
18
100
AcDbEntity
  8
BESCHRIFTUNG
100
AcDbLine
 10
263.9701076881799
 20
221.5209572819881
 30
0.0
 11
264.0186193928767
 21
221.593724839033
 31
0.0
  0
LINE
  5
27A03
330
18
100
AcDbEntity
  8
BESCHRIFTUNG
100
AcDbLine
 10
264.0186193928767
 20
221.593724839033
 30
0.0
 11
264.1156428022699
 21
221.6422365437297
 31
0.0
  0
LINE
  5
27A04
330
18
100
AcDbEntity
  8
BESCHRIFTUNG
100
AcDbLine
 10
264.1156428022699
 20
221.6422365437297
 30
0.0
 11
264.2611779163593
 21
221.6664923960777
 31
0.0
  0
LINE
  5
27A05
330
18
100
AcDbEntity
  8
BESCHRIFTUNG
100
AcDbLine
 10
264.2611779163593
 20
221.6664923960777
 30
0.0
 11
265.1343886008977
 21
221.6664923960777
 31
0.0
  0
LINE
  5
27A06
330
18
100
AcDbEntity
  8
BESCHRIFTUNG
100
AcDbLine
 10
265.1343886008977
 20
221.6664923960777
 30
0.0
 11
265.3041795673355
 21
221.6422365437297
 31
0.0
  0
LINE
  5
27A07
330
18
100
AcDbEntity
  8
BESCHRIFTUNG
100
AcDbLine
 10
265.3041795673355
 20
221.6422365437297
 30
0.0
 11
265.4012029767286
 21
221.593724839033
 31
0.0
  0
LINE
  5
27A08
330
18
100
AcDbEntity
  8
BESCHRIFTUNG
100
AcDbLine
 10
265.4012029767286
 20
221.593724839033
 30
0.0
 11
265.449714681425
 21
221.5209572819881
 31
0.0
  0
LINE
  5
27A09
330
18
100
AcDbEntity
  8
BESCHRIFTUNG
100
AcDbLine
 10
265.449714681425
 20
221.5209572819881
 30
0.0
 11
265.449714681425
 21
221.3996780202469
 31
0.0
  0
LINE
  5
27A0A
330
18
100
AcDbEntity
  8
BESCHRIFTUNG
100
AcDbLine
 10
265.449714681425
 20
221.3996780202469
 30
0.0
 11
265.449714681425
 21
221.3511663155502
 31
0.0
  0
LINE
  5
27A0B
330
18
100
AcDbEntity
  8
BESCHRIFTUNG
100
AcDbLine
 10
265.449714681425
 20
221.3511663155502
 30
0.0
 11
265.1586444532456
 21
221.3026546108537
 31
0.0
  0
LINE
  5
27A0C
330
18
100
AcDbEntity
  8
BESCHRIFTUNG
100
AcDbLine
 10
265.1586444532456
 20
221.3026546108537
 30
0.0
 11
265.1586444532456
 21
221.4481897249434
 31
0.0
  0
LINE
  5
27A0D
330
18
100
AcDbEntity
  8
BESCHRIFTUNG
100
AcDbLine
 10
265.1586444532456
 20
221.4481897249434
 30
0.0
 11
265.1586444532456
 21
221.4481897249434
 31
0.0
  0
LINE
  5
27A0E
330
18
100
AcDbEntity
  8
BESCHRIFTUNG
100
AcDbLine
 10
265.9590875807389
 20
220.453699778664
 30
0.0
 11
265.9590875807389
 21
221.6664923960777
 31
0.0
  0
LINE
  5
27A0F
330
18
100
AcDbEntity
  8
BESCHRIFTUNG
100
AcDbLine
 10
265.9590875807389
 20
221.6664923960777
 30
0.0
 11
266.2501578089181
 21
221.6664923960777
 31
0.0
  0
LINE
  5
27A10
330
18
100
AcDbEntity
  8
BESCHRIFTUNG
100
AcDbLine
 10
266.2501578089181
 20
221.6664923960777
 30
0.0
 11
266.2501578089181
 21
220.453699778664
 31
0.0
  0
LINE
  5
27A11
330
18
100
AcDbEntity
  8
BESCHRIFTUNG
100
AcDbLine
 10
266.2501578089181
 20
220.453699778664
 30
0.0
 11
265.9590875807389
 21
220.453699778664
 31
0.0
  0
LINE
  5
27A12
330
18
100
AcDbEntity
  8
BESCHRIFTUNG
100
AcDbLine
 10
265.9590875807389
 20
220.453699778664
 30
0.0
 11
265.9590875807389
 21
220.453699778664
 31
0.0
  0
LINE
  5
27A13
330
18
100
AcDbEntity
  8
BESCHRIFTUNG
100
AcDbLine
 10
268.0936025873875
 20
220.453699778664
 30
0.0
 11
268.8212781578356
 21
221.6664923960777
 31
0.0
  0
LINE
  5
27A14
330
18
100
AcDbEntity
  8
BESCHRIFTUNG
100
AcDbLine
 10
268.8212781578356
 20
221.6664923960777
 30
0.0
 11
269.0880925336671
 21
221.6664923960777
 31
0.0
  0
LINE
  5
27A15
330
18
100
AcDbEntity
  8
BESCHRIFTUNG
100
AcDbLine
 10
269.0880925336671
 20
221.6664923960777
 30
0.0
 11
269.8400239564634
 21
220.453699778664
 31
0.0
  0
LINE
  5
27A16
330
18
100
AcDbEntity
  8
BESCHRIFTUNG
100
AcDbLine
 10
269.8400239564634
 20
220.453699778664
 30
0.0
 11
269.5004420235873
 21
220.453699778664
 31
0.0
  0
LINE
  5
27A17
330
18
100
AcDbEntity
  8
BESCHRIFTUNG
100
AcDbLine
 10
269.5004420235873
 20
220.453699778664
 30
0.0
 11
269.3549069094979
 21
220.7205141544951
 31
0.0
  0
LINE
  5
27A18
330
18
100
AcDbEntity
  8
BESCHRIFTUNG
100
AcDbLine
 10
269.3549069094979
 20
220.7205141544951
 30
0.0
 11
268.5544637820046
 21
220.7205141544951
 31
0.0
  0
LINE
  5
27A19
330
18
100
AcDbEntity
  8
BESCHRIFTUNG
100
AcDbLine
 10
268.5544637820046
 20
220.7205141544951
 30
0.0
 11
268.3846728155669
 21
220.453699778664
 31
0.0
  0
LINE
  5
27A1A
330
18
100
AcDbEntity
  8
BESCHRIFTUNG
100
AcDbLine
 10
268.3846728155669
 20
220.453699778664
 30
0.0
 11
268.0936025873875
 21
220.453699778664
 31
0.0
  0
LINE
  5
27A1B
330
18
100
AcDbEntity
  8
BESCHRIFTUNG
100
AcDbLine
 10
268.0936025873875
 20
220.453699778664
 30
0.0
 11
268.0936025873875
 21
220.453699778664
 31
0.0
  0
LINE
  5
27A1C
330
18
100
AcDbEntity
  8
BESCHRIFTUNG
100
AcDbLine
 10
268.6757430437462
 20
220.9388168256296
 30
0.0
 11
269.2336276477565
 21
220.9388168256296
 31
0.0
  0
LINE
  5
27A1D
330
18
100
AcDbEntity
  8
BESCHRIFTUNG
100
AcDbLine
 10
269.2336276477565
 20
220.9388168256296
 30
0.0
 11
268.9425574195772
 21
221.4481897249434
 31
0.0
  0
LINE
  5
27A1E
330
18
100
AcDbEntity
  8
BESCHRIFTUNG
100
AcDbLine
 10
268.9425574195772
 20
221.4481897249434
 30
0.0
 11
268.6757430437462
 21
220.9388168256296
 31
0.0
  0
LINE
  5
27A1F
330
18
100
AcDbEntity
  8
BESCHRIFTUNG
100
AcDbLine
 10
268.6757430437462
 20
220.9388168256296
 30
0.0
 11
268.6757430437462
 21
220.9388168256296
 31
0.0
  0
LINE
  5
27A20
330
18
100
AcDbEntity
  8
BESCHRIFTUNG
100
AcDbLine
 10
270.1310941846427
 20
220.453699778664
 30
0.0
 11
270.1310941846427
 21
221.6664923960777
 31
0.0
  0
LINE
  5
27A21
330
18
100
AcDbEntity
  8
BESCHRIFTUNG
100
AcDbLine
 10
270.1310941846427
 20
221.6664923960777
 30
0.0
 11
270.4221644128222
 21
221.6664923960777
 31
0.0
  0
LINE
  5
27A22
330
18
100
AcDbEntity
  8
BESCHRIFTUNG
100
AcDbLine
 10
270.4221644128222
 20
221.6664923960777
 30
0.0
 11
270.4221644128222
 21
220.6720024497986
 31
0.0
  0
LINE
  5
27A23
330
18
100
AcDbEntity
  8
BESCHRIFTUNG
100
AcDbLine
 10
270.4221644128222
 20
220.6720024497986
 30
0.0
 11
271.3923985067531
 21
220.6720024497986
 31
0.0
  0
LINE
  5
27A24
330
18
100
AcDbEntity
  8
BESCHRIFTUNG
100
AcDbLine
 10
271.3923985067531
 20
220.6720024497986
 30
0.0
 11
271.3923985067531
 21
220.453699778664
 31
0.0
  0
LINE
  5
27A25
330
18
100
AcDbEntity
  8
BESCHRIFTUNG
100
AcDbLine
 10
271.3923985067531
 20
220.453699778664
 30
0.0
 11
270.1310941846427
 21
220.453699778664
 31
0.0
  0
LINE
  5
27A26
330
18
100
AcDbEntity
  8
BESCHRIFTUNG
100
AcDbLine
 10
270.1310941846427
 20
220.453699778664
 30
0.0
 11
270.1310941846427
 21
220.453699778664
 31
0.0
  0
LWPOLYLINE
  5
27A27
330
18
100
AcDbEntity
  8
BESCHRIFTUNG
100
AcDbPolyline
 90
       16
 70
     1
 43
0.0762
 10
258.480280174641
 20
108.3069583262099
 10
257.953992174641
 20
108.3069583262099
 10
257.953992174641
 20
108.0270757262098
 10
258.480280174641
 20
108.0270757262098
 10
258.516576774641
 20
108.0290315262099
 10
258.544237374641
 20
108.0348735262099
 10
258.563388974641
 20
108.0445763262098
 10
258.5758095746411
 20
108.0593083262099
 10
258.583302574641
 20
108.0801109262099
 10
258.585791774641
 20
108.1069587262099
 10
258.585791774641
 20
108.2280659262098
 10
258.583302574641
 20
108.2543549262098
 10
258.5758095746411
 20
108.2748019262098
 10
258.563388974641
 20
108.2893561262098
 10
258.544237374641
 20
108.2991351262098
 10
258.516576774641
 20
108.3050025262099
  0
LWPOLYLINE
  5
27A28
330
18
100
AcDbEntity
  8
BESCHRIFTUNG
100
AcDbPolyline
 90
       22
 70
     1
 43
0.0762
 10
257.723791974641
 20
107.4754639262098
 10
257.723791974641
 20
108.4809737262098
 10
258.5838867746411
 20
108.4809737262098
 10
258.6563529746411
 20
108.4758683262099
 10
258.714214174641
 20
108.4605013262098
 10
258.757495774641
 20
108.4348727262099
 10
258.787289974641
 20
108.3977379262098
 10
258.805146174641
 20
108.3481571262099
 10
258.811089774641
 20
108.2861557262099
 10
258.811089774641
 20
108.0497579262098
 10
258.805146174641
 20
107.9881121262099
 10
258.787289974641
 20
107.9387599262099
 10
258.757495774641
 20
107.9017775262099
 10
258.714214174641
 20
107.8757679262098
 10
258.6563529746411
 20
107.8601723262099
 10
258.5838867746411
 20
107.8549653262099
 10
258.452695774641
 20
107.8549653262099
 10
258.916601374641
 20
107.4754639262098
 10
258.580889574641
 20
107.4754639262098
 10
258.175683374641
 20
107.8549653262099
 10
257.953992174641
 20
107.8549653262099
 10
257.953992174641
 20
107.4754639262098
  0
LWPOLYLINE
  5
27A29
330
18
100
AcDbEntity
  8
BESCHRIFTUNG
100
AcDbPolyline
 90
       37
 70
     1
 43
0.0762
 10
259.273699974641
 20
107.4754639262098
 10
259.273699974641
 20
108.4809737262098
 10
259.4628791746411
 20
108.4809737262098
 10
259.9365891746411
 20
107.8731771262098
 10
260.399885174641
 20
108.4809737262098
 10
260.587286374641
 20
108.4809737262098
 10
260.587286374641
 20
107.4754639262098
 10
260.370395774641
 20
107.4754639262098
 10
260.370395774641
 20
108.0965701262099
 10
260.3705989746411
 20
108.1096765262099
 10
260.371335574641
 20
108.1249419262098
 10
260.372681774641
 20
108.1423663262098
 10
260.374485174641
 20
108.1615179262098
 10
260.376593374641
 20
108.1820411262099
 10
260.378803174641
 20
108.2040629262098
 10
260.366687374641
 20
108.1796027262098
 10
260.3556383746411
 20
108.1582667262099
 10
260.345681574641
 20
108.1400803262099
 10
260.336512174641
 20
108.1241545262098
 10
260.327926974641
 20
108.1102607262098
 10
260.320078374641
 20
108.0984751262099
 10
259.942481974641
 20
107.5962663262098
 10
259.8956951746411
 20
107.5962663262098
 10
259.517184374641
 20
108.1004563262099
 10
259.503874774641
 20
108.1191761262099
 10
259.491911374641
 20
108.1371339262099
 10
259.4813957746409
 20
108.1543805262099
 10
259.472226374641
 20
108.1708651262099
 10
259.464123774641
 20
108.1871719262098
 10
259.4570879746409
 20
108.2030723262098
 10
259.4588913746409
 20
108.1828285262099
 10
259.460440774641
 20
108.1638293262099
 10
259.4615837746409
 20
108.1462779262098
 10
259.462371174641
 20
108.1292599262098
 10
259.4627775746409
 20
108.1126991262099
 10
259.4628791746411
 20
108.0965701262099
 10
259.4628791746411
 20
107.4754639262098
  0
LWPOLYLINE
  5
27A2A
330
18
100
AcDbEntity
  8
BESCHRIFTUNG
100
AcDbPolyline
 90
       11
 70
     1
 43
0.0762
 10
261.731886574641
 20
107.4640593262099
 10
261.731886574641
 20
107.6971805262098
 10
260.9698865746409
 20
107.6971805262098
 10
260.9698865746409
 20
107.8656587262098
 10
261.723098174641
 20
108.4923783262099
 10
261.9439003746411
 20
108.4923783262099
 10
261.9439003746411
 20
107.8656587262098
 10
262.187384774641
 20
107.8656587262098
 10
262.187384774641
 20
107.6971805262098
 10
261.9439003746411
 20
107.6971805262098
 10
261.9439003746411
 20
107.4640593262099
  0
LWPOLYLINE
  5
27A2B
330
18
100
AcDbEntity
  8
BESCHRIFTUNG
100
AcDbPolyline
 90
        3
 70
     1
 43
0.0762
 10
261.731886574641
 20
107.8656587262098
 10
261.731886574641
 20
108.3153657262098
 10
261.181900374641
 20
107.8656587262098
  0
LWPOLYLINE
  5
27A2C
330
18
100
AcDbEntity
  8
BESCHRIFTUNG
100
AcDbPolyline
 90
       45
 70
     1
 43
0.0762
 10
262.580678374641
 20
108.2841745262098
 10
262.585885374641
 20
108.3516369262099
 10
262.601404774641
 20
108.4032751262099
 10
262.627185774641
 20
108.4390637262099
 10
262.6682829746409
 20
108.4623301262099
 10
262.729242974641
 20
108.4763001262099
 10
262.809989574641
 20
108.4809737262098
 10
263.326498574641
 20
108.4809737262098
 10
263.407219774641
 20
108.4763001262099
 10
263.468255974641
 20
108.4623301262099
 10
263.5095817746409
 20
108.4390637262099
 10
263.535794574641
 20
108.4032751262099
 10
263.551491774641
 20
108.3516369262099
 10
263.556698774641
 20
108.2841745262098
 10
263.556698774641
 20
108.2195569262098
 10
263.554184174641
 20
108.1744465262099
 10
263.5467165746409
 20
108.1370577262099
 10
263.534295974641
 20
108.1072635262098
 10
263.512350374641
 20
108.0796537262099
 10
263.476383974641
 20
108.0488435262099
 10
263.426498374641
 20
108.0147567262099
 10
262.8355927746411
 20
107.6562611262099
 10
263.419691174641
 20
107.6562611262099
 10
263.419691174641
 20
107.8046733262099
 10
263.6050857746409
 20
107.7523747262098
 10
263.6050857746409
 20
107.6725679262099
 10
263.599878774641
 20
107.6048769262099
 10
263.584206974641
 20
107.5531879262099
 10
263.557994174641
 20
107.5173739262099
 10
263.516642974641
 20
107.4941075262099
 10
263.4556321746411
 20
107.4801375262098
 10
263.374885574641
 20
107.4754639262098
 10
262.5293957746409
 20
107.4754639262098
 10
262.5293957746409
 20
107.5666753262098
 10
262.532545374641
 20
107.6077979262099
 10
262.541917974641
 20
107.6421387262098
 10
262.5573865746409
 20
107.6696723262099
 10
262.580957774641
 20
107.6946405262099
 10
262.614053974641
 20
107.7215645262099
 10
262.656700574641
 20
107.7504697262099
 10
263.352203374641
 20
108.1786629262098
 10
263.352203374641
 20
108.3098793262099
 10
262.779382574641
 20
108.3098793262099
 10
262.779382574641
 20
108.1023613262099
 10
262.580678374641
 20
108.1536693262098
  0
LWPOLYLINE
  5
27A2D
330
18
100
AcDbEntity
  8
BESCHRIFTUNG
100
AcDbPolyline
 90
        4
 70
     1
 43
0.0762
 10
264.196778774641
 20
107.6562611262099
 10
264.915293974641
 20
107.6562611262099
 10
264.915293974641
 20
108.3098793262099
 10
264.196778774641
 20
108.3098793262099
  0
LWPOLYLINE
  5
27A2E
330
18
100
AcDbEntity
  8
BESCHRIFTUNG
100
AcDbPolyline
 90
       28
 70
     1
 43
0.0762
 10
263.986695374641
 20
108.2432805262099
 10
263.992003974641
 20
108.3254241262098
 10
264.008005974641
 20
108.3880097262099
 10
264.034802974641
 20
108.4309611262099
 10
264.076128774641
 20
108.4587741262098
 10
264.136529974641
 20
108.4754365262099
 10
264.215981174641
 20
108.4809737262098
 10
264.896091574641
 20
108.4809737262098
 10
264.976050774641
 20
108.4754365262099
 10
265.036782174641
 20
108.4587741262098
 10
265.078285774641
 20
108.4309611262099
 10
265.105006574641
 20
108.3880097262099
 10
265.1209831746409
 20
108.3254241262098
 10
265.1262917746409
 20
108.2432805262099
 10
265.1262917746409
 20
107.7134619262098
 10
265.1209831746409
 20
107.6311151262099
 10
265.105006574641
 20
107.5684279262098
 10
265.078285774641
 20
107.5254765262098
 10
265.036782174641
 20
107.4976635262098
 10
264.976050774641
 20
107.4810011262098
 10
264.896091574641
 20
107.4754639262098
 10
264.215981174641
 20
107.4754639262098
 10
264.136529974641
 20
107.4810011262098
 10
264.076128774641
 20
107.4976635262098
 10
264.034802974641
 20
107.5254765262098
 10
264.008005974641
 20
107.5684279262098
 10
263.992003974641
 20
107.6311151262099
 10
263.986695374641
 20
107.7134619262098
  0
SOLID
  5
27A2F
330
18
100
AcDbEntity
  8
BESCHRIFTUNG
100
AcDbTrace
 10
265.392102774641
 20
107.8939797262098
 30
0.0
 11
265.392102774641
 21
108.0945635262098
 31
0.0
 12
265.8455943746409
 22
107.8939797262098
 32
0.0
 13
265.8455943746409
 23
108.0945635262098
 33
0.0
  0
LWPOLYLINE
  5
27A30
330
18
100
AcDbEntity
  8
BESCHRIFTUNG
100
AcDbPolyline
 90
        4
 70
     1
 43
0.0762
 10
265.392102774641
 20
107.8939797262098
 10
265.392102774641
 20
108.0945635262098
 10
265.8455943746409
 20
108.0945635262098
 10
265.8455943746409
 20
107.8939797262098
  0
LWPOLYLINE
  5
27A31
330
18
100
AcDbEntity
  8
BESCHRIFTUNG
100
AcDbPolyline
 90
        4
 70
     1
 43
0.0762
 10
266.324993974641
 20
107.6562611262099
 10
267.043483774641
 20
107.6562611262099
 10
267.043483774641
 20
108.3098793262099
 10
266.324993974641
 20
108.3098793262099
  0
LWPOLYLINE
  5
27A32
330
18
100
AcDbEntity
  8
BESCHRIFTUNG
100
AcDbPolyline
 90
       28
 70
     1
 43
0.0762
 10
266.114885174641
 20
108.2432805262099
 10
266.120193774641
 20
108.3254241262098
 10
266.136221174641
 20
108.3880097262099
 10
266.1629927746409
 20
108.4309611262099
 10
266.204318574641
 20
108.4587741262098
 10
266.2647197746409
 20
108.4754365262099
 10
266.3441963746409
 20
108.4809737262098
 10
267.024281374641
 20
108.4809737262098
 10
267.104265974641
 20
108.4754365262099
 10
267.164997374641
 20
108.4587741262098
 10
267.206500974641
 20
108.4309611262099
 10
267.233196374641
 20
108.3880097262099
 10
267.249172974641
 20
108.3254241262098
 10
267.2544815746409
 20
108.2432805262099
 10
267.2544815746409
 20
107.7134619262098
 10
267.249172974641
 20
107.6311151262099
 10
267.233196374641
 20
107.5684279262098
 10
267.206500974641
 20
107.5254765262098
 10
267.164997374641
 20
107.4976635262098
 10
267.104265974641
 20
107.4810011262098
 10
267.024281374641
 20
107.4754639262098
 10
266.3441963746409
 20
107.4754639262098
 10
266.2647197746409
 20
107.4810011262098
 10
266.204318574641
 20
107.4976635262098
 10
266.1629927746409
 20
107.5254765262098
 10
266.136221174641
 20
107.5684279262098
 10
266.120193774641
 20
107.6311151262099
 10
266.114885174641
 20
107.7134619262098
  0
LWPOLYLINE
  5
27A33
330
18
100
AcDbEntity
  8
BESCHRIFTUNG
100
AcDbPolyline
 90
       45
 70
     1
 43
0.0762
 10
267.700099174641
 20
108.2841745262098
 10
267.705280774641
 20
108.3516369262099
 10
267.7208001746409
 20
108.4032751262099
 10
267.746581174641
 20
108.4390637262099
 10
267.787678374641
 20
108.4623301262099
 10
267.848638374641
 20
108.4763001262099
 10
267.929384974641
 20
108.4809737262098
 10
268.445893974641
 20
108.4809737262098
 10
268.526615174641
 20
108.4763001262099
 10
268.587651374641
 20
108.4623301262099
 10
268.629002574641
 20
108.4390637262099
 10
268.655189974641
 20
108.4032751262099
 10
268.670887174641
 20
108.3516369262099
 10
268.6760941746411
 20
108.2841745262098
 10
268.6760941746411
 20
108.2195569262098
 10
268.673604974641
 20
108.1744465262099
 10
268.666111974641
 20
108.1370577262099
 10
268.653691374641
 20
108.1072635262098
 10
268.6317457746409
 20
108.0796537262099
 10
268.595779374641
 20
108.0488435262099
 10
268.545893774641
 20
108.0147567262099
 10
267.954988174641
 20
107.6562611262099
 10
268.539086574641
 20
107.6562611262099
 10
268.539086574641
 20
107.8046733262099
 10
268.724481174641
 20
107.7523747262098
 10
268.724481174641
 20
107.6725679262099
 10
268.719274174641
 20
107.6048769262099
 10
268.703602374641
 20
107.5531879262099
 10
268.677389574641
 20
107.5173739262099
 10
268.6360637746409
 20
107.4941075262099
 10
268.575027574641
 20
107.4801375262098
 10
268.494280974641
 20
107.4754639262098
 10
267.648791174641
 20
107.4754639262098
 10
267.648791174641
 20
107.5666753262098
 10
267.651940774641
 20
107.6077979262099
 10
267.661313374641
 20
107.6421387262098
 10
267.676781974641
 20
107.6696723262099
 10
267.700353174641
 20
107.6946405262099
 10
267.733449374641
 20
107.7215645262099
 10
267.776095974641
 20
107.7504697262099
 10
268.471598774641
 20
108.1786629262098
 10
268.471598774641
 20
108.3098793262099
 10
267.898803374641
 20
108.3098793262099
 10
267.898803374641
 20
108.1023613262099
 10
267.700099174641
 20
108.1536693262098
  0
LWPOLYLINE
  5
27B1F
330
18
100
AcDbEntity
  8
BESCHRIFTUNG
100
AcDbPolyline
 90
        2
 70
     0
 43
0.4939030000000001
 10
127.9667802619496
 20
154.5568145551914
 10
271.4509462929608
 20
154.5568145551914
  0
LWPOLYLINE
  5
27B6A
330
18
100
AcDbEntity
  8
BESCHRIFTUNG
100
AcDbPolyline
 90
       11
 70
     1
 43
0.0
 10
252.1136373443465
 20
220.4723957057726
 10
252.1136373443465
 20
220.7899285229326
 10
251.0757222740914
 20
220.7899285229326
 10
251.0757222740914
 20
221.0194115449659
 10
252.1016667238695
 20
221.8730620930819
 10
252.4024199140605
 20
221.8730620930819
 10
252.4024199140605
 20
221.0194115449659
 10
252.7340683761759
 20
221.0194115449659
 10
252.7340683761759
 20
220.7899285229326
 10
252.4024199140605
 20
220.7899285229326
 10
252.4024199140605
 20
220.4723957057726
  0
LWPOLYLINE
  5
27B6B
330
18
100
AcDbEntity
  8
BESCHRIFTUNG
100
AcDbPolyline
 90
        3
 70
     1
 43
0.0
 10
252.1136373443465
 20
221.0194115449659
 10
252.1136373443465
 20
221.6319544222614
 10
251.3645048438054
 20
221.0194115449659
  0
TEXT
  5
27B6C
330
18
100
AcDbEntity
  8
BESCHRIFTUNG
100
AcDbText
 10
268.8986857106126
 20
107.480236674187
 30
0.0
 40
1.0
  1
5
  7
WMF-BANKGOTHIC-MD-BT0
100
AcDbText
  0
LWPOLYLINE
  5
27C34
330
18
100
AcDbEntity
  8
BLECH
100
AcDbPolyline
 90
        4
 70
     1
 43
0.0
 10
120.5027901801799
 20
106.1251570567405
 10
280.0026997801799
 20
106.1251570567405
 10
280.0026997801799
 20
234.1251550567406
 10
120.5027901801799
 20
234.1251550567406
  0
CIRCLE
  5
27C51
102
{ACAD_REACTORS
330
27CF7
102
}
330
18
100
AcDbEntity
  8
BLECH
100
AcDbCircle
 10
160.2359674623854
 20
219.1590424030745
 30
0.0
 40
2.5
  0
LWPOLYLINE
  5
27C52
102
{ACAD_REACTORS
330
27CF7
102
}
330
18
100
AcDbEntity
  8
BLECH
100
AcDbPolyline
 90
        6
 70
     1
 43
0.0
 10
159.7690294790626
 20
219.9678027141734
 10
159.3020914957397
 20
219.1590424030745
 10
159.7690294790626
 20
218.3502820919756
 10
160.7029054457083
 20
218.3502820919756
 10
161.1698434290311
 20
219.1590424030745
 10
160.7029054457083
 20
219.9678027141734
  0
INSERT
  5
27C53
330
18
100
AcDbEntity
  8
BLECH
100
AcDbBlockReference
  2
A$C1BF1606D
 10
122.7955098171401
 20
228.7003598645924
 30
0.0
  0
LWPOLYLINE
  5
27C54
102
{ACAD_REACTORS
330
27C57
102
}
330
18
100
AcDbEntity
  8
BLECH
  6
CONTINUOUS
100
AcDbPolyline
 90
        4
 70
     1
 43
0.0
 10
123.3505230017128
 20
199.9294641622374
 10
136.8505230017128
 20
199.9294641622374
 10
136.8505230017128
 20
213.4294641622374
 10
123.3505230017128
 20
213.4294641622374
  0
LWPOLYLINE
  5
27C55
102
{ACAD_REACTORS
330
27C57
102
}
330
18
100
AcDbEntity
  8
TASTEN
100
AcDbPolyline
 90
        8
 70
     1
 43
0.0
 10
124.1881480017128
 20
200.4290141622373
 10
136.0128980017128
 20
200.4290141622374
 42
0.4142135623730948
 10
136.3507480017128
 20
200.7668641622374
 10
136.3507480017128
 20
212.5916141622374
 42
0.4142135623730956
 10
136.0128980017128
 20
212.9294641622374
 10
124.1881480017128
 20
212.9294641622374
 42
0.4142135623730951
 10
123.8502980017128
 20
212.5916141622374
 10
123.8502980017128
 20
200.7668641622374
 42
0.4142135623730956
  0
LWPOLYLINE
  5
27C56
102
{ACAD_REACTORS
330
27C57
102
}
330
18
100
AcDbEntity
  8
TASTEN
100
AcDbPolyline
 90
        8
 70
     1
 43
0.0
 10
124.8638480017128
 20
200.7668641622374
 10
135.3371980017128
 20
200.7668641622374
 42
0.4142135623730951
 10
136.0128980017128
 20
201.4425641622374
 10
136.0128980017128
 20
211.9159141622374
 42
0.4142135623730951
 10
135.3371980017128
 20
212.5916141622374
 10
124.8638480017128
 20
212.5916141622374
 42
0.4142135623730951
 10
124.1881480017128
 20
211.9159141622374
 10
124.1881480017128
 20
201.4425641622374
 42
0.4142135623730951
  0
LWPOLYLINE
  5
27C58
102
{ACAD_REACTORS
330
27C5B
102
}
330
18
100
AcDbEntity
  8
BLECH
  6
CONTINUOUS
100
AcDbPolyline
 90
        4
 70
     1
 43
0.0
 10
123.3505230017128
 20
179.9294641622374
 10
136.8505230017128
 20
179.9294641622374
 10
136.8505230017128
 20
193.4294641622374
 10
123.3505230017128
 20
193.4294641622374
  0
LWPOLYLINE
  5
27C59
102
{ACAD_REACTORS
330
27C5B
102
}
330
18
100
AcDbEntity
  8
TASTEN
100
AcDbPolyline
 90
        8
 70
     1
 43
0.0
 10
124.1881480017128
 20
180.4290141622374
 10
136.0128980017128
 20
180.4290141622374
 42
0.4142135623730948
 10
136.3507480017128
 20
180.7668641622374
 10
136.3507480017128
 20
192.5916141622374
 42
0.4142135623730956
 10
136.0128980017128
 20
192.9294641622374
 10
124.1881480017128
 20
192.9294641622373
 42
0.4142135623730951
 10
123.8502980017128
 20
192.5916141622374
 10
123.8502980017128
 20
180.7668641622374
 42
0.4142135623730956
  0
LWPOLYLINE
  5
27C5A
102
{ACAD_REACTORS
330
27C5B
102
}
330
18
100
AcDbEntity
  8
TASTEN
100
AcDbPolyline
 90
        8
 70
     1
 43
0.0
 10
124.8638480017128
 20
180.7668641622374
 10
135.3371980017128
 20
180.7668641622374
 42
0.4142135623730951
 10
136.0128980017128
 20
181.4425641622374
 10
136.0128980017128
 20
191.9159141622374
 42
0.4142135623730951
 10
135.3371980017128
 20
192.5916141622374
 10
124.8638480017128
 20
192.5916141622374
 42
0.4142135623730951
 10
124.1881480017128
 20
191.9159141622374
 10
124.1881480017128
 20
181.4425641622374
 42
0.4142135623730951
  0
LWPOLYLINE
  5
27C5C
102
{ACAD_REACTORS
330
27C5F
102
}
330
18
100
AcDbEntity
  8
BLECH
  6
CONTINUOUS
100
AcDbPolyline
 90
        4
 70
     1
 43
0.0
 10
123.3505230017128
 20
159.9294641622374
 10
136.8505230017128
 20
159.9294641622374
 10
136.8505230017128
 20
173.4294641622374
 10
123.3505230017128
 20
173.4294641622374
  0
LWPOLYLINE
  5
27C5D
102
{ACAD_REACTORS
330
27C5F
102
}
330
18
100
AcDbEntity
  8
TASTEN
100
AcDbPolyline
 90
        8
 70
     1
 43
0.0
 10
124.1881480017128
 20
160.4290141622374
 10
136.0128980017128
 20
160.4290141622374
 42
0.4142135623730948
 10
136.3507480017128
 20
160.7668641622374
 10
136.3507480017128
 20
172.5916141622374
 42
0.4142135623730956
 10
136.0128980017128
 20
172.9294641622374
 10
124.1881480017128
 20
172.9294641622374
 42
0.4142135623730951
 10
123.8502980017128
 20
172.5916141622374
 10
123.8502980017128
 20
160.7668641622374
 42
0.4142135623730956
  0
LWPOLYLINE
  5
27C5E
102
{ACAD_REACTORS
330
27C5F
102
}
330
18
100
AcDbEntity
  8
TASTEN
100
AcDbPolyline
 90
        8
 70
     1
 43
0.0
 10
124.8638480017128
 20
160.7668641622374
 10
135.3371980017128
 20
160.7668641622374
 42
0.4142135623730951
 10
136.0128980017128
 20
161.4425641622374
 10
136.0128980017128
 20
171.9159141622374
 42
0.4142135623730951
 10
135.3371980017128
 20
172.5916141622374
 10
124.8638480017128
 20
172.5916141622374
 42
0.4142135623730951
 10
124.1881480017128
 20
171.9159141622374
 10
124.1881480017128
 20
161.4425641622374
 42
0.4142135623730951
  0
LWPOLYLINE
  5
27C60
102
{ACAD_REACTORS
330
27C63
102
}
330
18
100
AcDbEntity
  8
BLECH
  6
CONTINUOUS
100
AcDbPolyline
 90
        4
 70
     1
 43
0.0
 10
123.3505230017128
 20
135.4257069156174
 10
136.8505230017128
 20
135.4257069156174
 10
136.8505230017128
 20
148.9257069156174
 10
123.3505230017128
 20
148.9257069156174
  0
LWPOLYLINE
  5
27C61
102
{ACAD_REACTORS
330
27C63
102
}
330
18
100
AcDbEntity
  8
TASTEN
100
AcDbPolyline
 90
        8
 70
     1
 43
0.0
 10
124.1881480017128
 20
135.9252569156173
 10
136.0128980017128
 20
135.9252569156174
 42
0.4142135623730948
 10
136.3507480017128
 20
136.2631069156174
 10
136.3507480017128
 20
148.0878569156174
 42
0.4142135623730956
 10
136.0128980017128
 20
148.4257069156174
 10
124.1881480017128
 20
148.4257069156173
 42
0.4142135623730951
 10
123.8502980017128
 20
148.0878569156174
 10
123.8502980017128
 20
136.2631069156173
 42
0.4142135623730956
  0
LWPOLYLINE
  5
27C62
102
{ACAD_REACTORS
330
27C63
102
}
330
18
100
AcDbEntity
  8
TASTEN
100
AcDbPolyline
 90
        8
 70
     1
 43
0.0
 10
124.8638480017128
 20
136.2631069156173
 10
135.3371980017128
 20
136.2631069156173
 42
0.4142135623730951
 10
136.0128980017128
 20
136.9388069156173
 10
136.0128980017128
 20
147.4121569156173
 42
0.4142135623730951
 10
135.3371980017128
 20
148.0878569156174
 10
124.8638480017128
 20
148.0878569156174
 42
0.4142135623730951
 10
124.1881480017128
 20
147.4121569156173
 10
124.1881480017128
 20
136.9388069156173
 42
0.4142135623730951
  0
LWPOLYLINE
  5
27C64
102
{ACAD_REACTORS
330
27C67
102
}
330
18
100
AcDbEntity
  8
BLECH
  6
CONTINUOUS
100
AcDbPolyline
 90
        4
 70
     1
 43
0.0
 10
123.3505230017128
 20
115.4257069156174
 10
136.8505230017128
 20
115.4257069156174
 10
136.8505230017128
 20
128.9257069156174
 10
123.3505230017128
 20
128.9257069156174
  0
LWPOLYLINE
  5
27C65
102
{ACAD_REACTORS
330
27C67
102
}
330
18
100
AcDbEntity
  8
TASTEN
100
AcDbPolyline
 90
        8
 70
     1
 43
0.0
 10
124.1881480017128
 20
115.9252569156173
 10
136.0128980017128
 20
115.9252569156174
 42
0.4142135623730948
 10
136.3507480017128
 20
116.2631069156174
 10
136.3507480017128
 20
128.0878569156174
 42
0.4142135623730956
 10
136.0128980017128
 20
128.4257069156174
 10
124.1881480017128
 20
128.4257069156173
 42
0.4142135623730951
 10
123.8502980017128
 20
128.0878569156174
 10
123.8502980017128
 20
116.2631069156173
 42
0.4142135623730956
  0
LWPOLYLINE
  5
27C66
102
{ACAD_REACTORS
330
27C67
102
}
330
18
100
AcDbEntity
  8
TASTEN
100
AcDbPolyline
 90
        8
 70
     1
 43
0.0
 10
124.8638480017128
 20
116.2631069156173
 10
135.3371980017128
 20
116.2631069156173
 42
0.4142135623730951
 10
136.0128980017128
 20
116.9388069156173
 10
136.0128980017128
 20
127.4121569156174
 42
0.4142135623730951
 10
135.3371980017128
 20
128.0878569156174
 10
124.8638480017128
 20
128.0878569156174
 42
0.4142135623730951
 10
124.1881480017128
 20
127.4121569156174
 10
124.1881480017128
 20
116.9388069156173
 42
0.4142135623730951
  0
LWPOLYLINE
  5
27C68
102
{ACAD_REACTORS
330
27C77
102
}
330
18
100
AcDbEntity
  8
BLECH
  6
CONTINUOUS
100
AcDbPolyline
 90
        4
 70
     1
 43
0.0
 10
143.3505230017128
 20
199.9294641622374
 10
156.8505230017128
 20
199.9294641622374
 10
156.8505230017128
 20
213.4294641622374
 10
143.3505230017128
 20
213.4294641622374
  0
LWPOLYLINE
  5
27C69
102
{ACAD_REACTORS
330
27C77
102
}
330
18
100
AcDbEntity
  8
TASTEN
100
AcDbPolyline
 90
        8
 70
     1
 43
0.0
 10
144.1881480017128
 20
200.4290141622373
 10
156.0128980017128
 20
200.4290141622374
 42
0.4142135623730948
 10
156.3507480017128
 20
200.7668641622374
 10
156.3507480017128
 20
212.5916141622374
 42
0.4142135623730956
 10
156.0128980017128
 20
212.9294641622374
 10
144.1881480017128
 20
212.9294641622374
 42
0.4142135623730951
 10
143.8502980017128
 20
212.5916141622374
 10
143.8502980017128
 20
200.7668641622374
 42
0.4142135623730956
  0
LWPOLYLINE
  5
27C6A
102
{ACAD_REACTORS
330
27C77
102
}
330
18
100
AcDbEntity
  8
TASTEN
100
AcDbPolyline
 90
        8
 70
     1
 43
0.0
 10
144.8638480017128
 20
200.7668641622374
 10
155.3371980017128
 20
200.7668641622374
 42
0.4142135623730951
 10
156.0128980017128
 20
201.4425641622374
 10
156.0128980017128
 20
211.9159141622374
 42
0.4142135623730951
 10
155.3371980017128
 20
212.5916141622374
 10
144.8638480017128
 20
212.5916141622374
 42
0.4142135623730951
 10
144.1881480017128
 20
211.9159141622374
 10
144.1881480017128
 20
201.4425641622374
 42
0.4142135623730951
  0
LWPOLYLINE
  5
27C6B
102
{ACAD_REACTORS
330
27C78
102
}
330
18
100
AcDbEntity
  8
BLECH
  6
CONTINUOUS
100
AcDbPolyline
 90
        4
 70
     1
 43
0.0
 10
143.3505230017128
 20
179.9294641622374
 10
156.8505230017128
 20
179.9294641622374
 10
156.8505230017128
 20
193.4294641622374
 10
143.3505230017128
 20
193.4294641622374
  0
LWPOLYLINE
  5
27C6C
102
{ACAD_REACTORS
330
27C78
102
}
330
18
100
AcDbEntity
  8
TASTEN
100
AcDbPolyline
 90
        8
 70
     1
 43
0.0
 10
144.1881480017128
 20
180.4290141622374
 10
156.0128980017128
 20
180.4290141622374
 42
0.4142135623730948
 10
156.3507480017128
 20
180.7668641622374
 10
156.3507480017128
 20
192.5916141622374
 42
0.4142135623730956
 10
156.0128980017128
 20
192.9294641622374
 10
144.1881480017128
 20
192.9294641622373
 42
0.4142135623730951
 10
143.8502980017128
 20
192.5916141622374
 10
143.8502980017128
 20
180.7668641622374
 42
0.4142135623730956
  0
LWPOLYLINE
  5
27C6D
102
{ACAD_REACTORS
330
27C78
102
}
330
18
100
AcDbEntity
  8
TASTEN
100
AcDbPolyline
 90
        8
 70
     1
 43
0.0
 10
144.8638480017128
 20
180.7668641622374
 10
155.3371980017128
 20
180.7668641622374
 42
0.4142135623730951
 10
156.0128980017128
 20
181.4425641622374
 10
156.0128980017128
 20
191.9159141622374
 42
0.4142135623730951
 10
155.3371980017128
 20
192.5916141622374
 10
144.8638480017128
 20
192.5916141622374
 42
0.4142135623730951
 10
144.1881480017128
 20
191.9159141622374
 10
144.1881480017128
 20
181.4425641622374
 42
0.4142135623730951
  0
LWPOLYLINE
  5
27C6E
102
{ACAD_REACTORS
330
27C79
102
}
330
18
100
AcDbEntity
  8
BLECH
  6
CONTINUOUS
100
AcDbPolyline
 90
        4
 70
     1
 43
0.0
 10
143.3505230017128
 20
159.9294641622374
 10
156.8505230017128
 20
159.9294641622374
 10
156.8505230017128
 20
173.4294641622374
 10
143.3505230017128
 20
173.4294641622374
  0
LWPOLYLINE
  5
27C6F
102
{ACAD_REACTORS
330
27C79
102
}
330
18
100
AcDbEntity
  8
TASTEN
100
AcDbPolyline
 90
        8
 70
     1
 43
0.0
 10
144.1881480017128
 20
160.4290141622374
 10
156.0128980017128
 20
160.4290141622374
 42
0.4142135623730948
 10
156.3507480017128
 20
160.7668641622374
 10
156.3507480017128
 20
172.5916141622374
 42
0.4142135623730956
 10
156.0128980017128
 20
172.9294641622374
 10
144.1881480017128
 20
172.9294641622374
 42
0.4142135623730951
 10
143.8502980017128
 20
172.5916141622374
 10
143.8502980017128
 20
160.7668641622374
 42
0.4142135623730956
  0
LWPOLYLINE
  5
27C70
102
{ACAD_REACTORS
330
27C79
102
}
330
18
100
AcDbEntity
  8
TASTEN
100
AcDbPolyline
 90
        8
 70
     1
 43
0.0
 10
144.8638480017128
 20
160.7668641622374
 10
155.3371980017128
 20
160.7668641622374
 42
0.4142135623730951
 10
156.0128980017128
 20
161.4425641622374
 10
156.0128980017128
 20
171.9159141622374
 42
0.4142135623730951
 10
155.3371980017128
 20
172.5916141622374
 10
144.8638480017128
 20
172.5916141622374
 42
0.4142135623730951
 10
144.1881480017128
 20
171.9159141622374
 10
144.1881480017128
 20
161.4425641622374
 42
0.4142135623730951
  0
LWPOLYLINE
  5
27C71
102
{ACAD_REACTORS
330
27C7A
102
}
330
18
100
AcDbEntity
  8
BLECH
  6
CONTINUOUS
100
AcDbPolyline
 90
        4
 70
     1
 43
0.0
 10
143.3505230017128
 20
135.4257069156174
 10
156.8505230017128
 20
135.4257069156174
 10
156.8505230017128
 20
148.9257069156174
 10
143.3505230017128
 20
148.9257069156174
  0
LWPOLYLINE
  5
27C72
102
{ACAD_REACTORS
330
27C7A
102
}
330
18
100
AcDbEntity
  8
TASTEN
100
AcDbPolyline
 90
        8
 70
     1
 43
0.0
 10
144.1881480017128
 20
135.9252569156173
 10
156.0128980017128
 20
135.9252569156174
 42
0.4142135623730948
 10
156.3507480017128
 20
136.2631069156174
 10
156.3507480017128
 20
148.0878569156174
 42
0.4142135623730956
 10
156.0128980017128
 20
148.4257069156174
 10
144.1881480017128
 20
148.4257069156173
 42
0.4142135623730951
 10
143.8502980017128
 20
148.0878569156174
 10
143.8502980017128
 20
136.2631069156173
 42
0.4142135623730956
  0
LWPOLYLINE
  5
27C73
102
{ACAD_REACTORS
330
27C7A
102
}
330
18
100
AcDbEntity
  8
TASTEN
100
AcDbPolyline
 90
        8
 70
     1
 43
0.0
 10
144.8638480017128
 20
136.2631069156173
 10
155.3371980017128
 20
136.2631069156173
 42
0.4142135623730951
 10
156.0128980017128
 20
136.9388069156173
 10
156.0128980017128
 20
147.4121569156173
 42
0.4142135623730951
 10
155.3371980017128
 20
148.0878569156174
 10
144.8638480017128
 20
148.0878569156174
 42
0.4142135623730951
 10
144.1881480017128
 20
147.4121569156173
 10
144.1881480017128
 20
136.9388069156173
 42
0.4142135623730951
  0
LWPOLYLINE
  5
27C74
102
{ACAD_REACTORS
330
27C7B
102
}
330
18
100
AcDbEntity
  8
BLECH
  6
CONTINUOUS
100
AcDbPolyline
 90
        4
 70
     1
 43
0.0
 10
143.3505230017128
 20
115.4257069156174
 10
156.8505230017128
 20
115.4257069156174
 10
156.8505230017128
 20
128.9257069156174
 10
143.3505230017128
 20
128.9257069156174
  0
LWPOLYLINE
  5
27C75
102
{ACAD_REACTORS
330
27C7B
102
}
330
18
100
AcDbEntity
  8
TASTEN
100
AcDbPolyline
 90
        8
 70
     1
 43
0.0
 10
144.1881480017128
 20
115.9252569156173
 10
156.0128980017128
 20
115.9252569156174
 42
0.4142135623730948
 10
156.3507480017128
 20
116.2631069156174
 10
156.3507480017128
 20
128.0878569156174
 42
0.4142135623730956
 10
156.0128980017128
 20
128.4257069156174
 10
144.1881480017128
 20
128.4257069156173
 42
0.4142135623730951
 10
143.8502980017128
 20
128.0878569156174
 10
143.8502980017128
 20
116.2631069156173
 42
0.4142135623730956
  0
LWPOLYLINE
  5
27C76
102
{ACAD_REACTORS
330
27C7B
102
}
330
18
100
AcDbEntity
  8
TASTEN
100
AcDbPolyline
 90
        8
 70
     1
 43
0.0
 10
144.8638480017128
 20
116.2631069156173
 10
155.3371980017128
 20
116.2631069156173
 42
0.4142135623730951
 10
156.0128980017128
 20
116.9388069156173
 10
156.0128980017128
 20
127.4121569156174
 42
0.4142135623730951
 10
155.3371980017128
 20
128.0878569156174
 10
144.8638480017128
 20
128.0878569156174
 42
0.4142135623730951
 10
144.1881480017128
 20
127.4121569156174
 10
144.1881480017128
 20
116.9388069156173
 42
0.4142135623730951
  0
LWPOLYLINE
  5
27C7C
102
{ACAD_REACTORS
330
27C8B
102
}
330
18
100
AcDbEntity
  8
BLECH
  6
CONTINUOUS
100
AcDbPolyline
 90
        4
 70
     1
 43
0.0
 10
163.3505230017128
 20
199.9294641622374
 10
176.8505230017128
 20
199.9294641622374
 10
176.8505230017128
 20
213.4294641622374
 10
163.3505230017128
 20
213.4294641622374
  0
LWPOLYLINE
  5
27C7D
102
{ACAD_REACTORS
330
27C8B
102
}
330
18
100
AcDbEntity
  8
TASTEN
100
AcDbPolyline
 90
        8
 70
     1
 43
0.0
 10
164.1881480017128
 20
200.4290141622373
 10
176.0128980017128
 20
200.4290141622374
 42
0.4142135623730948
 10
176.3507480017128
 20
200.7668641622374
 10
176.3507480017128
 20
212.5916141622374
 42
0.4142135623730956
 10
176.0128980017128
 20
212.9294641622374
 10
164.1881480017128
 20
212.9294641622374
 42
0.4142135623730951
 10
163.8502980017128
 20
212.5916141622374
 10
163.8502980017128
 20
200.7668641622374
 42
0.4142135623730956
  0
LWPOLYLINE
  5
27C7E
102
{ACAD_REACTORS
330
27C8B
102
}
330
18
100
AcDbEntity
  8
TASTEN
100
AcDbPolyline
 90
        8
 70
     1
 43
0.0
 10
164.8638480017128
 20
200.7668641622374
 10
175.3371980017128
 20
200.7668641622374
 42
0.4142135623730951
 10
176.0128980017128
 20
201.4425641622374
 10
176.0128980017128
 20
211.9159141622374
 42
0.4142135623730951
 10
175.3371980017128
 20
212.5916141622374
 10
164.8638480017128
 20
212.5916141622374
 42
0.4142135623730951
 10
164.1881480017128
 20
211.9159141622374
 10
164.1881480017128
 20
201.4425641622374
 42
0.4142135623730951
  0
LWPOLYLINE
  5
27C7F
102
{ACAD_REACTORS
330
27C8C
102
}
330
18
100
AcDbEntity
  8
BLECH
  6
CONTINUOUS
100
AcDbPolyline
 90
        4
 70
     1
 43
0.0
 10
163.3505230017128
 20
179.9294641622374
 10
176.8505230017128
 20
179.9294641622374
 10
176.8505230017128
 20
193.4294641622374
 10
163.3505230017128
 20
193.4294641622374
  0
LWPOLYLINE
  5
27C80
102
{ACAD_REACTORS
330
27C8C
102
}
330
18
100
AcDbEntity
  8
TASTEN
100
AcDbPolyline
 90
        8
 70
     1
 43
0.0
 10
164.1881480017128
 20
180.4290141622374
 10
176.0128980017128
 20
180.4290141622374
 42
0.4142135623730948
 10
176.3507480017128
 20
180.7668641622374
 10
176.3507480017128
 20
192.5916141622374
 42
0.4142135623730956
 10
176.0128980017128
 20
192.9294641622374
 10
164.1881480017128
 20
192.9294641622373
 42
0.4142135623730951
 10
163.8502980017128
 20
192.5916141622374
 10
163.8502980017128
 20
180.7668641622374
 42
0.4142135623730956
  0
LWPOLYLINE
  5
27C81
102
{ACAD_REACTORS
330
27C8C
102
}
330
18
100
AcDbEntity
  8
TASTEN
100
AcDbPolyline
 90
        8
 70
     1
 43
0.0
 10
164.8638480017128
 20
180.7668641622374
 10
175.3371980017128
 20
180.7668641622374
 42
0.4142135623730951
 10
176.0128980017128
 20
181.4425641622374
 10
176.0128980017128
 20
191.9159141622374
 42
0.4142135623730951
 10
175.3371980017128
 20
192.5916141622374
 10
164.8638480017128
 20
192.5916141622374
 42
0.4142135623730951
 10
164.1881480017128
 20
191.9159141622374
 10
164.1881480017128
 20
181.4425641622374
 42
0.4142135623730951
  0
LWPOLYLINE
  5
27C82
102
{ACAD_REACTORS
330
27C8D
102
}
330
18
100
AcDbEntity
  8
BLECH
  6
CONTINUOUS
100
AcDbPolyline
 90
        4
 70
     1
 43
0.0
 10
163.3505230017128
 20
159.9294641622374
 10
176.8505230017128
 20
159.9294641622374
 10
176.8505230017128
 20
173.4294641622374
 10
163.3505230017128
 20
173.4294641622374
  0
LWPOLYLINE
  5
27C83
102
{ACAD_REACTORS
330
27C8D
102
}
330
18
100
AcDbEntity
  8
TASTEN
100
AcDbPolyline
 90
        8
 70
     1
 43
0.0
 10
164.1881480017128
 20
160.4290141622374
 10
176.0128980017128
 20
160.4290141622374
 42
0.4142135623730948
 10
176.3507480017128
 20
160.7668641622374
 10
176.3507480017128
 20
172.5916141622374
 42
0.4142135623730956
 10
176.0128980017128
 20
172.9294641622374
 10
164.1881480017128
 20
172.9294641622374
 42
0.4142135623730951
 10
163.8502980017128
 20
172.5916141622374
 10
163.8502980017128
 20
160.7668641622374
 42
0.4142135623730956
  0
LWPOLYLINE
  5
27C84
102
{ACAD_REACTORS
330
27C8D
102
}
330
18
100
AcDbEntity
  8
TASTEN
100
AcDbPolyline
 90
        8
 70
     1
 43
0.0
 10
164.8638480017128
 20
160.7668641622374
 10
175.3371980017128
 20
160.7668641622374
 42
0.4142135623730951
 10
176.0128980017128
 20
161.4425641622374
 10
176.0128980017128
 20
171.9159141622374
 42
0.4142135623730951
 10
175.3371980017128
 20
172.5916141622374
 10
164.8638480017128
 20
172.5916141622374
 42
0.4142135623730951
 10
164.1881480017128
 20
171.9159141622374
 10
164.1881480017128
 20
161.4425641622374
 42
0.4142135623730951
  0
LWPOLYLINE
  5
27C85
102
{ACAD_REACTORS
330
27C8E
102
}
330
18
100
AcDbEntity
  8
BLECH
  6
CONTINUOUS
100
AcDbPolyline
 90
        4
 70
     1
 43
0.0
 10
163.3505230017128
 20
135.4257069156174
 10
176.8505230017128
 20
135.4257069156174
 10
176.8505230017128
 20
148.9257069156174
 10
163.3505230017128
 20
148.9257069156174
  0
LWPOLYLINE
  5
27C86
102
{ACAD_REACTORS
330
27C8E
102
}
330
18
100
AcDbEntity
  8
TASTEN
100
AcDbPolyline
 90
        8
 70
     1
 43
0.0
 10
164.1881480017128
 20
135.9252569156173
 10
176.0128980017128
 20
135.9252569156174
 42
0.4142135623730948
 10
176.3507480017128
 20
136.2631069156174
 10
176.3507480017128
 20
148.0878569156174
 42
0.4142135623730956
 10
176.0128980017128
 20
148.4257069156174
 10
164.1881480017128
 20
148.4257069156173
 42
0.4142135623730951
 10
163.8502980017128
 20
148.0878569156174
 10
163.8502980017128
 20
136.2631069156173
 42
0.4142135623730956
  0
LWPOLYLINE
  5
27C87
102
{ACAD_REACTORS
330
27C8E
102
}
330
18
100
AcDbEntity
  8
TASTEN
100
AcDbPolyline
 90
        8
 70
     1
 43
0.0
 10
164.8638480017128
 20
136.2631069156173
 10
175.3371980017128
 20
136.2631069156173
 42
0.4142135623730951
 10
176.0128980017128
 20
136.9388069156173
 10
176.0128980017128
 20
147.4121569156173
 42
0.4142135623730951
 10
175.3371980017128
 20
148.0878569156174
 10
164.8638480017128
 20
148.0878569156174
 42
0.4142135623730951
 10
164.1881480017128
 20
147.4121569156173
 10
164.1881480017128
 20
136.9388069156173
 42
0.4142135623730951
  0
LWPOLYLINE
  5
27C88
102
{ACAD_REACTORS
330
27C8F
102
}
330
18
100
AcDbEntity
  8
BLECH
  6
CONTINUOUS
100
AcDbPolyline
 90
        4
 70
     1
 43
0.0
 10
163.3505230017128
 20
115.4257069156174
 10
176.8505230017128
 20
115.4257069156174
 10
176.8505230017128
 20
128.9257069156174
 10
163.3505230017128
 20
128.9257069156174
  0
LWPOLYLINE
  5
27C89
102
{ACAD_REACTORS
330
27C8F
102
}
330
18
100
AcDbEntity
  8
TASTEN
100
AcDbPolyline
 90
        8
 70
     1
 43
0.0
 10
164.1881480017128
 20
115.9252569156173
 10
176.0128980017128
 20
115.9252569156174
 42
0.4142135623730948
 10
176.3507480017128
 20
116.2631069156174
 10
176.3507480017128
 20
128.0878569156174
 42
0.4142135623730956
 10
176.0128980017128
 20
128.4257069156174
 10
164.1881480017128
 20
128.4257069156173
 42
0.4142135623730951
 10
163.8502980017128
 20
128.0878569156174
 10
163.8502980017128
 20
116.2631069156173
 42
0.4142135623730956
  0
LWPOLYLINE
  5
27C8A
102
{ACAD_REACTORS
330
27C8F
102
}
330
18
100
AcDbEntity
  8
TASTEN
100
AcDbPolyline
 90
        8
 70
     1
 43
0.0
 10
164.8638480017128
 20
116.2631069156173
 10
175.3371980017128
 20
116.2631069156173
 42
0.4142135623730951
 10
176.0128980017128
 20
116.9388069156173
 10
176.0128980017128
 20
127.4121569156174
 42
0.4142135623730951
 10
175.3371980017128
 20
128.0878569156174
 10
164.8638480017128
 20
128.0878569156174
 42
0.4142135623730951
 10
164.1881480017128
 20
127.4121569156174
 10
164.1881480017128
 20
116.9388069156173
 42
0.4142135623730951
  0
LWPOLYLINE
  5
27C90
102
{ACAD_REACTORS
330
27C9F
102
}
330
18
100
AcDbEntity
  8
BLECH
  6
CONTINUOUS
100
AcDbPolyline
 90
        4
 70
     1
 43
0.0
 10
183.3505230017128
 20
199.9294641622374
 10
196.8505230017128
 20
199.9294641622374
 10
196.8505230017128
 20
213.4294641622374
 10
183.3505230017128
 20
213.4294641622374
  0
LWPOLYLINE
  5
27C91
102
{ACAD_REACTORS
330
27C9F
102
}
330
18
100
AcDbEntity
  8
TASTEN
100
AcDbPolyline
 90
        8
 70
     1
 43
0.0
 10
184.1881480017128
 20
200.4290141622373
 10
196.0128980017128
 20
200.4290141622374
 42
0.4142135623730948
 10
196.3507480017128
 20
200.7668641622374
 10
196.3507480017128
 20
212.5916141622374
 42
0.4142135623730956
 10
196.0128980017128
 20
212.9294641622374
 10
184.1881480017128
 20
212.9294641622374
 42
0.4142135623730951
 10
183.8502980017128
 20
212.5916141622374
 10
183.8502980017128
 20
200.7668641622374
 42
0.4142135623730956
  0
LWPOLYLINE
  5
27C92
102
{ACAD_REACTORS
330
27C9F
102
}
330
18
100
AcDbEntity
  8
TASTEN
100
AcDbPolyline
 90
        8
 70
     1
 43
0.0
 10
184.8638480017129
 20
200.7668641622374
 10
195.3371980017128
 20
200.7668641622374
 42
0.4142135623730951
 10
196.0128980017128
 20
201.4425641622374
 10
196.0128980017128
 20
211.9159141622374
 42
0.4142135623730951
 10
195.3371980017128
 20
212.5916141622374
 10
184.8638480017129
 20
212.5916141622374
 42
0.4142135623730951
 10
184.1881480017128
 20
211.9159141622374
 10
184.1881480017128
 20
201.4425641622374
 42
0.4142135623730951
  0
LWPOLYLINE
  5
27C93
102
{ACAD_REACTORS
330
27CA0
102
}
330
18
100
AcDbEntity
  8
BLECH
  6
CONTINUOUS
100
AcDbPolyline
 90
        4
 70
     1
 43
0.0
 10
183.3505230017128
 20
179.9294641622374
 10
196.8505230017128
 20
179.9294641622374
 10
196.8505230017128
 20
193.4294641622374
 10
183.3505230017128
 20
193.4294641622374
  0
LWPOLYLINE
  5
27C94
102
{ACAD_REACTORS
330
27CA0
102
}
330
18
100
AcDbEntity
  8
TASTEN
100
AcDbPolyline
 90
        8
 70
     1
 43
0.0
 10
184.1881480017128
 20
180.4290141622374
 10
196.0128980017128
 20
180.4290141622374
 42
0.4142135623730948
 10
196.3507480017128
 20
180.7668641622374
 10
196.3507480017128
 20
192.5916141622374
 42
0.4142135623730956
 10
196.0128980017128
 20
192.9294641622374
 10
184.1881480017128
 20
192.9294641622373
 42
0.4142135623730951
 10
183.8502980017128
 20
192.5916141622374
 10
183.8502980017128
 20
180.7668641622374
 42
0.4142135623730956
  0
LWPOLYLINE
  5
27C95
102
{ACAD_REACTORS
330
27CA0
102
}
330
18
100
AcDbEntity
  8
TASTEN
100
AcDbPolyline
 90
        8
 70
     1
 43
0.0
 10
184.8638480017129
 20
180.7668641622374
 10
195.3371980017128
 20
180.7668641622374
 42
0.4142135623730951
 10
196.0128980017128
 20
181.4425641622374
 10
196.0128980017128
 20
191.9159141622374
 42
0.4142135623730951
 10
195.3371980017128
 20
192.5916141622374
 10
184.8638480017129
 20
192.5916141622374
 42
0.4142135623730951
 10
184.1881480017128
 20
191.9159141622374
 10
184.1881480017128
 20
181.4425641622374
 42
0.4142135623730951
  0
LWPOLYLINE
  5
27C96
102
{ACAD_REACTORS
330
27CA1
102
}
330
18
100
AcDbEntity
  8
BLECH
  6
CONTINUOUS
100
AcDbPolyline
 90
        4
 70
     1
 43
0.0
 10
183.3505230017128
 20
159.9294641622374
 10
196.8505230017128
 20
159.9294641622374
 10
196.8505230017128
 20
173.4294641622374
 10
183.3505230017128
 20
173.4294641622374
  0
LWPOLYLINE
  5
27C97
102
{ACAD_REACTORS
330
27CA1
102
}
330
18
100
AcDbEntity
  8
TASTEN
100
AcDbPolyline
 90
        8
 70
     1
 43
0.0
 10
184.1881480017128
 20
160.4290141622374
 10
196.0128980017128
 20
160.4290141622374
 42
0.4142135623730948
 10
196.3507480017128
 20
160.7668641622374
 10
196.3507480017128
 20
172.5916141622374
 42
0.4142135623730956
 10
196.0128980017128
 20
172.9294641622374
 10
184.1881480017128
 20
172.9294641622374
 42
0.4142135623730951
 10
183.8502980017128
 20
172.5916141622374
 10
183.8502980017128
 20
160.7668641622374
 42
0.4142135623730956
  0
LWPOLYLINE
  5
27C98
102
{ACAD_REACTORS
330
27CA1
102
}
330
18
100
AcDbEntity
  8
TASTEN
100
AcDbPolyline
 90
        8
 70
     1
 43
0.0
 10
184.8638480017129
 20
160.7668641622374
 10
195.3371980017128
 20
160.7668641622374
 42
0.4142135623730951
 10
196.0128980017128
 20
161.4425641622374
 10
196.0128980017128
 20
171.9159141622374
 42
0.4142135623730951
 10
195.3371980017128
 20
172.5916141622374
 10
184.8638480017129
 20
172.5916141622374
 42
0.4142135623730951
 10
184.1881480017128
 20
171.9159141622374
 10
184.1881480017128
 20
161.4425641622374
 42
0.4142135623730951
  0
LWPOLYLINE
  5
27C99
102
{ACAD_REACTORS
330
27CA2
102
}
330
18
100
AcDbEntity
  8
BLECH
  6
CONTINUOUS
100
AcDbPolyline
 90
        4
 70
     1
 43
0.0
 10
183.3505230017128
 20
135.4257069156174
 10
196.8505230017128
 20
135.4257069156174
 10
196.8505230017128
 20
148.9257069156174
 10
183.3505230017128
 20
148.9257069156174
  0
LWPOLYLINE
  5
27C9A
102
{ACAD_REACTORS
330
27CA2
102
}
330
18
100
AcDbEntity
  8
TASTEN
100
AcDbPolyline
 90
        8
 70
     1
 43
0.0
 10
184.1881480017128
 20
135.9252569156173
 10
196.0128980017128
 20
135.9252569156174
 42
0.4142135623730948
 10
196.3507480017128
 20
136.2631069156174
 10
196.3507480017128
 20
148.0878569156174
 42
0.4142135623730956
 10
196.0128980017128
 20
148.4257069156174
 10
184.1881480017128
 20
148.4257069156173
 42
0.4142135623730951
 10
183.8502980017128
 20
148.0878569156174
 10
183.8502980017128
 20
136.2631069156173
 42
0.4142135623730956
  0
LWPOLYLINE
  5
27C9B
102
{ACAD_REACTORS
330
27CA2
102
}
330
18
100
AcDbEntity
  8
TASTEN
100
AcDbPolyline
 90
        8
 70
     1
 43
0.0
 10
184.8638480017129
 20
136.2631069156173
 10
195.3371980017128
 20
136.2631069156173
 42
0.4142135623730951
 10
196.0128980017128
 20
136.9388069156173
 10
196.0128980017128
 20
147.4121569156173
 42
0.4142135623730951
 10
195.3371980017128
 20
148.0878569156174
 10
184.8638480017129
 20
148.0878569156174
 42
0.4142135623730951
 10
184.1881480017128
 20
147.4121569156173
 10
184.1881480017128
 20
136.9388069156173
 42
0.4142135623730951
  0
LWPOLYLINE
  5
27C9C
102
{ACAD_REACTORS
330
27CA3
102
}
330
18
100
AcDbEntity
  8
BLECH
  6
CONTINUOUS
100
AcDbPolyline
 90
        4
 70
     1
 43
0.0
 10
183.3505230017128
 20
115.4257069156174
 10
196.8505230017128
 20
115.4257069156174
 10
196.8505230017128
 20
128.9257069156174
 10
183.3505230017128
 20
128.9257069156174
  0
LWPOLYLINE
  5
27C9D
102
{ACAD_REACTORS
330
27CA3
102
}
330
18
100
AcDbEntity
  8
TASTEN
100
AcDbPolyline
 90
        8
 70
     1
 43
0.0
 10
184.1881480017128
 20
115.9252569156173
 10
196.0128980017128
 20
115.9252569156174
 42
0.4142135623730948
 10
196.3507480017128
 20
116.2631069156174
 10
196.3507480017128
 20
128.0878569156174
 42
0.4142135623730956
 10
196.0128980017128
 20
128.4257069156174
 10
184.1881480017128
 20
128.4257069156173
 42
0.4142135623730951
 10
183.8502980017128
 20
128.0878569156174
 10
183.8502980017128
 20
116.2631069156173
 42
0.4142135623730956
  0
LWPOLYLINE
  5
27C9E
102
{ACAD_REACTORS
330
27CA3
102
}
330
18
100
AcDbEntity
  8
TASTEN
100
AcDbPolyline
 90
        8
 70
     1
 43
0.0
 10
184.8638480017129
 20
116.2631069156173
 10
195.3371980017128
 20
116.2631069156173
 42
0.4142135623730951
 10
196.0128980017128
 20
116.9388069156173
 10
196.0128980017128
 20
127.4121569156174
 42
0.4142135623730951
 10
195.3371980017128
 20
128.0878569156174
 10
184.8638480017129
 20
128.0878569156174
 42
0.4142135623730951
 10
184.1881480017128
 20
127.4121569156174
 10
184.1881480017128
 20
116.9388069156173
 42
0.4142135623730951
  0
LWPOLYLINE
  5
27CA4
102
{ACAD_REACTORS
330
27CB3
102
}
330
18
100
AcDbEntity
  8
BLECH
  6
CONTINUOUS
100
AcDbPolyline
 90
        4
 70
     1
 43
0.0
 10
203.3505230017128
 20
199.9294641622374
 10
216.8505230017128
 20
199.9294641622374
 10
216.8505230017128
 20
213.4294641622374
 10
203.3505230017128
 20
213.4294641622374
  0
LWPOLYLINE
  5
27CA5
102
{ACAD_REACTORS
330
27CB3
102
}
330
18
100
AcDbEntity
  8
TASTEN
100
AcDbPolyline
 90
        8
 70
     1
 43
0.0
 10
204.1881480017128
 20
200.4290141622373
 10
216.0128980017128
 20
200.4290141622374
 42
0.4142135623730948
 10
216.3507480017128
 20
200.7668641622374
 10
216.3507480017128
 20
212.5916141622374
 42
0.4142135623730956
 10
216.0128980017128
 20
212.9294641622374
 10
204.1881480017128
 20
212.9294641622374
 42
0.4142135623730951
 10
203.8502980017128
 20
212.5916141622374
 10
203.8502980017128
 20
200.7668641622374
 42
0.4142135623730956
  0
LWPOLYLINE
  5
27CA6
102
{ACAD_REACTORS
330
27CB3
102
}
330
18
100
AcDbEntity
  8
TASTEN
100
AcDbPolyline
 90
        8
 70
     1
 43
0.0
 10
204.8638480017128
 20
200.7668641622374
 10
215.3371980017128
 20
200.7668641622374
 42
0.4142135623730951
 10
216.0128980017128
 20
201.4425641622374
 10
216.0128980017128
 20
211.9159141622374
 42
0.4142135623730951
 10
215.3371980017128
 20
212.5916141622374
 10
204.8638480017128
 20
212.5916141622374
 42
0.4142135623730951
 10
204.1881480017128
 20
211.9159141622374
 10
204.1881480017128
 20
201.4425641622374
 42
0.4142135623730951
  0
LWPOLYLINE
  5
27CA7
102
{ACAD_REACTORS
330
27CB4
102
}
330
18
100
AcDbEntity
  8
BLECH
  6
CONTINUOUS
100
AcDbPolyline
 90
        4
 70
     1
 43
0.0
 10
203.3505230017128
 20
179.9294641622374
 10
216.8505230017128
 20
179.9294641622374
 10
216.8505230017128
 20
193.4294641622374
 10
203.3505230017128
 20
193.4294641622374
  0
LWPOLYLINE
  5
27CA8
102
{ACAD_REACTORS
330
27CB4
102
}
330
18
100
AcDbEntity
  8
TASTEN
100
AcDbPolyline
 90
        8
 70
     1
 43
0.0
 10
204.1881480017128
 20
180.4290141622374
 10
216.0128980017128
 20
180.4290141622374
 42
0.4142135623730948
 10
216.3507480017128
 20
180.7668641622374
 10
216.3507480017128
 20
192.5916141622374
 42
0.4142135623730956
 10
216.0128980017128
 20
192.9294641622374
 10
204.1881480017128
 20
192.9294641622373
 42
0.4142135623730951
 10
203.8502980017128
 20
192.5916141622374
 10
203.8502980017128
 20
180.7668641622374
 42
0.4142135623730956
  0
LWPOLYLINE
  5
27CA9
102
{ACAD_REACTORS
330
27CB4
102
}
330
18
100
AcDbEntity
  8
TASTEN
100
AcDbPolyline
 90
        8
 70
     1
 43
0.0
 10
204.8638480017128
 20
180.7668641622374
 10
215.3371980017128
 20
180.7668641622374
 42
0.4142135623730951
 10
216.0128980017128
 20
181.4425641622374
 10
216.0128980017128
 20
191.9159141622374
 42
0.4142135623730951
 10
215.3371980017128
 20
192.5916141622374
 10
204.8638480017128
 20
192.5916141622374
 42
0.4142135623730951
 10
204.1881480017128
 20
191.9159141622374
 10
204.1881480017128
 20
181.4425641622374
 42
0.4142135623730951
  0
LWPOLYLINE
  5
27CAA
102
{ACAD_REACTORS
330
27CB5
102
}
330
18
100
AcDbEntity
  8
BLECH
  6
CONTINUOUS
100
AcDbPolyline
 90
        4
 70
     1
 43
0.0
 10
203.3505230017128
 20
159.9294641622374
 10
216.8505230017128
 20
159.9294641622374
 10
216.8505230017128
 20
173.4294641622374
 10
203.3505230017128
 20
173.4294641622374
  0
LWPOLYLINE
  5
27CAB
102
{ACAD_REACTORS
330
27CB5
102
}
330
18
100
AcDbEntity
  8
TASTEN
100
AcDbPolyline
 90
        8
 70
     1
 43
0.0
 10
204.1881480017128
 20
160.4290141622374
 10
216.0128980017128
 20
160.4290141622374
 42
0.4142135623730948
 10
216.3507480017128
 20
160.7668641622374
 10
216.3507480017128
 20
172.5916141622374
 42
0.4142135623730956
 10
216.0128980017128
 20
172.9294641622374
 10
204.1881480017128
 20
172.9294641622374
 42
0.4142135623730951
 10
203.8502980017128
 20
172.5916141622374
 10
203.8502980017128
 20
160.7668641622374
 42
0.4142135623730956
  0
LWPOLYLINE
  5
27CAC
102
{ACAD_REACTORS
330
27CB5
102
}
330
18
100
AcDbEntity
  8
TASTEN
100
AcDbPolyline
 90
        8
 70
     1
 43
0.0
 10
204.8638480017128
 20
160.7668641622374
 10
215.3371980017128
 20
160.7668641622374
 42
0.4142135623730951
 10
216.0128980017128
 20
161.4425641622374
 10
216.0128980017128
 20
171.9159141622374
 42
0.4142135623730951
 10
215.3371980017128
 20
172.5916141622374
 10
204.8638480017128
 20
172.5916141622374
 42
0.4142135623730951
 10
204.1881480017128
 20
171.9159141622374
 10
204.1881480017128
 20
161.4425641622374
 42
0.4142135623730951
  0
LWPOLYLINE
  5
27CAD
102
{ACAD_REACTORS
330
27CB6
102
}
330
18
100
AcDbEntity
  8
BLECH
  6
CONTINUOUS
100
AcDbPolyline
 90
        4
 70
     1
 43
0.0
 10
203.3505230017128
 20
135.4257069156174
 10
216.8505230017128
 20
135.4257069156174
 10
216.8505230017128
 20
148.9257069156174
 10
203.3505230017128
 20
148.9257069156174
  0
LWPOLYLINE
  5
27CAE
102
{ACAD_REACTORS
330
27CB6
102
}
330
18
100
AcDbEntity
  8
TASTEN
100
AcDbPolyline
 90
        8
 70
     1
 43
0.0
 10
204.1881480017128
 20
135.9252569156173
 10
216.0128980017128
 20
135.9252569156174
 42
0.4142135623730948
 10
216.3507480017128
 20
136.2631069156174
 10
216.3507480017128
 20
148.0878569156174
 42
0.4142135623730956
 10
216.0128980017128
 20
148.4257069156174
 10
204.1881480017128
 20
148.4257069156173
 42
0.4142135623730951
 10
203.8502980017128
 20
148.0878569156174
 10
203.8502980017128
 20
136.2631069156173
 42
0.4142135623730956
  0
LWPOLYLINE
  5
27CAF
102
{ACAD_REACTORS
330
27CB6
102
}
330
18
100
AcDbEntity
  8
TASTEN
100
AcDbPolyline
 90
        8
 70
     1
 43
0.0
 10
204.8638480017128
 20
136.2631069156173
 10
215.3371980017128
 20
136.2631069156173
 42
0.4142135623730951
 10
216.0128980017128
 20
136.9388069156173
 10
216.0128980017128
 20
147.4121569156173
 42
0.4142135623730951
 10
215.3371980017128
 20
148.0878569156174
 10
204.8638480017128
 20
148.0878569156174
 42
0.4142135623730951
 10
204.1881480017128
 20
147.4121569156173
 10
204.1881480017128
 20
136.9388069156173
 42
0.4142135623730951
  0
LWPOLYLINE
  5
27CB0
102
{ACAD_REACTORS
330
27CB7
102
}
330
18
100
AcDbEntity
  8
BLECH
  6
CONTINUOUS
100
AcDbPolyline
 90
        4
 70
     1
 43
0.0
 10
203.3505230017128
 20
115.4257069156174
 10
216.8505230017128
 20
115.4257069156174
 10
216.8505230017128
 20
128.9257069156174
 10
203.3505230017128
 20
128.9257069156174
  0
LWPOLYLINE
  5
27CB1
102
{ACAD_REACTORS
330
27CB7
102
}
330
18
100
AcDbEntity
  8
TASTEN
100
AcDbPolyline
 90
        8
 70
     1
 43
0.0
 10
204.1881480017128
 20
115.9252569156173
 10
216.0128980017128
 20
115.9252569156174
 42
0.4142135623730948
 10
216.3507480017128
 20
116.2631069156174
 10
216.3507480017128
 20
128.0878569156174
 42
0.4142135623730956
 10
216.0128980017128
 20
128.4257069156174
 10
204.1881480017128
 20
128.4257069156173
 42
0.4142135623730951
 10
203.8502980017128
 20
128.0878569156174
 10
203.8502980017128
 20
116.2631069156173
 42
0.4142135623730956
  0
LWPOLYLINE
  5
27CB2
102
{ACAD_REACTORS
330
27CB7
102
}
330
18
100
AcDbEntity
  8
TASTEN
100
AcDbPolyline
 90
        8
 70
     1
 43
0.0
 10
204.8638480017128
 20
116.2631069156173
 10
215.3371980017128
 20
116.2631069156173
 42
0.4142135623730951
 10
216.0128980017128
 20
116.9388069156173
 10
216.0128980017128
 20
127.4121569156174
 42
0.4142135623730951
 10
215.3371980017128
 20
128.0878569156174
 10
204.8638480017128
 20
128.0878569156174
 42
0.4142135623730951
 10
204.1881480017128
 20
127.4121569156174
 10
204.1881480017128
 20
116.9388069156173
 42
0.4142135623730951
  0
LWPOLYLINE
  5
27CB8
102
{ACAD_REACTORS
330
27CC7
102
}
330
18
100
AcDbEntity
  8
BLECH
  6
CONTINUOUS
100
AcDbPolyline
 90
        4
 70
     1
 43
0.0
 10
223.3505230017128
 20
199.9294641622374
 10
236.8505230017128
 20
199.9294641622374
 10
236.8505230017128
 20
213.4294641622374
 10
223.3505230017128
 20
213.4294641622374
  0
LWPOLYLINE
  5
27CB9
102
{ACAD_REACTORS
330
27CC7
102
}
330
18
100
AcDbEntity
  8
TASTEN
100
AcDbPolyline
 90
        8
 70
     1
 43
0.0
 10
224.1881480017128
 20
200.4290141622373
 10
236.0128980017128
 20
200.4290141622374
 42
0.4142135623730948
 10
236.3507480017128
 20
200.7668641622374
 10
236.3507480017128
 20
212.5916141622374
 42
0.4142135623730956
 10
236.0128980017128
 20
212.9294641622374
 10
224.1881480017128
 20
212.9294641622374
 42
0.4142135623730951
 10
223.8502980017128
 20
212.5916141622374
 10
223.8502980017128
 20
200.7668641622374
 42
0.4142135623730956
  0
LWPOLYLINE
  5
27CBA
102
{ACAD_REACTORS
330
27CC7
102
}
330
18
100
AcDbEntity
  8
TASTEN
100
AcDbPolyline
 90
        8
 70
     1
 43
0.0
 10
224.8638480017128
 20
200.7668641622374
 10
235.3371980017128
 20
200.7668641622374
 42
0.4142135623730951
 10
236.0128980017128
 20
201.4425641622374
 10
236.0128980017128
 20
211.9159141622374
 42
0.4142135623730951
 10
235.3371980017128
 20
212.5916141622374
 10
224.8638480017128
 20
212.5916141622374
 42
0.4142135623730951
 10
224.1881480017128
 20
211.9159141622374
 10
224.1881480017128
 20
201.4425641622374
 42
0.4142135623730951
  0
LWPOLYLINE
  5
27CBB
102
{ACAD_REACTORS
330
27CC8
102
}
330
18
100
AcDbEntity
  8
BLECH
  6
CONTINUOUS
100
AcDbPolyline
 90
        4
 70
     1
 43
0.0
 10
223.3505230017128
 20
179.9294641622374
 10
236.8505230017128
 20
179.9294641622374
 10
236.8505230017128
 20
193.4294641622374
 10
223.3505230017128
 20
193.4294641622374
  0
LWPOLYLINE
  5
27CBC
102
{ACAD_REACTORS
330
27CC8
102
}
330
18
100
AcDbEntity
  8
TASTEN
100
AcDbPolyline
 90
        8
 70
     1
 43
0.0
 10
224.1881480017128
 20
180.4290141622374
 10
236.0128980017128
 20
180.4290141622374
 42
0.4142135623730948
 10
236.3507480017128
 20
180.7668641622374
 10
236.3507480017128
 20
192.5916141622374
 42
0.4142135623730956
 10
236.0128980017128
 20
192.9294641622374
 10
224.1881480017128
 20
192.9294641622373
 42
0.4142135623730951
 10
223.8502980017128
 20
192.5916141622374
 10
223.8502980017128
 20
180.7668641622374
 42
0.4142135623730956
  0
LWPOLYLINE
  5
27CBD
102
{ACAD_REACTORS
330
27CC8
102
}
330
18
100
AcDbEntity
  8
TASTEN
100
AcDbPolyline
 90
        8
 70
     1
 43
0.0
 10
224.8638480017128
 20
180.7668641622374
 10
235.3371980017128
 20
180.7668641622374
 42
0.4142135623730951
 10
236.0128980017128
 20
181.4425641622374
 10
236.0128980017128
 20
191.9159141622374
 42
0.4142135623730951
 10
235.3371980017128
 20
192.5916141622374
 10
224.8638480017128
 20
192.5916141622374
 42
0.4142135623730951
 10
224.1881480017128
 20
191.9159141622374
 10
224.1881480017128
 20
181.4425641622374
 42
0.4142135623730951
  0
LWPOLYLINE
  5
27CBE
102
{ACAD_REACTORS
330
27CC9
102
}
330
18
100
AcDbEntity
  8
BLECH
  6
CONTINUOUS
100
AcDbPolyline
 90
        4
 70
     1
 43
0.0
 10
223.3505230017128
 20
159.9294641622374
 10
236.8505230017128
 20
159.9294641622374
 10
236.8505230017128
 20
173.4294641622374
 10
223.3505230017128
 20
173.4294641622374
  0
LWPOLYLINE
  5
27CBF
102
{ACAD_REACTORS
330
27CC9
102
}
330
18
100
AcDbEntity
  8
TASTEN
100
AcDbPolyline
 90
        8
 70
     1
 43
0.0
 10
224.1881480017128
 20
160.4290141622374
 10
236.0128980017128
 20
160.4290141622374
 42
0.4142135623730948
 10
236.3507480017128
 20
160.7668641622374
 10
236.3507480017128
 20
172.5916141622374
 42
0.4142135623730956
 10
236.0128980017128
 20
172.9294641622374
 10
224.1881480017128
 20
172.9294641622374
 42
0.4142135623730951
 10
223.8502980017128
 20
172.5916141622374
 10
223.8502980017128
 20
160.7668641622374
 42
0.4142135623730956
  0
LWPOLYLINE
  5
27CC0
102
{ACAD_REACTORS
330
27CC9
102
}
330
18
100
AcDbEntity
  8
TASTEN
100
AcDbPolyline
 90
        8
 70
     1
 43
0.0
 10
224.8638480017128
 20
160.7668641622374
 10
235.3371980017128
 20
160.7668641622374
 42
0.4142135623730951
 10
236.0128980017128
 20
161.4425641622374
 10
236.0128980017128
 20
171.9159141622374
 42
0.4142135623730951
 10
235.3371980017128
 20
172.5916141622374
 10
224.8638480017128
 20
172.5916141622374
 42
0.4142135623730951
 10
224.1881480017128
 20
171.9159141622374
 10
224.1881480017128
 20
161.4425641622374
 42
0.4142135623730951
  0
LWPOLYLINE
  5
27CC1
102
{ACAD_REACTORS
330
27CCA
102
}
330
18
100
AcDbEntity
  8
BLECH
  6
CONTINUOUS
100
AcDbPolyline
 90
        4
 70
     1
 43
0.0
 10
223.3505230017128
 20
135.4257069156174
 10
236.8505230017128
 20
135.4257069156174
 10
236.8505230017128
 20
148.9257069156174
 10
223.3505230017128
 20
148.9257069156174
  0
LWPOLYLINE
  5
27CC2
102
{ACAD_REACTORS
330
27CCA
102
}
330
18
100
AcDbEntity
  8
TASTEN
100
AcDbPolyline
 90
        8
 70
     1
 43
0.0
 10
224.1881480017128
 20
135.9252569156173
 10
236.0128980017128
 20
135.9252569156174
 42
0.4142135623730948
 10
236.3507480017128
 20
136.2631069156174
 10
236.3507480017128
 20
148.0878569156174
 42
0.4142135623730956
 10
236.0128980017128
 20
148.4257069156174
 10
224.1881480017128
 20
148.4257069156173
 42
0.4142135623730951
 10
223.8502980017128
 20
148.0878569156174
 10
223.8502980017128
 20
136.2631069156173
 42
0.4142135623730956
  0
LWPOLYLINE
  5
27CC3
102
{ACAD_REACTORS
330
27CCA
102
}
330
18
100
AcDbEntity
  8
TASTEN
100
AcDbPolyline
 90
        8
 70
     1
 43
0.0
 10
224.8638480017128
 20
136.2631069156173
 10
235.3371980017128
 20
136.2631069156173
 42
0.4142135623730951
 10
236.0128980017128
 20
136.9388069156173
 10
236.0128980017128
 20
147.4121569156173
 42
0.4142135623730951
 10
235.3371980017128
 20
148.0878569156174
 10
224.8638480017128
 20
148.0878569156174
 42
0.4142135623730951
 10
224.1881480017128
 20
147.4121569156173
 10
224.1881480017128
 20
136.9388069156173
 42
0.4142135623730951
  0
LWPOLYLINE
  5
27CC4
102
{ACAD_REACTORS
330
27CCB
102
}
330
18
100
AcDbEntity
  8
BLECH
  6
CONTINUOUS
100
AcDbPolyline
 90
        4
 70
     1
 43
0.0
 10
223.3505230017128
 20
115.4257069156174
 10
236.8505230017128
 20
115.4257069156174
 10
236.8505230017128
 20
128.9257069156174
 10
223.3505230017128
 20
128.9257069156174
  0
LWPOLYLINE
  5
27CC5
102
{ACAD_REACTORS
330
27CCB
102
}
330
18
100
AcDbEntity
  8
TASTEN
100
AcDbPolyline
 90
        8
 70
     1
 43
0.0
 10
224.1881480017128
 20
115.9252569156173
 10
236.0128980017128
 20
115.9252569156174
 42
0.4142135623730948
 10
236.3507480017128
 20
116.2631069156174
 10
236.3507480017128
 20
128.0878569156174
 42
0.4142135623730956
 10
236.0128980017128
 20
128.4257069156174
 10
224.1881480017128
 20
128.4257069156173
 42
0.4142135623730951
 10
223.8502980017128
 20
128.0878569156174
 10
223.8502980017128
 20
116.2631069156173
 42
0.4142135623730956
  0
LWPOLYLINE
  5
27CC6
102
{ACAD_REACTORS
330
27CCB
102
}
330
18
100
AcDbEntity
  8
TASTEN
100
AcDbPolyline
 90
        8
 70
     1
 43
0.0
 10
224.8638480017128
 20
116.2631069156173
 10
235.3371980017128
 20
116.2631069156173
 42
0.4142135623730951
 10
236.0128980017128
 20
116.9388069156173
 10
236.0128980017128
 20
127.4121569156174
 42
0.4142135623730951
 10
235.3371980017128
 20
128.0878569156174
 10
224.8638480017128
 20
128.0878569156174
 42
0.4142135623730951
 10
224.1881480017128
 20
127.4121569156174
 10
224.1881480017128
 20
116.9388069156173
 42
0.4142135623730951
  0
LWPOLYLINE
  5
27CCC
102
{ACAD_REACTORS
330
27CDB
102
}
330
18
100
AcDbEntity
  8
BLECH
  6
CONTINUOUS
100
AcDbPolyline
 90
        4
 70
     1
 43
0.0
 10
243.3505230017128
 20
199.9294641622374
 10
256.8505230017128
 20
199.9294641622374
 10
256.8505230017128
 20
213.4294641622374
 10
243.3505230017128
 20
213.4294641622374
  0
LWPOLYLINE
  5
27CCD
102
{ACAD_REACTORS
330
27CDB
102
}
330
18
100
AcDbEntity
  8
TASTEN
100
AcDbPolyline
 90
        8
 70
     1
 43
0.0
 10
244.1881480017128
 20
200.4290141622373
 10
256.0128980017128
 20
200.4290141622374
 42
0.4142135623730948
 10
256.3507480017128
 20
200.7668641622374
 10
256.3507480017128
 20
212.5916141622374
 42
0.4142135623730956
 10
256.0128980017128
 20
212.9294641622374
 10
244.1881480017128
 20
212.9294641622374
 42
0.4142135623730951
 10
243.8502980017128
 20
212.5916141622374
 10
243.8502980017128
 20
200.7668641622374
 42
0.4142135623730956
  0
LWPOLYLINE
  5
27CCE
102
{ACAD_REACTORS
330
27CDB
102
}
330
18
100
AcDbEntity
  8
TASTEN
100
AcDbPolyline
 90
        8
 70
     1
 43
0.0
 10
244.8638480017129
 20
200.7668641622374
 10
255.3371980017128
 20
200.7668641622374
 42
0.4142135623730951
 10
256.0128980017128
 20
201.4425641622374
 10
256.0128980017128
 20
211.9159141622374
 42
0.4142135623730951
 10
255.3371980017128
 20
212.5916141622374
 10
244.8638480017129
 20
212.5916141622374
 42
0.4142135623730951
 10
244.1881480017128
 20
211.9159141622374
 10
244.1881480017128
 20
201.4425641622374
 42
0.4142135623730951
  0
LWPOLYLINE
  5
27CCF
102
{ACAD_REACTORS
330
27CDC
102
}
330
18
100
AcDbEntity
  8
BLECH
  6
CONTINUOUS
100
AcDbPolyline
 90
        4
 70
     1
 43
0.0
 10
243.3505230017128
 20
179.9294641622374
 10
256.8505230017128
 20
179.9294641622374
 10
256.8505230017128
 20
193.4294641622374
 10
243.3505230017128
 20
193.4294641622374
  0
LWPOLYLINE
  5
27CD0
102
{ACAD_REACTORS
330
27CDC
102
}
330
18
100
AcDbEntity
  8
TASTEN
100
AcDbPolyline
 90
        8
 70
     1
 43
0.0
 10
244.1881480017128
 20
180.4290141622374
 10
256.0128980017128
 20
180.4290141622374
 42
0.4142135623730948
 10
256.3507480017128
 20
180.7668641622374
 10
256.3507480017128
 20
192.5916141622374
 42
0.4142135623730956
 10
256.0128980017128
 20
192.9294641622374
 10
244.1881480017128
 20
192.9294641622373
 42
0.4142135623730951
 10
243.8502980017128
 20
192.5916141622374
 10
243.8502980017128
 20
180.7668641622374
 42
0.4142135623730956
  0
LWPOLYLINE
  5
27CD1
102
{ACAD_REACTORS
330
27CDC
102
}
330
18
100
AcDbEntity
  8
TASTEN
100
AcDbPolyline
 90
        8
 70
     1
 43
0.0
 10
244.8638480017129
 20
180.7668641622374
 10
255.3371980017128
 20
180.7668641622374
 42
0.4142135623730951
 10
256.0128980017128
 20
181.4425641622374
 10
256.0128980017128
 20
191.9159141622374
 42
0.4142135623730951
 10
255.3371980017128
 20
192.5916141622374
 10
244.8638480017129
 20
192.5916141622374
 42
0.4142135623730951
 10
244.1881480017128
 20
191.9159141622374
 10
244.1881480017128
 20
181.4425641622374
 42
0.4142135623730951
  0
LWPOLYLINE
  5
27CD2
102
{ACAD_REACTORS
330
27CDD
102
}
330
18
100
AcDbEntity
  8
BLECH
  6
CONTINUOUS
100
AcDbPolyline
 90
        4
 70
     1
 43
0.0
 10
243.3505230017128
 20
159.9294641622374
 10
256.8505230017128
 20
159.9294641622374
 10
256.8505230017128
 20
173.4294641622374
 10
243.3505230017128
 20
173.4294641622374
  0
LWPOLYLINE
  5
27CD3
102
{ACAD_REACTORS
330
27CDD
102
}
330
18
100
AcDbEntity
  8
TASTEN
100
AcDbPolyline
 90
        8
 70
     1
 43
0.0
 10
244.1881480017128
 20
160.4290141622374
 10
256.0128980017128
 20
160.4290141622374
 42
0.4142135623730948
 10
256.3507480017128
 20
160.7668641622374
 10
256.3507480017128
 20
172.5916141622374
 42
0.4142135623730956
 10
256.0128980017128
 20
172.9294641622374
 10
244.1881480017128
 20
172.9294641622374
 42
0.4142135623730951
 10
243.8502980017128
 20
172.5916141622374
 10
243.8502980017128
 20
160.7668641622374
 42
0.4142135623730956
  0
LWPOLYLINE
  5
27CD4
102
{ACAD_REACTORS
330
27CDD
102
}
330
18
100
AcDbEntity
  8
TASTEN
100
AcDbPolyline
 90
        8
 70
     1
 43
0.0
 10
244.8638480017129
 20
160.7668641622374
 10
255.3371980017128
 20
160.7668641622374
 42
0.4142135623730951
 10
256.0128980017128
 20
161.4425641622374
 10
256.0128980017128
 20
171.9159141622374
 42
0.4142135623730951
 10
255.3371980017128
 20
172.5916141622374
 10
244.8638480017129
 20
172.5916141622374
 42
0.4142135623730951
 10
244.1881480017128
 20
171.9159141622374
 10
244.1881480017128
 20
161.4425641622374
 42
0.4142135623730951
  0
LWPOLYLINE
  5
27CD5
102
{ACAD_REACTORS
330
27CDE
102
}
330
18
100
AcDbEntity
  8
BLECH
  6
CONTINUOUS
100
AcDbPolyline
 90
        4
 70
     1
 43
0.0
 10
243.3505230017128
 20
135.4257069156174
 10
256.8505230017128
 20
135.4257069156174
 10
256.8505230017128
 20
148.9257069156174
 10
243.3505230017128
 20
148.9257069156174
  0
LWPOLYLINE
  5
27CD6
102
{ACAD_REACTORS
330
27CDE
102
}
330
18
100
AcDbEntity
  8
TASTEN
100
AcDbPolyline
 90
        8
 70
     1
 43
0.0
 10
244.1881480017128
 20
135.9252569156173
 10
256.0128980017128
 20
135.9252569156174
 42
0.4142135623730948
 10
256.3507480017128
 20
136.2631069156174
 10
256.3507480017128
 20
148.0878569156174
 42
0.4142135623730956
 10
256.0128980017128
 20
148.4257069156174
 10
244.1881480017128
 20
148.4257069156173
 42
0.4142135623730951
 10
243.8502980017128
 20
148.0878569156174
 10
243.8502980017128
 20
136.2631069156173
 42
0.4142135623730956
  0
LWPOLYLINE
  5
27CD7
102
{ACAD_REACTORS
330
27CDE
102
}
330
18
100
AcDbEntity
  8
TASTEN
100
AcDbPolyline
 90
        8
 70
     1
 43
0.0
 10
244.8638480017129
 20
136.2631069156173
 10
255.3371980017128
 20
136.2631069156173
 42
0.4142135623730951
 10
256.0128980017128
 20
136.9388069156173
 10
256.0128980017128
 20
147.4121569156173
 42
0.4142135623730951
 10
255.3371980017128
 20
148.0878569156174
 10
244.8638480017129
 20
148.0878569156174
 42
0.4142135623730951
 10
244.1881480017128
 20
147.4121569156173
 10
244.1881480017128
 20
136.9388069156173
 42
0.4142135623730951
  0
LWPOLYLINE
  5
27CD8
102
{ACAD_REACTORS
330
27CDF
102
}
330
18
100
AcDbEntity
  8
BLECH
  6
CONTINUOUS
100
AcDbPolyline
 90
        4
 70
     1
 43
0.0
 10
243.3505230017128
 20
115.4257069156174
 10
256.8505230017128
 20
115.4257069156174
 10
256.8505230017128
 20
128.9257069156174
 10
243.3505230017128
 20
128.9257069156174
  0
LWPOLYLINE
  5
27CD9
102
{ACAD_REACTORS
330
27CDF
102
}
330
18
100
AcDbEntity
  8
TASTEN
100
AcDbPolyline
 90
        8
 70
     1
 43
0.0
 10
244.1881480017128
 20
115.9252569156173
 10
256.0128980017128
 20
115.9252569156174
 42
0.4142135623730948
 10
256.3507480017128
 20
116.2631069156174
 10
256.3507480017128
 20
128.0878569156174
 42
0.4142135623730956
 10
256.0128980017128
 20
128.4257069156174
 10
244.1881480017128
 20
128.4257069156173
 42
0.4142135623730951
 10
243.8502980017128
 20
128.0878569156174
 10
243.8502980017128
 20
116.2631069156173
 42
0.4142135623730956
  0
LWPOLYLINE
  5
27CDA
102
{ACAD_REACTORS
330
27CDF
102
}
330
18
100
AcDbEntity
  8
TASTEN
100
AcDbPolyline
 90
        8
 70
     1
 43
0.0
 10
244.8638480017129
 20
116.2631069156173
 10
255.3371980017128
 20
116.2631069156173
 42
0.4142135623730951
 10
256.0128980017128
 20
116.9388069156173
 10
256.0128980017128
 20
127.4121569156174
 42
0.4142135623730951
 10
255.3371980017128
 20
128.0878569156174
 10
244.8638480017129
 20
128.0878569156174
 42
0.4142135623730951
 10
244.1881480017128
 20
127.4121569156174
 10
244.1881480017128
 20
116.9388069156173
 42
0.4142135623730951
  0
LWPOLYLINE
  5
27CE0
102
{ACAD_REACTORS
330
27CEF
102
}
330
18
100
AcDbEntity
  8
BLECH
  6
CONTINUOUS
100
AcDbPolyline
 90
        4
 70
     1
 43
0.0
 10
263.3505230017128
 20
199.9294641622374
 10
276.8505230017128
 20
199.9294641622374
 10
276.8505230017128
 20
213.4294641622374
 10
263.3505230017128
 20
213.4294641622374
  0
LWPOLYLINE
  5
27CE1
102
{ACAD_REACTORS
330
27CEF
102
}
330
18
100
AcDbEntity
  8
TASTEN
100
AcDbPolyline
 90
        8
 70
     1
 43
0.0
 10
264.1881480017128
 20
200.4290141622373
 10
276.0128980017128
 20
200.4290141622374
 42
0.4142135623730948
 10
276.3507480017128
 20
200.7668641622374
 10
276.3507480017128
 20
212.5916141622374
 42
0.4142135623730956
 10
276.0128980017128
 20
212.9294641622374
 10
264.1881480017128
 20
212.9294641622374
 42
0.4142135623730951
 10
263.8502980017128
 20
212.5916141622374
 10
263.8502980017128
 20
200.7668641622374
 42
0.4142135623730956
  0
LWPOLYLINE
  5
27CE2
102
{ACAD_REACTORS
330
27CEF
102
}
330
18
100
AcDbEntity
  8
TASTEN
100
AcDbPolyline
 90
        8
 70
     1
 43
0.0
 10
264.8638480017128
 20
200.7668641622374
 10
275.3371980017128
 20
200.7668641622374
 42
0.4142135623730951
 10
276.0128980017128
 20
201.4425641622374
 10
276.0128980017128
 20
211.9159141622374
 42
0.4142135623730951
 10
275.3371980017128
 20
212.5916141622374
 10
264.8638480017128
 20
212.5916141622374
 42
0.4142135623730951
 10
264.1881480017128
 20
211.9159141622374
 10
264.1881480017128
 20
201.4425641622374
 42
0.4142135623730951
  0
LWPOLYLINE
  5
27CE3
102
{ACAD_REACTORS
330
27CF0
102
}
330
18
100
AcDbEntity
  8
BLECH
  6
CONTINUOUS
100
AcDbPolyline
 90
        4
 70
     1
 43
0.0
 10
263.3505230017128
 20
179.9294641622374
 10
276.8505230017128
 20
179.9294641622374
 10
276.8505230017128
 20
193.4294641622374
 10
263.3505230017128
 20
193.4294641622374
  0
LWPOLYLINE
  5
27CE4
102
{ACAD_REACTORS
330
27CF0
102
}
330
18
100
AcDbEntity
  8
TASTEN
100
AcDbPolyline
 90
        8
 70
     1
 43
0.0
 10
264.1881480017128
 20
180.4290141622374
 10
276.0128980017128
 20
180.4290141622374
 42
0.4142135623730948
 10
276.3507480017128
 20
180.7668641622374
 10
276.3507480017128
 20
192.5916141622374
 42
0.4142135623730956
 10
276.0128980017128
 20
192.9294641622374
 10
264.1881480017128
 20
192.9294641622373
 42
0.4142135623730951
 10
263.8502980017128
 20
192.5916141622374
 10
263.8502980017128
 20
180.7668641622374
 42
0.4142135623730956
  0
LWPOLYLINE
  5
27CE5
102
{ACAD_REACTORS
330
27CF0
102
}
330
18
100
AcDbEntity
  8
TASTEN
100
AcDbPolyline
 90
        8
 70
     1
 43
0.0
 10
264.8638480017128
 20
180.7668641622374
 10
275.3371980017128
 20
180.7668641622374
 42
0.4142135623730951
 10
276.0128980017128
 20
181.4425641622374
 10
276.0128980017128
 20
191.9159141622374
 42
0.4142135623730951
 10
275.3371980017128
 20
192.5916141622374
 10
264.8638480017128
 20
192.5916141622374
 42
0.4142135623730951
 10
264.1881480017128
 20
191.9159141622374
 10
264.1881480017128
 20
181.4425641622374
 42
0.4142135623730951
  0
LWPOLYLINE
  5
27CE6
102
{ACAD_REACTORS
330
27CF1
102
}
330
18
100
AcDbEntity
  8
BLECH
  6
CONTINUOUS
100
AcDbPolyline
 90
        4
 70
     1
 43
0.0
 10
263.3505230017128
 20
159.9294641622374
 10
276.8505230017128
 20
159.9294641622374
 10
276.8505230017128
 20
173.4294641622374
 10
263.3505230017128
 20
173.4294641622374
  0
LWPOLYLINE
  5
27CE7
102
{ACAD_REACTORS
330
27CF1
102
}
330
18
100
AcDbEntity
  8
TASTEN
100
AcDbPolyline
 90
        8
 70
     1
 43
0.0
 10
264.1881480017128
 20
160.4290141622374
 10
276.0128980017128
 20
160.4290141622374
 42
0.4142135623730948
 10
276.3507480017128
 20
160.7668641622374
 10
276.3507480017128
 20
172.5916141622374
 42
0.4142135623730956
 10
276.0128980017128
 20
172.9294641622374
 10
264.1881480017128
 20
172.9294641622374
 42
0.4142135623730951
 10
263.8502980017128
 20
172.5916141622374
 10
263.8502980017128
 20
160.7668641622374
 42
0.4142135623730956
  0
LWPOLYLINE
  5
27CE8
102
{ACAD_REACTORS
330
27CF1
102
}
330
18
100
AcDbEntity
  8
TASTEN
100
AcDbPolyline
 90
        8
 70
     1
 43
0.0
 10
264.8638480017128
 20
160.7668641622374
 10
275.3371980017128
 20
160.7668641622374
 42
0.4142135623730951
 10
276.0128980017128
 20
161.4425641622374
 10
276.0128980017128
 20
171.9159141622374
 42
0.4142135623730951
 10
275.3371980017128
 20
172.5916141622374
 10
264.8638480017128
 20
172.5916141622374
 42
0.4142135623730951
 10
264.1881480017128
 20
171.9159141622374
 10
264.1881480017128
 20
161.4425641622374
 42
0.4142135623730951
  0
LWPOLYLINE
  5
27CE9
102
{ACAD_REACTORS
330
27CF2
102
}
330
18
100
AcDbEntity
  8
BLECH
  6
CONTINUOUS
100
AcDbPolyline
 90
        4
 70
     1
 43
0.0
 10
263.3505230017128
 20
135.4257069156174
 10
276.8505230017128
 20
135.4257069156174
 10
276.8505230017128
 20
148.9257069156174
 10
263.3505230017128
 20
148.9257069156174
  0
LWPOLYLINE
  5
27CEA
102
{ACAD_REACTORS
330
27CF2
102
}
330
18
100
AcDbEntity
  8
TASTEN
100
AcDbPolyline
 90
        8
 70
     1
 43
0.0
 10
264.1881480017128
 20
135.9252569156173
 10
276.0128980017128
 20
135.9252569156174
 42
0.4142135623730948
 10
276.3507480017128
 20
136.2631069156174
 10
276.3507480017128
 20
148.0878569156174
 42
0.4142135623730956
 10
276.0128980017128
 20
148.4257069156174
 10
264.1881480017128
 20
148.4257069156173
 42
0.4142135623730951
 10
263.8502980017128
 20
148.0878569156174
 10
263.8502980017128
 20
136.2631069156173
 42
0.4142135623730956
  0
LWPOLYLINE
  5
27CEB
102
{ACAD_REACTORS
330
27CF2
102
}
330
18
100
AcDbEntity
  8
TASTEN
100
AcDbPolyline
 90
        8
 70
     1
 43
0.0
 10
264.8638480017128
 20
136.2631069156173
 10
275.3371980017128
 20
136.2631069156173
 42
0.4142135623730951
 10
276.0128980017128
 20
136.9388069156173
 10
276.0128980017128
 20
147.4121569156173
 42
0.4142135623730951
 10
275.3371980017128
 20
148.0878569156174
 10
264.8638480017128
 20
148.0878569156174
 42
0.4142135623730951
 10
264.1881480017128
 20
147.4121569156173
 10
264.1881480017128
 20
136.9388069156173
 42
0.4142135623730951
  0
LWPOLYLINE
  5
27CEC
102
{ACAD_REACTORS
330
27CF3
102
}
330
18
100
AcDbEntity
  8
BLECH
  6
CONTINUOUS
100
AcDbPolyline
 90
        4
 70
     1
 43
0.0
 10
263.3505230017128
 20
115.4257069156174
 10
276.8505230017128
 20
115.4257069156174
 10
276.8505230017128
 20
128.9257069156174
 10
263.3505230017128
 20
128.9257069156174
  0
LWPOLYLINE
  5
27CED
102
{ACAD_REACTORS
330
27CF3
102
}
330
18
100
AcDbEntity
  8
TASTEN
100
AcDbPolyline
 90
        8
 70
     1
 43
0.0
 10
264.1881480017128
 20
115.9252569156173
 10
276.0128980017128
 20
115.9252569156174
 42
0.4142135623730948
 10
276.3507480017128
 20
116.2631069156174
 10
276.3507480017128
 20
128.0878569156174
 42
0.4142135623730956
 10
276.0128980017128
 20
128.4257069156174
 10
264.1881480017128
 20
128.4257069156173
 42
0.4142135623730951
 10
263.8502980017128
 20
128.0878569156174
 10
263.8502980017128
 20
116.2631069156173
 42
0.4142135623730956
  0
LWPOLYLINE
  5
27CEE
102
{ACAD_REACTORS
330
27CF3
102
}
330
18
100
AcDbEntity
  8
TASTEN
100
AcDbPolyline
 90
        8
 70
     1
 43
0.0
 10
264.8638480017128
 20
116.2631069156173
 10
275.3371980017128
 20
116.2631069156173
 42
0.4142135623730951
 10
276.0128980017128
 20
116.9388069156173
 10
276.0128980017128
 20
127.4121569156174
 42
0.4142135623730951
 10
275.3371980017128
 20
128.0878569156174
 10
264.8638480017128
 20
128.0878569156174
 42
0.4142135623730951
 10
264.1881480017128
 20
127.4121569156174
 10
264.1881480017128
 20
116.9388069156173
 42
0.4142135623730951
  0
INSERT
  5
27CF4
330
18
100
AcDbEntity
  8
BLECH
100
AcDbBlockReference
  2
A$C1BF1606D
 10
272.7861797506741
 20
228.7003598645924
 30
0.0
  0
INSERT
  5
27CF5
330
18
100
AcDbEntity
  8
BLECH
100
AcDbBlockReference
  2
A$C1BF1606D
 10
122.7955098171401
 20
106.626150390844
 30
0.0
  0
INSERT
  5
27CF6
330
18
100
AcDbEntity
  8
BLECH
100
AcDbBlockReference
  2
A$C1BF1606D
 10
272.7861797506741
 20
106.626150390844
 30
0.0
  0
CIRCLE
  5
27CF8
102
{ACAD_REACTORS
330
27CFA
102
}
330
18
100
AcDbEntity
  8
BLECH
100
AcDbCircle
 10
160.2359674623854
 20
176.9395686011308
 30
0.0
 40
2.5
  0
LWPOLYLINE
  5
27CF9
102
{ACAD_REACTORS
330
27CFA
102
}
330
18
100
AcDbEntity
  8
BLECH
100
AcDbPolyline
 90
        6
 70
     1
 43
0.0
 10
159.7690294790626
 20
177.7483289122297
 10
159.3020914957397
 20
176.9395686011308
 10
159.7690294790626
 20
176.1308082900319
 10
160.7029054457083
 20
176.1308082900319
 10
161.1698434290311
 20
176.9395686011308
 10
160.7029054457083
 20
177.7483289122297
  0
CIRCLE
  5
27CFB
102
{ACAD_REACTORS
330
27CFD
102
}
330
18
100
AcDbEntity
  8
BLECH
100
AcDbCircle
 10
160.2359674623854
 20
122.0494311126705
 30
0.0
 40
2.5
  0
LWPOLYLINE
  5
27CFC
102
{ACAD_REACTORS
330
27CFD
102
}
330
18
100
AcDbEntity
  8
BLECH
100
AcDbPolyline
 90
        6
 70
     1
 43
0.0
 10
159.7690294790626
 20
122.8581914237694
 10
159.3020914957397
 20
122.0494311126705
 10
159.7690294790626
 20
121.2406708015715
 10
160.7029054457083
 20
121.2406708015715
 10
161.1698434290311
 20
122.0494311126705
 10
160.7029054457083
 20
122.8581914237694
  0
CIRCLE
  5
27CFE
102
{ACAD_REACTORS
330
27D00
102
}
330
18
100
AcDbEntity
  8
BLECH
100
AcDbCircle
 10
240.3457208014235
 20
219.1590424030745
 30
0.0
 40
2.5
  0
LWPOLYLINE
  5
27CFF
102
{ACAD_REACTORS
330
27D00
102
}
330
18
100
AcDbEntity
  8
BLECH
100
AcDbPolyline
 90
        6
 70
     1
 43
0.0
 10
239.8787828181007
 20
219.9678027141734
 10
239.4118448347778
 20
219.1590424030745
 10
239.8787828181007
 20
218.3502820919756
 10
240.8126587847464
 20
218.3502820919756
 10
241.2795967680692
 20
219.1590424030745
 10
240.8126587847464
 20
219.9678027141734
  0
CIRCLE
  5
27D01
102
{ACAD_REACTORS
330
27D03
102
}
330
18
100
AcDbEntity
  8
BLECH
100
AcDbCircle
 10
240.3457208014235
 20
176.9395686011308
 30
0.0
 40
2.5
  0
LWPOLYLINE
  5
27D02
102
{ACAD_REACTORS
330
27D03
102
}
330
18
100
AcDbEntity
  8
BLECH
100
AcDbPolyline
 90
        6
 70
     1
 43
0.0
 10
239.8787828181007
 20
177.7483289122297
 10
239.4118448347778
 20
176.9395686011308
 10
239.8787828181007
 20
176.1308082900319
 10
240.8126587847464
 20
176.1308082900319
 10
241.2795967680692
 20
176.9395686011308
 10
240.8126587847464
 20
177.7483289122297
  0
CIRCLE
  5
27D04
102
{ACAD_REACTORS
330
27D06
102
}
330
18
100
AcDbEntity
  8
BLECH
100
AcDbCircle
 10
240.3457208014235
 20
122.0494311126705
 30
0.0
 40
2.5
  0
LWPOLYLINE
  5
27D05
102
{ACAD_REACTORS
330
27D06
102
}
330
18
100
AcDbEntity
  8
BLECH
100
AcDbPolyline
 90
        6
 70
     1
 43
0.0
 10
239.8787828181007
 20
122.8581914237694
 10
239.4118448347778
 20
122.0494311126705
 10
239.8787828181007
 20
121.2406708015715
 10
240.8126587847464
 20
121.2406708015715
 10
241.2795967680692
 20
122.0494311126705
 10
240.8126587847464
 20
122.8581914237694
  0
ENDSEC
  0
SECTION
  2
OBJECTS
  0
DICTIONARY
  5
C
330
0
100
AcDbDictionary
  3
ACAD_GROUP
350
D
  3
ACAD_LAYOUT
350
1B1E4
  3
ACAD_MLINESTYLE
350
1B
  3
ACAD_PLOTSETTINGS
350
1B1E5
  3
ACAD_PLOTSTYLENAME
350
1B1E2
  3
ACDBHEADERROUNDTRIPXREC
350
27D48
  3
ACDBVARIABLEDICTIONARY
350
9820
  0
DICTIONARY
  5
9822
330
18
100
AcDbDictionary
280
     1
  3
ACAD_LAYOUTSELFREF
360
27D6A
  3
ACAD_SORTENTS
360
9823
  0
DICTIONARY
  5
2663A
330
15
100
AcDbDictionary
280
     1
  3
ACAD_LAYOUTSELFREF
360
27D69
  0
DICTIONARY
  5
D
102
{ACAD_REACTORS
330
C
102
}
330
C
100
AcDbDictionary
  3
*A1
350
981F
  3
*A10
350
9D2A
  3
*A11
350
21E84
  3
*A12
350
1BD83
  3
*A13
350
A22E
  3
*A14
350
A49A
  3
*A15
350
A49B
  3
*A16
350
194F7
  3
*A17
350
194F5
  3
*A18
350
1BD86
  3
*A19
350
194F8
  3
*A2
350
A22D
  3
*A20
350
9D4A
  3
*A21
350
9FC0
  3
*A22
350
9FC1
  3
*A23
350
1BD84
  3
*A24
350
1BD82
  3
*A25
350
1FC80
  3
*A26
350
1BD85
  3
*A27
350
2601A
  3
*A28
350
2601B
  3
*A29
350
1BD87
  3
*A3
350
1BD88
  3
*A30
350
265C2
  3
*A31
350
27C57
  3
*A32
350
27C5B
  3
*A33
350
27C5F
  3
*A34
350
27C63
  3
*A35
350
27C67
  3
*A36
350
27C77
  3
*A37
350
27C78
  3
*A38
350
27C79
  3
*A39
350
27C7A
  3
*A4
350
194F6
  3
*A40
350
27C7B
  3
*A41
350
27C8B
  3
*A42
350
27C8C
  3
*A43
350
27C8D
  3
*A44
350
27C8E
  3
*A45
350
27C8F
  3
*A46
350
27C9F
  3
*A47
350
27CA0
  3
*A48
350
27CA1
  3
*A49
350
27CA2
  3
*A5
350
1BD89
  3
*A50
350
27CA3
  3
*A51
350
27CB3
  3
*A52
350
27CB4
  3
*A53
350
27CB5
  3
*A54
350
27CB6
  3
*A55
350
27CB7
  3
*A56
350
27CC7
  3
*A57
350
27CC8
  3
*A58
350
27CC9
  3
*A59
350
27CCA
  3
*A6
350
1BD8A
  3
*A60
350
27CCB
  3
*A61
350
27CDB
  3
*A62
350
27CDC
  3
*A63
350
27CDD
  3
*A64
350
27CDE
  3
*A65
350
27CDF
  3
*A66
350
27CEF
  3
*A67
350
27CF0
  3
*A68
350
27CF1
  3
*A69
350
27CF2
  3
*A7
350
1BD8B
  3
*A70
350
27CF3
  3
*A71
350
27CF7
  3
*A72
350
27CFA
  3
*A73
350
27CFD
  3
*A74
350
27D00
  3
*A75
350
27D03
  3
*A76
350
27D06
  3
*A8
350
1FC8F
  3
*A9
350
1BD8C
  0
DICTIONARY
  5
1B1E4
102
{ACAD_REACTORS
330
C
102
}
330
C
100
AcDbDictionary
  0
DICTIONARY
  5
1B
102
{ACAD_REACTORS
330
C
102
}
330
C
100
AcDbDictionary
  3
STANDARD
350
1C
  0
DICTIONARY
  5
1B1E5
102
{ACAD_REACTORS
330
C
102
}
330
C
100
AcDbDictionary
  0
ACDBDICTIONARYWDFLT
  5
1B1E2
102
{ACAD_REACTORS
330
C
102
}
330
C
100
AcDbDictionary
281
     1
  3
Normal
350
1B1E3
100
AcDbDictionaryWithDefault
340
1B1E3
  0
DICTIONARY
  5
27D48
102
{ACAD_REACTORS
330
C
102
}
330
C
100
AcDbDictionary
  3
CEPSNTYPE
350
27D52
  3
DIMSTYLEDATA
350
27D56
  3
FINGERPRINTGUID
350
27D53
  3
HYPERLINKBASE
350
27D4B
  3
INSUNITS
350
27D51
  3
LAYOUTDICT
350
27D4D
  3
LWETCUNION
350
27D50
  3
PLOTSETDICT
350
27D4E
  3
PLOTSTYLNAMDICT
350
27D4F
  3
PSVPSCALE
350
27D55
  3
PUCSBASE
350
27D59
  3
PUCSORGBACK
350
27D5F
  3
PUCSORGBOTTOM
350
27D5B
  3
PUCSORGFRONT
350
27D5E
  3
PUCSORGLEFT
350
27D5C
  3
PUCSORGRIGHT
350
27D5D
  3
PUCSORGTOP
350
27D5A
  3
PUCSORTHOREF
350
27D57
  3
PUCSORTHOVIEW
350
27D58
  3
STYLESHEET
350
27D4C
  3
TSTACKALIGN
350
27D49
  3
TSTACKSIZE
350
27D4A
  3
UCSBASE
350
27D62
  3
UCSORGBACK
350
27D68
  3
UCSORGBOTTOM
350
27D64
  3
UCSORGFRONT
350
27D67
  3
UCSORGLEFT
350
27D65
  3
UCSORGRIGHT
350
27D66
  3
UCSORGTOP
350
27D63
  3
UCSORTHOREF
350
27D60
  3
UCSORTHOVIEW
350
27D61
  3
VERSIONGUID
350
27D54
  0
DICTIONARY
  5
9820
102
{ACAD_REACTORS
330
C
102
}
330
C
100
AcDbDictionary
  3
DIMASSOC
350
1FD3B
  3
SORTENTS
350
9821
  0
XRECORD
  5
27D6A
102
{ACAD_REACTORS
330
9822
102
}
330
9822
100
AcDbXrecord
340
18
  0
SORTENTSTABLE
  5
9823
102
{ACAD_REACTORS
330
9822
102
}
330
9822
100
AcDbSortentsTable
330
18
  0
XRECORD
  5
27D69
102
{ACAD_REACTORS
330
2663A
102
}
330
2663A
100
AcDbXrecord
340
15
  0
GROUP
  5
981F
102
{ACAD_REACTORS
330
D
102
}
330
D
100
AcDbGroup
300

 70
     1
 71
     1
  0
GROUP
  5
9D2A
102
{ACAD_REACTORS
330
D
102
}
330
D
100
AcDbGroup
300

 70
     1
 71
     1
  0
GROUP
  5
21E84
102
{ACAD_REACTORS
330
D
102
}
330
D
100
AcDbGroup
300

 70
     1
 71
     1
  0
GROUP
  5
1BD83
102
{ACAD_REACTORS
330
D
102
}
330
D
100
AcDbGroup
300

 70
     1
 71
     1
  0
GROUP
  5
A22E
102
{ACAD_REACTORS
330
D
102
}
330
D
100
AcDbGroup
300

 70
     1
 71
     1
  0
GROUP
  5
A49A
102
{ACAD_REACTORS
330
D
102
}
330
D
100
AcDbGroup
300

 70
     1
 71
     1
  0
GROUP
  5
A49B
102
{ACAD_REACTORS
330
D
102
}
330
D
100
AcDbGroup
300

 70
     1
 71
     1
  0
GROUP
  5
194F7
102
{ACAD_REACTORS
330
D
102
}
330
D
100
AcDbGroup
300

 70
     1
 71
     1
  0
GROUP
  5
194F5
102
{ACAD_REACTORS
330
D
102
}
330
D
100
AcDbGroup
300

 70
     1
 71
     1
  0
GROUP
  5
1BD86
102
{ACAD_REACTORS
330
D
102
}
330
D
100
AcDbGroup
300

 70
     1
 71
     1
  0
GROUP
  5
194F8
102
{ACAD_REACTORS
330
D
102
}
330
D
100
AcDbGroup
300

 70
     1
 71
     1
  0
GROUP
  5
A22D
102
{ACAD_REACTORS
330
D
102
}
330
D
100
AcDbGroup
300

 70
     1
 71
     1
  0
GROUP
  5
9D4A
102
{ACAD_REACTORS
330
D
102
}
330
D
100
AcDbGroup
300

 70
     1
 71
     1
  0
GROUP
  5
9FC0
102
{ACAD_REACTORS
330
D
102
}
330
D
100
AcDbGroup
300

 70
     1
 71
     1
  0
GROUP
  5
9FC1
102
{ACAD_REACTORS
330
D
102
}
330
D
100
AcDbGroup
300

 70
     1
 71
     1
  0
GROUP
  5
1BD84
102
{ACAD_REACTORS
330
D
102
}
330
D
100
AcDbGroup
300

 70
     1
 71
     1
  0
GROUP
  5
1BD82
102
{ACAD_REACTORS
330
D
102
}
330
D
100
AcDbGroup
300

 70
     1
 71
     1
  0
GROUP
  5
1FC80
102
{ACAD_REACTORS
330
D
102
}
330
D
100
AcDbGroup
300

 70
     1
 71
     1
  0
GROUP
  5
1BD85
102
{ACAD_REACTORS
330
D
102
}
330
D
100
AcDbGroup
300

 70
     1
 71
     1
  0
GROUP
  5
2601A
102
{ACAD_REACTORS
330
D
102
}
330
D
100
AcDbGroup
300

 70
     1
 71
     1
  0
GROUP
  5
2601B
102
{ACAD_REACTORS
330
D
102
}
330
D
100
AcDbGroup
300

 70
     1
 71
     1
  0
GROUP
  5
1BD87
102
{ACAD_REACTORS
330
D
102
}
330
D
100
AcDbGroup
300

 70
     1
 71
     1
  0
GROUP
  5
1BD88
102
{ACAD_REACTORS
330
D
102
}
330
D
100
AcDbGroup
300

 70
     1
 71
     1
  0
GROUP
  5
265C2
102
{ACAD_REACTORS
330
D
102
}
330
D
100
AcDbGroup
300

 70
     1
 71
     1
  0
GROUP
  5
27C57
102
{ACAD_REACTORS
330
D
102
}
330
D
100
AcDbGroup
300

 70
     1
 71
     1
340
27C56
340
27C55
340
27C54
  0
GROUP
  5
27C5B
102
{ACAD_REACTORS
330
D
102
}
330
D
100
AcDbGroup
300

 70
     1
 71
     1
340
27C5A
340
27C59
340
27C58
  0
GROUP
  5
27C5F
102
{ACAD_REACTORS
330
D
102
}
330
D
100
AcDbGroup
300

 70
     1
 71
     1
340
27C5E
340
27C5D
340
27C5C
  0
GROUP
  5
27C63
102
{ACAD_REACTORS
330
D
102
}
330
D
100
AcDbGroup
300

 70
     1
 71
     1
340
27C62
340
27C61
340
27C60
  0
GROUP
  5
27C67
102
{ACAD_REACTORS
330
D
102
}
330
D
100
AcDbGroup
300

 70
     1
 71
     1
340
27C66
340
27C65
340
27C64
  0
GROUP
  5
27C77
102
{ACAD_REACTORS
330
D
102
}
330
D
100
AcDbGroup
300

 70
     1
 71
     1
340
27C6A
340
27C69
340
27C68
  0
GROUP
  5
27C78
102
{ACAD_REACTORS
330
D
102
}
330
D
100
AcDbGroup
300

 70
     1
 71
     1
340
27C6D
340
27C6C
340
27C6B
  0
GROUP
  5
27C79
102
{ACAD_REACTORS
330
D
102
}
330
D
100
AcDbGroup
300

 70
     1
 71
     1
340
27C70
340
27C6F
340
27C6E
  0
GROUP
  5
27C7A
102
{ACAD_REACTORS
330
D
102
}
330
D
100
AcDbGroup
300

 70
     1
 71
     1
340
27C73
340
27C72
340
27C71
  0
GROUP
  5
194F6
102
{ACAD_REACTORS
330
D
102
}
330
D
100
AcDbGroup
300

 70
     1
 71
     1
  0
GROUP
  5
27C7B
102
{ACAD_REACTORS
330
D
102
}
330
D
100
AcDbGroup
300

 70
     1
 71
     1
340
27C76
340
27C75
340
27C74
  0
GROUP
  5
27C8B
102
{ACAD_REACTORS
330
D
102
}
330
D
100
AcDbGroup
300

 70
     1
 71
     1
340
27C7E
340
27C7D
340
27C7C
  0
GROUP
  5
27C8C
102
{ACAD_REACTORS
330
D
102
}
330
D
100
AcDbGroup
300

 70
     1
 71
     1
340
27C81
340
27C80
340
27C7F
  0
GROUP
  5
27C8D
102
{ACAD_REACTORS
330
D
102
}
330
D
100
AcDbGroup
300

 70
     1
 71
     1
340
27C84
340
27C83
340
27C82
  0
GROUP
  5
27C8E
102
{ACAD_REACTORS
330
D
102
}
330
D
100
AcDbGroup
300

 70
     1
 71
     1
340
27C87
340
27C86
340
27C85
  0
GROUP
  5
27C8F
102
{ACAD_REACTORS
330
D
102
}
330
D
100
AcDbGroup
300

 70
     1
 71
     1
340
27C8A
340
27C89
340
27C88
  0
GROUP
  5
27C9F
102
{ACAD_REACTORS
330
D
102
}
330
D
100
AcDbGroup
300

 70
     1
 71
     1
340
27C92
340
27C91
340
27C90
  0
GROUP
  5
27CA0
102
{ACAD_REACTORS
330
D
102
}
330
D
100
AcDbGroup
300

 70
     1
 71
     1
340
27C95
340
27C94
340
27C93
  0
GROUP
  5
27CA1
102
{ACAD_REACTORS
330
D
102
}
330
D
100
AcDbGroup
300

 70
     1
 71
     1
340
27C98
340
27C97
340
27C96
  0
GROUP
  5
27CA2
102
{ACAD_REACTORS
330
D
102
}
330
D
100
AcDbGroup
300

 70
     1
 71
     1
340
27C9B
340
27C9A
340
27C99
  0
GROUP
  5
1BD89
102
{ACAD_REACTORS
330
D
102
}
330
D
100
AcDbGroup
300

 70
     1
 71
     1
  0
GROUP
  5
27CA3
102
{ACAD_REACTORS
330
D
102
}
330
D
100
AcDbGroup
300

 70
     1
 71
     1
340
27C9E
340
27C9D
340
27C9C
  0
GROUP
  5
27CB3
102
{ACAD_REACTORS
330
D
102
}
330
D
100
AcDbGroup
300

 70
     1
 71
     1
340
27CA6
340
27CA5
340
27CA4
  0
GROUP
  5
27CB4
102
{ACAD_REACTORS
330
D
102
}
330
D
100
AcDbGroup
300

 70
     1
 71
     1
340
27CA9
340
27CA8
340
27CA7
  0
GROUP
  5
27CB5
102
{ACAD_REACTORS
330
D
102
}
330
D
100
AcDbGroup
300

 70
     1
 71
     1
340
27CAC
340
27CAB
340
27CAA
  0
GROUP
  5
27CB6
102
{ACAD_REACTORS
330
D
102
}
330
D
100
AcDbGroup
300

 70
     1
 71
     1
340
27CAF
340
27CAE
340
27CAD
  0
GROUP
  5
27CB7
102
{ACAD_REACTORS
330
D
102
}
330
D
100
AcDbGroup
300

 70
     1
 71
     1
340
27CB2
340
27CB1
340
27CB0
  0
GROUP
  5
27CC7
102
{ACAD_REACTORS
330
D
102
}
330
D
100
AcDbGroup
300

 70
     1
 71
     1
340
27CBA
340
27CB9
340
27CB8
  0
GROUP
  5
27CC8
102
{ACAD_REACTORS
330
D
102
}
330
D
100
AcDbGroup
300

 70
     1
 71
     1
340
27CBD
340
27CBC
340
27CBB
  0
GROUP
  5
27CC9
102
{ACAD_REACTORS
330
D
102
}
330
D
100
AcDbGroup
300

 70
     1
 71
     1
340
27CC0
340
27CBF
340
27CBE
  0
GROUP
  5
27CCA
102
{ACAD_REACTORS
330
D
102
}
330
D
100
AcDbGroup
300

 70
     1
 71
     1
340
27CC3
340
27CC2
340
27CC1
  0
GROUP
  5
1BD8A
102
{ACAD_REACTORS
330
D
102
}
330
D
100
AcDbGroup
300

 70
     1
 71
     1
  0
GROUP
  5
27CCB
102
{ACAD_REACTORS
330
D
102
}
330
D
100
AcDbGroup
300

 70
     1
 71
     1
340
27CC6
340
27CC5
340
27CC4
  0
GROUP
  5
27CDB
102
{ACAD_REACTORS
330
D
102
}
330
D
100
AcDbGroup
300

 70
     1
 71
     1
340
27CCE
340
27CCD
340
27CCC
  0
GROUP
  5
27CDC
102
{ACAD_REACTORS
330
D
102
}
330
D
100
AcDbGroup
300

 70
     1
 71
     1
340
27CD1
340
27CD0
340
27CCF
  0
GROUP
  5
27CDD
102
{ACAD_REACTORS
330
D
102
}
330
D
100
AcDbGroup
300

 70
     1
 71
     1
340
27CD4
340
27CD3
340
27CD2
  0
GROUP
  5
27CDE
102
{ACAD_REACTORS
330
D
102
}
330
D
100
AcDbGroup
300

 70
     1
 71
     1
340
27CD7
340
27CD6
340
27CD5
  0
GROUP
  5
27CDF
102
{ACAD_REACTORS
330
D
102
}
330
D
100
AcDbGroup
300

 70
     1
 71
     1
340
27CDA
340
27CD9
340
27CD8
  0
GROUP
  5
27CEF
102
{ACAD_REACTORS
330
D
102
}
330
D
100
AcDbGroup
300

 70
     1
 71
     1
340
27CE2
340
27CE1
340
27CE0
  0
GROUP
  5
27CF0
102
{ACAD_REACTORS
330
D
102
}
330
D
100
AcDbGroup
300

 70
     1
 71
     1
340
27CE5
340
27CE4
340
27CE3
  0
GROUP
  5
27CF1
102
{ACAD_REACTORS
330
D
102
}
330
D
100
AcDbGroup
300

 70
     1
 71
     1
340
27CE8
340
27CE7
340
27CE6
  0
GROUP
  5
27CF2
102
{ACAD_REACTORS
330
D
102
}
330
D
100
AcDbGroup
300

 70
     1
 71
     1
340
27CEB
340
27CEA
340
27CE9
  0
GROUP
  5
1BD8B
102
{ACAD_REACTORS
330
D
102
}
330
D
100
AcDbGroup
300

 70
     1
 71
     1
  0
GROUP
  5
27CF3
102
{ACAD_REACTORS
330
D
102
}
330
D
100
AcDbGroup
300

 70
     1
 71
     1
340
27CEE
340
27CED
340
27CEC
  0
GROUP
  5
27CF7
102
{ACAD_REACTORS
330
D
102
}
330
D
100
AcDbGroup
300

 70
     1
 71
     1
340
27C52
340
27C51
  0
GROUP
  5
27CFA
102
{ACAD_REACTORS
330
D
102
}
330
D
100
AcDbGroup
300

 70
     1
 71
     1
340
27CF9
340
27CF8
  0
GROUP
  5
27CFD
102
{ACAD_REACTORS
330
D
102
}
330
D
100
AcDbGroup
300

 70
     1
 71
     1
340
27CFC
340
27CFB
  0
GROUP
  5
27D00
102
{ACAD_REACTORS
330
D
102
}
330
D
100
AcDbGroup
300

 70
     1
 71
     1
340
27CFF
340
27CFE
  0
GROUP
  5
27D03
102
{ACAD_REACTORS
330
D
102
}
330
D
100
AcDbGroup
300

 70
     1
 71
     1
340
27D02
340
27D01
  0
GROUP
  5
27D06
102
{ACAD_REACTORS
330
D
102
}
330
D
100
AcDbGroup
300

 70
     1
 71
     1
340
27D05
340
27D04
  0
GROUP
  5
1FC8F
102
{ACAD_REACTORS
330
D
102
}
330
D
100
AcDbGroup
300

 70
     1
 71
     1
  0
GROUP
  5
1BD8C
102
{ACAD_REACTORS
330
D
102
}
330
D
100
AcDbGroup
300

 70
     1
 71
     1
  0
MLINESTYLE
  5
1C
102
{ACAD_REACTORS
330
1B
102
}
330
1B
100
AcDbMlineStyle
  2
STANDARD
 70
     0
  3

 62
   256
 51
90.0
 52
90.0
 71
     2
 49
0.5
 62
   256
  6
BYLAYER
 49
-0.5
 62
   256
  6
BYLAYER
  0
ACDBPLACEHOLDER
  5
1B1E3
102
{ACAD_REACTORS
330
1B1E2
102
}
330
1B1E2
100
AcDbPlaceHolder
280
     0
  0
XRECORD
  5
27D52
102
{ACAD_REACTORS
330
27D48
102
}
330
27D48
100
AcDbXrecord
 90
        0
  0
XRECORD
  5
27D56
102
{ACAD_REACTORS
330
27D48
102
}
330
27D48
100
AcDbXrecord
1000
DSTYLE
1002
{
1070
   277
 70
     6
1002
}
  0
XRECORD
  5
27D53
102
{ACAD_REACTORS
330
27D48
102
}
330
27D48
100
AcDbXrecord
  1
{E7552BDC-5169-4F54-A499-2C82C71F1FBB}
  0
XRECORD
  5
27D4B
102
{ACAD_REACTORS
330
27D48
102
}
330
27D48
100
AcDbXrecord
  1

  0
XRECORD
  5
27D51
102
{ACAD_REACTORS
330
27D48
102
}
330
27D48
100
AcDbXrecord
 90
        0
  0
XRECORD
  5
27D4D
102
{ACAD_REACTORS
330
27D48
102
}
330
27D48
100
AcDbXrecord
340
1B1E4
  0
XRECORD
  5
27D50
102
{ACAD_REACTORS
330
27D48
102
}
330
27D48
100
AcDbXrecord
 90
    14877
  0
XRECORD
  5
27D4E
102
{ACAD_REACTORS
330
27D48
102
}
330
27D48
100
AcDbXrecord
340
1B1E5
  0
XRECORD
  5
27D4F
102
{ACAD_REACTORS
330
27D48
102
}
330
27D48
100
AcDbXrecord
340
1B1E2
  0
XRECORD
  5
27D55
102
{ACAD_REACTORS
330
27D48
102
}
330
27D48
100
AcDbXrecord
 40
0.0
  0
XRECORD
  5
27D59
102
{ACAD_REACTORS
330
27D48
102
}
330
27D48
100
AcDbXrecord
340
0
  0
XRECORD
  5
27D5F
102
{ACAD_REACTORS
330
27D48
102
}
330
27D48
100
AcDbXrecord
 10
0.0
 20
0.0
 30
0.0
  0
XRECORD
  5
27D5B
102
{ACAD_REACTORS
330
27D48
102
}
330
27D48
100
AcDbXrecord
 10
0.0
 20
0.0
 30
0.0
  0
XRECORD
  5
27D5E
102
{ACAD_REACTORS
330
27D48
102
}
330
27D48
100
AcDbXrecord
 10
0.0
 20
0.0
 30
0.0
  0
XRECORD
  5
27D5C
102
{ACAD_REACTORS
330
27D48
102
}
330
27D48
100
AcDbXrecord
 10
0.0
 20
0.0
 30
0.0
  0
XRECORD
  5
27D5D
102
{ACAD_REACTORS
330
27D48
102
}
330
27D48
100
AcDbXrecord
 10
0.0
 20
0.0
 30
0.0
  0
XRECORD
  5
27D5A
102
{ACAD_REACTORS
330
27D48
102
}
330
27D48
100
AcDbXrecord
 10
0.0
 20
0.0
 30
0.0
  0
XRECORD
  5
27D57
102
{ACAD_REACTORS
330
27D48
102
}
330
27D48
100
AcDbXrecord
340
0
  0
XRECORD
  5
27D58
102
{ACAD_REACTORS
330
27D48
102
}
330
27D48
100
AcDbXrecord
 70
     0
  0
XRECORD
  5
27D4C
102
{ACAD_REACTORS
330
27D48
102
}
330
27D48
100
AcDbXrecord
  1

  0
XRECORD
  5
27D49
102
{ACAD_REACTORS
330
27D48
102
}
330
27D48
100
AcDbXrecord
 90
        1
  0
XRECORD
  5
27D4A
102
{ACAD_REACTORS
330
27D48
102
}
330
27D48
100
AcDbXrecord
 90
       70
  0
XRECORD
  5
27D62
102
{ACAD_REACTORS
330
27D48
102
}
330
27D48
100
AcDbXrecord
340
0
  0
XRECORD
  5
27D68
102
{ACAD_REACTORS
330
27D48
102
}
330
27D48
100
AcDbXrecord
 10
0.0
 20
0.0
 30
0.0
  0
XRECORD
  5
27D64
102
{ACAD_REACTORS
330
27D48
102
}
330
27D48
100
AcDbXrecord
 10
0.0
 20
0.0
 30
0.0
  0
XRECORD
  5
27D67
102
{ACAD_REACTORS
330
27D48
102
}
330
27D48
100
AcDbXrecord
 10
0.0
 20
0.0
 30
0.0
  0
XRECORD
  5
27D65
102
{ACAD_REACTORS
330
27D48
102
}
330
27D48
100
AcDbXrecord
 10
0.0
 20
0.0
 30
0.0
  0
XRECORD
  5
27D66
102
{ACAD_REACTORS
330
27D48
102
}
330
27D48
100
AcDbXrecord
 10
0.0
 20
0.0
 30
0.0
  0
XRECORD
  5
27D63
102
{ACAD_REACTORS
330
27D48
102
}
330
27D48
100
AcDbXrecord
 10
0.0
 20
0.0
 30
0.0
  0
XRECORD
  5
27D60
102
{ACAD_REACTORS
330
27D48
102
}
330
27D48
100
AcDbXrecord
340
0
  0
XRECORD
  5
27D61
102
{ACAD_REACTORS
330
27D48
102
}
330
27D48
100
AcDbXrecord
 70
     0
  0
XRECORD
  5
27D54
102
{ACAD_REACTORS
330
27D48
102
}
330
27D48
100
AcDbXrecord
  1
{97448CC7-AEEE-4960-A91F-2A6FEB9F9A30}
  0
DICTIONARYVAR
  5
1FD3B
102
{ACAD_REACTORS
330
9820
102
}
330
9820
100
DictionaryVariables
280
     0
  1
1
  0
DICTIONARYVAR
  5
9821
102
{ACAD_REACTORS
330
9820
102
}
330
9820
100
DictionaryVariables
280
     0
  1
127
  0
ENDSEC
  0
EOF
