  0
SECTION
  2
HEADER
  9
$ACADVER
  1
AC1014
  9
$ACADMAINTVER
 70
     9
  9
$DWGCODEPAGE
  3
ANSI_1252
  9
$INSBASE
 10
0.0
 20
0.0
 30
0.0
  9
$EXTMIN
 10
-0.0362532231533805
 20
-0.0256335921286564
 30
-0.0000000349181948
  9
$EXTMAX
 10
594.0362587553784
 20
420.025637503803
 30
0.0000000814935746
  9
$LIMMIN
 10
0.0
 20
0.0
  9
$LIMMAX
 10
420.0
 20
297.0
  9
$ORTHOMODE
 70
     0
  9
$REGENMODE
 70
     1
  9
$FILLMODE
 70
     1
  9
$QTEXTMODE
 70
     0
  9
$MIRRTEXT
 70
     1
  9
$DRAGMODE
 70
     2
  9
$LTSCALE
 40
1.0
  9
$OSMODE
 70
    37
  9
$ATTMODE
 70
     1
  9
$TEXTSIZE
 40
2.0
  9
$TRACEWID
 40
1.0
  9
$TEXTSTYLE
  7
TASTENTEXT
  9
$CLAYER
  8
BLECH
  9
$CELTYPE
  6
BYLAYER
  9
$CECOLOR
 62
   256
  9
$CELTSCALE
 40
1.0
  9
$DELOBJ
 70
     1
  9
$DISPSILH
 70
     0
  9
$DIMSCALE
 40
1.0
  9
$DIMASZ
 40
2.5
  9
$DIMEXO
 40
0.625
  9
$DIMDLI
 40
3.75
  9
$DIMRND
 40
0.0
  9
$DIMDLE
 40
0.0
  9
$DIMEXE
 40
1.25
  9
$DIMTP
 40
0.0
  9
$DIMTM
 40
0.0
  9
$DIMTXT
 40
2.5
  9
$DIMCEN
 40
2.5
  9
$DIMTSZ
 40
0.0
  9
$DIMTOL
 70
     0
  9
$DIMLIM
 70
     0
  9
$DIMTIH
 70
     0
  9
$DIMTOH
 70
     0
  9
$DIMSE1
 70
     0
  9
$DIMSE2
 70
     0
  9
$DIMTAD
 70
     1
  9
$DIMZIN
 70
     8
  9
$DIMBLK
  1

  9
$DIMASO
 70
     1
  9
$DIMSHO
 70
     1
  9
$DIMPOST
  1

  9
$DIMAPOST
  1

  9
$DIMALT
 70
     0
  9
$DIMALTD
 70
     4
  9
$DIMALTF
 40
0.0394
  9
$DIMLFAC
 40
1.0
  9
$DIMTOFL
 70
     1
  9
$DIMTVP
 40
0.0
  9
$DIMTIX
 70
     0
  9
$DIMSOXD
 70
     0
  9
$DIMSAH
 70
     0
  9
$DIMBLK1
  1

  9
$DIMBLK2
  1

  9
$DIMSTYLE
  2
STANDARD
  9
$DIMCLRD
 70
     0
  9
$DIMCLRE
 70
     0
  9
$DIMCLRT
 70
     0
  9
$DIMTFAC
 40
1.0
  9
$DIMGAP
 40
0.625
  9
$DIMJUST
 70
     0
  9
$DIMSD1
 70
     0
  9
$DIMSD2
 70
     0
  9
$DIMTOLJ
 70
     1
  9
$DIMTZIN
 70
     0
  9
$DIMALTZ
 70
     0
  9
$DIMALTTZ
 70
     0
  9
$DIMFIT
 70
     3
  9
$DIMUPT
 70
     0
  9
$DIMUNIT
 70
     8
  9
$DIMDEC
 70
     4
  9
$DIMTDEC
 70
     4
  9
$DIMALTU
 70
     8
  9
$DIMALTTD
 70
     4
  9
$DIMTXSTY
  7
STANDARD
  9
$DIMAUNIT
 70
     0
  9
$LUNITS
 70
     2
  9
$LUPREC
 70
     4
  9
$SKETCHINC
 40
1.0
  9
$FILLETRAD
 40
1.0
  9
$AUNITS
 70
     0
  9
$AUPREC
 70
     0
  9
$MENU
  1
acad
  9
$ELEVATION
 40
0.0
  9
$PELEVATION
 40
0.0
  9
$THICKNESS
 40
0.0
  9
$LIMCHECK
 70
     0
  9
$BLIPMODE
 70
     0
  9
$CHAMFERA
 40
0.0
  9
$CHAMFERB
 40
0.0
  9
$CHAMFERC
 40
20.0
  9
$CHAMFERD
 40
0.0
  9
$SKPOLY
 70
     0
  9
$TDCREATE
 40
2451774.355798842
  9
$TDUPDATE
 40
2452695.539122349
  9
$TDINDWG
 40
0.3094616551
  9
$TDUSRTIMER
 40
0.3094616551
  9
$USRTIMER
 70
     1
  9
$ANGBASE
 50
0.0
  9
$ANGDIR
 70
     0
  9
$PDMODE
 70
     0
  9
$PDSIZE
 40
0.0
  9
$PLINEWID
 40
0.0
  9
$COORDS
 70
     1
  9
$SPLFRAME
 70
     0
  9
$SPLINETYPE
 70
     6
  9
$SPLINESEGS
 70
     8
  9
$ATTDIA
 70
     0
  9
$ATTREQ
 70
     1
  9
$HANDLING
 70
 22529
  9
$HANDSEED
  5
27EEE
  9
$SURFTAB1
 70
     6
  9
$SURFTAB2
 70
     6
  9
$SURFTYPE
 70
     6
  9
$SURFU
 70
     6
  9
$SURFV
 70
     6
  9
$UCSNAME
  2

  9
$UCSORG
 10
0.0
 20
0.0
 30
0.0
  9
$UCSXDIR
 10
1.0
 20
0.0
 30
0.0
  9
$UCSYDIR
 10
0.0
 20
1.0
 30
0.0
  9
$PUCSNAME
  2

  9
$PUCSORG
 10
0.0
 20
0.0
 30
0.0
  9
$PUCSXDIR
 10
1.0
 20
0.0
 30
0.0
  9
$PUCSYDIR
 10
0.0
 20
1.0
 30
0.0
  9
$USERI1
 70
     0
  9
$USERI2
 70
     0
  9
$USERI3
 70
     0
  9
$USERI4
 70
     0
  9
$USERI5
 70
     0
  9
$USERR1
 40
0.0
  9
$USERR2
 40
0.0
  9
$USERR3
 40
0.0
  9
$USERR4
 40
0.0
  9
$USERR5
 40
0.0
  9
$WORLDVIEW
 70
     1
  9
$SHADEDGE
 70
     3
  9
$SHADEDIF
 70
    70
  9
$TILEMODE
 70
     1
  9
$MAXACTVP
 70
    48
  9
$PINSBASE
 10
0.0
 20
0.0
 30
0.0
  9
$PLIMCHECK
 70
     0
  9
$PEXTMIN
 10
1.000000000000000E+20
 20
1.000000000000000E+20
 30
1.000000000000000E+20
  9
$PEXTMAX
 10
-1.000000000000000E+20
 20
-1.000000000000000E+20
 30
-1.000000000000000E+20
  9
$PLIMMIN
 10
0.0
 20
0.0
  9
$PLIMMAX
 10
420.0
 20
297.0
  9
$UNITMODE
 70
     0
  9
$VISRETAIN
 70
     1
  9
$PLINEGEN
 70
     0
  9
$PSLTSCALE
 70
     1
  9
$TREEDEPTH
 70
  3020
  9
$PICKSTYLE
 70
     1
  9
$CMLSTYLE
  2
STANDARD
  9
$CMLJUST
 70
     0
  9
$CMLSCALE
 40
20.0
  9
$PROXYGRAPHICS
 70
     1
  9
$MEASUREMENT
 70
     1
  0
ENDSEC
  0
SECTION
  2
CLASSES
  0
CLASS
  1
LWPOLYLINE
  2
AcDbPolyline
  3
AutoCAD 2000
 90
        0
280
     0
281
     1
  0
CLASS
  1
DICTIONARYVAR
  2
AcDbDictionaryVar
  3
AutoCAD 2000
 90
        0
280
     0
281
     0
  0
CLASS
  1
SORTENTSTABLE
  2
AcDbSortentsTable
  3
AutoCAD 2000
 90
        0
280
     0
281
     0
  0
CLASS
  1
HATCH
  2
AcDbHatch
  3
AutoCAD 2000
 90
        0
280
     0
281
     1
  0
CLASS
  1
ACDBDICTIONARYWDFLT
  2
AcDbDictionaryWithDefault
  3
AutoCAD 2000
 90
        0
280
     0
281
     0
  0
CLASS
  1
ACDBPLACEHOLDER
  2
AcDbPlaceHolder
  3
AutoCAD 2000
 90
        0
280
     0
281
     0
  0
CLASS
  1
LAYOUT
  2
AcDbLayout
  3
AutoCAD 2000
 90
        0
280
     0
281
     0
  0
CLASS
  1
LONG_TRANSACTION
  2
AcDbLongTransaction
  3
AutoCAD 2000
 90
        0
280
     0
281
     0
  0
CLASS
  1
LWPOLYLINE
  2
AcDbPolyline
  3
AutoCAD 2000
 90
        0
280
     0
281
     1
  0
CLASS
  1
HATCH
  2
AcDbHatch
  3
AutoCAD 2000
 90
        0
280
     0
281
     1
  0
CLASS
  1
XRECORD
  2
AcDbXrecord
  3
AutoCAD 2000
 90
        0
280
     0
281
     0
  0
CLASS
  1
LONG_TRANSACTION
  2
AcDbLongTransaction
  3
AutoCAD 2000
 90
        0
280
     0
281
     0
  0
CLASS
  1
LWPOLYLINE
  2
AcDbPolyline
  3
AutoCAD 2000
 90
        0
280
     0
281
     1
  0
CLASS
  1
HATCH
  2
AcDbHatch
  3
AutoCAD 2000
 90
        0
280
     0
281
     1
  0
CLASS
  1
XRECORD
  2
AcDbXrecord
  3
AutoCAD 2000
 90
        0
280
     0
281
     0
  0
CLASS
  1
LONG_TRANSACTION
  2
AcDbLongTransaction
  3
AutoCAD 2000
 90
        0
280
     0
281
     0
  0
CLASS
  1
LWPOLYLINE
  2
AcDbPolyline
  3
AutoCAD 2000
 90
        0
280
     0
281
     1
  0
CLASS
  1
HATCH
  2
AcDbHatch
  3
AutoCAD 2000
 90
        0
280
     0
281
     1
  0
CLASS
  1
XRECORD
  2
AcDbXrecord
  3
AutoCAD 2000
 90
        0
280
     0
281
     0
  0
CLASS
  1
LONG_TRANSACTION
  2
AcDbLongTransaction
  3
AutoCAD 2000
 90
        0
280
     0
281
     0
  0
CLASS
  1
LWPOLYLINE
  2
AcDbPolyline
  3
AutoCAD 2000
 90
        0
280
     0
281
     1
  0
CLASS
  1
HATCH
  2
AcDbHatch
  3
AutoCAD 2000
 90
        0
280
     0
281
     1
  0
CLASS
  1
XRECORD
  2
AcDbXrecord
  3
AutoCAD 2000
 90
        0
280
     0
281
     0
  0
CLASS
  1
LONG_TRANSACTION
  2
AcDbLongTransaction
  3
AutoCAD 2000
 90
        0
280
     0
281
     0
  0
CLASS
  1
LWPOLYLINE
  2
AcDbPolyline
  3
AutoCAD 2000
 90
        0
280
     0
281
     1
  0
CLASS
  1
HATCH
  2
AcDbHatch
  3
AutoCAD 2000
 90
        0
280
     0
281
     1
  0
CLASS
  1
XRECORD
  2
AcDbXrecord
  3
AutoCAD 2000
 90
        0
280
     0
281
     0
  0
CLASS
  1
LONG_TRANSACTION
  2
AcDbLongTransaction
  3
AutoCAD 2000
 90
        0
280
     0
281
     0
  0
CLASS
  1
LWPOLYLINE
  2
AcDbPolyline
  3
AutoCAD 2000
 90
        0
280
     0
281
     1
  0
CLASS
  1
HATCH
  2
AcDbHatch
  3
AutoCAD 2000
 90
        0
280
     0
281
     1
  0
CLASS
  1
XRECORD
  2
AcDbXrecord
  3
AutoCAD 2000
 90
        0
280
     0
281
     0
  0
CLASS
  1
LONG_TRANSACTION
  2
AcDbLongTransaction
  3
AutoCAD 2000
 90
        0
280
     0
281
     0
  0
CLASS
  1
LWPOLYLINE
  2
AcDbPolyline
  3
AutoCAD 2000
 90
        0
280
     0
281
     1
  0
CLASS
  1
HATCH
  2
AcDbHatch
  3
AutoCAD 2000
 90
        0
280
     0
281
     1
  0
CLASS
  1
XRECORD
  2
AcDbXrecord
  3
AutoCAD 2000
 90
        0
280
     0
281
     0
  0
ENDSEC
  0
SECTION
  2
TABLES
  0
TABLE
  2
VPORT
  5
8
330
0
100
AcDbSymbolTable
 70
     4
  0
VPORT
  5
27EB8
330
8
100
AcDbSymbolTableRecord
100
AcDbViewportTableRecord
  2
*ACTIVE
 70
     0
 10
0.0
 20
0.0
 11
1.0
 21
1.0
 12
297.0000027661124
 22
210.0000019558371
 13
0.0
 23
0.0
 14
10.0
 24
10.0
 15
10.0
 25
10.0
 16
0.0
 26
0.0
 36
1.0
 17
0.0
 27
0.0
 37
0.0
 40
465.0362991475954
 41
1.28516129032258
 42
50.0
 43
0.0
 44
0.0
 50
0.0
 51
0.0
 71
     0
 72
   100
 73
     1
 74
     1
 75
     0
 76
     0
 77
     0
 78
     0
  0
ENDTAB
  0
TABLE
  2
LTYPE
  5
5
330
0
100
AcDbSymbolTable
 70
    11
  0
LTYPE
  5
12
330
5
100
AcDbSymbolTableRecord
100
AcDbLinetypeTableRecord
  2
BYBLOCK
 70
     0
  3

 72
    65
 73
     0
 40
0.0
  0
LTYPE
  5
13
330
5
100
AcDbSymbolTableRecord
100
AcDbLinetypeTableRecord
  2
BYLAYER
 70
     0
  3

 72
    65
 73
     0
 40
0.0
  0
LTYPE
  5
14
330
5
100
AcDbSymbolTableRecord
100
AcDbLinetypeTableRecord
  2
CONTINUOUS
 70
     0
  3
Solid line
 72
    65
 73
     0
 40
0.0
  0
LTYPE
  5
2753C
330
5
100
AcDbSymbolTableRecord
100
AcDbLinetypeTableRecord
  2
MITTE
 70
     0
  3
Mitte ____ _ ____ _ ____ _ ____ _ ____ _ ____
 72
    65
 73
     4
 40
50.8
 49
31.75
 74
     0
 49
-6.349999999999999
 74
     0
 49
6.349999999999999
 74
     0
 49
-6.349999999999999
 74
     0
  0
ENDTAB
  0
TABLE
  2
LAYER
  5
2
330
0
100
AcDbSymbolTable
 70
    13
  0
LAYER
  5
E
330
2
100
AcDbSymbolTableRecord
100
AcDbLayerTableRecord
  2
0
 70
     0
 62
     7
  6
CONTINUOUS
  0
LAYER
  5
137
330
2
100
AcDbSymbolTableRecord
100
AcDbLayerTableRecord
  2
TASTEN
 70
     0
 62
     5
  6
CONTINUOUS
  0
LAYER
  5
143
330
2
100
AcDbSymbolTableRecord
100
AcDbLayerTableRecord
  2
DEFPOINTS
 70
     0
 62
     7
  6
CONTINUOUS
  0
LAYER
  5
1848A
330
2
100
AcDbSymbolTableRecord
100
AcDbLayerTableRecord
  2
RAHMEN025
 70
     0
 62
     7
  6
CONTINUOUS
  0
LAYER
  5
1848B
330
2
100
AcDbSymbolTableRecord
100
AcDbLayerTableRecord
  2
RAHMEN07
 70
     0
 62
     5
  6
CONTINUOUS
  0
LAYER
  5
1848C
330
2
100
AcDbSymbolTableRecord
100
AcDbLayerTableRecord
  2
RAHMEN05
 70
     0
 62
     6
  6
CONTINUOUS
  0
LAYER
  5
1954F
330
2
100
AcDbSymbolTableRecord
100
AcDbLayerTableRecord
  2
EBENE_1
 70
     0
 62
     7
  6
CONTINUOUS
  0
LAYER
  5
2753D
330
2
100
AcDbSymbolTableRecord
100
AcDbLayerTableRecord
  2
BEMASSUNG
 70
     0
 62
     3
  6
CONTINUOUS
  0
LAYER
  5
2753E
330
2
100
AcDbSymbolTableRecord
100
AcDbLayerTableRecord
  2
MITTELLINIE
 70
     0
 62
    -2
  6
MITTE
  0
LAYER
  5
27743
330
2
100
AcDbSymbolTableRecord
100
AcDbLayerTableRecord
  2
BLECH
 70
     0
 62
     7
  6
CONTINUOUS
  0
LAYER
  5
2776C
330
2
100
AcDbSymbolTableRecord
100
AcDbLayerTableRecord
  2
BESCHRIFTUNG
 70
     0
 62
     7
  6
CONTINUOUS
  0
ENDTAB
  0
TABLE
  2
STYLE
  5
3
330
0
100
AcDbSymbolTable
 70
     4
  0
STYLE
  5
F
330
3
100
AcDbSymbolTableRecord
100
AcDbTextStyleTableRecord
  2
STANDARD
 70
     0
 40
0.0
 41
1.0
 50
0.0
 71
     0
 42
2.5
  3
txt
  4

  0
STYLE
  5
220D
330
3
100
AcDbSymbolTableRecord
100
AcDbTextStyleTableRecord
  2
TASTENTEXT
 70
     0
 40
2.0
 41
1.0
 50
0.0
 71
     0
 42
2.0
  3
ARIAL.TTF
  4

1001
ACAD
1000
Arial
1071
       34
  0
STYLE
  5
18491
330
3
100
AcDbSymbolTableRecord
100
AcDbTextStyleTableRecord
  2
ISOCP
 70
     0
 40
0.0
 41
1.0
 50
0.0
 71
     0
 42
2.5
  3
isocp.shx
  4

  0
STYLE
  5
185F2
330
3
100
AcDbSymbolTableRecord
100
AcDbTextStyleTableRecord
  2
WMF-BANKGOTHIC-MD-BT0
 70
     0
 40
0.0
 41
1.0
 50
0.0
 71
     0
 42
2.5
  3
bgothm.ttf
  4

1001
ACAD
1000
BankGothic Md BT
1071
       34
  0
ENDTAB
  0
TABLE
  2
VIEW
  5
6
330
0
100
AcDbSymbolTable
 70
     0
  0
ENDTAB
  0
TABLE
  2
UCS
  5
7
330
0
100
AcDbSymbolTable
 70
     0
  0
ENDTAB
  0
TABLE
  2
APPID
  5
9
330
0
100
AcDbSymbolTable
 70
     2
  0
APPID
  5
10
330
9
100
AcDbSymbolTableRecord
100
AcDbRegAppTableRecord
  2
ACAD
 70
     0
  0
APPID
  5
26F8A
330
9
100
AcDbSymbolTableRecord
100
AcDbRegAppTableRecord
  2
PHOENIX7010
 70
     0
  0
ENDTAB
  0
TABLE
  2
DIMSTYLE
  5
A
330
0
100
AcDbSymbolTable
 70
     1
  0
DIMSTYLE
105
1D
102
{ACAD_REACTORS
330
27699
330
276A6
102
}
330
A
100
AcDbSymbolTableRecord
100
AcDbDimStyleTableRecord
  2
STANDARD
 70
     0
  3

  4

  5

  6

  7

 40
1.0
 41
0.18
 42
0.0625
 43
0.38
 44
0.18
 45
0.0
 46
0.0
 47
0.0
 48
0.0
140
0.18
141
0.09
142
0.0
143
25.4
144
1.0
145
0.0
146
1.0
147
0.09
 71
     0
 72
     0
 73
     1
 74
     1
 75
     0
 76
     0
 77
     0
 78
     0
170
     0
171
     2
172
     0
173
     0
174
     0
175
     0
176
     0
177
     0
178
     0
270
     2
271
     4
272
     4
273
     2
274
     2
340
F
275
     0
280
     0
281
     0
282
     0
283
     1
284
     0
285
     0
286
     0
287
     3
288
     0
  0
ENDTAB
  0
TABLE
  2
BLOCK_RECORD
  5
1
330
0
100
AcDbSymbolTable
 70
     6
  0
BLOCK_RECORD
  5
18
102
{ACAD_XDICTIONARY
360
9822
102
}
330
1
100
AcDbSymbolTableRecord
100
AcDbBlockTableRecord
  2
*MODEL_SPACE
  0
BLOCK_RECORD
  5
15
102
{ACAD_XDICTIONARY
360
2663A
102
}
330
1
100
AcDbSymbolTableRecord
100
AcDbBlockTableRecord
  2
*PAPER_SPACE
  0
BLOCK_RECORD
  5
1856E
330
1
100
AcDbSymbolTableRecord
100
AcDbBlockTableRecord
  2
A$C4EFE16F9
  0
BLOCK_RECORD
  5
2769A
330
1
100
AcDbSymbolTableRecord
100
AcDbBlockTableRecord
  2
*D1
  0
BLOCK_RECORD
  5
276A7
330
1
100
AcDbSymbolTableRecord
100
AcDbBlockTableRecord
  2
*D2
  0
ENDTAB
  0
ENDSEC
  0
SECTION
  2
BLOCKS
  0
BLOCK
  5
19
330
18
100
AcDbEntity
  8
0
100
AcDbBlockBegin
  2
*MODEL_SPACE
 70
     2
 10
0.0
 20
0.0
 30
0.0
  3
*MODEL_SPACE
  1

  0
ENDBLK
  5
1A
330
18
100
AcDbEntity
  8
0
100
AcDbBlockEnd
  0
BLOCK
  5
16
330
15
100
AcDbEntity
 67
     1
  8
0
100
AcDbBlockBegin
  2
*PAPER_SPACE
 70
     0
 10
0.0
 20
0.0
 30
0.0
  3
*PAPER_SPACE
  1

  0
ENDBLK
  5
17
330
15
100
AcDbEntity
 67
     1
  8
0
100
AcDbBlockEnd
  0
BLOCK
  5
185EF
330
1856E
100
AcDbEntity
  8
0
100
AcDbBlockBegin
  2
A$C4EFE16F9
 70
     0
 10
0.0
 20
0.0
 30
0.0
  3
A$C4EFE16F9
  1

  0
TEXT
  5
1856F
330
1856E
100
AcDbEntity
  8
0
 62
    29
100
AcDbText
 10
0.1140211594872653
 20
0.7536994259858148
 30
0.0
 40
1.502652258844175
  1
DHD
 41
0.75
  7
WMF-BANKGOTHIC-MD-BT0
100
AcDbText
  0
SOLID
  5
18570
330
1856E
100
AcDbEntity
  8
0
 62
    30
100
AcDbTrace
 10
1.232984684201756
 20
11.6392852740014
 30
0.0
 11
1.232984684201756
 21
11.6392852740014
 31
0.0
 12
4.193221981308504
 22
8.660527201313172
 32
0.0
 13
1.232984684201756
 23
5.717267281822785
 33
0.0
  0
SOLID
  5
18571
330
1856E
100
AcDbEntity
  8
0
 62
    30
100
AcDbTrace
 10
4.193221981308504
 20
8.660527201313172
 30
0.0
 11
1.232984684201756
 21
5.717267281822785
 31
0.0
 12
1.232984684201756
 22
5.717267281822785
 32
0.0
 13
4.193221981308504
 23
8.660527201313172
 33
0.0
  0
SOLID
  5
18572
330
1856E
100
AcDbEntity
  8
0
 62
    29
100
AcDbTrace
 10
4.254957899913442
 20
8.598791282708234
 30
0.0
 11
1.171248765596818
 21
11.57909275336158
 31
0.0
 12
4.254957899913442
 22
8.720719721952988
 32
0.0
 13
1.294720602806691
 23
11.70102119260634
 33
0.0
  0
SOLID
  5
18573
330
1856E
100
AcDbEntity
  8
0
 62
    29
100
AcDbTrace
 10
4.254957899913442
 20
8.720719721952988
 30
0.0
 11
1.294720602806691
 21
11.70102119260634
 31
0.0
 12
1.294720602806691
 22
11.70102119260634
 32
0.0
 13
4.254957899913442
 23
8.720719721952988
 33
0.0
  0
SOLID
  5
18574
330
1856E
100
AcDbEntity
  8
0
 62
    29
100
AcDbTrace
 10
4.254957899913442
 20
8.598791282708234
 30
0.0
 11
4.131486062703565
 21
8.598791282708234
 31
0.0
 12
1.171248765596818
 22
11.57909275336158
 32
0.0
 13
1.171248765596818
 23
11.57909275336158
 33
0.0
  0
SOLID
  5
18575
330
1856E
100
AcDbEntity
  8
0
 62
    29
100
AcDbTrace
 10
4.254957899913442
 20
8.598791282708234
 30
0.0
 11
4.242610716192452
 21
8.587987496952372
 31
0.0
 12
4.131486062703565
 22
8.598791282708234
 32
0.0
 13
4.228720134506342
 23
8.580270507126755
 33
0.0
  0
SOLID
  5
18576
330
1856E
100
AcDbEntity
  8
0
 62
    29
100
AcDbTrace
 10
4.131486062703565
 20
8.598791282708234
 30
0.0
 11
4.228720134506342
 21
8.580270507126755
 31
0.0
 12
4.139203052529182
 22
8.592617690847738
 32
0.0
 13
4.221003144680722
 23
8.577183711196504
 33
0.0
  0
SOLID
  5
18577
330
1856E
100
AcDbEntity
  8
0
 62
    29
100
AcDbTrace
 10
4.139203052529182
 20
8.592617690847738
 30
0.0
 11
4.221003144680722
 21
8.577183711196504
 31
0.0
 12
4.148463440319922
 22
8.58644409898725
 32
0.0
 13
4.213286154855108
 23
8.57409691526626
 33
0.0
  0
SOLID
  5
18578
330
1856E
100
AcDbEntity
  8
0
 62
    29
100
AcDbTrace
 10
4.148463440319922
 20
8.58644409898725
 30
0.0
 11
4.213286154855108
 21
8.57409691526626
 31
0.0
 12
4.156180430145539
 22
8.581813905091877
 32
0.0
 13
4.205569165029491
 23
8.572553517301138
 33
0.0
  0
SOLID
  5
18579
330
1856E
100
AcDbEntity
  8
0
 62
    29
100
AcDbTrace
 10
4.156180430145539
 20
8.581813905091877
 30
0.0
 11
4.205569165029491
 21
8.572553517301138
 31
0.0
 12
4.163897419971156
 22
8.577183711196504
 32
0.0
 13
4.19785217520387
 23
8.572553517301138
 33
0.0
  0
SOLID
  5
1857A
330
1856E
100
AcDbEntity
  8
0
 62
    29
100
AcDbTrace
 10
4.163897419971156
 20
8.577183711196504
 30
0.0
 11
4.19785217520387
 21
8.572553517301138
 31
0.0
 12
4.171614409796774
 22
8.57409691526626
 32
0.0
 13
4.18859178741313
 23
8.572553517301138
 33
0.0
  0
SOLID
  5
1857B
330
1856E
100
AcDbEntity
  8
0
 62
    29
100
AcDbTrace
 10
4.171614409796774
 20
8.57409691526626
 30
0.0
 11
4.18859178741313
 21
8.572553517301138
 31
0.0
 12
4.180874797587513
 22
8.572553517301138
 32
0.0
 13
4.180874797587513
 23
8.572553517301138
 33
0.0
  0
SOLID
  5
1857C
330
1856E
100
AcDbEntity
  8
0
 62
    29
100
AcDbTrace
 10
4.254957899913442
 20
8.598791282708234
 30
0.0
 11
4.281195665320538
 21
8.672874385034162
 31
0.0
 12
4.265761685669303
 22
8.611138466429224
 32
0.0
 13
4.281195665320538
 23
8.663613997243416
 33
0.0
  0
SOLID
  5
1857D
330
1856E
100
AcDbEntity
  8
0
 62
    29
100
AcDbTrace
 10
4.265761685669303
 20
8.611138466429224
 30
0.0
 11
4.281195665320538
 21
8.663613997243416
 31
0.0
 12
4.273478675494921
 22
8.625029048115337
 32
0.0
 13
4.281195665320538
 23
8.655897007417799
 33
0.0
  0
SOLID
  5
1857E
330
1856E
100
AcDbEntity
  8
0
 62
    29
100
AcDbTrace
 10
4.273478675494921
 20
8.625029048115337
 30
0.0
 11
4.281195665320538
 21
8.655897007417799
 31
0.0
 12
4.276565471425168
 22
8.632746037940947
 32
0.0
 13
4.281195665320538
 23
8.648180017592181
 33
0.0
  0
SOLID
  5
1857F
330
1856E
100
AcDbEntity
  8
0
 62
    29
100
AcDbTrace
 10
4.276565471425168
 20
8.632746037940947
 30
0.0
 11
4.281195665320538
 21
8.648180017592181
 31
0.0
 12
4.279652267355416
 22
8.640463027766564
 32
0.0
 13
4.279652267355416
 23
8.640463027766564
 33
0.0
  0
SOLID
  5
18580
330
1856E
100
AcDbEntity
  8
0
 62
    29
100
AcDbTrace
 10
4.254957899913442
 20
8.598791282708234
 30
0.0
 11
4.279652267355416
 21
8.68059137485978
 31
0.0
 12
4.281195665320538
 22
8.672874385034162
 32
0.0
 13
4.281195665320538
 23
8.672874385034162
 33
0.0
  0
SOLID
  5
18581
330
1856E
100
AcDbEntity
  8
0
 62
    29
100
AcDbTrace
 10
4.279652267355416
 20
8.68059137485978
 30
0.0
 11
4.254957899913442
 21
8.598791282708234
 31
0.0
 12
4.276565471425168
 22
8.688308364685397
 32
0.0
 13
4.276565471425168
 23
8.688308364685397
 33
0.0
  0
SOLID
  5
18582
330
1856E
100
AcDbEntity
  8
0
 62
    29
100
AcDbTrace
 10
4.276565471425168
 20
8.688308364685397
 30
0.0
 11
4.254957899913442
 21
8.598791282708234
 31
0.0
 12
4.273478675494921
 22
8.697568752476136
 32
0.0
 13
4.273478675494921
 23
8.697568752476136
 33
0.0
  0
SOLID
  5
18583
330
1856E
100
AcDbEntity
  8
0
 62
    29
100
AcDbTrace
 10
4.273478675494921
 20
8.697568752476136
 30
0.0
 11
4.254957899913442
 21
8.598791282708234
 31
0.0
 12
4.267305083634425
 22
8.705285742301754
 32
0.0
 13
4.267305083634425
 23
8.705285742301754
 33
0.0
  0
SOLID
  5
18584
330
1856E
100
AcDbEntity
  8
0
 62
    29
100
AcDbTrace
 10
4.267305083634425
 20
8.705285742301754
 30
0.0
 11
4.254957899913442
 21
8.598791282708234
 31
0.0
 12
4.262674889739056
 22
8.713002732127371
 32
0.0
 13
4.262674889739056
 23
8.713002732127371
 33
0.0
  0
SOLID
  5
18585
330
1856E
100
AcDbEntity
  8
0
 62
    29
100
AcDbTrace
 10
4.262674889739056
 20
8.713002732127371
 30
0.0
 11
4.254957899913442
 21
8.598791282708234
 31
0.0
 12
4.254957899913442
 22
8.720719721952988
 32
0.0
 13
4.254957899913442
 23
8.598791282708234
 33
0.0
  0
SOLID
  5
18586
330
1856E
100
AcDbEntity
  8
0
 62
    29
100
AcDbTrace
 10
4.254957899913442
 20
8.720719721952988
 30
0.0
 11
4.254957899913442
 21
8.598791282708234
 31
0.0
 12
4.254957899913442
 22
8.598791282708234
 32
0.0
 13
4.254957899913442
 23
8.598791282708234
 33
0.0
  0
SOLID
  5
18587
330
1856E
100
AcDbEntity
  8
0
 62
    29
100
AcDbTrace
 10
1.146554398154844
 20
5.717267281822785
 30
0.0
 11
4.133029460668687
 21
8.720719721952988
 31
0.0
 12
1.293177204841569
 22
5.657074761182968
 32
0.0
 13
4.254957899913442
 23
8.598791282708234
 33
0.0
  0
SOLID
  5
18588
330
1856E
100
AcDbEntity
  8
0
 62
    29
100
AcDbTrace
 10
1.293177204841569
 20
5.657074761182968
 30
0.0
 11
4.254957899913442
 21
8.598791282708234
 31
0.0
 12
4.254957899913442
 22
8.598791282708234
 32
0.0
 13
1.293177204841569
 23
5.657074761182968
 33
0.0
  0
SOLID
  5
18589
330
1856E
100
AcDbEntity
  8
0
 62
    29
100
AcDbTrace
 10
1.146554398154844
 20
5.717267281822785
 30
0.0
 11
1.171248765596818
 21
5.779003200427716
 31
0.0
 12
4.133029460668687
 22
8.720719721952988
 32
0.0
 13
4.133029460668687
 23
8.720719721952988
 33
0.0
  0
SOLID
  5
1858A
330
1856E
100
AcDbEntity
  8
0
 62
    29
100
AcDbTrace
 10
1.146554398154844
 20
5.717267281822785
 30
0.0
 11
1.146554398154844
 21
5.738874853334507
 31
0.0
 12
1.171248765596818
 22
5.779003200427716
 32
0.0
 13
1.149641194085088
 23
5.746591843160125
 33
0.0
  0
SOLID
  5
1858B
330
1856E
100
AcDbEntity
  8
0
 62
    29
100
AcDbTrace
 10
1.171248765596818
 20
5.779003200427716
 30
0.0
 11
1.149641194085088
 21
5.746591843160125
 31
0.0
 12
1.165075173736322
 22
5.771286210602099
 32
0.0
 13
1.154271387980461
 23
5.755852230950864
 33
0.0
  0
SOLID
  5
1858C
330
1856E
100
AcDbEntity
  8
0
 62
    29
100
AcDbTrace
 10
1.165075173736322
 20
5.771286210602099
 30
0.0
 11
1.154271387980461
 21
5.755852230950864
 31
0.0
 12
1.158901581875831
 22
5.763569220776489
 32
0.0
 13
1.158901581875831
 23
5.763569220776489
 33
0.0
  0
SOLID
  5
1858D
330
1856E
100
AcDbEntity
  8
0
 62
    29
100
AcDbTrace
 10
1.145011000189718
 20
5.714180485892534
 30
0.0
 11
1.293177204841569
 21
5.657074761182968
 31
0.0
 12
1.145011000189718
 22
5.706463496066916
 32
0.0
 13
1.285460215015952
 23
5.649357771357351
 33
0.0
  0
SOLID
  5
1858E
330
1856E
100
AcDbEntity
  8
0
 62
    29
100
AcDbTrace
 10
1.145011000189718
 20
5.706463496066916
 30
0.0
 11
1.285460215015952
 21
5.649357771357351
 31
0.0
 12
1.146554398154844
 22
5.698746506241299
 32
0.0
 13
1.277743225190334
 23
5.643184179496856
 33
0.0
  0
SOLID
  5
1858F
330
1856E
100
AcDbEntity
  8
0
 62
    29
100
AcDbTrace
 10
1.146554398154844
 20
5.698746506241299
 30
0.0
 11
1.277743225190334
 21
5.643184179496856
 31
0.0
 12
1.149641194085088
 22
5.691029516415682
 32
0.0
 13
1.270026235364717
 23
5.63855398560149
 33
0.0
  0
SOLID
  5
18590
330
1856E
100
AcDbEntity
  8
0
 62
    29
100
AcDbTrace
 10
1.149641194085088
 20
5.691029516415682
 30
0.0
 11
1.270026235364717
 21
5.63855398560149
 31
0.0
 12
1.152727990015335
 22
5.683312526590064
 32
0.0
 13
1.2623092455391
 23
5.635467189671238
 33
0.0
  0
SOLID
  5
18591
330
1856E
100
AcDbEntity
  8
0
 62
    29
100
AcDbTrace
 10
1.152727990015335
 20
5.683312526590064
 30
0.0
 11
1.2623092455391
 21
5.635467189671238
 31
0.0
 12
1.160444979840953
 22
5.669421944903959
 32
0.0
 13
1.25304885774836
 23
5.632380393740994
 33
0.0
  0
SOLID
  5
18592
330
1856E
100
AcDbEntity
  8
0
 62
    29
100
AcDbTrace
 10
1.160444979840953
 20
5.669421944903959
 30
0.0
 11
1.25304885774836
 21
5.632380393740994
 31
0.0
 12
1.171248765596818
 22
5.657074761182968
 32
0.0
 13
1.245331867922743
 23
5.630836995775872
 33
0.0
  0
SOLID
  5
18593
330
1856E
100
AcDbEntity
  8
0
 62
    29
100
AcDbTrace
 10
1.171248765596818
 20
5.657074761182968
 30
0.0
 11
1.245331867922743
 21
5.630836995775872
 31
0.0
 12
1.183595949317805
 22
5.646270975427107
 32
0.0
 13
1.237614878097126
 23
5.630836995775872
 33
0.0
  0
SOLID
  5
18594
330
1856E
100
AcDbEntity
  8
0
 62
    29
100
AcDbTrace
 10
1.183595949317805
 20
5.646270975427107
 30
0.0
 11
1.237614878097126
 21
5.630836995775872
 31
0.0
 12
1.197486531003917
 22
5.63855398560149
 32
0.0
 13
1.228354490306386
 23
5.630836995775872
 33
0.0
  0
SOLID
  5
18595
330
1856E
100
AcDbEntity
  8
0
 62
    29
100
AcDbTrace
 10
1.197486531003917
 20
5.63855398560149
 30
0.0
 11
1.228354490306386
 21
5.630836995775872
 31
0.0
 12
1.205203520829535
 22
5.635467189671238
 32
0.0
 13
1.220637500480766
 23
5.630836995775872
 33
0.0
  0
SOLID
  5
18596
330
1856E
100
AcDbEntity
  8
0
 62
    29
100
AcDbTrace
 10
1.205203520829535
 20
5.635467189671238
 30
0.0
 11
1.220637500480766
 21
5.630836995775872
 31
0.0
 12
1.212920510655152
 22
5.632380393740994
 32
0.0
 13
1.212920510655152
 23
5.632380393740994
 33
0.0
  0
SOLID
  5
18597
330
1856E
100
AcDbEntity
  8
0
 62
    29
100
AcDbTrace
 10
1.293177204841569
 20
5.657074761182968
 30
0.0
 11
1.146554398154844
 21
5.717267281822785
 31
0.0
 12
1.146554398154844
 22
5.717267281822785
 32
0.0
 13
1.146554398154844
 23
5.717267281822785
 33
0.0
  0
SOLID
  5
18598
330
1856E
100
AcDbEntity
  8
0
 62
    29
100
AcDbTrace
 10
1.294720602806691
 20
11.70102119260634
 30
0.0
 11
1.319414970248669
 21
11.6392852740014
 31
0.0
 12
1.146554398154844
 22
11.6392852740014
 32
0.0
 13
1.319414970248669
 23
5.717267281822785
 33
0.0
  0
SOLID
  5
18599
330
1856E
100
AcDbEntity
  8
0
 62
    29
100
AcDbTrace
 10
1.146554398154844
 20
11.6392852740014
 30
0.0
 11
1.319414970248669
 21
5.717267281822785
 31
0.0
 12
1.146554398154844
 22
5.717267281822785
 32
0.0
 13
1.146554398154844
 23
5.717267281822785
 33
0.0
  0
SOLID
  5
1859A
330
1856E
100
AcDbEntity
  8
0
 62
    29
100
AcDbTrace
 10
1.294720602806691
 20
11.70102119260634
 30
0.0
 11
1.308611184492804
 21
11.6855872129551
 31
0.0
 12
1.319414970248669
 22
11.6392852740014
 32
0.0
 13
1.311697980423051
 23
11.67787022312948
 33
0.0
  0
SOLID
  5
1859B
330
1856E
100
AcDbEntity
  8
0
 62
    29
100
AcDbTrace
 10
1.319414970248669
 20
11.6392852740014
 30
0.0
 11
1.311697980423051
 21
11.67787022312948
 31
0.0
 12
1.319414970248669
 22
11.65008905975726
 32
0.0
 13
1.314784776353295
 23
11.66860983533875
 33
0.0
  0
SOLID
  5
1859C
330
1856E
100
AcDbEntity
  8
0
 62
    29
100
AcDbTrace
 10
1.319414970248669
 20
11.65008905975726
 30
0.0
 11
1.314784776353295
 21
11.66860983533875
 31
0.0
 12
1.317871572283543
 22
11.659349447548
 32
0.0
 13
1.317871572283543
 23
11.659349447548
 33
0.0
  0
SOLID
  5
1859D
330
1856E
100
AcDbEntity
  8
0
 62
    29
100
AcDbTrace
 10
1.293177204841569
 20
11.70410798853658
 30
0.0
 11
1.186682745248052
 21
11.71336837632732
 31
0.0
 12
1.279286623155456
 22
11.71336837632732
 32
0.0
 13
1.192856337108544
 23
11.71799857022269
 33
0.0
  0
SOLID
  5
1859E
330
1856E
100
AcDbEntity
  8
0
 62
    29
100
AcDbTrace
 10
1.279286623155456
 20
11.71336837632732
 30
0.0
 11
1.192856337108544
 21
11.71799857022269
 31
0.0
 12
1.265396041469347
 22
11.72108536615294
 32
0.0
 13
1.200573326934161
 23
11.72108536615294
 33
0.0
  0
SOLID
  5
1859F
330
1856E
100
AcDbEntity
  8
0
 62
    29
100
AcDbTrace
 10
1.265396041469347
 20
11.72108536615294
 30
0.0
 11
1.200573326934161
 21
11.72108536615294
 31
0.0
 12
1.248418663852987
 22
11.72417216208319
 32
0.0
 13
1.216007306585396
 23
11.72417216208319
 33
0.0
  0
SOLID
  5
185A0
330
1856E
100
AcDbEntity
  8
0
 62
    29
100
AcDbTrace
 10
1.248418663852987
 20
11.72417216208319
 30
0.0
 11
1.216007306585396
 21
11.72417216208319
 31
0.0
 12
1.232984684201756
 22
11.72571556004831
 32
0.0
 13
1.232984684201756
 23
11.72571556004831
 33
0.0
  0
SOLID
  5
185A1
330
1856E
100
AcDbEntity
  8
0
 62
    29
100
AcDbTrace
 10
1.293177204841569
 20
11.70410798853658
 30
0.0
 11
1.178965755422435
 21
11.70873818243195
 31
0.0
 12
1.186682745248052
 22
11.71336837632732
 32
0.0
 13
1.186682745248052
 23
11.71336837632732
 33
0.0
  0
SOLID
  5
185A2
330
1856E
100
AcDbEntity
  8
0
 62
    29
100
AcDbTrace
 10
1.157358183910705
 20
11.6855872129551
 30
0.0
 11
1.294720602806691
 21
11.70102119260634
 31
0.0
 12
1.152727990015335
 22
11.67787022312948
 32
0.0
 13
1.294720602806691
 23
11.70102119260634
 33
0.0
  0
SOLID
  5
185A3
330
1856E
100
AcDbEntity
  8
0
 62
    29
100
AcDbTrace
 10
1.152727990015335
 20
11.67787022312948
 30
0.0
 11
1.294720602806691
 21
11.70102119260634
 31
0.0
 12
1.149641194085088
 22
11.66860983533875
 32
0.0
 13
1.146554398154844
 23
11.6392852740014
 33
0.0
  0
SOLID
  5
185A4
330
1856E
100
AcDbEntity
  8
0
 62
    29
100
AcDbTrace
 10
1.149641194085088
 20
11.66860983533875
 30
0.0
 11
1.146554398154844
 21
11.6392852740014
 31
0.0
 12
1.148097796119966
 22
11.659349447548
 32
0.0
 13
1.146554398154844
 23
11.65008905975726
 33
0.0
  0
SOLID
  5
185A5
330
1856E
100
AcDbEntity
  8
0
 62
    29
100
AcDbTrace
 10
1.148097796119966
 20
11.659349447548
 30
0.0
 11
1.146554398154844
 21
11.65008905975726
 31
0.0
 12
1.146554398154844
 22
11.65008905975726
 32
0.0
 13
1.148097796119966
 23
11.659349447548
 33
0.0
  0
SOLID
  5
185A6
330
1856E
100
AcDbEntity
  8
0
 62
    29
100
AcDbTrace
 10
1.161988377806078
 20
11.6917608048156
 30
0.0
 11
1.294720602806691
 21
11.70102119260634
 31
0.0
 12
1.157358183910705
 22
11.6855872129551
 32
0.0
 13
1.157358183910705
 23
11.6855872129551
 33
0.0
  0
SOLID
  5
185A7
330
1856E
100
AcDbEntity
  8
0
 62
    29
100
AcDbTrace
 10
1.166618571701448
 20
11.69793439667609
 30
0.0
 11
1.294720602806691
 21
11.70102119260634
 31
0.0
 12
1.161988377806078
 22
11.6917608048156
 32
0.0
 13
1.161988377806078
 23
11.6917608048156
 33
0.0
  0
SOLID
  5
185A8
330
1856E
100
AcDbEntity
  8
0
 62
    29
100
AcDbTrace
 10
1.17279216356194
 20
11.70410798853658
 30
0.0
 11
1.294720602806691
 21
11.70102119260634
 31
0.0
 12
1.166618571701448
 22
11.69793439667609
 32
0.0
 13
1.166618571701448
 23
11.69793439667609
 33
0.0
  0
SOLID
  5
185A9
330
1856E
100
AcDbEntity
  8
0
 62
    29
100
AcDbTrace
 10
1.178965755422435
 20
11.70873818243195
 30
0.0
 11
1.294720602806691
 21
11.70102119260634
 31
0.0
 12
1.17279216356194
 22
11.70410798853658
 32
0.0
 13
1.17279216356194
 23
11.70410798853658
 33
0.0
  0
SOLID
  5
185AA
330
1856E
100
AcDbEntity
  8
0
 62
    29
100
AcDbTrace
 10
1.293177204841569
 20
11.70410798853658
 30
0.0
 11
1.294720602806691
 21
11.70102119260634
 31
0.0
 12
1.178965755422435
 22
11.70873818243195
 32
0.0
 13
1.178965755422435
 23
11.70873818243195
 33
0.0
  0
SOLID
  5
185AB
330
1856E
100
AcDbEntity
  8
0
 62
    29
100
AcDbTrace
 10
1.297807398736939
 20
11.69793439667609
 30
0.0
 11
1.294720602806691
 21
11.70102119260634
 31
0.0
 12
1.293177204841569
 22
11.70410798853658
 32
0.0
 13
1.293177204841569
 23
11.70410798853658
 33
0.0
  0
SOLID
  5
185AC
330
1856E
100
AcDbEntity
  8
0
 62
    29
100
AcDbTrace
 10
1.297807398736939
 20
11.69793439667609
 30
0.0
 11
1.303980990597434
 21
11.6917608048156
 31
0.0
 12
1.294720602806691
 22
11.70102119260634
 32
0.0
 13
1.308611184492804
 23
11.6855872129551
 33
0.0
  0
SOLID
  5
185AD
330
1856E
100
AcDbEntity
  8
0
 62
    29
100
AcDbTrace
 10
1.294720602806691
 20
11.70102119260634
 30
0.0
 11
1.308611184492804
 21
11.6855872129551
 31
0.0
 12
1.308611184492804
 22
11.6855872129551
 32
0.0
 13
1.294720602806691
 23
11.70102119260634
 33
0.0
  0
SOLID
  5
185AE
330
1856E
100
AcDbEntity
  8
0
 62
    30
100
AcDbTrace
 10
2.589631495545255
 20
8.635832833871198
 30
0.0
 11
2.589631495545255
 21
8.635832833871198
 31
0.0
 12
5.549868792652002
 22
5.655531363217846
 32
0.0
 13
2.589631495545255
 23
2.713814841692581
 33
0.0
  0
SOLID
  5
185AF
330
1856E
100
AcDbEntity
  8
0
 62
    30
100
AcDbTrace
 10
5.549868792652002
 20
5.655531363217846
 30
0.0
 11
2.589631495545255
 21
2.713814841692581
 31
0.0
 12
2.589631495545255
 22
2.713814841692581
 32
0.0
 13
5.549868792652002
 23
5.655531363217846
 33
0.0
  0
SOLID
  5
185B0
330
1856E
100
AcDbEntity
  8
0
 62
    29
100
AcDbTrace
 10
5.611604711256937
 20
5.59533884257803
 30
0.0
 11
2.527895576940316
 21
8.575640313231382
 31
0.0
 12
5.611604711256937
 22
5.717267281822785
 32
0.0
 13
2.65136741415019
 23
8.696025354511007
 33
0.0
  0
SOLID
  5
185B1
330
1856E
100
AcDbEntity
  8
0
 62
    29
100
AcDbTrace
 10
5.611604711256937
 20
5.717267281822785
 30
0.0
 11
2.65136741415019
 21
8.696025354511007
 31
0.0
 12
2.65136741415019
 22
8.696025354511007
 32
0.0
 13
5.611604711256937
 23
5.717267281822785
 33
0.0
  0
SOLID
  5
185B2
330
1856E
100
AcDbEntity
  8
0
 62
    29
100
AcDbTrace
 10
5.611604711256937
 20
5.59533884257803
 30
0.0
 11
5.488132874047064
 21
5.59533884257803
 31
0.0
 12
2.527895576940316
 22
8.575640313231382
 32
0.0
 13
2.527895576940316
 23
8.575640313231382
 33
0.0
  0
SOLID
  5
185B3
330
1856E
100
AcDbEntity
  8
0
 62
    29
100
AcDbTrace
 10
5.611604711256937
 20
5.59533884257803
 30
0.0
 11
5.599257527535954
 21
5.584535056822168
 31
0.0
 12
5.488132874047064
 22
5.59533884257803
 32
0.0
 13
5.585366945849841
 23
5.576818066996551
 33
0.0
  0
SOLID
  5
185B4
330
1856E
100
AcDbEntity
  8
0
 62
    29
100
AcDbTrace
 10
5.488132874047064
 20
5.59533884257803
 30
0.0
 11
5.585366945849841
 21
5.576818066996551
 31
0.0
 12
5.495849863872681
 22
5.587621852752413
 32
0.0
 13
5.577649956024224
 23
5.5737312710663
 33
0.0
  0
SOLID
  5
185B5
330
1856E
100
AcDbEntity
  8
0
 62
    29
100
AcDbTrace
 10
5.495849863872681
 20
5.587621852752413
 30
0.0
 11
5.577649956024224
 21
5.5737312710663
 31
0.0
 12
5.50511025166342
 22
5.582991658857039
 32
0.0
 13
5.569932966198607
 23
5.570644475136056
 33
0.0
  0
SOLID
  5
185B6
330
1856E
100
AcDbEntity
  8
0
 62
    29
100
AcDbTrace
 10
5.50511025166342
 20
5.582991658857039
 30
0.0
 11
5.569932966198607
 21
5.570644475136056
 31
0.0
 12
5.512827241489041
 22
5.576818066996551
 32
0.0
 13
5.562215976372989
 23
5.569101077170934
 33
0.0
  0
SOLID
  5
185B7
330
1856E
100
AcDbEntity
  8
0
 62
    29
100
AcDbTrace
 10
5.512827241489041
 20
5.576818066996551
 30
0.0
 11
5.562215976372989
 21
5.569101077170934
 31
0.0
 12
5.520544231314655
 22
5.5737312710663
 32
0.0
 13
5.554498986547372
 23
5.569101077170934
 33
0.0
  0
SOLID
  5
185B8
330
1856E
100
AcDbEntity
  8
0
 62
    29
100
AcDbTrace
 10
5.520544231314655
 20
5.5737312710663
 30
0.0
 11
5.554498986547372
 21
5.569101077170934
 31
0.0
 12
5.528261221140272
 22
5.570644475136056
 32
0.0
 13
5.545238598756633
 23
5.569101077170934
 33
0.0
  0
SOLID
  5
185B9
330
1856E
100
AcDbEntity
  8
0
 62
    29
100
AcDbTrace
 10
5.528261221140272
 20
5.570644475136056
 30
0.0
 11
5.545238598756633
 21
5.569101077170934
 31
0.0
 12
5.537521608931015
 22
5.569101077170934
 32
0.0
 13
5.537521608931015
 23
5.569101077170934
 33
0.0
  0
SOLID
  5
185BA
330
1856E
100
AcDbEntity
  8
0
 62
    29
100
AcDbTrace
 10
5.611604711256937
 20
5.59533884257803
 30
0.0
 11
5.637842476664037
 21
5.66787854693883
 31
0.0
 12
5.622408497012802
 22
5.60768602629902
 32
0.0
 13
5.637842476664037
 23
5.660161557113212
 33
0.0
  0
SOLID
  5
185BB
330
1856E
100
AcDbEntity
  8
0
 62
    29
100
AcDbTrace
 10
5.622408497012802
 20
5.60768602629902
 30
0.0
 11
5.637842476664037
 21
5.660161557113212
 31
0.0
 12
5.630125486838419
 22
5.621576607985133
 32
0.0
 13
5.637842476664037
 23
5.652444567287595
 33
0.0
  0
SOLID
  5
185BC
330
1856E
100
AcDbEntity
  8
0
 62
    29
100
AcDbTrace
 10
5.630125486838419
 20
5.621576607985133
 30
0.0
 11
5.637842476664037
 21
5.652444567287595
 31
0.0
 12
5.633212282768667
 22
5.627750199845621
 32
0.0
 13
5.637842476664037
 23
5.644727577461978
 33
0.0
  0
SOLID
  5
185BD
330
1856E
100
AcDbEntity
  8
0
 62
    29
100
AcDbTrace
 10
5.633212282768667
 20
5.627750199845621
 30
0.0
 11
5.637842476664037
 21
5.644727577461978
 31
0.0
 12
5.636299078698915
 22
5.635467189671238
 32
0.0
 13
5.636299078698915
 23
5.635467189671238
 33
0.0
  0
SOLID
  5
185BE
330
1856E
100
AcDbEntity
  8
0
 62
    29
100
AcDbTrace
 10
5.611604711256937
 20
5.59533884257803
 30
0.0
 11
5.636299078698915
 21
5.677138934729576
 31
0.0
 12
5.637842476664037
 22
5.66787854693883
 32
0.0
 13
5.637842476664037
 23
5.66787854693883
 33
0.0
  0
SOLID
  5
185BF
330
1856E
100
AcDbEntity
  8
0
 62
    29
100
AcDbTrace
 10
5.636299078698915
 20
5.677138934729576
 30
0.0
 11
5.611604711256937
 21
5.59533884257803
 31
0.0
 12
5.633212282768667
 22
5.684855924555193
 32
0.0
 13
5.633212282768667
 23
5.684855924555193
 33
0.0
  0
SOLID
  5
185C0
330
1856E
100
AcDbEntity
  8
0
 62
    29
100
AcDbTrace
 10
5.633212282768667
 20
5.684855924555193
 30
0.0
 11
5.611604711256937
 21
5.59533884257803
 31
0.0
 12
5.628582088873297
 22
5.692572914380804
 32
0.0
 13
5.628582088873297
 23
5.692572914380804
 33
0.0
  0
SOLID
  5
185C1
330
1856E
100
AcDbEntity
  8
0
 62
    29
100
AcDbTrace
 10
5.628582088873297
 20
5.692572914380804
 30
0.0
 11
5.611604711256937
 21
5.59533884257803
 31
0.0
 12
5.623951894977928
 22
5.70183330217155
 32
0.0
 13
5.623951894977928
 23
5.70183330217155
 33
0.0
  0
SOLID
  5
185C2
330
1856E
100
AcDbEntity
  8
0
 62
    29
100
AcDbTrace
 10
5.623951894977928
 20
5.70183330217155
 30
0.0
 11
5.611604711256937
 21
5.59533884257803
 31
0.0
 12
5.619321701082554
 22
5.709550291997167
 32
0.0
 13
5.619321701082554
 23
5.709550291997167
 33
0.0
  0
SOLID
  5
185C3
330
1856E
100
AcDbEntity
  8
0
 62
    29
100
AcDbTrace
 10
5.619321701082554
 20
5.709550291997167
 30
0.0
 11
5.611604711256937
 21
5.59533884257803
 31
0.0
 12
5.611604711256937
 22
5.717267281822785
 32
0.0
 13
5.611604711256937
 23
5.59533884257803
 33
0.0
  0
SOLID
  5
185C4
330
1856E
100
AcDbEntity
  8
0
 62
    29
100
AcDbTrace
 10
5.611604711256937
 20
5.717267281822785
 30
0.0
 11
5.611604711256937
 21
5.59533884257803
 31
0.0
 12
5.611604711256937
 22
5.59533884257803
 32
0.0
 13
5.611604711256937
 23
5.59533884257803
 33
0.0
  0
SOLID
  5
185C5
330
1856E
100
AcDbEntity
  8
0
 62
    29
100
AcDbTrace
 10
2.503201209498342
 20
2.713814841692581
 30
0.0
 11
5.489676272012189
 21
5.717267281822785
 31
0.0
 12
2.649824016185068
 22
2.653622321052765
 32
0.0
 13
5.611604711256937
 23
5.59533884257803
 33
0.0
  0
SOLID
  5
185C6
330
1856E
100
AcDbEntity
  8
0
 62
    29
100
AcDbTrace
 10
2.649824016185068
 20
2.653622321052765
 30
0.0
 11
5.611604711256937
 21
5.59533884257803
 31
0.0
 12
5.611604711256937
 22
5.59533884257803
 32
0.0
 13
2.649824016185068
 23
2.653622321052765
 33
0.0
  0
SOLID
  5
185C7
330
1856E
100
AcDbEntity
  8
0
 62
    29
100
AcDbTrace
 10
2.503201209498342
 20
2.713814841692581
 30
0.0
 11
2.527895576940316
 21
2.77555076029752
 31
0.0
 12
5.489676272012189
 22
5.717267281822785
 32
0.0
 13
5.489676272012189
 23
5.717267281822785
 33
0.0
  0
SOLID
  5
185C8
330
1856E
100
AcDbEntity
  8
0
 62
    29
100
AcDbTrace
 10
2.503201209498342
 20
2.713814841692581
 30
0.0
 11
2.503201209498342
 21
2.735422413204304
 31
0.0
 12
2.527895576940316
 22
2.77555076029752
 32
0.0
 13
2.50628800542859
 23
2.743139403029921
 33
0.0
  0
SOLID
  5
185C9
330
1856E
100
AcDbEntity
  8
0
 62
    29
100
AcDbTrace
 10
2.527895576940316
 20
2.77555076029752
 30
0.0
 11
2.50628800542859
 21
2.743139403029921
 31
0.0
 12
2.521721985079821
 22
2.767833770471895
 32
0.0
 13
2.51091819932396
 23
2.75239979082066
 33
0.0
  0
SOLID
  5
185CA
330
1856E
100
AcDbEntity
  8
0
 62
    29
100
AcDbTrace
 10
2.521721985079821
 20
2.767833770471895
 30
0.0
 11
2.51091819932396
 21
2.75239979082066
 31
0.0
 12
2.515548393219329
 22
2.760116780646285
 32
0.0
 13
2.515548393219329
 23
2.760116780646285
 33
0.0
  0
SOLID
  5
185CB
330
1856E
100
AcDbEntity
  8
0
 62
    29
100
AcDbTrace
 10
2.501657811533217
 20
2.71072804576233
 30
0.0
 11
2.649824016185068
 21
2.653622321052765
 31
0.0
 12
2.501657811533217
 22
2.703011055936713
 32
0.0
 13
2.64210702635945
 23
2.645905331227147
 33
0.0
  0
SOLID
  5
185CC
330
1856E
100
AcDbEntity
  8
0
 62
    29
100
AcDbTrace
 10
2.501657811533217
 20
2.703011055936713
 30
0.0
 11
2.64210702635945
 21
2.645905331227147
 31
0.0
 12
2.503201209498342
 22
2.695294066111095
 32
0.0
 13
2.634390036533833
 23
2.639731739366652
 33
0.0
  0
SOLID
  5
185CD
330
1856E
100
AcDbEntity
  8
0
 62
    29
100
AcDbTrace
 10
2.503201209498342
 20
2.695294066111095
 30
0.0
 11
2.634390036533833
 21
2.639731739366652
 31
0.0
 12
2.50628800542859
 22
2.687577076285478
 32
0.0
 13
2.626673046708216
 23
2.635101545471286
 33
0.0
  0
SOLID
  5
185CE
330
1856E
100
AcDbEntity
  8
0
 62
    29
100
AcDbTrace
 10
2.50628800542859
 20
2.687577076285478
 30
0.0
 11
2.626673046708216
 21
2.635101545471286
 31
0.0
 12
2.509374801358834
 22
2.679860086459861
 32
0.0
 13
2.618956056882598
 23
2.632014749541035
 33
0.0
  0
SOLID
  5
185CF
330
1856E
100
AcDbEntity
  8
0
 62
    29
100
AcDbTrace
 10
2.509374801358834
 20
2.679860086459861
 30
0.0
 11
2.618956056882598
 21
2.632014749541035
 31
0.0
 12
2.517091791184451
 22
2.665969504773755
 32
0.0
 13
2.609695669091859
 23
2.628927953610791
 33
0.0
  0
SOLID
  5
185D0
330
1856E
100
AcDbEntity
  8
0
 62
    29
100
AcDbTrace
 10
2.517091791184451
 20
2.665969504773755
 30
0.0
 11
2.609695669091859
 21
2.628927953610791
 31
0.0
 12
2.527895576940316
 22
2.653622321052765
 32
0.0
 13
2.601978679266242
 23
2.627384555645662
 33
0.0
  0
SOLID
  5
185D1
330
1856E
100
AcDbEntity
  8
0
 62
    29
100
AcDbTrace
 10
2.527895576940316
 20
2.653622321052765
 30
0.0
 11
2.601978679266242
 21
2.627384555645662
 31
0.0
 12
2.540242760661303
 22
2.642818535296903
 32
0.0
 13
2.592718291475499
 23
2.62584115768054
 33
0.0
  0
SOLID
  5
185D2
330
1856E
100
AcDbEntity
  8
0
 62
    29
100
AcDbTrace
 10
2.540242760661303
 20
2.642818535296903
 30
0.0
 11
2.592718291475499
 21
2.62584115768054
 31
0.0
 12
2.554133342347416
 22
2.635101545471286
 32
0.0
 13
2.585001301649885
 23
2.627384555645662
 33
0.0
  0
SOLID
  5
185D3
330
1856E
100
AcDbEntity
  8
0
 62
    29
100
AcDbTrace
 10
2.554133342347416
 20
2.635101545471286
 30
0.0
 11
2.585001301649885
 21
2.627384555645662
 31
0.0
 12
2.561850332173033
 22
2.632014749541035
 32
0.0
 13
2.577284311824268
 23
2.627384555645662
 33
0.0
  0
SOLID
  5
185D4
330
1856E
100
AcDbEntity
  8
0
 62
    29
100
AcDbTrace
 10
2.561850332173033
 20
2.632014749541035
 30
0.0
 11
2.577284311824268
 21
2.627384555645662
 31
0.0
 12
2.569567321998651
 22
2.628927953610791
 32
0.0
 13
2.569567321998651
 23
2.628927953610791
 33
0.0
  0
SOLID
  5
185D5
330
1856E
100
AcDbEntity
  8
0
 62
    29
100
AcDbTrace
 10
2.649824016185068
 20
2.653622321052765
 30
0.0
 11
2.503201209498342
 21
2.713814841692581
 31
0.0
 12
2.503201209498342
 22
2.713814841692581
 32
0.0
 13
2.503201209498342
 23
2.713814841692581
 33
0.0
  0
SOLID
  5
185D6
330
1856E
100
AcDbEntity
  8
0
 62
    29
100
AcDbTrace
 10
2.65136741415019
 20
8.696025354511007
 30
0.0
 11
2.676061781592167
 21
8.635832833871198
 31
0.0
 12
2.503201209498342
 22
8.635832833871198
 32
0.0
 13
2.676061781592167
 23
2.713814841692581
 33
0.0
  0
SOLID
  5
185D7
330
1856E
100
AcDbEntity
  8
0
 62
    29
100
AcDbTrace
 10
2.503201209498342
 20
8.635832833871198
 30
0.0
 11
2.676061781592167
 21
2.713814841692581
 31
0.0
 12
2.503201209498342
 22
2.713814841692581
 32
0.0
 13
2.503201209498342
 23
2.713814841692581
 33
0.0
  0
SOLID
  5
185D8
330
1856E
100
AcDbEntity
  8
0
 62
    29
100
AcDbTrace
 10
2.65136741415019
 20
8.696025354511007
 30
0.0
 11
2.660627801940933
 21
8.688308364685397
 31
0.0
 12
2.676061781592167
 22
8.635832833871198
 32
0.0
 13
2.665257995836302
 23
8.68059137485978
 33
0.0
  0
SOLID
  5
185D9
330
1856E
100
AcDbEntity
  8
0
 62
    29
100
AcDbTrace
 10
2.676061781592167
 20
8.635832833871198
 30
0.0
 11
2.665257995836302
 21
8.68059137485978
 31
0.0
 12
2.676061781592167
 22
8.646636619627059
 32
0.0
 13
2.66834479176655
 23
8.672874385034162
 33
0.0
  0
SOLID
  5
185DA
330
1856E
100
AcDbEntity
  8
0
 62
    29
100
AcDbTrace
 10
2.676061781592167
 20
8.646636619627059
 30
0.0
 11
2.66834479176655
 21
8.672874385034162
 31
0.0
 12
2.674518383627042
 22
8.655897007417799
 32
0.0
 13
2.671431587696794
 23
8.665157395208545
 33
0.0
  0
SOLID
  5
185DB
330
1856E
100
AcDbEntity
  8
0
 62
    29
100
AcDbTrace
 10
2.674518383627042
 20
8.655897007417799
 30
0.0
 11
2.671431587696794
 21
8.665157395208545
 31
0.0
 12
2.671431587696794
 22
8.665157395208545
 32
0.0
 13
2.674518383627042
 23
8.655897007417799
 33
0.0
  0
SOLID
  5
185DC
330
1856E
100
AcDbEntity
  8
0
 62
    29
100
AcDbTrace
 10
2.654454210080437
 20
8.694481956545885
 30
0.0
 11
2.605065475196489
 21
8.720719721952988
 31
0.0
 12
2.649824016185068
 22
8.700655548406381
 32
0.0
 13
2.620499454847724
 23
8.717632926022737
 33
0.0
  0
SOLID
  5
185DD
330
1856E
100
AcDbEntity
  8
0
 62
    29
100
AcDbTrace
 10
2.649824016185068
 20
8.700655548406381
 30
0.0
 11
2.620499454847724
 21
8.717632926022737
 31
0.0
 12
2.635933434498959
 22
8.70991593619712
 32
0.0
 13
2.635933434498959
 23
8.70991593619712
 33
0.0
  0
SOLID
  5
185DE
330
1856E
100
AcDbEntity
  8
0
 62
    29
100
AcDbTrace
 10
2.589631495545255
 20
8.72226311991811
 30
0.0
 11
2.65136741415019
 21
8.696025354511007
 31
0.0
 12
2.572654117928898
 22
8.720719721952988
 32
0.0
 13
2.503201209498342
 23
8.635832833871198
 33
0.0
  0
SOLID
  5
185DF
330
1856E
100
AcDbEntity
  8
0
 62
    29
100
AcDbTrace
 10
2.572654117928898
 20
8.720719721952988
 30
0.0
 11
2.503201209498342
 21
8.635832833871198
 31
0.0
 12
2.55722013827766
 22
8.717632926022737
 32
0.0
 13
2.503201209498342
 23
8.646636619627059
 33
0.0
  0
SOLID
  5
185E0
330
1856E
100
AcDbEntity
  8
0
 62
    29
100
AcDbTrace
 10
2.55722013827766
 20
8.717632926022737
 30
0.0
 11
2.503201209498342
 21
8.646636619627059
 31
0.0
 12
2.549503148452046
 22
8.714546130092493
 32
0.0
 13
2.504744607463464
 23
8.655897007417799
 33
0.0
  0
SOLID
  5
185E1
330
1856E
100
AcDbEntity
  8
0
 62
    29
100
AcDbTrace
 10
2.549503148452046
 20
8.714546130092493
 30
0.0
 11
2.504744607463464
 21
8.655897007417799
 31
0.0
 12
2.543329556591551
 22
8.70991593619712
 32
0.0
 13
2.50628800542859
 23
8.665157395208545
 33
0.0
  0
SOLID
  5
185E2
330
1856E
100
AcDbEntity
  8
0
 62
    29
100
AcDbTrace
 10
2.543329556591551
 20
8.70991593619712
 30
0.0
 11
2.50628800542859
 21
8.665157395208545
 31
0.0
 12
2.535612566765934
 22
8.705285742301754
 32
0.0
 13
2.509374801358834
 23
8.672874385034162
 33
0.0
  0
SOLID
  5
185E3
330
1856E
100
AcDbEntity
  8
0
 62
    29
100
AcDbTrace
 10
2.535612566765934
 20
8.705285742301754
 30
0.0
 11
2.509374801358834
 21
8.672874385034162
 31
0.0
 12
2.529438974905442
 22
8.700655548406381
 32
0.0
 13
2.514004995254204
 23
8.68059137485978
 33
0.0
  0
SOLID
  5
185E4
330
1856E
100
AcDbEntity
  8
0
 62
    29
100
AcDbTrace
 10
2.529438974905442
 20
8.700655548406381
 30
0.0
 11
2.514004995254204
 21
8.68059137485978
 31
0.0
 12
2.523265383044947
 22
8.694481956545885
 32
0.0
 13
2.518635189149577
 23
8.688308364685397
 33
0.0
  0
SOLID
  5
185E5
330
1856E
100
AcDbEntity
  8
0
 62
    29
100
AcDbTrace
 10
2.523265383044947
 20
8.694481956545885
 30
0.0
 11
2.518635189149577
 21
8.688308364685397
 31
0.0
 12
2.518635189149577
 22
8.688308364685397
 32
0.0
 13
2.523265383044947
 23
8.694481956545885
 33
0.0
  0
SOLID
  5
185E6
330
1856E
100
AcDbEntity
  8
0
 62
    29
100
AcDbTrace
 10
2.605065475196489
 20
8.720719721952988
 30
0.0
 11
2.65136741415019
 21
8.696025354511007
 31
0.0
 12
2.589631495545255
 22
8.72226311991811
 32
0.0
 13
2.589631495545255
 23
8.72226311991811
 33
0.0
  0
SOLID
  5
185E7
330
1856E
100
AcDbEntity
  8
0
 62
    29
100
AcDbTrace
 10
2.605065475196489
 20
8.720719721952988
 30
0.0
 11
2.660627801940933
 21
8.688308364685397
 31
0.0
 12
2.65136741415019
 22
8.696025354511007
 32
0.0
 13
2.65136741415019
 23
8.696025354511007
 33
0.0
  0
SOLID
  5
185E8
330
1856E
100
AcDbEntity
  8
0
 62
    29
100
AcDbTrace
 10
2.605065475196489
 20
8.720719721952988
 30
0.0
 11
2.654454210080437
 21
8.694481956545885
 31
0.0
 12
2.660627801940933
 22
8.688308364685397
 32
0.0
 13
2.660627801940933
 23
8.688308364685397
 33
0.0
  0
TEXT
  5
185E9
330
1856E
100
AcDbEntity
  8
RAHMEN025
100
AcDbText
 10
10.58651758814535
 20
10.69333983401643
 30
0.0
 40
1.448241032582157
  1
DHD
  7
ISOCP
100
AcDbText
  0
TEXT
  5
185EA
330
1856E
100
AcDbEntity
  8
RAHMEN025
100
AcDbText
 10
10.58651758814535
 20
8.825220068831612
 30
0.0
 40
1.448241032582157
  1
Deubner Hoffmann Digital GmbH
  7
ISOCP
100
AcDbText
  0
TEXT
  5
185EB
330
1856E
100
AcDbEntity
  8
RAHMEN025
100
AcDbText
 10
10.58651758814535
 20
6.900366638810396
 30
0.0
 40
1.448241032582157
  1
Haferkornstrasse 5
  7
ISOCP
100
AcDbText
  0
TEXT
  5
185EC
330
1856E
100
AcDbEntity
  8
RAHMEN025
100
AcDbText
 10
10.58651758814535
 20
4.810152651797494
 30
0.0
 40
1.448241032582157
  1
04129 Leipzig
  7
ISOCP
100
AcDbText
  0
TEXT
  5
185ED
330
1856E
100
AcDbEntity
  8
RAHMEN025
100
AcDbText
 10
10.58651758814535
 20
2.359874590047247
 30
0.0
 40
1.448241032582157
  1
Phone: +49  341  5897020
  7
ISOCP
100
AcDbText
  0
TEXT
  5
185EE
330
1856E
100
AcDbEntity
  8
RAHMEN025
100
AcDbText
 10
10.58651758814535
 20
0.4350211600260323
 30
0.0
 40
1.448241032582157
  1
Fax:  +49  341  5897022
  7
ISOCP
100
AcDbText
  0
ENDBLK
  5
185F0
330
1856E
100
AcDbEntity
  8
0
100
AcDbBlockEnd
  0
BLOCK
  5
276A4
330
2769A
100
AcDbEntity
  8
0
100
AcDbBlockBegin
  2
*D1
 70
     1
 10
0.0
 20
0.0
 30
0.0
  3
*D1
  1

  0
LINE
  5
27EDC
330
2769A
100
AcDbEntity
  8
BEMASSUNG
 62
     0
100
AcDbLine
 10
64.6342073514165
 20
227.6890676265868
 30
0.0
 11
64.6342073514165
 21
236.0490070715934
 31
0.0
  0
LINE
  5
27EDD
330
2769A
100
AcDbEntity
  8
BEMASSUNG
 62
     0
100
AcDbLine
 10
546.6342109514164
 20
227.6890676265868
 30
0.0
 11
546.6342109514164
 21
236.0490070715934
 31
0.0
  0
LINE
  5
27EDE
330
2769A
100
AcDbEntity
  8
BEMASSUNG
 62
     0
100
AcDbLine
 10
67.1342073514165
 20
234.7990070715934
 30
0.0
 11
544.1342109514164
 21
234.7990070715934
 31
0.0
  0
SOLID
  5
27EDF
330
2769A
100
AcDbEntity
  8
BEMASSUNG
 62
     0
100
AcDbTrace
 10
67.1342073514165
 20
235.2156737382601
 30
0.0
 11
67.1342073514165
 21
234.3823404049267
 31
0.0
 12
64.6342073514165
 22
234.7990070715934
 32
0.0
 13
64.6342073514165
 23
234.7990070715934
 33
0.0
  0
SOLID
  5
27EE0
330
2769A
100
AcDbEntity
  8
BEMASSUNG
 62
     0
100
AcDbTrace
 10
544.1342109514164
 20
235.2156737382601
 30
0.0
 11
544.1342109514164
 21
234.3823404049267
 31
0.0
 12
546.6342109514164
 22
234.7990070715934
 32
0.0
 13
546.6342109514164
 23
234.7990070715934
 33
0.0
  0
MTEXT
  5
27EE1
330
2769A
100
AcDbEntity
  8
BEMASSUNG
 62
     0
100
AcDbMText
 10
305.6342091514165
 20
236.6740070715934
 30
0.0
 40
2.5
 41
0.0
 71
     5
 72
     1
  1
\A1;482
  0
POINT
  5
27EE2
330
2769A
100
AcDbEntity
  8
DEFPOINTS
 62
     0
100
AcDbPoint
 10
64.6342073514165
 20
227.0640676265869
 30
0.0
  0
POINT
  5
27EE3
330
2769A
100
AcDbEntity
  8
DEFPOINTS
 62
     0
100
AcDbPoint
 10
546.6342109514164
 20
227.0640676265869
 30
0.0
  0
POINT
  5
27EE4
330
2769A
100
AcDbEntity
  8
DEFPOINTS
 62
     0
100
AcDbPoint
 10
546.6342109514164
 20
234.7990070715934
 30
0.0
  0
ENDBLK
  5
276A5
330
2769A
100
AcDbEntity
  8
0
100
AcDbBlockEnd
  0
BLOCK
  5
276B1
330
276A7
100
AcDbEntity
  8
0
100
AcDbBlockBegin
  2
*D2
 70
     1
 10
0.0
 20
0.0
 30
0.0
  3
*D2
  1

  0
LINE
  5
27EE5
330
276A7
100
AcDbEntity
  8
BEMASSUNG
 62
     0
100
AcDbLine
 10
64.0092073514165
 20
227.0640676265869
 30
0.0
 11
54.95398357134195
 21
227.0640676265869
 31
0.0
  0
LINE
  5
27EE6
330
276A7
100
AcDbEntity
  8
BEMASSUNG
 62
     0
100
AcDbLine
 10
64.0092073514165
 20
182.7640676265868
 30
0.0
 11
54.95398357134195
 21
182.7640676265869
 31
0.0
  0
LINE
  5
27EE7
330
276A7
100
AcDbEntity
  8
BEMASSUNG
 62
     0
100
AcDbLine
 10
56.20398357134195
 20
224.5640676265869
 30
0.0
 11
56.20398357134195
 21
185.2640676265869
 31
0.0
  0
SOLID
  5
27EE8
330
276A7
100
AcDbEntity
  8
BEMASSUNG
 62
     0
100
AcDbTrace
 10
55.78731690467529
 20
224.5640676265869
 30
0.0
 11
56.62065023800862
 21
224.5640676265869
 31
0.0
 12
56.20398357134195
 22
227.0640676265869
 32
0.0
 13
56.20398357134195
 23
227.0640676265869
 33
0.0
  0
SOLID
  5
27EE9
330
276A7
100
AcDbEntity
  8
BEMASSUNG
 62
     0
100
AcDbTrace
 10
55.78731690467528
 20
185.2640676265869
 30
0.0
 11
56.62065023800861
 21
185.2640676265869
 31
0.0
 12
56.20398357134195
 22
182.7640676265869
 32
0.0
 13
56.20398357134195
 23
182.7640676265869
 33
0.0
  0
MTEXT
  5
27EEA
330
276A7
100
AcDbEntity
  8
BEMASSUNG
 62
     0
100
AcDbMText
 10
54.12065023800859
 20
204.9140676265869
 30
0.0
 40
2.5
 41
0.0
 71
     5
 72
     1
  1
\A1;44,3
 11
0.0000000000000001
 21
1.0
 31
0.0
  0
POINT
  5
27EEB
330
276A7
100
AcDbEntity
  8
DEFPOINTS
 62
     0
100
AcDbPoint
 10
64.6342073514165
 20
227.0640676265869
 30
0.0
  0
POINT
  5
27EEC
330
276A7
100
AcDbEntity
  8
DEFPOINTS
 62
     0
100
AcDbPoint
 10
64.6342073514165
 20
182.7640676265868
 30
0.0
  0
POINT
  5
27EED
330
276A7
100
AcDbEntity
  8
DEFPOINTS
 62
     0
100
AcDbPoint
 10
56.20398357134195
 20
182.7640676265869
 30
0.0
  0
ENDBLK
  5
276B2
330
276A7
100
AcDbEntity
  8
0
100
AcDbBlockEnd
  0
ENDSEC
  0
SECTION
  2
ENTITIES
  0
LINE
  5
18531
330
18
100
AcDbEntity
  8
RAHMEN07
100
AcDbLine
 10
401.8000000000001
 20
22.0
 30
0.0
 11
401.8000000000001
 21
5.0
 31
0.0
  0
LINE
  5
1853B
330
18
100
AcDbEntity
  8
RAHMEN07
100
AcDbLine
 10
401.8000000000001
 20
22.0
 30
0.0
 11
589.0000000000002
 21
22.0
 31
0.0
  0
LINE
  5
1853D
330
18
100
AcDbEntity
  8
RAHMEN07
100
AcDbLine
 10
401.8000000000001
 20
5.0
 30
0.0
 11
589.0000000000002
 21
5.0
 31
0.0
  0
LINE
  5
18549
330
18
100
AcDbEntity
  8
RAHMEN025
100
AcDbLine
 10
456.4
 20
22.0
 30
0.0
 11
456.4
 21
5.0
 31
0.0
  0
LINE
  5
18553
330
18
100
AcDbEntity
  8
RAHMEN025
100
AcDbLine
 10
500.6000000000003
 20
22.0
 30
0.0
 11
500.6000000000002
 21
5.0
 31
0.0
  0
TEXT
  5
1856D
330
18
100
AcDbEntity
  8
RAHMEN025
100
AcDbText
 10
458.171916286602
 20
17.5625
 30
0.0
 40
2.5
  1
Maßstab
  7
ISOCP
100
AcDbText
  0
INSERT
  5
185FF
330
18
100
AcDbEntity
  8
RAHMEN05
100
AcDbBlockReference
  2
A$C4EFE16F9
 10
404.6712335244651
 20
6.059781767167123
 30
0.0
 41
1.199999999999999
 42
1.199999999999999
 43
1.199999999999999
  0
TEXT
  5
18600
330
18
100
AcDbEntity
  8
RAHMEN025
100
AcDbText
 10
509.4160443883506
 20
14.04955403426225
 30
0.0
 40
5.809351702482672
  1
Layout RM420-018
  7
TASTENTEXT
100
AcDbText
  0
TEXT
  5
25437
330
18
100
AcDbEntity
  8
RAHMEN025
100
AcDbText
 10
523.2421799777553
 20
8.094828887211917
 30
0.0
 40
3.0
  1
Router Control Panel
  7
TASTENTEXT
100
AcDbText
  0
TEXT
  5
26613
330
18
100
AcDbEntity
  8
RAHMEN025
100
AcDbText
 10
474.1726170171528
 20
17.39077894527963
 30
0.0
 40
2.5
  1
1:1 (DIN A2)
  7
ISOCP
100
AcDbText
  0
LINE
  5
266D4
330
18
100
AcDbEntity
  8
RAHMEN07
100
AcDbLine
 10
589.0
 20
415.0
 30
0.0
 11
20.0
 21
415.0
 31
0.0
  0
LINE
  5
266D5
330
18
100
AcDbEntity
  8
RAHMEN07
100
AcDbLine
 10
20.0
 20
5.0
 30
0.0
 11
589.0
 21
5.0
 31
0.0
  0
LINE
  5
266D6
330
18
100
AcDbEntity
  8
RAHMEN025
100
AcDbLine
 10
594.0
 20
420.0
 30
0.0
 11
0.0
 21
420.0
 31
0.0
  0
LINE
  5
266D7
330
18
100
AcDbEntity
  8
RAHMEN025
100
AcDbLine
 10
0.0
 20
0.0
 30
0.0
 11
594.0
 21
0.0
 31
0.0
  0
LINE
  5
266D8
330
18
100
AcDbEntity
  8
RAHMEN07
100
AcDbLine
 10
20.0
 20
415.0
 30
0.0
 11
20.0
 21
5.0
 31
0.0
  0
LINE
  5
266D9
330
18
100
AcDbEntity
  8
RAHMEN025
100
AcDbLine
 10
0.0
 20
420.0
 30
0.0
 11
0.0
 21
0.0
 31
0.0
  0
LINE
  5
266DA
330
18
100
AcDbEntity
  8
RAHMEN07
100
AcDbLine
 10
589.0
 20
5.0
 30
0.0
 11
589.0
 21
415.0
 31
0.0
  0
LINE
  5
266DB
330
18
100
AcDbEntity
  8
RAHMEN025
100
AcDbLine
 10
594.0
 20
0.0
 30
0.0
 11
594.0
 21
420.0
 31
0.0
  0
LWPOLYLINE
  5
272F1
330
18
100
AcDbEntity
  8
BESCHRIFTUNG
  6
CONTINUOUS
100
AcDbPolyline
 90
        2
 70
     0
 43
0.508
 10
270.0781969514165
 20
220.3688627265868
 10
408.6900101514165
 20
220.3688627265868
  0
LWPOLYLINE
  5
272F2
330
18
100
AcDbEntity
  8
BESCHRIFTUNG
  6
CONTINUOUS
100
AcDbPolyline
 90
        2
 70
     0
 43
0.508
 10
270.0781969514165
 20
189.4592725265868
 10
408.6901117514164
 20
189.4592725265868
  0
LWPOLYLINE
  5
272F3
330
18
100
AcDbEntity
  8
BESCHRIFTUNG
  6
CONTINUOUS
100
AcDbPolyline
 90
       37
 70
     1
 43
0.0762
 10
302.9372117514165
 20
213.7801535265869
 10
302.9372117514165
 20
215.9801745265868
 10
303.3513079514165
 20
215.9801745265868
 10
304.3878057514164
 20
214.6503575265868
 10
305.4014943514165
 20
215.9801745265868
 10
305.8113995514165
 20
215.9801745265868
 10
305.8113995514165
 20
213.7801535265869
 10
305.3368005514164
 20
213.7801535265869
 10
305.3368005514164
 20
215.1390535265868
 10
305.3373339514164
 20
215.1677301265868
 10
305.3389595514165
 20
215.2011057265868
 10
305.3418043514164
 20
215.2391549265868
 10
305.3457667514164
 20
215.2811157265868
 10
305.3504149514164
 20
215.3260737265868
 10
305.3552917514164
 20
215.3741559265868
 10
305.3287741514164
 20
215.3207651265868
 10
305.3045933514165
 20
215.2740545265868
 10
305.2828001514165
 20
215.2342527265868
 10
305.2627849514164
 20
215.1994801265868
 10
305.2439889514165
 20
215.1691525265868
 10
305.2267169514164
 20
215.1433715265868
 10
304.4006073514164
 20
214.0443643265868
 10
304.2982961514165
 20
214.0443643265868
 10
303.4700021514165
 20
215.1475625265868
 10
303.4409191514165
 20
215.1885835265868
 10
303.4148079514165
 20
215.2278519265868
 10
303.3917955514164
 20
215.2654693265868
 10
303.3717549514165
 20
215.3016643265869
 10
303.3540003514165
 20
215.3373259265868
 10
303.3386079514164
 20
215.3720731265869
 10
303.3426211514164
 20
215.3278771265868
 10
303.3459485514164
 20
215.2863481265868
 10
303.3485139514165
 20
215.2477655265868
 10
303.3502157514165
 20
215.2106053265868
 10
303.3510793514165
 20
215.1743595265868
 10
303.3513079514165
 20
215.1390535265868
 10
303.3513079514165
 20
213.7801535265869
  0
LWPOLYLINE
  5
272F4
330
18
100
AcDbEntity
  8
BLECH
  6
CONTINUOUS
100
AcDbPolyline
 90
        4
 70
     1
 43
0.0
 10
520.6342109514164
 20
182.7641627265868
 10
520.6342109514164
 20
227.0639725265869
 10
90.63420735141651
 20
227.0639725265869
 10
90.63420735141651
 20
182.7641627265868
  0
LWPOLYLINE
  5
272F5
330
18
100
AcDbEntity
  8
TASTEN
100
AcDbPolyline
 90
        8
 70
     1
 43
0.0
 10
166.6206318885729
 20
213.3322660389848
 10
245.8203408270581
 20
213.3322660389848
 42
-0.4142135623730951
 10
246.820340827058
 20
212.3322660389848
 10
246.820340827058
 20
197.697892129409
 42
-0.4142135623730951
 10
245.8203408270581
 20
196.697892129409
 10
166.6206318885729
 20
196.697892129409
 42
-0.4142135623730951
 10
165.6206318885729
 20
197.697892129409
 10
165.6206318885729
 20
212.3322660389848
 42
-0.4142135623730951
  0
LWPOLYLINE
  5
272F6
330
18
100
AcDbEntity
  8
BESCHRIFTUNG
100
AcDbPolyline
 90
        2
 70
     0
 43
0.508
 10
104.1773095514165
 20
220.3688627265868
 10
261.1902035514165
 20
220.3688627265868
  0
LWPOLYLINE
  5
272F7
330
18
100
AcDbEntity
  8
BESCHRIFTUNG
100
AcDbPolyline
 90
        2
 70
     0
 43
0.508
 10
104.1773095514165
 20
189.4592725265868
 10
261.1903051514165
 20
189.4592725265868
  0
LWPOLYLINE
  5
272F8
330
18
100
AcDbEntity
  8
BESCHRIFTUNG
100
AcDbPolyline
 90
       22
 70
     1
 43
0.0762
 10
105.6253127514164
 20
191.1545701265868
 10
105.6253127514164
 20
193.2295723265868
 10
107.4001123514165
 20
193.2295723265868
 10
107.5497691514165
 20
193.2190313265868
 10
107.6692253514165
 20
193.1873829265868
 10
107.7586079514164
 20
193.1344493265868
 10
107.8199997514164
 20
193.0578429265868
 10
107.8568297514164
 20
192.9555063265868
 10
107.8690979514165
 20
192.8275665265868
 10
107.8690979514165
 20
192.3397595265868
 10
107.8568297514164
 20
192.2124801265868
 10
107.8199997514164
 20
192.1106769265868
 10
107.7586079514164
 20
192.0342737265869
 10
107.6692253514165
 20
191.9806543265868
 10
107.5497691514165
 20
191.9484979265868
 10
107.4001123514165
 20
191.9377537265868
 10
107.1293991514165
 20
191.9377537265868
 10
108.0869029514164
 20
191.1545701265868
 10
107.3940925514164
 20
191.1545701265868
 10
106.5578991514165
 20
191.9377537265868
 10
106.1002927514164
 20
191.9377537265868
 10
106.1002927514164
 20
191.1545701265868
  0
LWPOLYLINE
  5
272F9
330
18
100
AcDbEntity
  8
BESCHRIFTUNG
100
AcDbPolyline
 90
       16
 70
     1
 43
0.0762
 10
107.1863967514165
 20
192.8704671265868
 10
106.1002927514164
 20
192.8704671265868
 10
106.1002927514164
 20
192.2928711265868
 10
107.1863967514165
 20
192.2928711265868
 10
107.2612251514164
 20
192.2968843265868
 10
107.3183497514165
 20
192.3089747265868
 10
107.3578975514164
 20
192.3290661265868
 10
107.3835769514164
 20
192.3594191265868
 10
107.3989693514165
 20
192.4023197265868
 10
107.4041001514164
 20
192.4577679265868
 10
107.4041001514164
 20
192.7076531265868
 10
107.3989693514165
 20
192.7619329265868
 10
107.3835769514164
 20
192.8041223265868
 10
107.3578975514164
 20
192.8342721265868
 10
107.3183497514165
 20
192.8543635265868
 10
107.2612251514164
 20
192.8664285265869
  0
LWPOLYLINE
  5
27302
330
18
100
AcDbEntity
  8
BESCHRIFTUNG
100
AcDbPolyline
 90
        6
 70
     1
 43
0.0762
 10
140.0651981514164
 20
191.1545701265868
 10
140.0651981514164
 20
192.8543635265868
 10
140.4832059514165
 20
192.8543635265868
 10
140.4832059514165
 20
191.4728575265868
 10
141.8158931514165
 20
191.4728575265868
 10
141.8158931514165
 20
191.1545701265868
  0
LWPOLYLINE
  5
27303
330
18
100
AcDbEntity
  8
BESCHRIFTUNG
100
AcDbPolyline
 90
       28
 70
     1
 43
0.0762
 10
137.1507005514164
 20
192.4536531265868
 10
137.1607335514165
 20
192.5919561265868
 10
137.1908579514165
 20
192.6973407265868
 10
137.2410991514165
 20
192.7699593265869
 10
137.3202201514164
 20
192.8168731265868
 10
137.4371617514165
 20
192.8449909265868
 10
137.5922033514164
 20
192.8543635265868
 10
138.9074153514164
 20
192.8543635265868
 10
139.0635745514164
 20
192.8449909265868
 10
139.1809733514165
 20
192.8168731265868
 10
139.2598149514165
 20
192.7699593265869
 10
139.3094719514165
 20
192.6973407265868
 10
139.3391391514165
 20
192.5919561265868
 10
139.3489943514165
 20
192.4536531265868
 10
139.3489943514165
 20
191.5565505265868
 10
139.3389105514164
 20
191.4176633265868
 10
139.3085575514165
 20
191.3117961265868
 10
139.2578083514164
 20
191.2389743265868
 10
139.1783063514165
 20
191.1920605265868
 10
139.0615679514164
 20
191.1639427265868
 10
138.9074153514164
 20
191.1545701265868
 10
137.5922033514164
 20
191.1545701265868
 10
137.4371617514165
 20
191.1639427265868
 10
137.3202201514164
 20
191.1920605265868
 10
137.2410991514165
 20
191.2389743265868
 10
137.1908579514165
 20
191.3117961265868
 10
137.1607335514165
 20
191.4176633265868
 10
137.1507005514164
 20
191.5565505265868
  0
LWPOLYLINE
  5
27304
330
18
100
AcDbEntity
  8
BESCHRIFTUNG
100
AcDbPolyline
 90
        4
 70
     1
 43
0.0762
 10
137.5646951514165
 20
191.4801727265868
 10
138.9348981514164
 20
191.4801727265868
 10
138.9348981514164
 20
192.5421721265868
 10
137.5646951514165
 20
192.5421721265868
  0
LWPOLYLINE
  5
27306
330
18
100
AcDbEntity
  8
BESCHRIFTUNG
100
AcDbPolyline
 90
       22
 70
     1
 43
0.0762
 10
134.5793061514164
 20
191.1545701265868
 10
134.5793061514164
 20
192.8543635265868
 10
136.1102149514164
 20
192.8543635265868
 10
136.2374435514165
 20
192.8456767265868
 10
136.3389673514165
 20
192.8197433265868
 10
136.4144053514164
 20
192.7766649265868
 10
136.4669071514165
 20
192.7141555265868
 10
136.4984031514165
 20
192.6299037265868
 10
136.5088933514164
 20
192.5240619265868
 10
136.5088933514164
 20
192.1247739265868
 10
136.4984031514165
 20
192.0201767265869
 10
136.4669071514165
 20
191.9369155265868
 10
136.4144053514164
 20
191.8748633265868
 10
136.3389673514165
 20
191.8323945265868
 10
136.2374435514165
 20
191.8069437265868
 10
136.1102149514164
 20
191.7984601265868
 10
135.8769921514165
 20
191.7984601265868
 10
136.6857027514164
 20
191.1545701265868
 10
136.0908093514165
 20
191.1545701265868
 10
135.3779075514165
 20
191.7984601265868
 10
134.9873063514165
 20
191.7984601265868
 10
134.9873063514165
 20
191.1545701265868
  0
LWPOLYLINE
  5
27307
330
18
100
AcDbEntity
  8
BESCHRIFTUNG
100
AcDbPolyline
 90
        8
 70
     1
 43
0.0762
 10
133.2211935514164
 20
192.5501731265868
 10
133.2211935514164
 20
191.1545701265868
 10
132.8070973514164
 20
191.1545701265868
 10
132.8070973514164
 20
192.5501731265868
 10
131.9863979514164
 20
192.5501731265868
 10
131.9863979514164
 20
192.8543635265868
 10
134.0440011514165
 20
192.8543635265868
 10
134.0440011514165
 20
192.5501731265868
  0
LWPOLYLINE
  5
27308
330
18
100
AcDbEntity
  8
BESCHRIFTUNG
100
AcDbPolyline
 90
       10
 70
     1
 43
0.0762
 10
129.3466013514164
 20
191.1545701265868
 10
129.3466013514164
 20
192.8543635265868
 10
129.6313099514164
 20
192.8543635265868
 10
131.0738013514164
 20
191.7260701265868
 10
131.0738013514164
 20
192.8543635265868
 10
131.4490101514164
 20
192.8543635265868
 10
131.4490101514164
 20
191.1545701265868
 10
131.1622949514164
 20
191.1545701265868
 10
129.7238167514165
 20
192.3009737265868
 10
129.7238167514165
 20
191.1545701265868
  0
LWPOLYLINE
  5
27309
330
18
100
AcDbEntity
  8
BESCHRIFTUNG
100
AcDbPolyline
 90
       28
 70
     1
 43
0.0762
 10
126.4321037514165
 20
192.4536531265868
 10
126.4421367514164
 20
192.5919561265868
 10
126.4722611514164
 20
192.6973407265868
 10
126.5225023514164
 20
192.7699593265869
 10
126.6016233514164
 20
192.8168731265868
 10
126.7185649514165
 20
192.8449909265868
 10
126.8736065514164
 20
192.8543635265868
 10
128.1887931514164
 20
192.8543635265868
 10
128.3449777514164
 20
192.8449909265868
 10
128.4623765514165
 20
192.8168731265868
 10
128.5411927514165
 20
192.7699593265869
 10
128.5908751514164
 20
192.6973407265868
 10
128.6205423514165
 20
192.5919561265868
 10
128.6303975514165
 20
192.4536531265868
 10
128.6303975514165
 20
191.5565505265868
 10
128.6203137514165
 20
191.4176633265868
 10
128.5899607514165
 20
191.3117961265868
 10
128.5392115514164
 20
191.2389743265868
 10
128.4597095514165
 20
191.1920605265868
 10
128.3429711514164
 20
191.1639427265868
 10
128.1887931514164
 20
191.1545701265868
 10
126.8736065514164
 20
191.1545701265868
 10
126.7185649514165
 20
191.1639427265868
 10
126.6016233514164
 20
191.1920605265868
 10
126.5225023514164
 20
191.2389743265868
 10
126.4722611514164
 20
191.3117961265868
 10
126.4421367514164
 20
191.4176633265868
 10
126.4321037514165
 20
191.5565505265868
  0
LWPOLYLINE
  5
2730A
330
18
100
AcDbEntity
  8
BESCHRIFTUNG
100
AcDbPolyline
 90
        4
 70
     1
 43
0.0762
 10
126.8460983514164
 20
191.4801727265868
 10
128.2163013514164
 20
191.4801727265868
 10
128.2163013514164
 20
192.5421721265868
 10
126.8460983514164
 20
192.5421721265868
  0
LWPOLYLINE
  5
2730C
330
18
100
AcDbEntity
  8
BESCHRIFTUNG
100
AcDbPolyline
 90
       36
 70
     1
 43
0.0762
 10
125.1463049514164
 20
192.8583513265868
 10
123.8452153514165
 20
192.8583513265868
 10
123.8452153514165
 20
191.5451713265868
 10
125.1463049514164
 20
191.5451713265868
 10
125.1463049514164
 20
191.9907635265868
 10
125.6294129514164
 20
191.8908653265869
 10
125.6294129514164
 20
191.6449679265868
 10
125.6175511514164
 20
191.4754991265868
 10
125.5818641514165
 20
191.3463655265868
 10
125.5221995514165
 20
191.2577703265868
 10
125.4295403514164
 20
191.2003409265868
 10
125.2936757514165
 20
191.1659747265868
 10
125.1148089514164
 20
191.1545701265868
 10
123.8767113514165
 20
191.1545701265868
 10
123.6968793514165
 20
191.1659747265868
 10
123.5606845514164
 20
191.2003409265868
 10
123.4679999514165
 20
191.2577703265868
 10
123.4092497514164
 20
191.3463655265868
 10
123.3739183514165
 20
191.4754991265868
 10
123.3621073514165
 20
191.6449679265868
 10
123.3621073514165
 20
192.7384633265868
 10
123.3739183514165
 20
192.9073479265868
 10
123.4092497514164
 20
193.0363291265868
 10
123.4679999514165
 20
193.1256609265868
 10
123.5606845514164
 20
193.1833189265868
 10
123.6968793514165
 20
193.2179899265868
 10
123.8767113514165
 20
193.2295723265868
 10
125.1148089514164
 20
193.2295723265868
 10
125.2936757514165
 20
193.2179899265868
 10
125.4295403514164
 20
193.1833189265868
 10
125.5221995514165
 20
193.1256609265868
 10
125.5818641514165
 20
193.0363291265868
 10
125.6175511514164
 20
192.9073479265868
 10
125.6294129514164
 20
192.7384633265868
 10
125.6294129514164
 20
192.5421721265868
 10
125.1463049514164
 20
192.4657689265868
  0
LWPOLYLINE
  5
2730D
330
18
100
AcDbEntity
  8
BESCHRIFTUNG
100
AcDbPolyline
 90
       22
 70
     1
 43
0.0762
 10
119.0848997514164
 20
191.1545701265868
 10
119.0848997514164
 20
192.8543635265868
 10
120.6158085514165
 20
192.8543635265868
 10
120.7430371514164
 20
192.8456767265868
 10
120.8445609514164
 20
192.8197433265868
 10
120.9199989514164
 20
192.7766649265868
 10
120.9725007514165
 20
192.7141555265868
 10
121.0039967514164
 20
192.6299037265868
 10
121.0145123514164
 20
192.5240619265868
 10
121.0145123514164
 20
192.1247739265868
 10
121.0039967514164
 20
192.0201767265869
 10
120.9725007514165
 20
191.9369155265868
 10
120.9199989514164
 20
191.8748633265868
 10
120.8445609514164
 20
191.8323945265868
 10
120.7430371514164
 20
191.8069437265868
 10
120.6158085514165
 20
191.7984601265868
 10
120.3826111514164
 20
191.7984601265868
 10
121.1912963514164
 20
191.1545701265868
 10
120.5964029514165
 20
191.1545701265868
 10
119.8835011514165
 20
191.7984601265868
 10
119.4928999514164
 20
191.7984601265868
 10
119.4928999514164
 20
191.1545701265868
  0
LWPOLYLINE
  5
2730E
330
18
100
AcDbEntity
  8
BESCHRIFTUNG
100
AcDbPolyline
 90
       12
 70
     1
 43
0.0762
 10
116.6413943514164
 20
191.1545701265868
 10
116.6413943514164
 20
192.8543635265868
 10
118.4651143514165
 20
192.8543635265868
 10
118.4651143514165
 20
192.5541609265868
 10
117.0594021514165
 20
192.5541609265868
 10
117.0594021514165
 20
192.1836511265868
 10
117.8781965514164
 20
192.1836511265868
 10
117.8781965514164
 20
191.8908653265869
 10
117.0594021514165
 20
191.8908653265869
 10
117.0594021514165
 20
191.4728575265868
 10
118.4865011514165
 20
191.4728575265868
 10
118.4865011514165
 20
191.1545701265868
  0
LWPOLYLINE
  5
2730F
330
18
100
AcDbEntity
  8
BESCHRIFTUNG
100
AcDbPolyline
 90
        8
 70
     1
 43
0.0762
 10
115.2833071514165
 20
192.5501731265868
 10
115.2833071514165
 20
191.1545701265868
 10
114.8692109514165
 20
191.1545701265868
 10
114.8692109514165
 20
192.5501731265868
 10
114.0485115514165
 20
192.5501731265868
 10
114.0485115514165
 20
192.8543635265868
 10
116.1061147514165
 20
192.8543635265868
 10
116.1061147514165
 20
192.5501731265868
  0
LWPOLYLINE
  5
27310
330
18
100
AcDbEntity
  8
BESCHRIFTUNG
100
AcDbPolyline
 90
       20
 70
     1
 43
0.0762
 10
111.9124985514165
 20
192.8543635265868
 10
111.9124985514165
 20
191.4728575265868
 10
113.0963925514165
 20
191.4728575265868
 10
113.0963925514165
 20
192.8543635265868
 10
113.5145019514165
 20
192.8543635265868
 10
113.5145019514165
 20
191.5572617265868
 10
113.5042149514164
 20
191.4189587265868
 10
113.4732015514165
 20
191.3134217265868
 10
113.4213093514164
 20
191.2403713265868
 10
113.3404357514165
 20
191.1927717265869
 10
113.2223511514165
 20
191.1641459265868
 10
113.0669031514165
 20
191.1545701265868
 10
111.9420133514165
 20
191.1545701265868
 10
111.7878607514165
 20
191.1639427265868
 10
111.6710969514165
 20
191.1920605265868
 10
111.5915949514165
 20
191.2389743265868
 10
111.5408711514165
 20
191.3118215265868
 10
111.5105689514165
 20
191.4178665265868
 10
111.5005105514164
 20
191.5572617265868
 10
111.5005105514164
 20
192.8543635265868
  0
LWPOLYLINE
  5
27311
330
18
100
AcDbEntity
  8
BESCHRIFTUNG
100
AcDbPolyline
 90
       28
 70
     1
 43
0.0762
 10
108.5860129514164
 20
192.4536531265868
 10
108.5960459514164
 20
192.5919561265868
 10
108.6261703514165
 20
192.6973407265868
 10
108.6764115514164
 20
192.7699593265869
 10
108.7555071514165
 20
192.8168731265868
 10
108.8724487514165
 20
192.8449909265868
 10
109.0275157514165
 20
192.8543635265868
 10
110.3427023514164
 20
192.8543635265868
 10
110.4988615514165
 20
192.8449909265868
 10
110.6162857514165
 20
192.8168731265868
 10
110.6951019514165
 20
192.7699593265869
 10
110.7447589514165
 20
192.6973407265868
 10
110.7744515514164
 20
192.5919561265868
 10
110.7843067514165
 20
192.4536531265868
 10
110.7843067514165
 20
191.5565505265868
 10
110.7742229514165
 20
191.4176633265868
 10
110.7438699514164
 20
191.3117961265868
 10
110.6930953514165
 20
191.2389743265868
 10
110.6136187514164
 20
191.1920605265868
 10
110.4968549514165
 20
191.1639427265868
 10
110.3427023514164
 20
191.1545701265868
 10
109.0275157514165
 20
191.1545701265868
 10
108.8724487514165
 20
191.1639427265868
 10
108.7555071514165
 20
191.1920605265868
 10
108.6764115514164
 20
191.2389743265868
 10
108.6261703514165
 20
191.3117961265868
 10
108.5960459514164
 20
191.4176633265868
 10
108.5860129514164
 20
191.5565505265868
  0
LWPOLYLINE
  5
27312
330
18
100
AcDbEntity
  8
BESCHRIFTUNG
100
AcDbPolyline
 90
        4
 70
     1
 43
0.0762
 10
109.0000075514165
 20
191.4801727265868
 10
110.3702105514164
 20
191.4801727265868
 10
110.3702105514164
 20
192.5421721265868
 10
109.0000075514165
 20
192.5421721265868
  0
LWPOLYLINE
  5
27318
330
18
100
AcDbEntity
  8
BESCHRIFTUNG
100
AcDbPolyline
 90
       16
 70
     1
 43
0.0762
 10
120.4396087514165
 20
192.5615523265868
 10
119.4928999514164
 20
192.5615523265868
 10
119.4928999514164
 20
192.0912713265868
 10
120.4396087514165
 20
192.0912713265868
 10
120.5039215514165
 20
192.0948019265868
 10
120.5533245514164
 20
192.1053429265868
 10
120.5877161514165
 20
192.1227673265868
 10
120.6100427514165
 20
192.1483705265868
 10
120.6234285514165
 20
192.1836765265868
 10
120.6278989514165
 20
192.2285583265868
 10
120.6278989514165
 20
192.4242653265868
 10
120.6234285514165
 20
192.4690709265868
 10
120.6100427514165
 20
192.5043769265868
 10
120.5877161514165
 20
192.5300563265868
 10
120.5533245514164
 20
192.5474807265868
 10
120.5039215514165
 20
192.5580217265868
  0
LWPOLYLINE
  5
2731E
330
18
100
AcDbEntity
  8
BESCHRIFTUNG
100
AcDbPolyline
 90
       16
 70
     1
 43
0.0762
 10
135.9340151514164
 20
192.5615523265868
 10
134.9873063514165
 20
192.5615523265868
 10
134.9873063514165
 20
192.0912713265868
 10
135.9340151514164
 20
192.0912713265868
 10
135.9983025514164
 20
192.0948019265868
 10
136.0477309514164
 20
192.1053429265868
 10
136.0820971514165
 20
192.1227673265868
 10
136.1044491514165
 20
192.1483705265868
 10
136.1178349514165
 20
192.1836765265868
 10
136.1223053514165
 20
192.2285583265868
 10
136.1223053514165
 20
192.4242653265868
 10
136.1178349514165
 20
192.4690709265868
 10
136.1044491514165
 20
192.5043769265868
 10
136.0820971514165
 20
192.5300563265868
 10
136.0477309514164
 20
192.5474807265868
 10
135.9983025514164
 20
192.5580217265868
  0
LWPOLYLINE
  5
2731F
330
18
100
AcDbEntity
  8
BESCHRIFTUNG
100
AcDbPolyline
 90
        6
 70
     1
 43
0.0762
 10
154.4366959514164
 20
191.1545701265868
 10
154.4366959514164
 20
192.8543635265868
 10
154.8547037514165
 20
192.8543635265868
 10
154.8547037514165
 20
191.4728575265868
 10
156.1874163514165
 20
191.4728575265868
 10
156.1874163514165
 20
191.1545701265868
  0
LWPOLYLINE
  5
27320
330
18
100
AcDbEntity
  8
BESCHRIFTUNG
100
AcDbPolyline
 90
       12
 70
     1
 43
0.0762
 10
151.9932159514164
 20
191.1545701265868
 10
151.9932159514164
 20
192.8543635265868
 10
153.8169105514165
 20
192.8543635265868
 10
153.8169105514165
 20
192.5541609265868
 10
152.4111983514164
 20
192.5541609265868
 10
152.4111983514164
 20
192.1836511265868
 10
153.2299927514164
 20
192.1836511265868
 10
153.2299927514164
 20
191.8908653265869
 10
152.4111983514164
 20
191.8908653265869
 10
152.4111983514164
 20
191.4728575265868
 10
153.8382973514164
 20
191.4728575265868
 10
153.8382973514164
 20
191.1545701265868
  0
LWPOLYLINE
  5
27321
330
18
100
AcDbEntity
  8
BESCHRIFTUNG
100
AcDbPolyline
 90
       10
 70
     1
 43
0.0762
 10
149.1316011514164
 20
191.1545701265868
 10
149.1316011514164
 20
192.8543635265868
 10
149.4163097514165
 20
192.8543635265868
 10
150.8588011514165
 20
191.7260701265868
 10
150.8588011514165
 20
192.8543635265868
 10
151.2340099514165
 20
192.8543635265868
 10
151.2340099514165
 20
191.1545701265868
 10
150.9472947514165
 20
191.1545701265868
 10
149.5088165514165
 20
192.3009737265868
 10
149.5088165514165
 20
191.1545701265868
  0
LWPOLYLINE
  5
27322
330
18
100
AcDbEntity
  8
BESCHRIFTUNG
100
AcDbPolyline
 90
        8
 70
     1
 43
0.0762
 10
146.2760061514164
 20
191.1545701265868
 10
147.2850973514164
 20
192.8543635265868
 10
147.6836995514164
 20
192.8543635265868
 10
148.7081069514165
 20
191.1545701265868
 10
148.2432107514164
 20
191.1545701265868
 10
148.0288093514164
 20
191.5277723265868
 10
146.9045037514164
 20
191.5277723265868
 10
146.6901023514165
 20
191.1545701265868
  0
LWPOLYLINE
  5
27323
330
18
100
AcDbEntity
  8
BESCHRIFTUNG
100
AcDbPolyline
 90
       18
 70
     1
 43
0.0762
 10
143.9914031514165
 20
191.1545701265868
 10
143.9914031514165
 20
193.2295723265868
 10
145.7662027514164
 20
193.2295723265868
 10
145.9158595514164
 20
193.2190313265868
 10
146.0353157514165
 20
193.1873829265868
 10
146.1246983514165
 20
193.1344493265868
 10
146.1861155514164
 20
193.0578429265868
 10
146.2229455514165
 20
192.9555063265868
 10
146.2352137514165
 20
192.8275665265868
 10
146.2352137514165
 20
192.3639657265868
 10
146.2229455514165
 20
192.2366101265868
 10
146.1861155514164
 20
192.1347815265868
 10
146.1246983514165
 20
192.0583529265868
 10
146.0353157514165
 20
192.0054447265868
 10
145.9158595514164
 20
191.9737963265868
 10
145.7662027514164
 20
191.9632553265868
 10
144.4664085514165
 20
191.9632553265868
 10
144.4664085514165
 20
191.1545701265868
  0
LWPOLYLINE
  5
27324
330
18
100
AcDbEntity
  8
BESCHRIFTUNG
100
AcDbPolyline
 90
        3
 70
     1
 43
0.0762
 10
147.0807035514164
 20
191.8379571265868
 10
147.8598993514165
 20
191.8379571265868
 10
147.4639133514165
 20
192.5461599265868
  0
LWPOLYLINE
  5
27326
330
18
100
AcDbEntity
  8
BESCHRIFTUNG
100
AcDbPolyline
 90
       16
 70
     1
 43
0.0762
 10
145.5525125514165
 20
192.8704671265868
 10
144.4664085514165
 20
192.8704671265868
 10
144.4664085514165
 20
192.3203539265868
 10
145.5525125514165
 20
192.3203539265868
 10
145.6273155514164
 20
192.3243925265868
 10
145.6844401514164
 20
192.3364575265868
 10
145.7240133514164
 20
192.3565743265868
 10
145.7496673514164
 20
192.3869273265868
 10
145.7650597514165
 20
192.4298025265868
 10
145.7702159514164
 20
192.4851745265868
 10
145.7702159514164
 20
192.7076531265868
 10
145.7650597514165
 20
192.7619329265868
 10
145.7496673514164
 20
192.8041223265868
 10
145.7240133514164
 20
192.8342721265868
 10
145.6844401514164
 20
192.8543635265868
 10
145.6273155514164
 20
192.8664285265869
  0
LWPOLYLINE
  5
27327
330
18
100
AcDbEntity
  8
BESCHRIFTUNG
  6
CONTINUOUS
100
AcDbPolyline
 90
        6
 70
     1
 43
0.0762
 10
286.7321133514165
 20
213.7801535265869
 10
286.7321133514165
 20
215.5823597265868
 10
287.1752925514164
 20
215.5823597265868
 10
287.1752925514164
 20
214.1175671265869
 10
288.5881929514165
 20
214.1175671265869
 10
288.5881929514165
 20
213.7801535265869
  0
LWPOLYLINE
  5
27328
330
18
100
AcDbEntity
  8
BESCHRIFTUNG
  6
CONTINUOUS
100
AcDbPolyline
 90
       28
 70
     1
 43
0.0762
 10
283.6420001514164
 20
215.1575701265868
 10
283.6526427514164
 20
215.3041027265868
 10
283.6845959514164
 20
215.4158373265868
 10
283.7379105514164
 20
215.4928501265868
 10
283.8217305514164
 20
215.5425579265868
 10
283.9456571514164
 20
215.5724029265868
 10
284.1099951514165
 20
215.5823597265868
 10
285.5045059514164
 20
215.5823597265868
 10
285.6700377514164
 20
215.5724029265868
 10
285.7945231514165
 20
215.5425579265868
 10
285.8781145514165
 20
215.4928501265868
 10
285.9307433514164
 20
215.4158373265868
 10
285.9621631514164
 20
215.3041027265868
 10
285.9726025514164
 20
215.1575701265868
 10
285.9726025514164
 20
214.2063655265868
 10
285.9619091514165
 20
214.0590963265868
 10
285.9297781514164
 20
213.9468537265868
 10
285.8761079514165
 20
213.8696631265868
 10
285.7917291514164
 20
213.8199299265868
 10
285.6678787514164
 20
213.7901103265868
 10
285.5045059514164
 20
213.7801535265869
 10
284.1099951514165
 20
213.7801535265869
 10
283.9456571514164
 20
213.7901103265868
 10
283.8217305514164
 20
213.8199299265868
 10
283.7379105514164
 20
213.8696631265868
 10
283.6845959514164
 20
213.9468537265868
 10
283.6526427514164
 20
214.0590963265868
 10
283.6420001514164
 20
214.2063655265868
  0
LWPOLYLINE
  5
27329
330
18
100
AcDbEntity
  8
BESCHRIFTUNG
  6
CONTINUOUS
100
AcDbPolyline
 90
        4
 70
     1
 43
0.0762
 10
284.0810137514164
 20
214.1254665265868
 10
285.5336143514164
 20
214.1254665265868
 10
285.5336143514164
 20
215.2512707265868
 10
284.0810137514164
 20
215.2512707265868
  0
LWPOLYLINE
  5
2732B
330
18
100
AcDbEntity
  8
BESCHRIFTUNG
  6
CONTINUOUS
100
AcDbPolyline
 90
       22
 70
     1
 43
0.0762
 10
280.9156149514165
 20
213.7801535265869
 10
280.9156149514165
 20
215.5823597265868
 10
282.5388019514164
 20
215.5823597265868
 10
282.6737267514165
 20
215.5731395265868
 10
282.7813211514164
 20
215.5456059265868
 10
282.8613057514164
 20
215.4998605265868
 10
282.9169571514165
 20
215.4336427265868
 10
282.9503073514164
 20
215.3443109265869
 10
282.9614071514165
 20
215.2321699265868
 10
282.9614071514165
 20
214.8087519265868
 10
282.9503073514164
 20
214.6979063265868
 10
282.9169571514165
 20
214.6096159265868
 10
282.8613057514164
 20
214.5437537265868
 10
282.7813211514164
 20
214.4987957265868
 10
282.6737267514165
 20
214.4718463265868
 10
282.5388019514164
 20
214.4628547265869
 10
282.2915075514164
 20
214.4628547265869
 10
283.1489099514164
 20
213.7801535265869
 10
282.5182025514164
 20
213.7801535265869
 10
281.7622985514164
 20
214.4628547265869
 10
281.3481007514165
 20
214.4628547265869
 10
281.3481007514165
 20
213.7801535265869
  0
LWPOLYLINE
  5
2732C
330
18
100
AcDbEntity
  8
BESCHRIFTUNG
  6
CONTINUOUS
100
AcDbPolyline
 90
        8
 70
     1
 43
0.0762
 10
279.4757143514165
 20
215.2598559265868
 10
279.4757143514165
 20
213.7801535265869
 10
279.0367007514165
 20
213.7801535265869
 10
279.0367007514165
 20
215.2598559265868
 10
278.1664967514164
 20
215.2598559265868
 10
278.1664967514164
 20
215.5823597265868
 10
280.3480011514165
 20
215.5823597265868
 10
280.3480011514165
 20
215.2598559265868
  0
LWPOLYLINE
  5
2732D
330
18
100
AcDbEntity
  8
BESCHRIFTUNG
  6
CONTINUOUS
100
AcDbPolyline
 90
       10
 70
     1
 43
0.0762
 10
275.3677977514164
 20
213.7801535265869
 10
275.3677977514164
 20
215.5823597265868
 10
275.6696005514164
 20
215.5823597265868
 10
277.1991123514164
 20
214.3861721265868
 10
277.1991123514164
 20
215.5823597265868
 10
277.5968001514165
 20
215.5823597265868
 10
277.5968001514165
 20
213.7801535265869
 10
277.2928129514164
 20
213.7801535265869
 10
275.7675937514164
 20
214.9955689265869
 10
275.7675937514164
 20
213.7801535265869
  0
LWPOLYLINE
  5
2732E
330
18
100
AcDbEntity
  8
BESCHRIFTUNG
  6
CONTINUOUS
100
AcDbPolyline
 90
       28
 70
     1
 43
0.0762
 10
272.2777099514165
 20
215.1575701265868
 10
272.2883525514165
 20
215.3041027265868
 10
272.3203057514164
 20
215.4158373265868
 10
272.3735949514164
 20
215.4928501265868
 10
272.4574403514164
 20
215.5425579265868
 10
272.5813415514164
 20
215.5724029265868
 10
272.7457049514165
 20
215.5823597265868
 10
274.1402157514164
 20
215.5823597265868
 10
274.3057221514165
 20
215.5724029265868
 10
274.4302329514165
 20
215.5425579265868
 10
274.5139005514165
 20
215.4928501265868
 10
274.5665039514165
 20
215.4158373265868
 10
274.5979491514165
 20
215.3041027265868
 10
274.6084139514164
 20
215.1575701265868
 10
274.6084139514164
 20
214.2063655265868
 10
274.5976951514164
 20
214.0590963265868
 10
274.5655133514164
 20
213.9468537265868
 10
274.5117923514164
 20
213.8696631265868
 10
274.4274389514164
 20
213.8199299265868
 10
274.3036393514165
 20
213.7901103265868
 10
274.1402157514164
 20
213.7801535265869
 10
272.7457049514165
 20
213.7801535265869
 10
272.5813415514164
 20
213.7901103265868
 10
272.4574403514164
 20
213.8199299265868
 10
272.3735949514164
 20
213.8696631265868
 10
272.3203057514164
 20
213.9468537265868
 10
272.2883525514165
 20
214.0590963265868
 10
272.2777099514165
 20
214.2063655265868
  0
LWPOLYLINE
  5
2732F
330
18
100
AcDbEntity
  8
BESCHRIFTUNG
  6
CONTINUOUS
100
AcDbPolyline
 90
        4
 70
     1
 43
0.0762
 10
272.7166981514165
 20
214.1254665265868
 10
274.1692987514164
 20
214.1254665265868
 10
274.1692987514164
 20
215.2512707265868
 10
272.7166981514165
 20
215.2512707265868
  0
LWPOLYLINE
  5
27331
330
18
100
AcDbEntity
  8
BESCHRIFTUNG
  6
CONTINUOUS
100
AcDbPolyline
 90
       36
 70
     1
 43
0.0762
 10
270.9144919514165
 20
215.5865507265868
 10
269.5349925514165
 20
215.5865507265868
 10
269.5349925514165
 20
214.1942497265868
 10
270.9144919514165
 20
214.1942497265868
 10
270.9144919514165
 20
214.6666643265869
 10
271.4266067514165
 20
214.5608733265868
 10
271.4266067514165
 20
214.3001677265869
 10
271.4140337514164
 20
214.1204627265868
 10
271.3762385514164
 20
213.9835313265868
 10
271.3129925514164
 20
213.8895513265868
 10
271.2146945514164
 20
213.8286675265868
 10
271.0706765514165
 20
213.7922693265868
 10
270.8811163514165
 20
213.7801535265869
 10
269.5682919514164
 20
213.7801535265869
 10
269.3777157514164
 20
213.7922693265868
 10
269.2333167514165
 20
213.8286675265868
 10
269.1349933514164
 20
213.8895513265868
 10
269.0727633514164
 20
213.9835313265868
 10
269.0353237514165
 20
214.1204627265868
 10
269.0228015514164
 20
214.3001677265869
 10
269.0228015514164
 20
215.4594745265868
 10
269.0353237514165
 20
215.6385191265868
 10
269.0727633514164
 20
215.7752727265868
 10
269.1349933514164
 20
215.8700655265868
 10
269.2333167514165
 20
215.9311017265868
 10
269.3777157514164
 20
215.9678555265868
 10
269.5682919514164
 20
215.9801745265868
 10
270.8811163514165
 20
215.9801745265868
 10
271.0706765514165
 20
215.9678555265868
 10
271.2146945514164
 20
215.9311017265868
 10
271.3129925514164
 20
215.8700655265868
 10
271.3762385514164
 20
215.7752727265868
 10
271.4140337514164
 20
215.6385191265868
 10
271.4266067514165
 20
215.4594745265868
 10
271.4266067514165
 20
215.2512707265868
 10
270.9144919514165
 20
215.1703717265868
  0
LWPOLYLINE
  5
27335
330
18
100
AcDbEntity
  8
BESCHRIFTUNG
  6
CONTINUOUS
100
AcDbPolyline
 90
       16
 70
     1
 43
0.0762
 10
282.3519087514164
 20
215.2718701265868
 10
281.3481007514165
 20
215.2718701265868
 10
281.3481007514165
 20
214.7732681265868
 10
282.3519087514164
 20
214.7732681265868
 10
282.4200823514165
 20
214.7770019265868
 10
282.4725079514164
 20
214.7881779265868
 10
282.5090077514165
 20
214.8066691265868
 10
282.5326043514164
 20
214.8338471265868
 10
282.5467775514164
 20
214.8712867265868
 10
282.5515019514164
 20
214.9188609265868
 10
282.5515019514164
 20
215.1263535265868
 10
282.5467775514164
 20
215.1739023265868
 10
282.5326043514164
 20
215.2113673265868
 10
282.5090077514165
 20
215.2385707265868
 10
282.4725079514164
 20
215.2569857265869
 10
282.4200823514165
 20
215.2681109265868
  0
LWPOLYLINE
  5
27336
330
18
100
AcDbEntity
  8
BESCHRIFTUNG
  6
CONTINUOUS
100
AcDbPolyline
 90
        2
 70
     0
 43
0.508
 10
417.5780035514164
 20
220.3688627265868
 10
507.0911087514165
 20
220.3688627265868
  0
LWPOLYLINE
  5
27337
330
18
100
AcDbEntity
  8
BESCHRIFTUNG
  6
CONTINUOUS
100
AcDbPolyline
 90
        2
 70
     0
 43
0.508
 10
417.5780035514164
 20
189.4592725265868
 10
507.0911087514165
 20
189.4592725265868
  0
LWPOLYLINE
  5
27338
330
18
100
AcDbEntity
  8
BESCHRIFTUNG
  6
CONTINUOUS
100
AcDbPolyline
 90
        8
 70
     1
 43
0.0762
 10
369.0573995514164
 20
215.2598559265868
 10
369.0573995514164
 20
213.7801535265869
 10
368.6184113514165
 20
213.7801535265869
 10
368.6184113514165
 20
215.2598559265868
 10
367.7482073514164
 20
215.2598559265868
 10
367.7482073514164
 20
215.5823597265868
 10
369.9297117514164
 20
215.5823597265868
 10
369.9297117514164
 20
215.2598559265868
  0
LWPOLYLINE
  5
27339
330
18
100
AcDbEntity
  8
BESCHRIFTUNG
  6
CONTINUOUS
100
AcDbPolyline
 90
       12
 70
     1
 43
0.0762
 10
365.3927129514164
 20
213.7801535265869
 10
365.3927129514164
 20
215.5823597265868
 10
367.3262117514165
 20
215.5823597265868
 10
367.3262117514165
 20
215.2640723265868
 10
365.8358921514164
 20
215.2640723265868
 10
365.8358921514164
 20
214.8712613265868
 10
366.7040133514165
 20
214.8712613265868
 10
366.7040133514165
 20
214.5608733265868
 10
365.8358921514164
 20
214.5608733265868
 10
365.8358921514164
 20
214.1175671265869
 10
367.3489955514164
 20
214.1175671265869
 10
367.3489955514164
 20
213.7801535265869
  0
LWPOLYLINE
  5
2733A
330
18
100
AcDbEntity
  8
BESCHRIFTUNG
  6
CONTINUOUS
100
AcDbPolyline
 90
       52
 70
     1
 43
0.0762
 10
364.0111053514165
 20
215.5951613265869
 10
362.5711031514164
 20
215.5951613265869
 10
362.5711031514164
 20
215.1227721265868
 10
363.9420935514164
 20
215.1227721265868
 10
364.1341429514164
 20
215.1104531265868
 10
364.2795833514164
 20
215.0736739265868
 10
364.3783131514164
 20
215.0125615265868
 10
364.4415337514165
 20
214.9178449265868
 10
364.4793289514165
 20
214.7811167265869
 10
364.4919019514164
 20
214.6020721265869
 10
364.4919019514164
 20
214.3001677265869
 10
364.4793289514165
 20
214.1215549265869
 10
364.4415337514165
 20
213.9850045265868
 10
364.3783131514164
 20
213.8902625265868
 10
364.2795833514164
 20
213.8292263265868
 10
364.1341429514164
 20
213.7924725265868
 10
363.9420935514164
 20
213.7801535265869
 10
362.5839047514164
 20
213.7801535265869
 10
362.3919061514165
 20
213.7924725265868
 10
362.2464657514165
 20
213.8292263265868
 10
362.1478121514164
 20
213.8902625265868
 10
362.0845407514165
 20
213.9850045265868
 10
362.0466947514165
 20
214.1215549265869
 10
362.0340963514165
 20
214.3001677265869
 10
362.0340963514165
 20
214.3605689265868
 10
362.4859115514165
 20
214.4542695265868
 10
362.4859115514165
 20
214.1942497265868
 10
364.0401121514165
 20
214.1942497265868
 10
364.0401121514165
 20
214.6957727265868
 10
362.6691979514164
 20
214.6957727265868
 10
362.4785201514165
 20
214.7080663265868
 10
362.3340957514165
 20
214.7448201265869
 10
362.2357977514165
 20
214.8058563265868
 10
362.1735677514164
 20
214.9007253265868
 10
362.1361281514164
 20
215.0375043265868
 10
362.1236059514164
 20
215.2165743265868
 10
362.1236059514164
 20
215.4594745265868
 10
362.1361281514164
 20
215.6385191265868
 10
362.1735677514164
 20
215.7752727265868
 10
362.2357977514165
 20
215.8700655265868
 10
362.3340957514165
 20
215.9311017265868
 10
362.4785201514165
 20
215.9678555265868
 10
362.6691979514164
 20
215.9801745265868
 10
363.9172015514164
 20
215.9801745265868
 10
364.1025707514164
 20
215.9683635265868
 10
364.2451917514164
 20
215.9330321265868
 10
364.3449121514164
 20
215.8743581265868
 10
364.4105457514165
 20
215.7850517265868
 10
364.4497633514164
 20
215.6593217265868
 10
364.4627935514165
 20
215.4971681265868
 10
364.4627935514165
 20
215.4516513265869
 10
364.0111053514165
 20
215.3451745265868
  0
LWPOLYLINE
  5
2733B
330
18
100
AcDbEntity
  8
BESCHRIFTUNG
  6
CONTINUOUS
100
AcDbPolyline
 90
       12
 70
     1
 43
0.0762
 10
312.7310961514164
 20
213.7801535265869
 10
312.7310961514164
 20
215.5823597265868
 10
314.6645949514164
 20
215.5823597265868
 10
314.6645949514164
 20
215.2640723265868
 10
313.1741991514164
 20
215.2640723265868
 10
313.1741991514164
 20
214.8712613265868
 10
314.0423965514164
 20
214.8712613265868
 10
314.0423965514164
 20
214.5608733265868
 10
313.1741991514164
 20
214.5608733265868
 10
313.1741991514164
 20
214.1175671265869
 10
314.6874041514164
 20
214.1175671265869
 10
314.6874041514164
 20
213.7801535265869
  0
LWPOLYLINE
  5
2733C
330
18
100
AcDbEntity
  8
BESCHRIFTUNG
  6
CONTINUOUS
100
AcDbPolyline
 90
       15
 70
     1
 43
0.0762
 10
309.7737995514165
 20
213.7801535265869
 10
309.7737995514165
 20
215.5823597265868
 10
310.9871067514164
 20
215.5823597265868
 10
311.3082135514165
 20
215.5565533265868
 10
311.5754723514164
 20
215.4791341265868
 10
311.7891117514165
 20
215.3500513265868
 10
311.9446867514164
 20
215.1736229265868
 10
312.0379555514164
 20
214.9527191265868
 10
312.0689943514165
 20
214.6873653265868
 10
312.0360759514164
 20
214.4103275265868
 10
311.9372953514164
 20
214.1834039265868
 10
311.7727033514164
 20
214.0067723265868
 10
311.5410807514164
 20
213.8807629265868
 10
311.2423513514164
 20
213.8052995265868
 10
310.8762103514164
 20
213.7801535265869
  0
LWPOLYLINE
  5
2733D
330
18
100
AcDbEntity
  8
BESCHRIFTUNG
  6
CONTINUOUS
100
AcDbPolyline
 90
       15
 70
     1
 43
0.0762
 10
310.2170041514164
 20
214.1175671265869
 10
310.7831955514165
 20
214.1175671265869
 10
311.0613763514164
 20
214.1325023265868
 10
311.2776573514165
 20
214.1774095265868
 10
311.4317083514165
 20
214.2524665265868
 10
311.5347815514164
 20
214.3633629265869
 10
311.5966051514165
 20
214.5154073265868
 10
311.6172045514165
 20
214.7085743265868
 10
311.6001103514165
 20
214.8783733265868
 10
311.5487515514165
 20
215.0167271265868
 10
311.4630011514165
 20
215.1234579265868
 10
311.3422749514164
 20
215.1992261265868
 10
311.1847441514165
 20
215.2446921265868
 10
310.9906119514164
 20
215.2598559265868
 10
310.2170041514164
 20
215.2598559265868
  0
LWPOLYLINE
  5
2733E
330
18
100
AcDbEntity
  8
BESCHRIFTUNG
  6
CONTINUOUS
100
AcDbPolyline
 90
       28
 70
     1
 43
0.0762
 10
306.6837117514164
 20
215.1575701265868
 10
306.6943543514164
 20
215.3041027265868
 10
306.7263075514164
 20
215.4158373265868
 10
306.7795967514165
 20
215.4928501265868
 10
306.8634421514165
 20
215.5425579265868
 10
306.9873433514164
 20
215.5724029265868
 10
307.1517067514164
 20
215.5823597265868
 10
308.5461921514164
 20
215.5823597265868
 10
308.7117239514165
 20
215.5724029265868
 10
308.8362347514165
 20
215.5425579265868
 10
308.9199023514165
 20
215.4928501265868
 10
308.9725057514165
 20
215.4158373265868
 10
309.0039509514164
 20
215.3041027265868
 10
309.0144157514164
 20
215.1575701265868
 10
309.0144157514164
 20
214.2063655265868
 10
309.0037223514165
 20
214.0590963265868
 10
308.9715659514165
 20
213.9468537265868
 10
308.9177941514165
 20
213.8696631265868
 10
308.8334407514165
 20
213.8199299265868
 10
308.7096411514164
 20
213.7901103265868
 10
308.5461921514164
 20
213.7801535265869
 10
307.1517067514164
 20
213.7801535265869
 10
306.9873433514164
 20
213.7901103265868
 10
306.8634421514165
 20
213.8199299265868
 10
306.7795967514165
 20
213.8696631265868
 10
306.7263075514164
 20
213.9468537265868
 10
306.6943543514164
 20
214.0590963265868
 10
306.6837117514164
 20
214.2063655265868
  0
LWPOLYLINE
  5
2733F
330
18
100
AcDbEntity
  8
BESCHRIFTUNG
  6
CONTINUOUS
100
AcDbPolyline
 90
        4
 70
     1
 43
0.0762
 10
307.1226999514165
 20
214.1254665265868
 10
308.5754021514164
 20
214.1254665265868
 10
308.5754021514164
 20
215.2512707265868
 10
307.1226999514165
 20
215.2512707265868
  0
LWPOLYLINE
  5
27345
330
18
100
AcDbEntity
  8
BESCHRIFTUNG
  6
CONTINUOUS
100
AcDbPolyline
 90
        6
 70
     1
 43
0.0762
 10
338.5484943514164
 20
193.8231703265868
 10
338.5484943514164
 20
195.5653563265869
 10
338.0908117514164
 20
195.5653563265869
 10
338.0908117514164
 20
195.8522493265868
 10
339.0021129514165
 20
195.9904507265868
 10
339.0021129514165
 20
193.8231703265868
  0
LWPOLYLINE
  5
27346
330
18
100
AcDbEntity
  8
BESCHRIFTUNG
  6
CONTINUOUS
100
AcDbPolyline
 90
       45
 70
     1
 43
0.0762
 10
357.4969959514164
 20
195.5535707265868
 10
357.5080957514164
 20
195.6978427265868
 10
357.5412681514165
 20
195.8082819265868
 10
357.5964115514165
 20
195.8849645265868
 10
357.6843209514164
 20
195.9347231265868
 10
357.8147499514165
 20
195.9645935265869
 10
357.9873937514165
 20
195.9745503265868
 10
359.0927001514164
 20
195.9745503265868
 10
359.2653693514165
 20
195.9645935265869
 10
359.3959507514164
 20
195.9347231265868
 10
359.4843935514164
 20
195.8849645265868
 10
359.5404767514164
 20
195.8082819265868
 10
359.5739793514165
 20
195.6978427265868
 10
359.5851045514164
 20
195.5535707265868
 10
359.5851045514164
 20
195.4152677265868
 10
359.5797959514165
 20
195.3186969265868
 10
359.5638701514165
 20
195.2386615265868
 10
359.5373017514164
 20
195.1749583265868
 10
359.4902863514164
 20
195.1159287265868
 10
359.4133497514164
 20
195.0499395265868
 10
359.3065935514164
 20
194.9769653265868
 10
358.0423085514165
 20
194.2100631265868
 10
359.2920139514165
 20
194.2100631265868
 10
359.2920139514165
 20
194.5275631265868
 10
359.6887111514164
 20
194.4157523265868
 10
359.6887111514164
 20
194.2448611265868
 10
359.6775605514165
 20
194.1000811265868
 10
359.6440325514165
 20
193.9894133265868
 10
359.5878985514165
 20
193.9127561265868
 10
359.4995065514165
 20
193.8629975265868
 10
359.3689251514164
 20
193.8331271265868
 10
359.1962051514165
 20
193.8231703265868
 10
357.3872933514164
 20
193.8231703265868
 10
357.3872933514164
 20
194.0183693265868
 10
357.3939735514164
 20
194.1063041265868
 10
357.4139379514164
 20
194.1797609265868
 10
357.4470087514165
 20
194.2385619265868
 10
357.4974785514165
 20
194.2920543265868
 10
357.5682937514164
 20
194.3497377265868
 10
357.6595051514165
 20
194.4115613265868
 10
359.1475133514165
 20
195.3278663265868
 10
359.1475133514165
 20
195.6084601265868
 10
357.9221157514164
 20
195.6084601265868
 10
357.9221157514164
 20
195.1645697265868
 10
357.4969959514164
 20
195.2742723265868
  0
LWPOLYLINE
  5
27347
330
18
100
AcDbEntity
  8
BESCHRIFTUNG
  6
CONTINUOUS
100
AcDbPolyline
 90
       18
 70
     1
 43
0.0762
 10
373.4339973514164
 20
213.7801535265869
 10
373.4339973514164
 20
215.5823597265868
 10
375.0571081514165
 20
215.5823597265868
 10
375.1930489514164
 20
215.5731395265868
 10
375.3010497514164
 20
215.5456059265868
 10
375.3811105514165
 20
215.4998605265868
 10
375.4359999514164
 20
215.4336427265868
 10
375.4688167514164
 20
215.3443109265869
 10
375.4797133514164
 20
215.2321699265868
 10
375.4797133514164
 20
214.8336693265868
 10
375.4685881514165
 20
214.7214013265868
 10
375.4352633514164
 20
214.6320949265868
 10
375.3797135514165
 20
214.5657501265868
 10
375.2996527514164
 20
214.5200809265868
 10
375.1920329514164
 20
214.4925727265869
 10
375.0571081514165
 20
214.4833525265868
 10
373.8665085514164
 20
214.4833525265868
 10
373.8665085514164
 20
213.7801535265869
  0
LWPOLYLINE
  5
27348
330
18
100
AcDbEntity
  8
BESCHRIFTUNG
  6
CONTINUOUS
100
AcDbPolyline
 90
       20
 70
     1
 43
0.0762
 10
370.9341039514165
 20
215.5823597265868
 10
370.9341039514165
 20
214.1175671265869
 10
372.1892957514165
 20
214.1175671265869
 10
372.1892957514165
 20
215.5823597265868
 10
372.6326019514165
 20
215.5823597265868
 10
372.6326019514165
 20
214.2070513265868
 10
372.6217053514165
 20
214.0604679265868
 10
372.5888377514164
 20
213.9486317265868
 10
372.5337959514165
 20
213.8711617265868
 10
372.4481217514164
 20
213.8207173265868
 10
372.3229251514164
 20
213.7903389265868
 10
372.1581045514164
 20
213.7801535265869
 10
370.9653967514165
 20
213.7801535265869
 10
370.8019985514165
 20
213.7901103265868
 10
370.6782497514164
 20
213.8199299265868
 10
370.5938963514164
 20
213.8696631265868
 10
370.5400991514165
 20
213.9468791265868
 10
370.5079681514165
 20
214.0592995265868
 10
370.4973001514165
 20
214.2070513265868
 10
370.4973001514165
 20
215.5823597265868
  0
LWPOLYLINE
  5
2734D
330
18
100
AcDbEntity
  8
BESCHRIFTUNG
  6
CONTINUOUS
100
AcDbPolyline
 90
       77
 70
     1
 43
0.0762
 10
377.8905035514164
 20
193.8231703265868
 10
377.7178343514165
 20
193.8331271265868
 10
377.5872275514164
 20
193.8629975265868
 10
377.4987085514164
 20
193.9127561265868
 10
377.4427015514164
 20
193.9894133265868
 10
377.4092243514164
 20
194.1000811265868
 10
377.3980991514164
 20
194.2448611265868
 10
377.3980991514164
 20
194.4198671265868
 10
377.8398051514165
 20
194.5115611265868
 10
377.8398051514165
 20
194.2100631265868
 10
378.9998993514164
 20
194.2100631265868
 10
379.0735339514164
 20
194.2144573265868
 10
379.1289567514164
 20
194.2275383265868
 10
379.1660153514165
 20
194.2490521265868
 10
379.1891039514164
 20
194.2833421265868
 10
379.2029723514164
 20
194.3349041265868
 10
379.2075951514164
 20
194.4039667265868
 10
379.2075951514164
 20
194.5602529265868
 10
379.2027945514164
 20
194.6301029265868
 10
379.1884181514165
 20
194.6827317265869
 10
379.1645929514164
 20
194.7179615265868
 10
379.1272549514165
 20
194.7398817265868
 10
379.0723909514164
 20
194.7530643265868
 10
378.9998993514164
 20
194.7574585265869
 10
378.2733069514164
 20
194.7574585265869
 10
378.2733069514164
 20
195.1076737265868
 10
378.9207021514164
 20
195.1076737265868
 10
378.9929651514164
 20
195.1120171265868
 10
379.0471433514164
 20
195.1249711265868
 10
379.0832113514164
 20
195.1464595265868
 10
379.1058681514164
 20
195.1809527265868
 10
379.1196095514164
 20
195.2330735265868
 10
379.1242069514164
 20
195.3027711265868
 10
379.1242069514164
 20
195.4111529265868
 10
379.1196095514164
 20
195.4820189265868
 10
379.1058681514164
 20
195.5348255265868
 10
379.0832113514164
 20
195.5695727265869
 10
379.0471433514164
 20
195.5910611265868
 10
378.9929651514164
 20
195.6040913265868
 10
378.9207021514164
 20
195.6084601265868
 10
377.8579153514164
 20
195.6084601265868
 10
377.8579153514164
 20
195.3395503265868
 10
377.4327955514164
 20
195.4188745265868
 10
377.4327955514164
 20
195.5535707265868
 10
377.4439207514165
 20
195.6978427265868
 10
377.4772455514164
 20
195.8082819265868
 10
377.5327953514164
 20
195.8849645265868
 10
377.6202983514164
 20
195.9347231265868
 10
377.7505241514164
 20
195.9645935265869
 10
377.9231933514164
 20
195.9745503265868
 10
379.0874023514164
 20
195.9745503265868
 10
379.2601731514165
 20
195.9645935265869
 10
379.3906021514164
 20
195.9347231265868
 10
379.4785115514164
 20
195.8849645265868
 10
379.5335787514165
 20
195.8082819265868
 10
379.5667257514164
 20
195.6978427265868
 10
379.5778001514164
 20
195.5535707265868
 10
379.5778001514164
 20
195.3576605265868
 10
379.5676401514164
 20
195.2425731265868
 10
379.5371093514164
 20
195.1489741265868
 10
379.4862077514165
 20
195.0769651265868
 10
379.4095759514165
 20
195.0220503265868
 10
379.3019053514165
 20
194.9793275265868
 10
379.1631959514164
 20
194.9485681265868
 10
379.3199647514164
 20
194.9234983265868
 10
379.4458217514165
 20
194.8802167265868
 10
379.5409955514164
 20
194.8185709265868
 10
379.6077213514164
 20
194.7376211265868
 10
379.6478279514164
 20
194.6351829265868
 10
379.6612137514165
 20
194.5115611265868
 10
379.6612137514165
 20
194.2858567265868
 10
379.6484883514165
 20
194.1274115265868
 10
379.6104899514164
 20
194.0061519265868
 10
379.5472947514164
 20
193.9217731265868
 10
379.4516383514164
 20
193.8669091265868
 10
379.3160023514165
 20
193.8340923265868
 10
379.1402089514164
 20
193.8231703265868
  0
LWPOLYLINE
  5
2734E
330
18
100
AcDbEntity
  8
BESCHRIFTUNG
  6
CONTINUOUS
100
AcDbPolyline
 90
        3
 70
     1
 43
0.0762
 10
398.8491103514164
 20
194.6824523265868
 10
398.8491103514164
 20
195.6445535265868
 10
397.6723029514164
 20
194.6824523265868
  0
LWPOLYLINE
  5
27350
330
18
100
AcDbEntity
  8
BESCHRIFTUNG
  6
CONTINUOUS
100
AcDbPolyline
 90
       11
 70
     1
 43
0.0762
 10
398.8491103514164
 20
193.8231703265868
 10
398.8491103514164
 20
194.3219501265869
 10
397.2188113514164
 20
194.3219501265869
 10
397.2188113514164
 20
194.6824523265868
 10
398.8304159514165
 20
196.0231659265869
 10
399.3027035514164
 20
196.0231659265869
 10
399.3027035514164
 20
194.6824523265868
 10
399.8236067514164
 20
194.6824523265868
 10
399.8236067514164
 20
194.3219501265869
 10
399.3027035514164
 20
194.3219501265869
 10
399.3027035514164
 20
193.8231703265868
  0
LWPOLYLINE
  5
27352
330
18
100
AcDbEntity
  8
BESCHRIFTUNG
  6
CONTINUOUS
100
AcDbPolyline
 90
       16
 70
     1
 43
0.0762
 10
374.8702149514164
 20
215.2718701265868
 10
373.8665085514164
 20
215.2718701265868
 10
373.8665085514164
 20
214.7937659265868
 10
374.8702149514164
 20
214.7937659265868
 10
374.9384139514164
 20
214.7975505265868
 10
374.9908141514164
 20
214.8088027265868
 10
375.0273139514165
 20
214.8272685265868
 10
375.0509613514164
 20
214.8544465265868
 10
375.0651599514164
 20
214.8918861265868
 10
375.0699097514165
 20
214.9394603265868
 10
375.0699097514165
 20
215.1263535265868
 10
375.0651599514164
 20
215.1739023265868
 10
375.0509613514164
 20
215.2113673265868
 10
375.0273139514165
 20
215.2385707265868
 10
374.9908141514164
 20
215.2569857265869
 10
374.9384139514164
 20
215.2681109265868
  0
LWPOLYLINE
  5
27354
330
18
100
AcDbEntity
  8
BESCHRIFTUNG
  6
CONTINUOUS
100
AcDbPolyline
 90
        4
 70
     1
 43
0.0762
 10
501.3966065514164
 20
187.3496501265868
 10
501.3966065514164
 20
187.5838635265868
 10
501.9259933514165
 20
187.5838635265868
 10
501.9259933514165
 20
187.3496501265868
  0
CIRCLE
  5
27356
330
18
100
AcDbEntity
  8
TASTEN
100
AcDbCircle
 10
448.6421759667289
 20
205.0903370183825
 30
0.0
 40
7.5
  0
LWPOLYLINE
  5
27357
330
18
100
AcDbEntity
  8
BESCHRIFTUNG
  6
CONTINUOUS
100
AcDbPolyline
 90
        2
 70
     0
 43
0.508
 10
452.3095351840067
 20
198.5481297172152
 10
453.5273093514165
 20
196.4388623265868
  0
LWPOLYLINE
  5
27358
330
18
100
AcDbEntity
  8
BESCHRIFTUNG
  6
CONTINUOUS
100
AcDbPolyline
 90
        3
 70
     1
 43
0.0762
 10
454.1342169514164
 20
193.7881691265868
 10
454.1342169514164
 20
191.5881735265868
 10
443.1342135514164
 20
191.5881735265868
  0
SOLID
  5
27359
330
18
100
AcDbEntity
  8
BESCHRIFTUNG
  6
CONTINUOUS
100
AcDbTrace
 10
454.1342169514164
 20
193.7881691265868
 30
0.0
 11
454.1342169514164
 21
191.5881735265868
 31
0.0
 12
454.1342169514164
 22
193.7881691265868
 32
0.0
 13
443.1342135514164
 23
191.5881735265868
 33
0.0
  0
LWPOLYLINE
  5
2735A
330
18
100
AcDbEntity
  8
BESCHRIFTUNG
  6
CONTINUOUS
100
AcDbPolyline
 90
        2
 70
     0
 43
0.508
 10
444.9627587253097
 20
198.5549036920034
 10
443.7280147514164
 20
196.4162563265869
  0
LWPOLYLINE
  5
2735B
330
18
100
AcDbEntity
  8
BESCHRIFTUNG
  6
CONTINUOUS
100
AcDbPolyline
 90
       90
 70
     1
 43
0.1387
 10
480.2140987514165
 20
194.0314503265868
 10
480.1620033514165
 20
194.2167687265868
 10
480.0958109514165
 20
194.3948735265868
 10
480.0166137514164
 20
194.5638597265869
 10
479.9246149514165
 20
194.7224573265869
 10
479.8211099514165
 20
194.8688629265868
 10
479.7059971514165
 20
195.0024669265868
 10
479.5805973514164
 20
195.1215675265869
 10
479.4450121514164
 20
195.2251741265868
 10
479.3000035514165
 20
195.3121691265868
 10
479.1451143514165
 20
195.3819683265868
 10
478.9810049514165
 20
195.4332509265868
 10
478.8066085514165
 20
195.4651533265868
 10
478.6221029514165
 20
195.4760499265868
 10
478.4378005514165
 20
195.4651533265868
 10
478.2646995514165
 20
195.4333525265868
 10
478.1022157514164
 20
195.3821715265868
 10
477.9498919514164
 20
195.3126517265868
 10
477.8070931514164
 20
195.2259615265868
 10
477.6745051514165
 20
195.1229645265868
 10
477.5517977514165
 20
195.0041687265868
 10
477.4397075514164
 20
194.8709711265868
 10
477.3384123514165
 20
194.7244639265868
 10
477.2491059514164
 20
194.5661711265868
 10
477.1720931514164
 20
194.3970579265868
 10
477.1082121514165
 20
194.2188515265868
 10
477.0574121514164
 20
194.0331521265868
 10
477.0208107514165
 20
193.8413567265868
 10
476.9986111514165
 20
193.6453703265868
 10
476.9918039514164
 20
193.4639635265869
 10
477.0359999514164
 20
192.8508583265868
 10
477.4357959514165
 20
192.8508583265868
 10
477.4357959514165
 20
191.4902565265868
 10
477.1778081514164
 20
191.4902565265868
 10
477.1808053514164
 20
191.4780645265868
 10
476.9317075514164
 20
191.4883515265868
 10
476.8681059514165
 20
191.4960731265868
 10
476.8098129514164
 20
191.5099669265868
 10
476.7554061514165
 20
191.5351637265868
 10
476.7097115514164
 20
191.5756513265868
 10
476.6787997514164
 20
191.6298549265868
 10
476.6637121514164
 20
191.6913737265868
 10
476.5374995514165
 20
193.4423735265868
 10
476.5463133514165
 20
193.6794571265868
 10
476.5723991514164
 20
193.9096573265868
 10
476.6157061514165
 20
194.1354633265868
 10
476.6754977514165
 20
194.3552495265868
 10
476.7519009514164
 20
194.5680507265868
 10
476.8449157514164
 20
194.7717587265868
 10
476.9539071514165
 20
194.9652559265868
 10
477.0791037514165
 20
195.1462563265868
 10
477.2199975514164
 20
195.3138709265869
 10
477.3769949514164
 20
195.4655597265869
 10
477.5496133514165
 20
195.5998495265868
 10
477.7374971514165
 20
195.7139717265868
 10
477.9396049514164
 20
195.8061737265868
 10
478.1553017514164
 20
195.8740679265868
 10
478.3832159514164
 20
195.9160541265868
 10
478.6221029514165
 20
195.9301511265868
 10
478.8610153514164
 20
195.9160541265868
 10
479.0897169514164
 20
195.8740679265868
 10
479.3065059514165
 20
195.8063515265868
 10
479.5103155514165
 20
195.7144543265868
 10
479.7000027514164
 20
195.6006623265868
 10
479.8749071514165
 20
195.4669567265868
 10
480.0344953514164
 20
195.3155727265868
 10
480.1787165514165
 20
195.1482629265868
 10
480.3066055514165
 20
194.9672625265868
 10
480.4184163514164
 20
194.7741717265868
 10
480.5139965514164
 20
194.5702605265868
 10
480.5932953514164
 20
194.3573577265868
 10
480.6552967514164
 20
194.1371651265868
 10
480.7002039514165
 20
193.9108511265868
 10
480.7274073514164
 20
193.6802699265868
 10
480.7369069514164
 20
193.4432625265868
 10
480.6208035514164
 20
191.6938629265868
 10
480.6115071514165
 20
191.6329537265868
 10
480.5845069514163
 20
191.5750671265868
 10
480.5390155514165
 20
191.5315569265868
 10
480.4835927514164
 20
191.5057505265868
 10
480.4236995514164
 20
191.4925679265868
 10
480.3585993514165
 20
191.4859639265868
 10
480.1040151514165
 20
191.4770739265868
 10
480.1072155514163
 20
191.4902565265868
 10
479.8421919514164
 20
191.4902565265868
 10
479.8421919514164
 20
192.8508583265868
 10
480.2433087514165
 20
192.8508583265868
 10
480.2830089514165
 20
193.4493585265868
 10
480.2753127514165
 20
193.6445575265868
 10
480.2521987514165
 20
193.8401629265868
  0
LWPOLYLINE
  5
2735C
330
18
100
AcDbEntity
  8
BESCHRIFTUNG
  6
CONTINUOUS
100
AcDbPolyline
 90
       22
 70
     1
 43
0.0762
 10
492.3881155514164
 20
186.8612589265868
 10
492.3881155514164
 20
188.0346627265868
 10
493.3917965514165
 20
188.0346627265868
 10
493.4764293514165
 20
188.0287191265868
 10
493.5439425514165
 20
188.0108121265868
 10
493.5945139514164
 20
187.9808655265868
 10
493.6291849514163
 20
187.9375585265868
 10
493.6500383514164
 20
187.8797227265868
 10
493.6569979514165
 20
187.8073581265868
 10
493.6569979514165
 20
187.5315649265868
 10
493.6500383514164
 20
187.4595559265868
 10
493.6291849514163
 20
187.4019741265868
 10
493.5945139514164
 20
187.3587687265868
 10
493.5439425514165
 20
187.3284665265868
 10
493.4764293514165
 20
187.3103055265868
 10
493.3917965514165
 20
187.3042603265868
 10
493.2387107514164
 20
187.3042603265868
 10
493.7802133514164
 20
186.8612589265868
 10
493.3883929514164
 20
186.8612589265868
 10
492.9154957514165
 20
187.3042603265868
 10
492.6567967514164
 20
187.3042603265868
 10
492.6567967514164
 20
186.8612589265868
  0
LWPOLYLINE
  5
2735D
330
18
100
AcDbEntity
  8
BESCHRIFTUNG
  6
CONTINUOUS
100
AcDbPolyline
 90
       16
 70
     1
 43
0.0762
 10
493.2708925514165
 20
187.8316659265868
 10
492.6567967514164
 20
187.8316659265868
 10
492.6567967514164
 20
187.5050727265868
 10
493.2708925514165
 20
187.5050727265868
 10
493.3132597514164
 20
187.5073333265868
 10
493.3455685514164
 20
187.5141659265868
 10
493.3678951514165
 20
187.5255705265868
 10
493.3824747514164
 20
187.5426901265868
 10
493.3912123514164
 20
187.5669217265868
 10
493.3941079514164
 20
187.5982653265868
 10
493.3941079514164
 20
187.7395655265868
 10
493.3912123514164
 20
187.7702487265868
 10
493.3824747514164
 20
187.7941247265868
 10
493.3678951514165
 20
187.8111681265868
 10
493.3455685514164
 20
187.8225219265868
 10
493.3132597514164
 20
187.8293799265868
  0
LWPOLYLINE
  5
2735E
330
18
100
AcDbEntity
  8
BESCHRIFTUNG
  6
CONTINUOUS
100
AcDbPolyline
 90
       28
 70
     1
 43
0.0762
 10
499.7446921514165
 20
187.7573709265868
 10
499.7508897514165
 20
187.8532051265868
 10
499.7695079514165
 20
187.9262555265868
 10
499.8006991514164
 20
187.9763697265868
 10
499.8490099514165
 20
188.0088055265868
 10
499.9194695514164
 20
188.0282111265868
 10
500.0121033514164
 20
188.0346627265868
 10
500.8060057514164
 20
188.0346627265868
 10
500.8992745514165
 20
188.0282111265868
 10
500.9700897514164
 20
188.0088055265868
 10
501.0185021514164
 20
187.9763697265868
 10
501.0496933514164
 20
187.9262555265868
 10
501.0683115514165
 20
187.8532051265868
 10
501.0745091514165
 20
187.7573709265868
 10
501.0745091514165
 20
187.1390587265868
 10
501.0683115514165
 20
187.0429451265868
 10
501.0496933514164
 20
186.9697931265868
 10
501.0185021514164
 20
186.9196535265869
 10
500.9700897514164
 20
186.8871923265868
 10
500.8992745514165
 20
186.8677359265868
 10
500.8060057514164
 20
186.8612589265868
 10
500.0121033514164
 20
186.8612589265868
 10
499.9194695514164
 20
186.8677359265868
 10
499.8490099514165
 20
186.8871923265868
 10
499.8006991514164
 20
186.9196535265869
 10
499.7695079514165
 20
186.9697931265868
 10
499.7508897514165
 20
187.0429451265868
 10
499.7446921514165
 20
187.1390587265868
  0
LWPOLYLINE
  5
2735F
330
18
100
AcDbEntity
  8
BESCHRIFTUNG
  6
CONTINUOUS
100
AcDbPolyline
 90
        4
 70
     1
 43
0.0762
 10
499.9898021514164
 20
187.0723583265868
 10
500.8283069514164
 20
187.0723583265868
 10
500.8283069514164
 20
187.8350695265868
 10
499.9898021514164
 20
187.8350695265868
  0
LWPOLYLINE
  5
27361
330
18
100
AcDbEntity
  8
BESCHRIFTUNG
  6
CONTINUOUS
100
AcDbPolyline
 90
       45
 70
     1
 43
0.0762
 10
498.0920157514165
 20
187.8051737265868
 10
498.0980609514165
 20
187.8838375265868
 10
498.1161203514163
 20
187.9440609265868
 10
498.1460923514164
 20
187.9858693265868
 10
498.1940983514164
 20
188.0129965265869
 10
498.2652437514165
 20
188.0292525265868
 10
498.3595031514164
 20
188.0346627265868
 10
498.9622959514163
 20
188.0346627265868
 10
499.0565045514165
 20
188.0292525265868
 10
499.1277261514165
 20
188.0129965265869
 10
499.1760115514164
 20
187.9858693265868
 10
499.2065423514165
 20
187.9440609265868
 10
499.2248303514164
 20
187.8838375265868
 10
499.2309009514165
 20
187.8051737265868
 10
499.2309009514165
 20
187.7297611265868
 10
499.2280053514163
 20
187.6770815265869
 10
499.2192677514164
 20
187.6333681265869
 10
499.2047135514164
 20
187.5985701265868
 10
499.1791103514165
 20
187.5663629265868
 10
499.1372003514165
 20
187.5303965265868
 10
499.0790089514165
 20
187.4906709265868
 10
498.3893989514164
 20
187.0723583265868
 10
499.0710079514165
 20
187.0723583265868
 10
499.0710079514165
 20
187.2455609265869
 10
499.2874159514165
 20
187.1844739265868
 10
499.2874159514165
 20
187.0912559265868
 10
499.2813199514164
 20
187.0123127265868
 10
499.2630065514163
 20
186.9519877265868
 10
499.2323995514165
 20
186.9101539265868
 10
499.1841903514163
 20
186.8830013265868
 10
499.1129179514164
 20
186.8666945265868
 10
499.0187093514164
 20
186.8612589265868
 10
498.0320971514164
 20
186.8612589265868
 10
498.0320971514164
 20
186.9677611265868
 10
498.0357547514164
 20
187.0157417265868
 10
498.0466513514165
 20
187.0558229265868
 10
498.0647107514164
 20
187.0878523265868
 10
498.0922443514165
 20
187.1170623265868
 10
498.1308777514165
 20
187.1485329265868
 10
498.1806109514165
 20
187.1822641265868
 10
498.9921917514164
 20
187.6819583265868
 10
498.9921917514164
 20
187.8350695265868
 10
498.3238161514164
 20
187.8350695265868
 10
498.3238161514164
 20
187.5929567265868
 10
498.0920157514165
 20
187.6527737265868
  0
LWPOLYLINE
  5
27362
330
18
100
AcDbEntity
  8
BESCHRIFTUNG
  6
CONTINUOUS
100
AcDbPolyline
 90
        3
 70
     1
 43
0.0762
 10
497.0892999514164
 20
187.3167571265868
 10
497.0892999514164
 20
187.8414703265868
 10
496.4474927514165
 20
187.3167571265868
  0
LWPOLYLINE
  5
27364
330
18
100
AcDbEntity
  8
BESCHRIFTUNG
  6
CONTINUOUS
100
AcDbPolyline
 90
       11
 70
     1
 43
0.0762
 10
497.0892999514164
 20
186.8479493265868
 10
497.0892999514164
 20
187.1200595265868
 10
496.2000967514164
 20
187.1200595265868
 10
496.2000967514164
 20
187.3167571265868
 10
497.0791145514165
 20
188.0479723265868
 10
497.3367975514164
 20
188.0479723265868
 10
497.3367975514164
 20
187.3167571265868
 10
497.6209981514164
 20
187.3167571265868
 10
497.6209981514164
 20
187.1200595265868
 10
497.3367975514164
 20
187.1200595265868
 10
497.3367975514164
 20
186.8479493265868
  0
LWPOLYLINE
  5
27365
330
18
100
AcDbEntity
  8
BESCHRIFTUNG
  6
CONTINUOUS
100
AcDbPolyline
 90
       37
 70
     1
 43
0.0762
 10
494.2086097514164
 20
186.8612589265868
 10
494.2086097514164
 20
188.0346627265868
 10
494.4296151514165
 20
188.0346627265868
 10
494.9822937514165
 20
187.3254693265868
 10
495.5230089514165
 20
188.0346627265868
 10
495.7416013514165
 20
188.0346627265868
 10
495.7416013514165
 20
186.8612589265868
 10
495.4885157514166
 20
186.8612589265868
 10
495.4885157514166
 20
187.5860733265868
 10
495.4887697514164
 20
187.6013895265868
 10
495.4896587514165
 20
187.6192203265868
 10
495.4912081514164
 20
187.6395657265868
 10
495.4933417514164
 20
187.6618923265868
 10
495.4958055514164
 20
187.6858953265868
 10
495.4983963514164
 20
187.7115493265868
 10
495.4842485514164
 20
187.6830251265868
 10
495.4713707514165
 20
187.6580823265868
 10
495.4598137514165
 20
187.6368733265868
 10
495.4490187514164
 20
187.6183313265868
 10
495.4389857514164
 20
187.6021515265868
 10
495.4298163514165
 20
187.5883593265869
 10
494.9892025514165
 20
187.0022543265868
 10
494.9345925514164
 20
187.0022543265868
 10
494.4928103514164
 20
187.5906707265868
 10
494.4772909514165
 20
187.6125401265868
 10
494.4633971514165
 20
187.6334697265868
 10
494.4512051514164
 20
187.6535611265868
 10
494.4404355514165
 20
187.6728143265868
 10
494.4309359514164
 20
187.6918389265868
 10
494.4227063514165
 20
187.7103555265868
 10
494.4248653514164
 20
187.6867843265868
 10
494.4266433514164
 20
187.6646355265868
 10
494.4280149514164
 20
187.6440615265868
 10
494.4289547514164
 20
187.6242495265868
 10
494.4294627514165
 20
187.6049455265869
 10
494.4296151514165
 20
187.5860733265868
 10
494.4296151514165
 20
186.8612589265868
  0
LWPOLYLINE
  5
27368
330
18
100
AcDbEntity
  8
EBENE_1
  6
CONTINUOUS
100
AcDbPolyline
 90
       28
 70
     1
 43
0.0762
 10
468.0358147514164
 20
217.1763621265868
 10
468.0453397514164
 20
217.3287875265868
 10
468.0739147514165
 20
217.4430875265868
 10
468.1215143514164
 20
217.5192621265868
 10
468.2050803514164
 20
217.5668617265868
 10
468.3331217514164
 20
217.5954367265868
 10
468.4929131514165
 20
217.6049617265868
 10
469.8929103514164
 20
217.6049617265868
 10
470.0654017514165
 20
217.5954367265868
 10
470.1870931514165
 20
217.5668617265868
 10
470.2643091514164
 20
217.5192621265868
 10
470.3193509514164
 20
217.4430875265868
 10
470.3616927514165
 20
217.3287875265868
 10
470.3786091514164
 20
217.1763621265868
 10
470.3786091514164
 20
216.2335649265868
 10
470.3616927514165
 20
216.0811903265868
 10
470.3193509514164
 20
215.9669157265868
 10
470.2643091514164
 20
215.8907665265868
 10
470.1870931514165
 20
215.8431161265868
 10
470.0654017514165
 20
215.8145665265868
 10
469.8929103514164
 20
215.8050669265868
 10
468.4929131514165
 20
215.8050669265868
 10
468.3331217514164
 20
215.8145665265868
 10
468.2050803514164
 20
215.8431161265868
 10
468.1215143514164
 20
215.8907665265868
 10
468.0739147514165
 20
215.9669157265868
 10
468.0453397514164
 20
216.0811903265868
 10
468.0358147514164
 20
216.2335649265868
  0
LWPOLYLINE
  5
27369
330
18
100
AcDbEntity
  8
EBENE_1
  6
CONTINUOUS
100
AcDbPolyline
 90
        4
 70
     1
 43
0.0762
 10
468.4644143514165
 20
216.1478653265868
 10
469.9215107514164
 20
216.1478653265868
 10
469.9215107514164
 20
217.2906621265868
 10
468.4644143514165
 20
217.2906621265868
  0
LWPOLYLINE
  5
2736B
330
18
100
AcDbEntity
  8
EBENE_1
  6
CONTINUOUS
100
AcDbPolyline
 90
       12
 70
     1
 43
0.0762
 10
450.3505059514164
 20
215.8050669265868
 10
450.3505059514164
 20
218.0049609265868
 10
450.8648051514164
 20
218.0049609265868
 10
450.8648051514164
 20
217.1478633265868
 10
452.4647003514164
 20
217.1478633265868
 10
452.4647003514164
 20
218.0049609265868
 10
452.9789995514164
 20
218.0049609265868
 10
452.9789995514164
 20
215.8050669265868
 10
452.4647003514164
 20
215.8050669265868
 10
452.4647003514164
 20
216.7478641265868
 10
450.8648051514164
 20
216.7478641265868
 10
450.8648051514164
 20
215.8050669265868
  0
LWPOLYLINE
  5
2736C
330
18
100
AcDbEntity
  8
EBENE_1
  6
CONTINUOUS
100
AcDbPolyline
 90
       15
 70
     1
 43
0.0762
 10
459.3217097514163
 20
215.8050669265868
 10
459.3217097514163
 20
217.6049617265868
 10
460.5503077514165
 20
217.6049617265868
 10
460.8719479514165
 20
217.5838035265868
 10
461.1428135514164
 20
217.5118453265868
 10
461.3502045514165
 20
217.3763617265868
 10
461.5131709514164
 20
217.2060293265868
 10
461.6062873514165
 20
216.9848715265868
 10
461.6359037514164
 20
216.7192637265868
 10
461.5999373514164
 20
216.4335645265868
 10
461.5004963514165
 20
216.2050153265868
 10
461.3502045514165
 20
216.0335653265868
 10
461.1131971514164
 20
215.9108579265868
 10
460.8063651514164
 20
215.8325751265869
 10
460.4360077514164
 20
215.8050669265868
  0
LWPOLYLINE
  5
2736D
330
18
100
AcDbEntity
  8
EBENE_1
  6
CONTINUOUS
100
AcDbPolyline
 90
       15
 70
     1
 43
0.0762
 10
459.7788081514164
 20
216.1478653265868
 10
460.3503081514165
 20
216.1478653265868
 10
460.6158905514164
 20
216.1594985265868
 10
460.8370229514163
 20
216.2029071265868
 10
461.0074061514165
 20
216.2907657265868
 10
461.1026307514164
 20
216.3965567265868
 10
461.1597553514164
 20
216.5467977265868
 10
461.1788053514165
 20
216.7478641265868
 10
461.1608221514164
 20
216.9086969265868
 10
461.1111143514165
 20
217.0441551265868
 10
461.0360065514164
 20
217.1478633265868
 10
460.9037233514165
 20
217.2229711265868
 10
460.7397155514164
 20
217.2726789265869
 10
460.5503077514165
 20
217.2906621265868
 10
459.7788081514164
 20
217.2906621265868
  0
LWPOLYLINE
  5
2736E
330
18
100
AcDbEntity
  8
EBENE_1
  6
CONTINUOUS
100
AcDbPolyline
 90
        3
 70
     1
 43
0.0762
 10
457.1218157514165
 20
216.5192641265868
 10
457.9789133514164
 20
216.5192641265868
 10
457.5503137514165
 20
217.2906621265868
  0
LWPOLYLINE
  5
27370
330
18
100
AcDbEntity
  8
EBENE_1
  6
CONTINUOUS
100
AcDbPolyline
 90
        8
 70
     1
 43
0.0762
 10
456.2646165514165
 20
215.8050669265868
 10
457.3503141514164
 20
217.6049617265868
 10
457.7789137514164
 20
217.6049617265868
 10
458.8646113514164
 20
215.8050669265868
 10
458.3789125514165
 20
215.8050669265868
 10
458.1503125514164
 20
216.2049645265868
 10
456.9503149514164
 20
216.2049645265868
 10
456.7218165514163
 20
215.8050669265868
  0
LWPOLYLINE
  5
27371
330
18
100
AcDbEntity
  8
EBENE_1
  6
CONTINUOUS
100
AcDbPolyline
 90
       12
 70
     1
 43
0.0762
 10
453.9503971514164
 20
215.8050669265868
 10
453.9503971514164
 20
217.6049617265868
 10
455.8931923514164
 20
217.6049617265868
 10
455.8931923514164
 20
217.2906621265868
 10
454.4074955514164
 20
217.2906621265868
 10
454.4074955514164
 20
216.8906629265868
 10
455.2646947514165
 20
216.8906629265868
 10
455.2646947514165
 20
216.5764649265868
 10
454.4074955514164
 20
216.5764649265868
 10
454.4074955514164
 20
216.1478653265868
 10
455.9217927514164
 20
216.1478653265868
 10
455.9217927514164
 20
215.8050669265868
  0
LWPOLYLINE
  5
27372
330
18
100
AcDbEntity
  8
EBENE_1
  6
CONTINUOUS
100
AcDbPolyline
 90
       12
 70
     1
 43
0.0762
 10
464.9786961514164
 20
215.8050669265868
 10
464.9786961514164
 20
217.6049617265868
 10
465.4358961514165
 20
217.6049617265868
 10
465.4358961514165
 20
216.9192633265868
 10
466.8072929514164
 20
216.9192633265868
 10
466.8072929514164
 20
217.6049617265868
 10
467.2358163514164
 20
217.6049617265868
 10
467.2358163514164
 20
215.8050669265868
 10
466.8072929514164
 20
215.8050669265868
 10
466.8072929514164
 20
216.5764649265868
 10
465.4358961514165
 20
216.5764649265868
 10
465.4358961514165
 20
215.8050669265868
  0
LWPOLYLINE
  5
27373
330
18
100
AcDbEntity
  8
EBENE_1
  6
CONTINUOUS
100
AcDbPolyline
 90
       16
 70
     1
 43
0.0762
 10
463.7501997514164
 20
217.3192625265868
 10
462.7216013514164
 20
217.3192625265868
 10
462.7216013514164
 20
216.8335637265868
 10
463.7501997514164
 20
216.8335637265868
 10
463.8062829514165
 20
216.8346305265868
 10
463.8560161514164
 20
216.8420473265868
 10
463.8929985514164
 20
216.8621641265868
 10
463.9205575514165
 20
216.8917551265868
 10
463.9417411514163
 20
216.9277469265868
 10
463.9501993514165
 20
216.9764641265868
 10
463.9501993514165
 20
217.1478633265868
 10
463.9417411514163
 20
217.2028797265868
 10
463.9205575514165
 20
217.2452215265868
 10
463.8929985514164
 20
217.2621633265868
 10
463.8560161514164
 20
217.2896207265868
 10
463.8062829514165
 20
217.3107789265868
  0
LWPOLYLINE
  5
27374
330
18
100
AcDbEntity
  8
EBENE_1
  6
CONTINUOUS
100
AcDbPolyline
 90
       18
 70
     1
 43
0.0762
 10
462.2931033514164
 20
215.8050669265868
 10
462.2931033514164
 20
217.6049617265868
 10
463.9215989514164
 20
217.6049617265868
 10
464.0676235514164
 20
217.5965035265868
 10
464.1755481514165
 20
217.5753199265868
 10
464.2644989514165
 20
217.5478625265868
 10
464.3120985514165
 20
217.4737453265868
 10
464.3406735514164
 20
217.3742789265868
 10
464.3501985514165
 20
217.2621633265868
 10
464.3501985514165
 20
216.8621641265868
 10
464.3406735514164
 20
216.7573891265868
 10
464.3120985514165
 20
216.6716641265868
 10
464.2644989514165
 20
216.6049637265868
 10
464.1692235514165
 20
216.5573641265869
 10
464.0549489514164
 20
216.5287891265868
 10
463.9215989514164
 20
216.5192641265868
 10
462.7216013514164
 20
216.5192641265868
 10
462.7216013514164
 20
215.8050669265868
  0
LWPOLYLINE
  5
27375
330
18
100
AcDbEntity
  8
EBENE_1
  6
CONTINUOUS
100
AcDbPolyline
 90
       12
 70
     1
 43
0.0762
 10
474.1784999514164
 20
215.8050669265868
 10
474.1784999514164
 20
217.6049617265868
 10
476.1212951514164
 20
217.6049617265868
 10
476.1212951514164
 20
217.2906621265868
 10
474.6355983514165
 20
217.2906621265868
 10
474.6355983514165
 20
216.8906629265868
 10
475.4927975514164
 20
216.8906629265868
 10
475.4927975514164
 20
216.5764649265868
 10
474.6355983514165
 20
216.5764649265868
 10
474.6355983514165
 20
216.1478653265868
 10
476.1498955514164
 20
216.1478653265868
 10
476.1498955514164
 20
215.8050669265868
  0
LWPOLYLINE
  5
27376
330
18
100
AcDbEntity
  8
EBENE_1
  6
CONTINUOUS
100
AcDbPolyline
 90
       10
 70
     1
 43
0.0762
 10
471.1214067514165
 20
215.8050669265868
 10
471.1214067514165
 20
217.6049617265868
 10
471.4357063514164
 20
217.6049617265868
 10
472.9785023514165
 20
216.4049641265868
 10
472.9785023514165
 20
217.6049617265868
 10
473.3785015514164
 20
217.6049617265868
 10
473.3785015514164
 20
215.8050669265868
 10
473.0642019514164
 20
215.8050669265868
 10
471.5214059514164
 20
217.0335633265868
 10
471.5214059514164
 20
215.8050669265868
  0
LWPOLYLINE
  5
27378
330
18
100
AcDbEntity
  8
BESCHRIFTUNG
  6
CONTINUOUS
100
AcDbPolyline
 90
       28
 70
     1
 43
0.0762
 10
506.7303017514165
 20
187.3708591265868
 10
506.1297949514164
 20
187.3708591265868
 10
506.0903741514164
 20
187.3684715265868
 10
506.0608085514164
 20
187.3613849265868
 10
506.0410981514165
 20
187.3496501265868
 10
506.0287791514164
 20
187.3307525265868
 10
506.0213115514163
 20
187.3019997265868
 10
506.0187969514164
 20
187.2633663265868
 10
506.0187969514164
 20
187.1776667265868
 10
506.0211845514165
 20
187.1396683265868
 10
506.0282965514164
 20
187.1113473265868
 10
506.0400059514164
 20
187.0927545265868
 10
506.0593353514163
 20
187.0814261265868
 10
506.0892819514164
 20
187.0746189265868
 10
506.1297949514164
 20
187.0723583265868
 10
506.7303017514165
 20
187.0723583265868
 10
506.7703829514164
 20
187.0746189265868
 10
506.8002025514164
 20
187.0814261265868
 10
506.8198113514165
 20
187.0927545265868
 10
506.8317747514164
 20
187.1113473265868
 10
506.8389375514165
 20
187.1396683265868
 10
506.8412997514164
 20
187.1776667265868
 10
506.8412997514164
 20
187.2633663265868
 10
506.8388105514165
 20
187.3019997265868
 10
506.8313683514165
 20
187.3307525265868
 10
506.8189985514164
 20
187.3496501265868
 10
506.7992881514165
 20
187.3613849265868
 10
506.7697479514164
 20
187.3684715265868
  0
LWPOLYLINE
  5
27379
330
18
100
AcDbEntity
  8
BESCHRIFTUNG
  6
CONTINUOUS
100
AcDbPolyline
 90
       28
 70
     1
 43
0.0762
 10
506.7050033514164
 20
187.8350695265868
 10
506.1575063514164
 20
187.8350695265868
 10
506.1172981514164
 20
187.8326565265869
 10
506.0869959514165
 20
187.8254683265868
 10
506.0664981514164
 20
187.8134541265868
 10
506.0535441514164
 20
187.7942771265868
 10
506.0457209514164
 20
187.7655751265868
 10
506.0431047514164
 20
187.7274497265868
 10
506.0431047514164
 20
187.6683693265868
 10
506.0457209514164
 20
187.6308281265868
 10
506.0535441514164
 20
187.6025071265868
 10
506.0664981514164
 20
187.5834571265868
 10
506.0869959514165
 20
187.5714683265868
 10
506.1172981514164
 20
187.5642547265868
 10
506.1575063514164
 20
187.5618671265868
 10
506.7050033514164
 20
187.5618671265868
 10
506.7445003514165
 20
187.5642547265868
 10
506.7743199514165
 20
187.5713413265868
 10
506.7944113514164
 20
187.5830507265868
 10
506.8070097514164
 20
187.6018975265868
 10
506.8145789514164
 20
187.6303201265868
 10
506.8170935514165
 20
187.6683693265868
 10
506.8170935514165
 20
187.7274497265868
 10
506.8145789514164
 20
187.7661339265868
 10
506.8070097514164
 20
187.7949375265868
 10
506.7944113514164
 20
187.8138605265868
 10
506.7743199514165
 20
187.8255699265868
 10
506.7445003514165
 20
187.8326819265868
  0
LWPOLYLINE
  5
2737A
330
18
100
AcDbEntity
  8
BESCHRIFTUNG
  6
CONTINUOUS
100
AcDbPolyline
 90
       54
 70
     1
 43
0.0762
 10
506.7959099514164
 20
188.0346627265868
 10
506.8901185514164
 20
188.0292525265868
 10
506.9613401514165
 20
188.0129965265869
 10
507.0096001514165
 20
187.9858693265868
 10
507.0402071514165
 20
187.9440609265868
 10
507.0585205514164
 20
187.8838375265868
 10
507.0646165514165
 20
187.8051737265868
 10
507.0646165514165
 20
187.6986715265868
 10
507.0590285514164
 20
187.6361367265868
 10
507.0423407514165
 20
187.5849557265868
 10
507.0145023514164
 20
187.5451539265868
 10
506.9728209514164
 20
187.5142675265868
 10
506.9143755514164
 20
187.4895279265869
 10
506.8391153514165
 20
187.4709605265868
 10
506.9181347514164
 20
187.4565079265868
 10
506.9818125514164
 20
187.4327843265868
 10
507.0300979514164
 20
187.3996627265868
 10
507.0639307514165
 20
187.3565081265868
 10
507.0843015514165
 20
187.3021775265868
 10
507.0911087514165
 20
187.2367725265868
 10
507.0911087514165
 20
187.1132523265868
 10
507.0841491514165
 20
187.0276289265868
 10
507.0632957514164
 20
186.9618175265868
 10
507.0285993514164
 20
186.9158689265868
 10
506.9757419514164
 20
186.8855159265868
 10
506.9012691514164
 20
186.8673295265869
 10
506.8050031514164
 20
186.8612589265868
 10
506.0551951514164
 20
186.8612589265868
 10
505.9595641514164
 20
186.8672025265868
 10
505.8856755514165
 20
186.8851095265868
 10
505.8335039514165
 20
186.9150561265868
 10
505.7990361514164
 20
186.9610555265868
 10
505.7783351514165
 20
187.0270701265868
 10
505.7714009514164
 20
187.1132523265868
 10
505.7714009514164
 20
187.2367725265868
 10
505.7781827514165
 20
187.3015933265868
 10
505.7985281514164
 20
187.3557461265868
 10
505.8323101514165
 20
187.3992563265868
 10
505.8803415514164
 20
187.4325303265868
 10
505.9432573514165
 20
187.4564063265868
 10
506.0211083514165
 20
187.4709605265868
 10
505.9463053514163
 20
187.4901375265868
 10
505.8879361514164
 20
187.5152581265869
 10
505.8460007514164
 20
187.5463731265869
 10
505.8179591514165
 20
187.5860225265868
 10
505.8011697514164
 20
187.6367971265868
 10
505.7956071514164
 20
187.6986715265868
 10
505.7956071514164
 20
187.8051737265868
 10
505.8016777514165
 20
187.8838375265868
 10
505.8199911514163
 20
187.9440609265868
 10
505.8505981514165
 20
187.9858693265868
 10
505.8988327514165
 20
188.0129965265869
 10
505.9700797514165
 20
188.0292525265868
 10
506.0643137514164
 20
188.0346627265868
  0
LWPOLYLINE
  5
2737B
330
18
100
AcDbEntity
  8
BESCHRIFTUNG
  6
CONTINUOUS
100
AcDbPolyline
 90
        6
 70
     1
 43
0.0762
 10
504.6002069514164
 20
186.8612589265868
 10
504.6002069514164
 20
187.8115745265868
 10
504.3504995514165
 20
187.8115745265868
 10
504.3504995514165
 20
187.9680639265868
 10
504.8476029514164
 20
188.0433495265869
 10
504.8476029514164
 20
186.8612589265868
  0
LWPOLYLINE
  5
2737C
330
18
100
AcDbEntity
  8
BESCHRIFTUNG
  6
CONTINUOUS
100
AcDbPolyline
 90
       28
 70
     1
 43
0.0762
 10
502.2522055514164
 20
187.7573709265868
 10
502.2584031514164
 20
187.8532051265868
 10
502.2770467514164
 20
187.9262555265868
 10
502.3083141514164
 20
187.9763697265868
 10
502.3565233514164
 20
188.0088055265868
 10
502.4269829514164
 20
188.0282111265868
 10
502.5196167514165
 20
188.0346627265868
 10
503.3134937514164
 20
188.0346627265868
 10
503.4067625514165
 20
188.0282111265868
 10
503.4776031514164
 20
188.0088055265868
 10
503.5260155514164
 20
187.9763697265868
 10
503.5571813514165
 20
187.9262555265868
 10
503.5758249514165
 20
187.8532051265868
 10
503.5819971514165
 20
187.7573709265868
 10
503.5819971514165
 20
187.1390587265868
 10
503.5758249514165
 20
187.0429451265868
 10
503.5571813514165
 20
186.9697931265868
 10
503.5260155514164
 20
186.9196535265869
 10
503.4776031514164
 20
186.8871923265868
 10
503.4067625514165
 20
186.8677359265868
 10
503.3134937514164
 20
186.8612589265868
 10
502.5196167514165
 20
186.8612589265868
 10
502.4269829514164
 20
186.8677359265868
 10
502.3565233514164
 20
186.8871923265868
 10
502.3083141514164
 20
186.9196535265869
 10
502.2770467514164
 20
186.9697931265868
 10
502.2584031514164
 20
187.0429451265868
 10
502.2522055514164
 20
187.1390587265868
  0
LWPOLYLINE
  5
2737D
330
18
100
AcDbEntity
  8
BESCHRIFTUNG
  6
CONTINUOUS
100
AcDbPolyline
 90
        4
 70
     1
 43
0.0762
 10
502.4973155514165
 20
187.0723583265868
 10
503.3357949514164
 20
187.0723583265868
 10
503.3357949514164
 20
187.8350695265868
 10
502.4973155514165
 20
187.8350695265868
  0
LINE
  5
273D6
330
18
100
AcDbEntity
  8
BLECH
100
AcDbLine
 10
64.63420735141653
 20
227.0640676265869
 30
0.0
 11
90.63420735141651
 21
227.0640676265869
 31
0.0
  0
LINE
  5
273D7
330
18
100
AcDbEntity
  8
BLECH
100
AcDbLine
 10
64.63420735141653
 20
182.7640676265868
 30
0.0
 11
90.63420735141651
 21
182.7640676265868
 31
0.0
  0
ARC
  5
273D9
330
18
100
AcDbEntity
  8
BLECH
100
AcDbCircle
 10
71.88420735141654
 20
189.0140676265868
 30
0.0
 40
3.5
100
AcDbArc
 50
90.0
 51
270.0
  0
ARC
  5
273DB
330
18
100
AcDbEntity
  8
BLECH
100
AcDbCircle
 10
71.88420735141654
 20
220.8140676265869
 30
0.0
 40
3.5
100
AcDbArc
 50
90.0
 51
270.0
  0
LINE
  5
273DE
330
18
100
AcDbEntity
  8
BLECH
100
AcDbLine
 10
90.63420735141651
 20
182.7640676265868
 30
0.0
 11
90.63420735141651
 21
227.0640676265869
 31
0.0
  0
ARC
  5
273DF
330
18
100
AcDbEntity
  8
BLECH
100
AcDbCircle
 10
75.18420735141649
 20
189.0140676265868
 30
0.0
 40
3.5
100
AcDbArc
 50
270.0
 51
90.0
  0
LINE
  5
273E1
330
18
100
AcDbEntity
  8
BLECH
100
AcDbLine
 10
71.88420735141654
 20
185.5140676265868
 30
0.0
 11
75.18420735141646
 21
185.5140676265868
 31
0.0
  0
LINE
  5
273E3
330
18
100
AcDbEntity
  8
BLECH
100
AcDbLine
 10
71.88420735141654
 20
192.5140676265868
 30
0.0
 11
75.18420735141646
 21
192.5140676265868
 31
0.0
  0
ARC
  5
273E5
330
18
100
AcDbEntity
  8
BLECH
100
AcDbCircle
 10
75.18420735141649
 20
220.8140676265869
 30
0.0
 40
3.5
100
AcDbArc
 50
270.0
 51
90.0
  0
LINE
  5
273E8
330
18
100
AcDbEntity
  8
BLECH
100
AcDbLine
 10
71.88420735141654
 20
217.3140676265869
 30
0.0
 11
75.18420735141646
 21
217.3140676265869
 31
0.0
  0
LINE
  5
273E9
330
18
100
AcDbEntity
  8
BLECH
100
AcDbLine
 10
71.88420735141654
 20
224.3140676265868
 30
0.0
 11
75.18420735141646
 21
224.3140676265868
 31
0.0
  0
LINE
  5
273EB
330
18
100
AcDbEntity
  8
BLECH
100
AcDbLine
 10
64.63420735141653
 20
182.7640676265868
 30
0.0
 11
64.63420735141653
 21
227.0640676265869
 31
0.0
  0
LINE
  5
27474
330
18
100
AcDbEntity
  8
BLECH
100
AcDbLine
 10
546.6342109514164
 20
227.0640676265869
 30
0.0
 11
520.6342109514164
 21
227.0640676265869
 31
0.0
  0
LINE
  5
27475
330
18
100
AcDbEntity
  8
BLECH
100
AcDbLine
 10
546.6342109514164
 20
182.7640676265868
 30
0.0
 11
520.6342109514164
 21
182.7640676265868
 31
0.0
  0
ARC
  5
27476
330
18
100
AcDbEntity
  8
BLECH
100
AcDbCircle
 10
539.3842109514164
 20
189.0140676265868
 30
0.0
 40
3.5
100
AcDbArc
 50
270.0
 51
90.0
  0
ARC
  5
27477
330
18
100
AcDbEntity
  8
BLECH
100
AcDbCircle
 10
539.3842109514164
 20
220.8140676265869
 30
0.0
 40
3.5
100
AcDbArc
 50
270.0
 51
90.0
  0
LINE
  5
27478
330
18
100
AcDbEntity
  8
BLECH
100
AcDbLine
 10
520.6342109514164
 20
182.7640676265868
 30
0.0
 11
520.6342109514164
 21
227.0640676265869
 31
0.0
  0
ARC
  5
27479
330
18
100
AcDbEntity
  8
BLECH
100
AcDbCircle
 10
536.0842109514164
 20
189.0140676265868
 30
0.0
 40
3.5
100
AcDbArc
 50
90.0
 51
270.0
  0
LINE
  5
2747A
330
18
100
AcDbEntity
  8
BLECH
100
AcDbLine
 10
539.3842109514164
 20
185.5140676265868
 30
0.0
 11
536.0842109514164
 21
185.5140676265868
 31
0.0
  0
LINE
  5
2747B
330
18
100
AcDbEntity
  8
BLECH
100
AcDbLine
 10
539.3842109514164
 20
192.5140676265868
 30
0.0
 11
536.0842109514164
 21
192.5140676265868
 31
0.0
  0
ARC
  5
2747C
330
18
100
AcDbEntity
  8
BLECH
100
AcDbCircle
 10
536.0842109514164
 20
220.8140676265869
 30
0.0
 40
3.5
100
AcDbArc
 50
90.0
 51
270.0
  0
LINE
  5
2747D
330
18
100
AcDbEntity
  8
BLECH
100
AcDbLine
 10
539.3842109514164
 20
217.3140676265869
 30
0.0
 11
536.0842109514164
 21
217.3140676265869
 31
0.0
  0
LINE
  5
2747E
330
18
100
AcDbEntity
  8
BLECH
100
AcDbLine
 10
539.3842109514164
 20
224.3140676265868
 30
0.0
 11
536.0842109514164
 21
224.3140676265868
 31
0.0
  0
LINE
  5
2747F
330
18
100
AcDbEntity
  8
BLECH
100
AcDbLine
 10
546.6342109514164
 20
182.7640676265868
 30
0.0
 11
546.6342109514164
 21
227.0640676265869
 31
0.0
  0
LINE
  5
275C0
330
18
100
AcDbEntity
  8
MITTELLINIE
100
AcDbLine
 10
500.238453098703
 20
264.8783201331185
 30
0.0
 11
66.42943687729189
 21
264.8783201331188
 31
0.0
  0
LINE
  5
275CC
330
18
100
AcDbEntity
  8
MITTELLINIE
100
AcDbLine
 10
499.3658815360434
 20
279.3783201331185
 30
0.0
 11
488.0982670675421
 21
279.3783201331185
 31
0.0
  0
LINE
  5
275CD
330
18
100
AcDbEntity
  8
MITTELLINIE
100
AcDbLine
 10
499.8722603329534
 20
279.3783201331184
 30
0.0
 11
488.6046458644523
 21
279.3783201331184
 31
0.0
  0
LINE
  5
275CE
330
18
100
AcDbEntity
  8
MITTELLINIE
100
AcDbLine
 10
494.2384530987031
 20
283.4440788487245
 30
0.0
 11
494.2384530987031
 21
275.8855086764109
 31
0.0
  0
LINE
  5
275CF
330
18
100
AcDbEntity
  8
MITTELLINIE
100
AcDbLine
 10
494.238453098703
 20
283.8810001951175
 30
0.0
 11
494.238453098703
 21
274.9568566599533
 31
0.0
  0
LINE
  5
275D2
330
18
100
AcDbEntity
  8
MITTELLINIE
100
AcDbLine
 10
490.451071062808
 20
264.8783201331186
 30
0.0
 11
498.5913495188373
 21
264.8783201331186
 31
0.0
  0
LINE
  5
275D3
330
18
100
AcDbEntity
  8
MITTELLINIE
100
AcDbLine
 10
499.8722603329534
 20
250.3783201331184
 30
0.0
 11
488.6046458644523
 21
250.3783201331184
 31
0.0
  0
LINE
  5
275D4
330
18
100
AcDbEntity
  8
MITTELLINIE
100
AcDbLine
 10
494.2384530987031
 20
253.0921996928753
 30
0.0
 11
494.2384530987031
 21
246.9923019533394
 31
0.0
  0
LINE
  5
275D5
330
18
100
AcDbEntity
  8
MITTELLINIE
100
AcDbLine
 10
494.238453098703
 20
254.8810001951175
 30
0.0
 11
494.238453098703
 21
245.9568566599533
 31
0.0
  0
LINE
  5
275D6
330
18
100
AcDbEntity
  8
MITTELLINIE
100
AcDbLine
 10
499.3658815360434
 20
250.3783201331185
 30
0.0
 11
490.8154120271304
 21
250.3783201331185
 31
0.0
  0
LINE
  5
275DF
330
18
100
AcDbEntity
  8
MITTELLINIE
100
AcDbLine
 10
384.738453098703
 20
242.8283201331188
 30
0.0
 11
384.7384530987029
 21
287.1283201331186
 31
0.0
  0
LINE
  5
275E0
330
18
100
AcDbEntity
  8
MITTELLINIE
100
AcDbLine
 10
397.7399360987031
 20
284.9440788487245
 30
0.0
 11
397.7399360987031
 21
277.3855086764109
 31
0.0
  0
LINE
  5
275E2
330
18
100
AcDbEntity
  8
MITTELLINIE
100
AcDbLine
 10
393.674177383097
 20
280.8783201331185
 30
0.0
 11
402.3701833986723
 21
280.8783201331185
 31
0.0
  0
LINE
  5
275E4
330
18
100
AcDbEntity
  8
MITTELLINIE
100
AcDbLine
 10
397.7399360987031
 20
251.4151662405497
 30
0.0
 11
397.7399360987031
 21
242.7191602249744
 31
0.0
  0
LINE
  5
275E5
330
18
100
AcDbEntity
  8
MITTELLINIE
100
AcDbLine
 10
392.5230792700202
 20
248.8783201331186
 30
0.0
 11
402.8883178298938
 21
248.8783201331186
 31
0.0
  0
LINE
  5
275F0
330
18
100
AcDbEntity
  8
MITTELLINIE
100
AcDbLine
 10
281.172694383097
 20
280.8783201331185
 30
0.0
 11
289.8687003986722
 21
280.8783201331185
 31
0.0
  0
LINE
  5
275F1
330
18
100
AcDbEntity
  8
MITTELLINIE
100
AcDbLine
 10
285.2384530987031
 20
284.9440788487245
 30
0.0
 11
285.2384530987031
 21
277.3855086764109
 31
0.0
  0
LINE
  5
275F3
330
18
100
AcDbEntity
  8
MITTELLINIE
100
AcDbLine
 10
281.172694383097
 20
248.8783201331186
 30
0.0
 11
289.8687003986722
 21
248.8783201331186
 31
0.0
  0
LINE
  5
275F5
330
18
100
AcDbEntity
  8
MITTELLINIE
100
AcDbLine
 10
285.2384530987031
 20
252.9440788487245
 30
0.0
 11
285.2384530987031
 21
245.385508676411
 31
0.0
  0
LINE
  5
275FC
330
18
100
AcDbEntity
  8
MITTELLINIE
100
AcDbLine
 10
172.7399860987032
 20
284.9440788487247
 30
0.0
 11
172.7399860987032
 21
276.2480728331495
 31
0.0
  0
LINE
  5
275FD
330
18
100
AcDbEntity
  8
MITTELLINIE
100
AcDbLine
 10
178.0624141442157
 20
280.8755530052624
 30
0.0
 11
166.7947996757145
 21
280.8755530052624
 31
0.0
  0
LINE
  5
275FF
330
18
100
AcDbEntity
  8
MITTELLINIE
100
AcDbLine
 10
178.3737933329538
 20
248.8783201331187
 30
0.0
 11
167.1061788644527
 21
248.8783201331187
 31
0.0
  0
LINE
  5
27600
330
18
100
AcDbEntity
  8
MITTELLINIE
100
AcDbLine
 10
172.7399860987032
 20
252.9440788487247
 30
0.0
 11
172.7399860987032
 21
244.2480728331495
 31
0.0
  0
LINE
  5
2760A
330
18
100
AcDbEntity
  8
MITTELLINIE
100
AcDbLine
 10
76.23845309870308
 20
283.4440788487246
 30
0.0
 11
76.23845309870308
 21
275.885508676411
 31
0.0
  0
LINE
  5
2760B
330
18
100
AcDbEntity
  8
MITTELLINIE
100
AcDbLine
 10
76.23845309870296
 20
283.8810001951176
 30
0.0
 11
76.23845309870296
 21
274.9568566599534
 31
0.0
  0
LINE
  5
2760D
330
18
100
AcDbEntity
  8
MITTELLINIE
100
AcDbLine
 10
71.11102466136276
 20
279.3783201331186
 30
0.0
 11
82.37863912986403
 21
279.3783201331186
 31
0.0
  0
LINE
  5
2760E
330
18
100
AcDbEntity
  8
MITTELLINIE
100
AcDbLine
 10
81.87226033295349
 20
279.3783201331185
 30
0.0
 11
70.60464586445232
 21
279.3783201331185
 31
0.0
  0
LINE
  5
27611
330
18
100
AcDbEntity
  8
MITTELLINIE
100
AcDbLine
 10
71.11102466136276
 20
250.3783201331186
 30
0.0
 11
79.66149417027577
 21
250.3783201331186
 31
0.0
  0
LINE
  5
27612
330
18
100
AcDbEntity
  8
MITTELLINIE
100
AcDbLine
 10
81.87226033295349
 20
250.3783201331185
 30
0.0
 11
70.60464586445232
 21
250.3783201331185
 31
0.0
  0
LINE
  5
27613
330
18
100
AcDbEntity
  8
MITTELLINIE
100
AcDbLine
 10
76.23845309870308
 20
253.0921996928755
 30
0.0
 11
76.23845309870308
 21
246.9923019533394
 31
0.0
  0
LINE
  5
27614
330
18
100
AcDbEntity
  8
MITTELLINIE
100
AcDbLine
 10
76.23845309870296
 20
254.8810001951176
 30
0.0
 11
76.23845309870296
 21
245.9568566599534
 31
0.0
  0
DIMENSION
  5
27699
330
18
100
AcDbEntity
  8
BEMASSUNG
100
AcDbDimension
  2
*D1
 10
546.6342109514164
 20
234.7990070715934
 30
0.0
 11
305.6342091514165
 21
236.6740070715934
 31
0.0
 70
    32
  3
STANDARD
100
AcDbAlignedDimension
 13
64.6342073514165
 23
227.0640676265869
 33
0.0
 14
546.6342109514164
 24
227.0640676265869
 34
0.0
100
AcDbRotatedDimension
1001
ACAD
1000
DSTYLE
1002
{
1070
   270
1070
     8
1070
   270
1070
     8
1070
    41
1040
2.5
1070
    42
1040
0.625
1070
    43
1040
3.75
1070
    44
1040
1.25
1070
    73
1070
     0
1070
    74
1070
     0
1070
    77
1070
     1
1070
    78
1070
     8
1070
   140
1040
2.5
1070
   141
1040
2.5
1070
   143
1040
0.0394
1070
   147
1040
0.625
1070
   171
1070
     4
1070
   172
1070
     1
1070
   273
1070
     8
1070
   274
1070
     4
1070
   277
1070
     6
1002
}
  0
DIMENSION
  5
276A6
330
18
100
AcDbEntity
  8
BEMASSUNG
100
AcDbDimension
  2
*D2
 10
56.20398357134195
 20
182.7640676265869
 30
0.0
 11
54.12065023800859
 21
204.9140676265869
 31
0.0
 70
    32
  3
STANDARD
100
AcDbAlignedDimension
 13
64.6342073514165
 23
227.0640676265869
 33
0.0
 14
64.6342073514165
 24
182.7640676265868
 34
0.0
 50
90.0
100
AcDbRotatedDimension
1001
ACAD
1000
DSTYLE
1002
{
1070
   270
1070
     8
1070
   270
1070
     8
1070
    41
1040
2.5
1070
    42
1040
0.625
1070
    43
1040
3.75
1070
    44
1040
1.25
1070
    73
1070
     0
1070
    74
1070
     0
1070
    77
1070
     1
1070
    78
1070
     8
1070
   140
1040
2.5
1070
   141
1040
2.5
1070
   143
1040
0.0394
1070
   147
1040
0.625
1070
   171
1070
     4
1070
   172
1070
     1
1070
   273
1070
     8
1070
   274
1070
     4
1070
   277
1070
     6
1002
}
  0
CIRCLE
  5
2774F
330
18
100
AcDbEntity
  8
TASTEN
100
AcDbCircle
 10
278.703698680051
 20
205.0550742003997
 30
0.0
 40
5.0
  0
CIRCLE
  5
27750
330
18
100
AcDbEntity
  8
TASTEN
100
AcDbCircle
 10
278.703698680051
 20
205.0550742003997
 30
0.0
 40
4.799999999999999
  0
CIRCLE
  5
27751
102
{ACAD_REACTORS
330
27787
102
}
330
18
100
AcDbEntity
  8
BLECH
100
AcDbCircle
 10
413.0635425804403
 20
219.4777331582967
 30
0.0
 40
2.5
  0
LWPOLYLINE
  5
27752
102
{ACAD_REACTORS
330
27787
102
}
330
18
100
AcDbEntity
  8
BLECH
100
AcDbPolyline
 90
        6
 70
     1
 43
0.0
 10
412.5966045971174
 20
220.2864934693956
 10
412.1296666137945
 20
219.4777331582967
 10
412.5966045971174
 20
218.6689728471977
 10
413.5304805637631
 20
218.6689728471977
 10
413.997418547086
 20
219.4777331582967
 10
413.5304805637631
 20
220.2864934693956
  0
LWPOLYLINE
  5
27753
102
{ACAD_REACTORS
330
27758
102
}
330
18
100
AcDbEntity
  8
BLECH
  6
CONTINUOUS
100
AcDbPolyline
 90
        4
 70
     1
 43
0.0
 10
301.9264647002251
 20
198.153504064509
 10
315.4264647002251
 20
198.153504064509
 10
315.4264647002251
 20
211.653504064509
 10
301.9264647002251
 20
211.653504064509
  0
LWPOLYLINE
  5
27754
102
{ACAD_REACTORS
330
27758
102
}
330
18
100
AcDbEntity
  8
TASTEN
100
AcDbPolyline
 90
        8
 70
     1
 43
0.0
 10
302.7640897002251
 20
198.653054064509
 10
314.5888397002251
 20
198.653054064509
 42
0.4142135623730948
 10
314.9266897002251
 20
198.990904064509
 10
314.9266897002251
 20
210.815654064509
 42
0.4142135623730956
 10
314.5888397002251
 20
211.153504064509
 10
302.7640897002251
 20
211.1535040645089
 42
0.4142135623730951
 10
302.4262397002251
 20
210.815654064509
 10
302.4262397002251
 20
198.990904064509
 42
0.4142135623730956
  0
LWPOLYLINE
  5
27755
102
{ACAD_REACTORS
330
27758
102
}
330
18
100
AcDbEntity
  8
TASTEN
100
AcDbPolyline
 90
        8
 70
     1
 43
0.0
 10
303.4397897002251
 20
198.990904064509
 10
313.9131397002251
 20
198.990904064509
 42
0.4142135623730951
 10
314.5888397002251
 20
199.666604064509
 10
314.5888397002251
 20
210.139954064509
 42
0.4142135623730951
 10
313.9131397002251
 20
210.815654064509
 10
303.4397897002251
 20
210.815654064509
 42
0.4142135623730951
 10
302.7640897002251
 20
210.139954064509
 10
302.7640897002251
 20
199.666604064509
 42
0.4142135623730951
  0
LWPOLYLINE
  5
2775C
102
{ACAD_REACTORS
330
2775F
102
}
330
18
100
AcDbEntity
  8
BLECH
  6
CONTINUOUS
100
AcDbPolyline
 90
        4
 70
     1
 43
0.0
 10
331.8841939514165
 20
198.153504064509
 10
345.3841939514164
 20
198.153504064509
 10
345.3841939514164
 20
211.653504064509
 10
331.8841939514165
 20
211.653504064509
  0
LWPOLYLINE
  5
2775D
102
{ACAD_REACTORS
330
2775F
102
}
330
18
100
AcDbEntity
  8
TASTEN
100
AcDbPolyline
 90
        8
 70
     1
 43
0.0
 10
332.7218189514165
 20
198.653054064509
 10
344.5465689514164
 20
198.653054064509
 42
0.4142135623730948
 10
344.8844189514165
 20
198.990904064509
 10
344.8844189514165
 20
210.815654064509
 42
0.4142135623730956
 10
344.5465689514164
 20
211.153504064509
 10
332.7218189514165
 20
211.1535040645089
 42
0.4142135623730951
 10
332.3839689514164
 20
210.815654064509
 10
332.3839689514164
 20
198.990904064509
 42
0.4142135623730956
  0
LWPOLYLINE
  5
2775E
102
{ACAD_REACTORS
330
2775F
102
}
330
18
100
AcDbEntity
  8
TASTEN
100
AcDbPolyline
 90
        8
 70
     1
 43
0.0
 10
333.3975189514164
 20
198.990904064509
 10
343.8708689514164
 20
198.990904064509
 42
0.4142135623730951
 10
344.5465689514164
 20
199.666604064509
 10
344.5465689514164
 20
210.139954064509
 42
0.4142135623730951
 10
343.8708689514164
 20
210.815654064509
 10
333.3975189514164
 20
210.815654064509
 42
0.4142135623730951
 10
332.7218189514165
 20
210.139954064509
 10
332.7218189514165
 20
199.666604064509
 42
0.4142135623730951
  0
LWPOLYLINE
  5
27760
102
{ACAD_REACTORS
330
27763
102
}
330
18
100
AcDbEntity
  8
BLECH
  6
CONTINUOUS
100
AcDbPolyline
 90
        4
 70
     1
 43
0.0
 10
351.8841939514164
 20
198.153504064509
 10
365.3841939514165
 20
198.153504064509
 10
365.3841939514165
 20
211.653504064509
 10
351.8841939514164
 20
211.653504064509
  0
LWPOLYLINE
  5
27761
102
{ACAD_REACTORS
330
27763
102
}
330
18
100
AcDbEntity
  8
TASTEN
100
AcDbPolyline
 90
        8
 70
     1
 43
0.0
 10
352.7218189514164
 20
198.653054064509
 10
364.5465689514164
 20
198.653054064509
 42
0.4142135623730948
 10
364.8844189514164
 20
198.990904064509
 10
364.8844189514164
 20
210.815654064509
 42
0.4142135623730956
 10
364.5465689514164
 20
211.153504064509
 10
352.7218189514164
 20
211.1535040645089
 42
0.4142135623730951
 10
352.3839689514165
 20
210.815654064509
 10
352.3839689514165
 20
198.990904064509
 42
0.4142135623730956
  0
LWPOLYLINE
  5
27762
102
{ACAD_REACTORS
330
27763
102
}
330
18
100
AcDbEntity
  8
TASTEN
100
AcDbPolyline
 90
        8
 70
     1
 43
0.0
 10
353.3975189514165
 20
198.990904064509
 10
363.8708689514164
 20
198.990904064509
 42
0.4142135623730951
 10
364.5465689514164
 20
199.666604064509
 10
364.5465689514164
 20
210.139954064509
 42
0.4142135623730951
 10
363.8708689514164
 20
210.815654064509
 10
353.3975189514165
 20
210.815654064509
 42
0.4142135623730951
 10
352.7218189514164
 20
210.139954064509
 10
352.7218189514164
 20
199.666604064509
 42
0.4142135623730951
  0
LWPOLYLINE
  5
27764
102
{ACAD_REACTORS
330
27767
102
}
330
18
100
AcDbEntity
  8
BLECH
  6
CONTINUOUS
100
AcDbPolyline
 90
        4
 70
     1
 43
0.0
 10
371.8841939514164
 20
198.153504064509
 10
385.3841939514164
 20
198.153504064509
 10
385.3841939514164
 20
211.653504064509
 10
371.8841939514164
 20
211.653504064509
  0
LWPOLYLINE
  5
27765
102
{ACAD_REACTORS
330
27767
102
}
330
18
100
AcDbEntity
  8
TASTEN
100
AcDbPolyline
 90
        8
 70
     1
 43
0.0
 10
372.7218189514164
 20
198.653054064509
 10
384.5465689514164
 20
198.653054064509
 42
0.4142135623730948
 10
384.8844189514164
 20
198.990904064509
 10
384.8844189514164
 20
210.815654064509
 42
0.4142135623730956
 10
384.5465689514164
 20
211.153504064509
 10
372.7218189514164
 20
211.1535040645089
 42
0.4142135623730951
 10
372.3839689514164
 20
210.815654064509
 10
372.3839689514164
 20
198.990904064509
 42
0.4142135623730956
  0
LWPOLYLINE
  5
27766
102
{ACAD_REACTORS
330
27767
102
}
330
18
100
AcDbEntity
  8
TASTEN
100
AcDbPolyline
 90
        8
 70
     1
 43
0.0
 10
373.3975189514164
 20
198.990904064509
 10
383.8708689514164
 20
198.990904064509
 42
0.4142135623730951
 10
384.5465689514164
 20
199.666604064509
 10
384.5465689514164
 20
210.139954064509
 42
0.4142135623730951
 10
383.8708689514164
 20
210.815654064509
 10
373.3975189514164
 20
210.815654064509
 42
0.4142135623730951
 10
372.7218189514164
 20
210.139954064509
 10
372.7218189514164
 20
199.666604064509
 42
0.4142135623730951
  0
LWPOLYLINE
  5
27768
102
{ACAD_REACTORS
330
2776B
102
}
330
18
100
AcDbEntity
  8
BLECH
  6
CONTINUOUS
100
AcDbPolyline
 90
        4
 70
     1
 43
0.0
 10
391.8841939514164
 20
198.153504064509
 10
405.3841939514164
 20
198.153504064509
 10
405.3841939514164
 20
211.653504064509
 10
391.8841939514164
 20
211.653504064509
  0
LWPOLYLINE
  5
27769
102
{ACAD_REACTORS
330
2776B
102
}
330
18
100
AcDbEntity
  8
TASTEN
100
AcDbPolyline
 90
        8
 70
     1
 43
0.0
 10
392.7218189514164
 20
198.653054064509
 10
404.5465689514164
 20
198.653054064509
 42
0.4142135623730948
 10
404.8844189514165
 20
198.990904064509
 10
404.8844189514165
 20
210.815654064509
 42
0.4142135623730956
 10
404.5465689514164
 20
211.153504064509
 10
392.7218189514164
 20
211.1535040645089
 42
0.4142135623730951
 10
392.3839689514164
 20
210.815654064509
 10
392.3839689514164
 20
198.990904064509
 42
0.4142135623730956
  0
LWPOLYLINE
  5
2776A
102
{ACAD_REACTORS
330
2776B
102
}
330
18
100
AcDbEntity
  8
TASTEN
100
AcDbPolyline
 90
        8
 70
     1
 43
0.0
 10
393.3975189514164
 20
198.990904064509
 10
403.8708689514164
 20
198.990904064509
 42
0.4142135623730951
 10
404.5465689514164
 20
199.666604064509
 10
404.5465689514164
 20
210.139954064509
 42
0.4142135623730951
 10
403.8708689514164
 20
210.815654064509
 10
393.3975189514164
 20
210.815654064509
 42
0.4142135623730951
 10
392.7218189514164
 20
210.139954064509
 10
392.7218189514164
 20
199.666604064509
 42
0.4142135623730951
  0
LWPOLYLINE
  5
27778
102
{ACAD_REACTORS
330
27786
102
}
330
18
100
AcDbEntity
  8
BESCHRIFTUNG
100
AcDbPolyline
 90
       15
 70
     1
 43
0.108966
 10
105.8839820332376
 20
199.6100971453246
 10
106.4962983092375
 20
199.6100971453246
 10
106.8068514092373
 20
199.6219744393245
 10
107.0464313212373
 20
199.6693020053246
 10
107.2150380452375
 20
199.7698413013244
 10
107.3294160232375
 20
199.8832749073246
 10
107.4023505992375
 20
200.0558044073244
 10
107.4279576092373
 20
200.2756251513246
 10
107.4033312932373
 20
200.4639183993246
 10
107.3372978972375
 20
200.6108408893247
 10
107.2416257492373
 20
200.7282335933245
 10
107.1115566672373
 20
200.8357103913246
 10
106.9458920252375
 20
200.8958233013247
 10
106.7624296032374
 20
200.9145654533245
 10
105.8839820332376
 20
200.9145654533245
  0
LWPOLYLINE
  5
27779
102
{ACAD_REACTORS
330
27786
102
}
330
18
100
AcDbEntity
  8
BESCHRIFTUNG
100
AcDbPolyline
 90
       21
 70
     1
 43
0.108966
 10
105.4049311752375
 20
199.2108457213246
 10
105.4049311752375
 20
201.2606051473244
 10
106.7358418992376
 20
201.2606051473244
 10
107.0818815932374
 20
201.2389209133246
 10
107.3747095572374
 20
201.1580681413245
 10
107.6142894692374
 20
200.9943285653245
 10
107.7730166092375
 20
200.8070160113245
 10
107.8726478552375
 20
200.5605712413246
 10
107.9071537552376
 20
200.2490374473245
 10
107.8973104932374
 20
200.0705874613247
 10
107.8637489652374
 20
199.9039421253246
 10
107.8006213292374
 20
199.7432535973245
 10
107.7050218252372
 20
199.5933890253246
 10
107.5857040552376
 20
199.4672427193245
 10
107.4545453132374
 20
199.3705898773246
 10
107.3658469892374
 20
199.3183225193247
 10
107.2593872072373
 20
199.2719756473245
 10
107.1352386112376
 20
199.2374334253244
 10
106.9863547332373
 20
199.2305685673245
 10
106.8137889112373
 20
199.2177469013244
 10
106.6294547612376
 20
199.2108457213246
  0
LWPOLYLINE
  5
2777A
102
{ACAD_REACTORS
330
27786
102
}
330
18
100
AcDbEntity
  8
BESCHRIFTUNG
100
AcDbPolyline
 90
       12
 70
     1
 43
0.108966
 10
109.2647974712373
 20
199.2108457213246
 10
109.2647974712373
 20
201.2606051473244
 10
109.7438483292374
 20
201.2606051473244
 10
109.7438483292374
 20
200.4885447153244
 10
111.2346121752373
 20
200.4885447153244
 10
111.2346121752373
 20
201.2606051473244
 10
111.7403960252373
 20
201.2606051473244
 10
111.7403960252373
 20
199.2108457213246
 10
111.2346121752373
 20
199.2108457213246
 10
111.2346121752373
 20
200.0892932913244
 10
109.7438483292374
 20
200.0892932913244
 10
109.7438483292374
 20
199.2108457213246
  0
LWPOLYLINE
  5
2777B
102
{ACAD_REACTORS
330
27786
102
}
330
18
100
AcDbEntity
  8
BESCHRIFTUNG
100
AcDbPolyline
 90
       15
 70
     1
 43
0.108966
 10
113.7102470512376
 20
199.6100971453246
 10
114.3491510312375
 20
199.6100971453246
 10
114.6537836452375
 20
199.6219744393245
 10
114.8874430712372
 20
199.6693020053246
 10
115.0678907672373
 20
199.7698413013244
 10
115.1822324232373
 20
199.8832749073246
 10
115.2552033212375
 20
200.0558044073244
 10
115.2808103312374
 20
200.2756251513246
 10
115.2552033212375
 20
200.4639183993246
 10
115.1822324232373
 20
200.6108408893247
 10
115.0678907672373
 20
200.7282335933245
 10
114.9435968832373
 20
200.8357103913246
 10
114.7838890492373
 20
200.8958233013247
 10
114.5886946212373
 20
200.9145654533245
 10
113.7102470512376
 20
200.9145654533245
  0
LWPOLYLINE
  5
2777C
102
{ACAD_REACTORS
330
27786
102
}
330
18
100
AcDbEntity
  8
BESCHRIFTUNG
100
AcDbPolyline
 90
       21
 70
     1
 43
0.108966
 10
113.2576386092374
 20
199.2108457213246
 10
113.2576386092374
 20
201.2606051473244
 10
114.5620705952374
 20
201.2606051473244
 10
114.9150477912374
 20
201.2389209133246
 10
115.2206610992376
 20
201.1580681413245
 10
115.4671421912375
 20
200.9943285653245
 10
115.6258693312373
 20
200.8070160113245
 10
115.7254642552374
 20
200.5605712413246
 10
115.7600064772373
 20
200.2490374473245
 10
115.7501268932376
 20
200.0705874613247
 10
115.7166016872375
 20
199.9039421253246
 10
115.6534740512375
 20
199.7432535973245
 10
115.5460335752375
 20
199.5933890253246
 10
115.4326362912374
 20
199.4672427193245
 10
115.3073980352375
 20
199.3705898773246
 10
115.1999938812374
 20
199.3183225193247
 10
115.0865965972373
 20
199.2719756473245
 10
114.9613583412374
 20
199.2374334253244
 10
114.8183949492373
 20
199.2305685673245
 10
114.6517859352375
 20
199.2177469013244
 10
114.4555381692375
 20
199.2108457213246
  0
LWPOLYLINE
  5
2777D
102
{ACAD_REACTORS
330
27786
102
}
330
18
100
AcDbEntity
  8
BESCHRIFTUNG
100
AcDbPolyline
 90
        5
 70
     0
 43
0.5550001600000002
 10
108.8785493232375
 20
209.8075806227275
 10
106.5540866112375
 20
207.9661548553245
 10
106.5540866112375
 20
217.2176951533247
 10
112.3640447652374
 20
212.5687697293245
 10
110.6125243294088
 20
211.18122548264
  0
LWPOLYLINE
  5
2777E
102
{ACAD_REACTORS
330
27786
102
}
330
18
100
AcDbEntity
  8
BESCHRIFTUNG
100
AcDbPolyline
 90
        3
 70
     1
 43
0.5550001600000002
 10
108.8785493232375
 20
212.5687697293245
 10
114.6883621892375
 20
207.9196990173245
 10
108.8785493232375
 20
203.3172294313245
  0
CIRCLE
  5
27788
102
{ACAD_REACTORS
330
2778A
102
}
330
18
100
AcDbEntity
  8
BLECH
100
AcDbCircle
 10
413.0635425804403
 20
190.4777331582966
 30
0.0
 40
2.5
  0
LWPOLYLINE
  5
27789
102
{ACAD_REACTORS
330
2778A
102
}
330
18
100
AcDbEntity
  8
BLECH
100
AcDbPolyline
 90
        6
 70
     1
 43
0.0
 10
412.5966045971174
 20
191.2864934693956
 10
412.1296666137945
 20
190.4777331582966
 10
412.5966045971174
 20
189.6689728471977
 10
413.5304805637631
 20
189.6689728471977
 10
413.997418547086
 20
190.4777331582966
 10
413.5304805637631
 20
191.2864934693956
  0
CIRCLE
  5
2778B
102
{ACAD_REACTORS
330
2778D
102
}
330
18
100
AcDbEntity
  8
BLECH
100
AcDbCircle
 10
514.6096868993213
 20
219.4777331582967
 30
0.0
 40
2.5
  0
LWPOLYLINE
  5
2778C
102
{ACAD_REACTORS
330
2778D
102
}
330
18
100
AcDbEntity
  8
BLECH
100
AcDbPolyline
 90
        6
 70
     1
 43
0.0
 10
514.1427489159984
 20
220.2864934693956
 10
513.6758109326756
 20
219.4777331582967
 10
514.1427489159984
 20
218.6689728471977
 10
515.0766248826442
 20
218.6689728471977
 10
515.543562865967
 20
219.4777331582967
 10
515.0766248826442
 20
220.2864934693956
  0
CIRCLE
  5
2778E
102
{ACAD_REACTORS
330
27790
102
}
330
18
100
AcDbEntity
  8
BLECH
100
AcDbCircle
 10
514.6096868993213
 20
190.4777331582966
 30
0.0
 40
2.5
  0
LWPOLYLINE
  5
2778F
102
{ACAD_REACTORS
330
27790
102
}
330
18
100
AcDbEntity
  8
BLECH
100
AcDbPolyline
 90
        6
 70
     1
 43
0.0
 10
514.1427489159984
 20
191.2864934693956
 10
513.6758109326756
 20
190.4777331582966
 10
514.1427489159984
 20
189.6689728471977
 10
515.0766248826442
 20
189.6689728471977
 10
515.543562865967
 20
190.4777331582966
 10
515.0766248826442
 20
191.2864934693956
  0
CIRCLE
  5
27791
330
18
100
AcDbEntity
  8
BLECH
100
AcDbCircle
 10
478.6655807643764
 20
206.6337073570069
 30
0.0
 40
5.0
  0
CIRCLE
  5
27792
330
18
100
AcDbEntity
  8
BLECH
100
AcDbCircle
 10
478.6655807643764
 20
206.6337073570069
 30
0.0
 40
4.799999999999999
  0
CIRCLE
  5
27793
102
{ACAD_REACTORS
330
27797
102
}
330
18
100
AcDbEntity
  8
BLECH
100
AcDbCircle
 10
265.6765696653446
 20
219.4777331582967
 30
0.0
 40
2.5
  0
LWPOLYLINE
  5
27794
102
{ACAD_REACTORS
330
27797
102
}
330
18
100
AcDbEntity
  8
BLECH
100
AcDbPolyline
 90
        6
 70
     1
 43
0.0
 10
265.2096316820218
 20
220.2864934693956
 10
264.742693698699
 20
219.4777331582967
 10
265.2096316820218
 20
218.6689728471977
 10
266.1435076486675
 20
218.6689728471977
 10
266.6104456319903
 20
219.4777331582967
 10
266.1435076486675
 20
220.2864934693956
  0
CIRCLE
  5
27795
102
{ACAD_REACTORS
330
27798
102
}
330
18
100
AcDbEntity
  8
BLECH
100
AcDbCircle
 10
265.6765696653446
 20
190.4777331582966
 30
0.0
 40
2.5
  0
LWPOLYLINE
  5
27796
102
{ACAD_REACTORS
330
27798
102
}
330
18
100
AcDbEntity
  8
BLECH
100
AcDbPolyline
 90
        6
 70
     1
 43
0.0
 10
265.2096316820218
 20
191.2864934693956
 10
264.742693698699
 20
190.4777331582966
 10
265.2096316820218
 20
189.6689728471977
 10
266.1435076486675
 20
189.6689728471977
 10
266.6104456319903
 20
190.4777331582966
 10
266.1435076486675
 20
191.2864934693956
  0
CIRCLE
  5
2779A
102
{ACAD_REACTORS
330
2779E
102
}
330
18
100
AcDbEntity
  8
BLECH
100
AcDbCircle
 10
96.73694312819499
 20
219.4777331582967
 30
0.0
 40
2.5
  0
LWPOLYLINE
  5
2779B
102
{ACAD_REACTORS
330
2779E
102
}
330
18
100
AcDbEntity
  8
BLECH
100
AcDbPolyline
 90
        6
 70
     1
 43
0.0
 10
96.27000514487214
 20
220.2864934693956
 10
95.80306716154927
 20
219.4777331582967
 10
96.27000514487214
 20
218.6689728471977
 10
97.20388111151784
 20
218.6689728471977
 10
97.67081909484069
 20
219.4777331582967
 10
97.20388111151784
 20
220.2864934693956
  0
CIRCLE
  5
2779C
102
{ACAD_REACTORS
330
2779F
102
}
330
18
100
AcDbEntity
  8
BLECH
100
AcDbCircle
 10
96.73694312819499
 20
190.4777331582966
 30
0.0
 40
2.5
  0
LWPOLYLINE
  5
2779D
102
{ACAD_REACTORS
330
2779F
102
}
330
18
100
AcDbEntity
  8
BLECH
100
AcDbPolyline
 90
        6
 70
     1
 43
0.0
 10
96.27000514487214
 20
191.2864934693956
 10
95.80306716154927
 20
190.4777331582966
 10
96.27000514487214
 20
189.6689728471977
 10
97.20388111151784
 20
189.6689728471977
 10
97.67081909484069
 20
190.4777331582966
 10
97.20388111151784
 20
191.2864934693956
  0
CIRCLE
  5
277A0
330
18
100
AcDbEntity
  8
TASTEN
100
AcDbCircle
 10
448.6421759667289
 20
205.0903370183825
 30
0.0
 40
7.0
  0
ENDSEC
  0
SECTION
  2
OBJECTS
  0
DICTIONARY
  5
C
330
0
100
AcDbDictionary
  3
ACAD_GROUP
350
D
  3
ACAD_LAYOUT
350
1B1E4
  3
ACAD_MLINESTYLE
350
1B
  3
ACAD_PLOTSETTINGS
350
1B1E5
  3
ACAD_PLOTSTYLENAME
350
1B1E2
  3
ACDBHEADERROUNDTRIPXREC
350
27EB9
  3
ACDBVARIABLEDICTIONARY
350
9820
  0
DICTIONARY
  5
9822
330
18
100
AcDbDictionary
280
     1
  3
ACAD_LAYOUTSELFREF
360
27EDB
  3
ACAD_SORTENTS
360
9823
  0
DICTIONARY
  5
2663A
330
15
100
AcDbDictionary
280
     1
  3
ACAD_LAYOUTSELFREF
360
27EDA
  0
DICTIONARY
  5
D
102
{ACAD_REACTORS
330
C
102
}
330
C
100
AcDbDictionary
  3
*A1
350
981F
  3
*A10
350
1FC80
  3
*A11
350
1BD85
  3
*A12
350
9D2A
  3
*A13
350
2601A
  3
*A14
350
2601B
  3
*A15
350
1BD87
  3
*A16
350
1BD88
  3
*A17
350
265C2
  3
*A18
350
194F6
  3
*A19
350
1BD89
  3
*A2
350
1BD86
  3
*A20
350
1BD8A
  3
*A21
350
1BD8B
  3
*A22
350
1FC8F
  3
*A23
350
21E84
  3
*A24
350
1BD8C
  3
*A25
350
1BD83
  3
*A26
350
A22E
  3
*A27
350
A49A
  3
*A28
350
A49B
  3
*A29
350
194F7
  3
*A3
350
194F8
  3
*A30
350
194F5
  3
*A31
350
27758
  3
*A32
350
2775F
  3
*A33
350
27763
  3
*A34
350
27767
  3
*A35
350
2776B
  3
*A37
350
27786
  3
*A38
350
27787
  3
*A39
350
2778A
  3
*A4
350
A22D
  3
*A40
350
2778D
  3
*A41
350
27790
  3
*A42
350
27797
  3
*A43
350
27798
  3
*A44
350
2779E
  3
*A45
350
2779F
  3
*A5
350
9D4A
  3
*A6
350
9FC0
  3
*A7
350
9FC1
  3
*A8
350
1BD84
  3
*A9
350
1BD82
  0
DICTIONARY
  5
1B1E4
102
{ACAD_REACTORS
330
C
102
}
330
C
100
AcDbDictionary
  0
DICTIONARY
  5
1B
102
{ACAD_REACTORS
330
C
102
}
330
C
100
AcDbDictionary
  3
STANDARD
350
1C
  0
DICTIONARY
  5
1B1E5
102
{ACAD_REACTORS
330
C
102
}
330
C
100
AcDbDictionary
  0
ACDBDICTIONARYWDFLT
  5
1B1E2
102
{ACAD_REACTORS
330
C
102
}
330
C
100
AcDbDictionary
281
     1
  3
Normal
350
1B1E3
100
AcDbDictionaryWithDefault
340
1B1E3
  0
DICTIONARY
  5
27EB9
102
{ACAD_REACTORS
330
C
102
}
330
C
100
AcDbDictionary
  3
CEPSNTYPE
350
27EC3
  3
DIMSTYLEDATA
350
27EC7
  3
FINGERPRINTGUID
350
27EC4
  3
HYPERLINKBASE
350
27EBC
  3
INSUNITS
350
27EC2
  3
LAYOUTDICT
350
27EBE
  3
LWETCUNION
350
27EC1
  3
PLOTSETDICT
350
27EBF
  3
PLOTSTYLNAMDICT
350
27EC0
  3
PSVPSCALE
350
27EC6
  3
PUCSBASE
350
27ECA
  3
PUCSORGBACK
350
27ED0
  3
PUCSORGBOTTOM
350
27ECC
  3
PUCSORGFRONT
350
27ECF
  3
PUCSORGLEFT
350
27ECD
  3
PUCSORGRIGHT
350
27ECE
  3
PUCSORGTOP
350
27ECB
  3
PUCSORTHOREF
350
27EC8
  3
PUCSORTHOVIEW
350
27EC9
  3
STYLESHEET
350
27EBD
  3
TSTACKALIGN
350
27EBA
  3
TSTACKSIZE
350
27EBB
  3
UCSBASE
350
27ED3
  3
UCSORGBACK
350
27ED9
  3
UCSORGBOTTOM
350
27ED5
  3
UCSORGFRONT
350
27ED8
  3
UCSORGLEFT
350
27ED6
  3
UCSORGRIGHT
350
27ED7
  3
UCSORGTOP
350
27ED4
  3
UCSORTHOREF
350
27ED1
  3
UCSORTHOVIEW
350
27ED2
  3
VERSIONGUID
350
27EC5
  0
DICTIONARY
  5
9820
102
{ACAD_REACTORS
330
C
102
}
330
C
100
AcDbDictionary
  3
DIMASSOC
350
1FD3B
  3
SORTENTS
350
9821
  0
XRECORD
  5
27EDB
102
{ACAD_REACTORS
330
9822
102
}
330
9822
100
AcDbXrecord
340
18
  0
SORTENTSTABLE
  5
9823
102
{ACAD_REACTORS
330
9822
102
}
330
9822
100
AcDbSortentsTable
330
18
  0
XRECORD
  5
27EDA
102
{ACAD_REACTORS
330
2663A
102
}
330
2663A
100
AcDbXrecord
340
15
  0
GROUP
  5
981F
102
{ACAD_REACTORS
330
D
102
}
330
D
100
AcDbGroup
300

 70
     1
 71
     1
  0
GROUP
  5
1FC80
102
{ACAD_REACTORS
330
D
102
}
330
D
100
AcDbGroup
300

 70
     1
 71
     1
  0
GROUP
  5
1BD85
102
{ACAD_REACTORS
330
D
102
}
330
D
100
AcDbGroup
300

 70
     1
 71
     1
  0
GROUP
  5
9D2A
102
{ACAD_REACTORS
330
D
102
}
330
D
100
AcDbGroup
300

 70
     1
 71
     1
  0
GROUP
  5
2601A
102
{ACAD_REACTORS
330
D
102
}
330
D
100
AcDbGroup
300

 70
     1
 71
     1
  0
GROUP
  5
2601B
102
{ACAD_REACTORS
330
D
102
}
330
D
100
AcDbGroup
300

 70
     1
 71
     1
  0
GROUP
  5
1BD87
102
{ACAD_REACTORS
330
D
102
}
330
D
100
AcDbGroup
300

 70
     1
 71
     1
  0
GROUP
  5
1BD88
102
{ACAD_REACTORS
330
D
102
}
330
D
100
AcDbGroup
300

 70
     1
 71
     1
  0
GROUP
  5
265C2
102
{ACAD_REACTORS
330
D
102
}
330
D
100
AcDbGroup
300

 70
     1
 71
     1
  0
GROUP
  5
194F6
102
{ACAD_REACTORS
330
D
102
}
330
D
100
AcDbGroup
300

 70
     1
 71
     1
  0
GROUP
  5
1BD89
102
{ACAD_REACTORS
330
D
102
}
330
D
100
AcDbGroup
300

 70
     1
 71
     1
  0
GROUP
  5
1BD86
102
{ACAD_REACTORS
330
D
102
}
330
D
100
AcDbGroup
300

 70
     1
 71
     1
  0
GROUP
  5
1BD8A
102
{ACAD_REACTORS
330
D
102
}
330
D
100
AcDbGroup
300

 70
     1
 71
     1
  0
GROUP
  5
1BD8B
102
{ACAD_REACTORS
330
D
102
}
330
D
100
AcDbGroup
300

 70
     1
 71
     1
  0
GROUP
  5
1FC8F
102
{ACAD_REACTORS
330
D
102
}
330
D
100
AcDbGroup
300

 70
     1
 71
     1
  0
GROUP
  5
21E84
102
{ACAD_REACTORS
330
D
102
}
330
D
100
AcDbGroup
300

 70
     1
 71
     1
  0
GROUP
  5
1BD8C
102
{ACAD_REACTORS
330
D
102
}
330
D
100
AcDbGroup
300

 70
     1
 71
     1
  0
GROUP
  5
1BD83
102
{ACAD_REACTORS
330
D
102
}
330
D
100
AcDbGroup
300

 70
     1
 71
     1
  0
GROUP
  5
A22E
102
{ACAD_REACTORS
330
D
102
}
330
D
100
AcDbGroup
300

 70
     1
 71
     1
  0
GROUP
  5
A49A
102
{ACAD_REACTORS
330
D
102
}
330
D
100
AcDbGroup
300

 70
     1
 71
     1
  0
GROUP
  5
A49B
102
{ACAD_REACTORS
330
D
102
}
330
D
100
AcDbGroup
300

 70
     1
 71
     1
  0
GROUP
  5
194F7
102
{ACAD_REACTORS
330
D
102
}
330
D
100
AcDbGroup
300

 70
     1
 71
     1
  0
GROUP
  5
194F8
102
{ACAD_REACTORS
330
D
102
}
330
D
100
AcDbGroup
300

 70
     1
 71
     1
  0
GROUP
  5
194F5
102
{ACAD_REACTORS
330
D
102
}
330
D
100
AcDbGroup
300

 70
     1
 71
     1
  0
GROUP
  5
27758
102
{ACAD_REACTORS
330
D
102
}
330
D
100
AcDbGroup
300

 70
     1
 71
     1
340
27755
340
27754
340
27753
  0
GROUP
  5
2775F
102
{ACAD_REACTORS
330
D
102
}
330
D
100
AcDbGroup
300

 70
     1
 71
     1
340
2775E
340
2775D
340
2775C
  0
GROUP
  5
27763
102
{ACAD_REACTORS
330
D
102
}
330
D
100
AcDbGroup
300

 70
     1
 71
     1
340
27762
340
27761
340
27760
  0
GROUP
  5
27767
102
{ACAD_REACTORS
330
D
102
}
330
D
100
AcDbGroup
300

 70
     1
 71
     1
340
27766
340
27765
340
27764
  0
GROUP
  5
2776B
102
{ACAD_REACTORS
330
D
102
}
330
D
100
AcDbGroup
300

 70
     1
 71
     1
340
2776A
340
27769
340
27768
  0
GROUP
  5
27786
102
{ACAD_REACTORS
330
D
102
}
330
D
100
AcDbGroup
300

 70
     1
 71
     1
340
2777E
340
2777D
340
2777C
340
2777B
340
2777A
340
27779
340
27778
  0
GROUP
  5
27787
102
{ACAD_REACTORS
330
D
102
}
330
D
100
AcDbGroup
300

 70
     1
 71
     1
340
27752
340
27751
  0
GROUP
  5
2778A
102
{ACAD_REACTORS
330
D
102
}
330
D
100
AcDbGroup
300

 70
     1
 71
     1
340
27789
340
27788
  0
GROUP
  5
A22D
102
{ACAD_REACTORS
330
D
102
}
330
D
100
AcDbGroup
300

 70
     1
 71
     1
  0
GROUP
  5
2778D
102
{ACAD_REACTORS
330
D
102
}
330
D
100
AcDbGroup
300

 70
     1
 71
     1
340
2778C
340
2778B
  0
GROUP
  5
27790
102
{ACAD_REACTORS
330
D
102
}
330
D
100
AcDbGroup
300

 70
     1
 71
     1
340
2778F
340
2778E
  0
GROUP
  5
27797
102
{ACAD_REACTORS
330
D
102
}
330
D
100
AcDbGroup
300

 70
     1
 71
     1
340
27794
340
27793
  0
GROUP
  5
27798
102
{ACAD_REACTORS
330
D
102
}
330
D
100
AcDbGroup
300

 70
     1
 71
     1
340
27796
340
27795
  0
GROUP
  5
2779E
102
{ACAD_REACTORS
330
D
102
}
330
D
100
AcDbGroup
300

 70
     1
 71
     1
340
2779B
340
2779A
  0
GROUP
  5
2779F
102
{ACAD_REACTORS
330
D
102
}
330
D
100
AcDbGroup
300

 70
     1
 71
     1
340
2779D
340
2779C
  0
GROUP
  5
9D4A
102
{ACAD_REACTORS
330
D
102
}
330
D
100
AcDbGroup
300

 70
     1
 71
     1
  0
GROUP
  5
9FC0
102
{ACAD_REACTORS
330
D
102
}
330
D
100
AcDbGroup
300

 70
     1
 71
     1
  0
GROUP
  5
9FC1
102
{ACAD_REACTORS
330
D
102
}
330
D
100
AcDbGroup
300

 70
     1
 71
     1
  0
GROUP
  5
1BD84
102
{ACAD_REACTORS
330
D
102
}
330
D
100
AcDbGroup
300

 70
     1
 71
     1
  0
GROUP
  5
1BD82
102
{ACAD_REACTORS
330
D
102
}
330
D
100
AcDbGroup
300

 70
     1
 71
     1
  0
MLINESTYLE
  5
1C
102
{ACAD_REACTORS
330
1B
102
}
330
1B
100
AcDbMlineStyle
  2
STANDARD
 70
     0
  3

 62
   256
 51
90.0
 52
90.0
 71
     2
 49
0.5
 62
   256
  6
BYLAYER
 49
-0.5
 62
   256
  6
BYLAYER
  0
ACDBPLACEHOLDER
  5
1B1E3
102
{ACAD_REACTORS
330
1B1E2
102
}
330
1B1E2
100
AcDbPlaceHolder
280
     0
  0
XRECORD
  5
27EC3
102
{ACAD_REACTORS
330
27EB9
102
}
330
27EB9
100
AcDbXrecord
 90
        0
  0
XRECORD
  5
27EC7
102
{ACAD_REACTORS
330
27EB9
102
}
330
27EB9
100
AcDbXrecord
1000
DSTYLE
1002
{
1070
   277
 70
     6
1002
}
  0
XRECORD
  5
27EC4
102
{ACAD_REACTORS
330
27EB9
102
}
330
27EB9
100
AcDbXrecord
  1
{E7552BDC-5169-4F54-A499-2C82C71F1FBB}
  0
XRECORD
  5
27EBC
102
{ACAD_REACTORS
330
27EB9
102
}
330
27EB9
100
AcDbXrecord
  1

  0
XRECORD
  5
27EC2
102
{ACAD_REACTORS
330
27EB9
102
}
330
27EB9
100
AcDbXrecord
 90
        0
  0
XRECORD
  5
27EBE
102
{ACAD_REACTORS
330
27EB9
102
}
330
27EB9
100
AcDbXrecord
340
1B1E4
  0
XRECORD
  5
27EC1
102
{ACAD_REACTORS
330
27EB9
102
}
330
27EB9
100
AcDbXrecord
 90
    14877
  0
XRECORD
  5
27EBF
102
{ACAD_REACTORS
330
27EB9
102
}
330
27EB9
100
AcDbXrecord
340
1B1E5
  0
XRECORD
  5
27EC0
102
{ACAD_REACTORS
330
27EB9
102
}
330
27EB9
100
AcDbXrecord
340
1B1E2
  0
XRECORD
  5
27EC6
102
{ACAD_REACTORS
330
27EB9
102
}
330
27EB9
100
AcDbXrecord
 40
0.0
  0
XRECORD
  5
27ECA
102
{ACAD_REACTORS
330
27EB9
102
}
330
27EB9
100
AcDbXrecord
340
0
  0
XRECORD
  5
27ED0
102
{ACAD_REACTORS
330
27EB9
102
}
330
27EB9
100
AcDbXrecord
 10
0.0
 20
0.0
 30
0.0
  0
XRECORD
  5
27ECC
102
{ACAD_REACTORS
330
27EB9
102
}
330
27EB9
100
AcDbXrecord
 10
0.0
 20
0.0
 30
0.0
  0
XRECORD
  5
27ECF
102
{ACAD_REACTORS
330
27EB9
102
}
330
27EB9
100
AcDbXrecord
 10
0.0
 20
0.0
 30
0.0
  0
XRECORD
  5
27ECD
102
{ACAD_REACTORS
330
27EB9
102
}
330
27EB9
100
AcDbXrecord
 10
0.0
 20
0.0
 30
0.0
  0
XRECORD
  5
27ECE
102
{ACAD_REACTORS
330
27EB9
102
}
330
27EB9
100
AcDbXrecord
 10
0.0
 20
0.0
 30
0.0
  0
XRECORD
  5
27ECB
102
{ACAD_REACTORS
330
27EB9
102
}
330
27EB9
100
AcDbXrecord
 10
0.0
 20
0.0
 30
0.0
  0
XRECORD
  5
27EC8
102
{ACAD_REACTORS
330
27EB9
102
}
330
27EB9
100
AcDbXrecord
340
0
  0
XRECORD
  5
27EC9
102
{ACAD_REACTORS
330
27EB9
102
}
330
27EB9
100
AcDbXrecord
 70
     0
  0
XRECORD
  5
27EBD
102
{ACAD_REACTORS
330
27EB9
102
}
330
27EB9
100
AcDbXrecord
  1

  0
XRECORD
  5
27EBA
102
{ACAD_REACTORS
330
27EB9
102
}
330
27EB9
100
AcDbXrecord
 90
        1
  0
XRECORD
  5
27EBB
102
{ACAD_REACTORS
330
27EB9
102
}
330
27EB9
100
AcDbXrecord
 90
       70
  0
XRECORD
  5
27ED3
102
{ACAD_REACTORS
330
27EB9
102
}
330
27EB9
100
AcDbXrecord
340
0
  0
XRECORD
  5
27ED9
102
{ACAD_REACTORS
330
27EB9
102
}
330
27EB9
100
AcDbXrecord
 10
0.0
 20
0.0
 30
0.0
  0
XRECORD
  5
27ED5
102
{ACAD_REACTORS
330
27EB9
102
}
330
27EB9
100
AcDbXrecord
 10
0.0
 20
0.0
 30
0.0
  0
XRECORD
  5
27ED8
102
{ACAD_REACTORS
330
27EB9
102
}
330
27EB9
100
AcDbXrecord
 10
0.0
 20
0.0
 30
0.0
  0
XRECORD
  5
27ED6
102
{ACAD_REACTORS
330
27EB9
102
}
330
27EB9
100
AcDbXrecord
 10
0.0
 20
0.0
 30
0.0
  0
XRECORD
  5
27ED7
102
{ACAD_REACTORS
330
27EB9
102
}
330
27EB9
100
AcDbXrecord
 10
0.0
 20
0.0
 30
0.0
  0
XRECORD
  5
27ED4
102
{ACAD_REACTORS
330
27EB9
102
}
330
27EB9
100
AcDbXrecord
 10
0.0
 20
0.0
 30
0.0
  0
XRECORD
  5
27ED1
102
{ACAD_REACTORS
330
27EB9
102
}
330
27EB9
100
AcDbXrecord
340
0
  0
XRECORD
  5
27ED2
102
{ACAD_REACTORS
330
27EB9
102
}
330
27EB9
100
AcDbXrecord
 70
     0
  0
XRECORD
  5
27EC5
102
{ACAD_REACTORS
330
27EB9
102
}
330
27EB9
100
AcDbXrecord
  1
{D3E8CFF5-CA18-460D-A4B7-D83B957990E5}
  0
DICTIONARYVAR
  5
1FD3B
102
{ACAD_REACTORS
330
9820
102
}
330
9820
100
DictionaryVariables
280
     0
  1
1
  0
DICTIONARYVAR
  5
9821
102
{ACAD_REACTORS
330
9820
102
}
330
9820
100
DictionaryVariables
280
     0
  1
127
  0
ENDSEC
  0
EOF
