  0
SECTION
  2
HEADER
  9
$ACADVER
  1
AC1014
  9
$ACADMAINTVER
 70
     9
  9
$DWGCODEPAGE
  3
ANSI_1252
  9
$INSBASE
 10
0.0
 20
0.0
 30
0.0
  9
$EXTMIN
 10
-0.0128164049386896
 20
-0.0090630292066862
 30
-0.0015258207003583
  9
$EXTMAX
 10
420.0128183607161
 20
297.0090644122207
 30
0.0000000349246037
  9
$LIMMIN
 10
0.0
 20
0.0
  9
$LIMMAX
 10
420.0
 20
297.0
  9
$ORTHOMODE
 70
     1
  9
$REGENMODE
 70
     1
  9
$FILLMODE
 70
     1
  9
$QTEXTMODE
 70
     0
  9
$MIRRTEXT
 70
     1
  9
$DRAGMODE
 70
     2
  9
$LTSCALE
 40
1.0
  9
$OSMODE
 70
    37
  9
$ATTMODE
 70
     1
  9
$TEXTSIZE
 40
2.0
  9
$TRACEWID
 40
1.0
  9
$TEXTSTYLE
  7
TASTENTEXT
  9
$CLAYER
  8
BLECH
  9
$CELTYPE
  6
BYLAYER
  9
$CECOLOR
 62
   256
  9
$CELTSCALE
 40
1.0
  9
$DELOBJ
 70
     1
  9
$DISPSILH
 70
     0
  9
$DIMSCALE
 40
1.0
  9
$DIMASZ
 40
2.5
  9
$DIMEXO
 40
0.625
  9
$DIMDLI
 40
3.75
  9
$DIMRND
 40
0.0
  9
$DIMDLE
 40
0.0
  9
$DIMEXE
 40
1.25
  9
$DIMTP
 40
0.0
  9
$DIMTM
 40
0.0
  9
$DIMTXT
 40
2.5
  9
$DIMCEN
 40
2.5
  9
$DIMTSZ
 40
0.0
  9
$DIMTOL
 70
     0
  9
$DIMLIM
 70
     0
  9
$DIMTIH
 70
     0
  9
$DIMTOH
 70
     0
  9
$DIMSE1
 70
     0
  9
$DIMSE2
 70
     0
  9
$DIMTAD
 70
     1
  9
$DIMZIN
 70
     8
  9
$DIMBLK
  1

  9
$DIMASO
 70
     1
  9
$DIMSHO
 70
     1
  9
$DIMPOST
  1

  9
$DIMAPOST
  1

  9
$DIMALT
 70
     0
  9
$DIMALTD
 70
     4
  9
$DIMALTF
 40
0.0394
  9
$DIMLFAC
 40
1.0
  9
$DIMTOFL
 70
     1
  9
$DIMTVP
 40
0.0
  9
$DIMTIX
 70
     0
  9
$DIMSOXD
 70
     0
  9
$DIMSAH
 70
     0
  9
$DIMBLK1
  1

  9
$DIMBLK2
  1

  9
$DIMSTYLE
  2
STANDARD
  9
$DIMCLRD
 70
     0
  9
$DIMCLRE
 70
     0
  9
$DIMCLRT
 70
     0
  9
$DIMTFAC
 40
1.0
  9
$DIMGAP
 40
0.625
  9
$DIMJUST
 70
     0
  9
$DIMSD1
 70
     0
  9
$DIMSD2
 70
     0
  9
$DIMTOLJ
 70
     1
  9
$DIMTZIN
 70
     0
  9
$DIMALTZ
 70
     0
  9
$DIMALTTZ
 70
     0
  9
$DIMFIT
 70
     3
  9
$DIMUPT
 70
     0
  9
$DIMUNIT
 70
     8
  9
$DIMDEC
 70
     4
  9
$DIMTDEC
 70
     4
  9
$DIMALTU
 70
     8
  9
$DIMALTTD
 70
     4
  9
$DIMTXSTY
  7
STANDARD
  9
$DIMAUNIT
 70
     0
  9
$LUNITS
 70
     2
  9
$LUPREC
 70
     4
  9
$SKETCHINC
 40
1.0
  9
$FILLETRAD
 40
1.0
  9
$AUNITS
 70
     0
  9
$AUPREC
 70
     0
  9
$MENU
  1
acad
  9
$ELEVATION
 40
0.0
  9
$PELEVATION
 40
0.0
  9
$THICKNESS
 40
0.0
  9
$LIMCHECK
 70
     0
  9
$BLIPMODE
 70
     0
  9
$CHAMFERA
 40
0.0
  9
$CHAMFERB
 40
0.0
  9
$CHAMFERC
 40
20.0
  9
$CHAMFERD
 40
0.0
  9
$SKPOLY
 70
     0
  9
$TDCREATE
 40
2451774.355798842
  9
$TDUPDATE
 40
2452695.390128218
  9
$TDINDWG
 40
0.2820992824
  9
$TDUSRTIMER
 40
0.2820992824
  9
$USRTIMER
 70
     1
  9
$ANGBASE
 50
0.0
  9
$ANGDIR
 70
     0
  9
$PDMODE
 70
     0
  9
$PDSIZE
 40
0.0
  9
$PLINEWID
 40
0.0
  9
$COORDS
 70
     1
  9
$SPLFRAME
 70
     0
  9
$SPLINETYPE
 70
     6
  9
$SPLINESEGS
 70
     8
  9
$ATTDIA
 70
     0
  9
$ATTREQ
 70
     1
  9
$HANDLING
 70
 22529
  9
$HANDSEED
  5
27933
  9
$SURFTAB1
 70
     6
  9
$SURFTAB2
 70
     6
  9
$SURFTYPE
 70
     6
  9
$SURFU
 70
     6
  9
$SURFV
 70
     6
  9
$UCSNAME
  2

  9
$UCSORG
 10
0.0
 20
0.0
 30
0.0
  9
$UCSXDIR
 10
1.0
 20
0.0
 30
0.0
  9
$UCSYDIR
 10
0.0
 20
1.0
 30
0.0
  9
$PUCSNAME
  2

  9
$PUCSORG
 10
0.0
 20
0.0
 30
0.0
  9
$PUCSXDIR
 10
1.0
 20
0.0
 30
0.0
  9
$PUCSYDIR
 10
0.0
 20
1.0
 30
0.0
  9
$USERI1
 70
     0
  9
$USERI2
 70
     0
  9
$USERI3
 70
     0
  9
$USERI4
 70
     0
  9
$USERI5
 70
     0
  9
$USERR1
 40
0.0
  9
$USERR2
 40
0.0
  9
$USERR3
 40
0.0
  9
$USERR4
 40
0.0
  9
$USERR5
 40
0.0
  9
$WORLDVIEW
 70
     1
  9
$SHADEDGE
 70
     3
  9
$SHADEDIF
 70
    70
  9
$TILEMODE
 70
     1
  9
$MAXACTVP
 70
    48
  9
$PINSBASE
 10
0.0
 20
0.0
 30
0.0
  9
$PLIMCHECK
 70
     0
  9
$PEXTMIN
 10
1.000000000000000E+20
 20
1.000000000000000E+20
 30
1.000000000000000E+20
  9
$PEXTMAX
 10
-1.000000000000000E+20
 20
-1.000000000000000E+20
 30
-1.000000000000000E+20
  9
$PLIMMIN
 10
0.0
 20
0.0
  9
$PLIMMAX
 10
420.0
 20
297.0
  9
$UNITMODE
 70
     0
  9
$VISRETAIN
 70
     1
  9
$PLINEGEN
 70
     0
  9
$PSLTSCALE
 70
     1
  9
$TREEDEPTH
 70
  3020
  9
$PICKSTYLE
 70
     1
  9
$CMLSTYLE
  2
STANDARD
  9
$CMLJUST
 70
     0
  9
$CMLSCALE
 40
20.0
  9
$PROXYGRAPHICS
 70
     1
  9
$MEASUREMENT
 70
     1
  0
ENDSEC
  0
SECTION
  2
CLASSES
  0
CLASS
  1
LWPOLYLINE
  2
AcDbPolyline
  3
AutoCAD 2000
 90
        0
280
     0
281
     1
  0
CLASS
  1
DICTIONARYVAR
  2
AcDbDictionaryVar
  3
AutoCAD 2000
 90
        0
280
     0
281
     0
  0
CLASS
  1
SORTENTSTABLE
  2
AcDbSortentsTable
  3
AutoCAD 2000
 90
        0
280
     0
281
     0
  0
CLASS
  1
HATCH
  2
AcDbHatch
  3
AutoCAD 2000
 90
        0
280
     0
281
     1
  0
CLASS
  1
ACDBDICTIONARYWDFLT
  2
AcDbDictionaryWithDefault
  3
AutoCAD 2000
 90
        0
280
     0
281
     0
  0
CLASS
  1
ACDBPLACEHOLDER
  2
AcDbPlaceHolder
  3
AutoCAD 2000
 90
        0
280
     0
281
     0
  0
CLASS
  1
LAYOUT
  2
AcDbLayout
  3
AutoCAD 2000
 90
        0
280
     0
281
     0
  0
CLASS
  1
LONG_TRANSACTION
  2
AcDbLongTransaction
  3
AutoCAD 2000
 90
        0
280
     0
281
     0
  0
CLASS
  1
LWPOLYLINE
  2
AcDbPolyline
  3
AutoCAD 2000
 90
        0
280
     0
281
     1
  0
CLASS
  1
HATCH
  2
AcDbHatch
  3
AutoCAD 2000
 90
        0
280
     0
281
     1
  0
CLASS
  1
XRECORD
  2
AcDbXrecord
  3
AutoCAD 2000
 90
        0
280
     0
281
     0
  0
CLASS
  1
LONG_TRANSACTION
  2
AcDbLongTransaction
  3
AutoCAD 2000
 90
        0
280
     0
281
     0
  0
CLASS
  1
LWPOLYLINE
  2
AcDbPolyline
  3
AutoCAD 2000
 90
        0
280
     0
281
     1
  0
CLASS
  1
HATCH
  2
AcDbHatch
  3
AutoCAD 2000
 90
        0
280
     0
281
     1
  0
CLASS
  1
XRECORD
  2
AcDbXrecord
  3
AutoCAD 2000
 90
        0
280
     0
281
     0
  0
CLASS
  1
LONG_TRANSACTION
  2
AcDbLongTransaction
  3
AutoCAD 2000
 90
        0
280
     0
281
     0
  0
CLASS
  1
LWPOLYLINE
  2
AcDbPolyline
  3
AutoCAD 2000
 90
        0
280
     0
281
     1
  0
CLASS
  1
HATCH
  2
AcDbHatch
  3
AutoCAD 2000
 90
        0
280
     0
281
     1
  0
CLASS
  1
XRECORD
  2
AcDbXrecord
  3
AutoCAD 2000
 90
        0
280
     0
281
     0
  0
CLASS
  1
LONG_TRANSACTION
  2
AcDbLongTransaction
  3
AutoCAD 2000
 90
        0
280
     0
281
     0
  0
CLASS
  1
LWPOLYLINE
  2
AcDbPolyline
  3
AutoCAD 2000
 90
        0
280
     0
281
     1
  0
CLASS
  1
HATCH
  2
AcDbHatch
  3
AutoCAD 2000
 90
        0
280
     0
281
     1
  0
CLASS
  1
XRECORD
  2
AcDbXrecord
  3
AutoCAD 2000
 90
        0
280
     0
281
     0
  0
CLASS
  1
LONG_TRANSACTION
  2
AcDbLongTransaction
  3
AutoCAD 2000
 90
        0
280
     0
281
     0
  0
CLASS
  1
LWPOLYLINE
  2
AcDbPolyline
  3
AutoCAD 2000
 90
        0
280
     0
281
     1
  0
CLASS
  1
HATCH
  2
AcDbHatch
  3
AutoCAD 2000
 90
        0
280
     0
281
     1
  0
CLASS
  1
XRECORD
  2
AcDbXrecord
  3
AutoCAD 2000
 90
        0
280
     0
281
     0
  0
ENDSEC
  0
SECTION
  2
TABLES
  0
TABLE
  2
VPORT
  5
8
330
0
100
AcDbSymbolTable
 70
     4
  0
VPORT
  5
278FD
330
8
100
AcDbSymbolTableRecord
100
AcDbViewportTableRecord
  2
*ACTIVE
 70
     0
 10
0.0
 20
0.0
 11
1.0
 21
1.0
 12
210.0000009778887
 22
148.5000006915069
 13
0.0
 23
0.0
 14
10.0
 24
10.0
 15
10.0
 25
10.0
 16
0.0
 26
0.0
 36
1.0
 17
0.0
 27
0.0
 37
0.0
 40
299.3146593546342
 41
1.554838709677419
 42
50.0
 43
0.0
 44
0.0
 50
0.0
 51
0.0
 71
     0
 72
   100
 73
     1
 74
     1
 75
     0
 76
     0
 77
     0
 78
     0
  0
ENDTAB
  0
TABLE
  2
LTYPE
  5
5
330
0
100
AcDbSymbolTable
 70
     1
  0
LTYPE
  5
12
330
5
100
AcDbSymbolTableRecord
100
AcDbLinetypeTableRecord
  2
BYBLOCK
 70
     0
  3

 72
    65
 73
     0
 40
0.0
  0
LTYPE
  5
13
330
5
100
AcDbSymbolTableRecord
100
AcDbLinetypeTableRecord
  2
BYLAYER
 70
     0
  3

 72
    65
 73
     0
 40
0.0
  0
LTYPE
  5
14
330
5
100
AcDbSymbolTableRecord
100
AcDbLinetypeTableRecord
  2
CONTINUOUS
 70
     0
  3
Solid line
 72
    65
 73
     0
 40
0.0
  0
ENDTAB
  0
TABLE
  2
LAYER
  5
2
330
0
100
AcDbSymbolTable
 70
    10
  0
LAYER
  5
E
330
2
100
AcDbSymbolTableRecord
100
AcDbLayerTableRecord
  2
0
 70
     0
 62
     7
  6
CONTINUOUS
  0
LAYER
  5
137
330
2
100
AcDbSymbolTableRecord
100
AcDbLayerTableRecord
  2
TASTEN
 70
     0
 62
     5
  6
CONTINUOUS
  0
LAYER
  5
143
330
2
100
AcDbSymbolTableRecord
100
AcDbLayerTableRecord
  2
DEFPOINTS
 70
     0
 62
     7
  6
CONTINUOUS
  0
LAYER
  5
1848A
330
2
100
AcDbSymbolTableRecord
100
AcDbLayerTableRecord
  2
RAHMEN025
 70
     0
 62
     7
  6
CONTINUOUS
  0
LAYER
  5
1848B
330
2
100
AcDbSymbolTableRecord
100
AcDbLayerTableRecord
  2
RAHMEN07
 70
     0
 62
     5
  6
CONTINUOUS
  0
LAYER
  5
1848C
330
2
100
AcDbSymbolTableRecord
100
AcDbLayerTableRecord
  2
RAHMEN05
 70
     0
 62
     6
  6
CONTINUOUS
  0
LAYER
  5
1954F
330
2
100
AcDbSymbolTableRecord
100
AcDbLayerTableRecord
  2
EBENE_1
 70
     0
 62
     7
  6
CONTINUOUS
  0
LAYER
  5
26712
330
2
100
AcDbSymbolTableRecord
100
AcDbLayerTableRecord
  2
BEMASSUNG
 70
     0
 62
     3
  6
CONTINUOUS
  0
LAYER
  5
27275
330
2
100
AcDbSymbolTableRecord
100
AcDbLayerTableRecord
  2
BLECH
 70
     0
 62
     7
  6
CONTINUOUS
  0
LAYER
  5
27276
330
2
100
AcDbSymbolTableRecord
100
AcDbLayerTableRecord
  2
BESCHRIFTUNG
 70
     0
 62
     7
  6
CONTINUOUS
  0
ENDTAB
  0
TABLE
  2
STYLE
  5
3
330
0
100
AcDbSymbolTable
 70
     4
  0
STYLE
  5
F
330
3
100
AcDbSymbolTableRecord
100
AcDbTextStyleTableRecord
  2
STANDARD
 70
     0
 40
0.0
 41
1.0
 50
0.0
 71
     0
 42
2.5
  3
txt
  4

  0
STYLE
  5
220D
330
3
100
AcDbSymbolTableRecord
100
AcDbTextStyleTableRecord
  2
TASTENTEXT
 70
     0
 40
2.0
 41
1.0
 50
0.0
 71
     0
 42
2.0
  3
ARIAL.TTF
  4

1001
ACAD
1000
Arial
1071
       34
  0
STYLE
  5
18491
330
3
100
AcDbSymbolTableRecord
100
AcDbTextStyleTableRecord
  2
ISOCP
 70
     0
 40
0.0
 41
1.0
 50
0.0
 71
     0
 42
2.5
  3
isocp.shx
  4

  0
STYLE
  5
185F2
330
3
100
AcDbSymbolTableRecord
100
AcDbTextStyleTableRecord
  2
WMF-BANKGOTHIC-MD-BT0
 70
     0
 40
0.0
 41
1.0
 50
0.0
 71
     0
 42
2.5
  3
bgothm.ttf
  4

1001
ACAD
1000
BankGothic Md BT
1071
       34
  0
ENDTAB
  0
TABLE
  2
VIEW
  5
6
330
0
100
AcDbSymbolTable
 70
     0
  0
ENDTAB
  0
TABLE
  2
UCS
  5
7
330
0
100
AcDbSymbolTable
 70
     0
  0
ENDTAB
  0
TABLE
  2
APPID
  5
9
330
0
100
AcDbSymbolTable
 70
     2
  0
APPID
  5
10
330
9
100
AcDbSymbolTableRecord
100
AcDbRegAppTableRecord
  2
ACAD
 70
     0
  0
APPID
  5
26F8A
330
9
100
AcDbSymbolTableRecord
100
AcDbRegAppTableRecord
  2
PHOENIX7010
 70
     0
  0
ENDTAB
  0
TABLE
  2
DIMSTYLE
  5
A
330
0
100
AcDbSymbolTable
 70
     1
  0
DIMSTYLE
105
1D
102
{ACAD_REACTORS
330
274C3
330
274D0
102
}
330
A
100
AcDbSymbolTableRecord
100
AcDbDimStyleTableRecord
  2
STANDARD
 70
     0
  3

  4

  5

  6

  7

 40
1.0
 41
0.18
 42
0.0625
 43
0.38
 44
0.18
 45
0.0
 46
0.0
 47
0.0
 48
0.0
140
0.18
141
0.09
142
0.0
143
25.4
144
1.0
145
0.0
146
1.0
147
0.09
 71
     0
 72
     0
 73
     1
 74
     1
 75
     0
 76
     0
 77
     0
 78
     0
170
     0
171
     2
172
     0
173
     0
174
     0
175
     0
176
     0
177
     0
178
     0
270
     2
271
     4
272
     4
273
     2
274
     2
340
F
275
     0
280
     0
281
     0
282
     0
283
     1
284
     0
285
     0
286
     0
287
     3
288
     0
  0
ENDTAB
  0
TABLE
  2
BLOCK_RECORD
  5
1
330
0
100
AcDbSymbolTable
 70
     6
  0
BLOCK_RECORD
  5
18
102
{ACAD_XDICTIONARY
360
9822
102
}
330
1
100
AcDbSymbolTableRecord
100
AcDbBlockTableRecord
  2
*MODEL_SPACE
  0
BLOCK_RECORD
  5
15
102
{ACAD_XDICTIONARY
360
2663A
102
}
330
1
100
AcDbSymbolTableRecord
100
AcDbBlockTableRecord
  2
*PAPER_SPACE
  0
BLOCK_RECORD
  5
1856E
330
1
100
AcDbSymbolTableRecord
100
AcDbBlockTableRecord
  2
A$C4EFE16F9
  0
BLOCK_RECORD
  5
274C4
330
1
100
AcDbSymbolTableRecord
100
AcDbBlockTableRecord
  2
*D1
  0
BLOCK_RECORD
  5
274D1
330
1
100
AcDbSymbolTableRecord
100
AcDbBlockTableRecord
  2
*D2
  0
BLOCK_RECORD
  5
275AE
330
1
100
AcDbSymbolTableRecord
100
AcDbBlockTableRecord
  2
A$C1BF1606D
  0
ENDTAB
  0
ENDSEC
  0
SECTION
  2
BLOCKS
  0
BLOCK
  5
19
330
18
100
AcDbEntity
  8
0
100
AcDbBlockBegin
  2
*MODEL_SPACE
 70
     2
 10
0.0
 20
0.0
 30
0.0
  3
*MODEL_SPACE
  1

  0
ENDBLK
  5
1A
330
18
100
AcDbEntity
  8
0
100
AcDbBlockEnd
  0
BLOCK
  5
16
330
15
100
AcDbEntity
 67
     1
  8
0
100
AcDbBlockBegin
  2
*PAPER_SPACE
 70
     0
 10
0.0
 20
0.0
 30
0.0
  3
*PAPER_SPACE
  1

  0
ENDBLK
  5
17
330
15
100
AcDbEntity
 67
     1
  8
0
100
AcDbBlockEnd
  0
BLOCK
  5
185EF
330
1856E
100
AcDbEntity
  8
0
100
AcDbBlockBegin
  2
A$C4EFE16F9
 70
     0
 10
0.0
 20
0.0
 30
0.0
  3
A$C4EFE16F9
  1

  0
TEXT
  5
1856F
330
1856E
100
AcDbEntity
  8
0
 62
    29
100
AcDbText
 10
0.1140211594872653
 20
0.7536994259858148
 30
0.0
 40
1.502652258844175
  1
DHD
 41
0.75
  7
WMF-BANKGOTHIC-MD-BT0
100
AcDbText
  0
SOLID
  5
18570
330
1856E
100
AcDbEntity
  8
0
 62
    30
100
AcDbTrace
 10
1.232984684201756
 20
11.6392852740014
 30
0.0
 11
1.232984684201756
 21
11.6392852740014
 31
0.0
 12
4.193221981308504
 22
8.660527201313172
 32
0.0
 13
1.232984684201756
 23
5.717267281822785
 33
0.0
  0
SOLID
  5
18571
330
1856E
100
AcDbEntity
  8
0
 62
    30
100
AcDbTrace
 10
4.193221981308504
 20
8.660527201313172
 30
0.0
 11
1.232984684201756
 21
5.717267281822785
 31
0.0
 12
1.232984684201756
 22
5.717267281822785
 32
0.0
 13
4.193221981308504
 23
8.660527201313172
 33
0.0
  0
SOLID
  5
18572
330
1856E
100
AcDbEntity
  8
0
 62
    29
100
AcDbTrace
 10
4.254957899913442
 20
8.598791282708234
 30
0.0
 11
1.171248765596818
 21
11.57909275336158
 31
0.0
 12
4.254957899913442
 22
8.720719721952988
 32
0.0
 13
1.294720602806691
 23
11.70102119260634
 33
0.0
  0
SOLID
  5
18573
330
1856E
100
AcDbEntity
  8
0
 62
    29
100
AcDbTrace
 10
4.254957899913442
 20
8.720719721952988
 30
0.0
 11
1.294720602806691
 21
11.70102119260634
 31
0.0
 12
1.294720602806691
 22
11.70102119260634
 32
0.0
 13
4.254957899913442
 23
8.720719721952988
 33
0.0
  0
SOLID
  5
18574
330
1856E
100
AcDbEntity
  8
0
 62
    29
100
AcDbTrace
 10
4.254957899913442
 20
8.598791282708234
 30
0.0
 11
4.131486062703565
 21
8.598791282708234
 31
0.0
 12
1.171248765596818
 22
11.57909275336158
 32
0.0
 13
1.171248765596818
 23
11.57909275336158
 33
0.0
  0
SOLID
  5
18575
330
1856E
100
AcDbEntity
  8
0
 62
    29
100
AcDbTrace
 10
4.254957899913442
 20
8.598791282708234
 30
0.0
 11
4.242610716192452
 21
8.587987496952372
 31
0.0
 12
4.131486062703565
 22
8.598791282708234
 32
0.0
 13
4.228720134506342
 23
8.580270507126755
 33
0.0
  0
SOLID
  5
18576
330
1856E
100
AcDbEntity
  8
0
 62
    29
100
AcDbTrace
 10
4.131486062703565
 20
8.598791282708234
 30
0.0
 11
4.228720134506342
 21
8.580270507126755
 31
0.0
 12
4.139203052529182
 22
8.592617690847738
 32
0.0
 13
4.221003144680722
 23
8.577183711196504
 33
0.0
  0
SOLID
  5
18577
330
1856E
100
AcDbEntity
  8
0
 62
    29
100
AcDbTrace
 10
4.139203052529182
 20
8.592617690847738
 30
0.0
 11
4.221003144680722
 21
8.577183711196504
 31
0.0
 12
4.148463440319922
 22
8.58644409898725
 32
0.0
 13
4.213286154855108
 23
8.57409691526626
 33
0.0
  0
SOLID
  5
18578
330
1856E
100
AcDbEntity
  8
0
 62
    29
100
AcDbTrace
 10
4.148463440319922
 20
8.58644409898725
 30
0.0
 11
4.213286154855108
 21
8.57409691526626
 31
0.0
 12
4.156180430145539
 22
8.581813905091877
 32
0.0
 13
4.205569165029491
 23
8.572553517301138
 33
0.0
  0
SOLID
  5
18579
330
1856E
100
AcDbEntity
  8
0
 62
    29
100
AcDbTrace
 10
4.156180430145539
 20
8.581813905091877
 30
0.0
 11
4.205569165029491
 21
8.572553517301138
 31
0.0
 12
4.163897419971156
 22
8.577183711196504
 32
0.0
 13
4.19785217520387
 23
8.572553517301138
 33
0.0
  0
SOLID
  5
1857A
330
1856E
100
AcDbEntity
  8
0
 62
    29
100
AcDbTrace
 10
4.163897419971156
 20
8.577183711196504
 30
0.0
 11
4.19785217520387
 21
8.572553517301138
 31
0.0
 12
4.171614409796774
 22
8.57409691526626
 32
0.0
 13
4.18859178741313
 23
8.572553517301138
 33
0.0
  0
SOLID
  5
1857B
330
1856E
100
AcDbEntity
  8
0
 62
    29
100
AcDbTrace
 10
4.171614409796774
 20
8.57409691526626
 30
0.0
 11
4.18859178741313
 21
8.572553517301138
 31
0.0
 12
4.180874797587513
 22
8.572553517301138
 32
0.0
 13
4.180874797587513
 23
8.572553517301138
 33
0.0
  0
SOLID
  5
1857C
330
1856E
100
AcDbEntity
  8
0
 62
    29
100
AcDbTrace
 10
4.254957899913442
 20
8.598791282708234
 30
0.0
 11
4.281195665320538
 21
8.672874385034162
 31
0.0
 12
4.265761685669303
 22
8.611138466429224
 32
0.0
 13
4.281195665320538
 23
8.663613997243416
 33
0.0
  0
SOLID
  5
1857D
330
1856E
100
AcDbEntity
  8
0
 62
    29
100
AcDbTrace
 10
4.265761685669303
 20
8.611138466429224
 30
0.0
 11
4.281195665320538
 21
8.663613997243416
 31
0.0
 12
4.273478675494921
 22
8.625029048115337
 32
0.0
 13
4.281195665320538
 23
8.655897007417799
 33
0.0
  0
SOLID
  5
1857E
330
1856E
100
AcDbEntity
  8
0
 62
    29
100
AcDbTrace
 10
4.273478675494921
 20
8.625029048115337
 30
0.0
 11
4.281195665320538
 21
8.655897007417799
 31
0.0
 12
4.276565471425168
 22
8.632746037940947
 32
0.0
 13
4.281195665320538
 23
8.648180017592181
 33
0.0
  0
SOLID
  5
1857F
330
1856E
100
AcDbEntity
  8
0
 62
    29
100
AcDbTrace
 10
4.276565471425168
 20
8.632746037940947
 30
0.0
 11
4.281195665320538
 21
8.648180017592181
 31
0.0
 12
4.279652267355416
 22
8.640463027766564
 32
0.0
 13
4.279652267355416
 23
8.640463027766564
 33
0.0
  0
SOLID
  5
18580
330
1856E
100
AcDbEntity
  8
0
 62
    29
100
AcDbTrace
 10
4.254957899913442
 20
8.598791282708234
 30
0.0
 11
4.279652267355416
 21
8.68059137485978
 31
0.0
 12
4.281195665320538
 22
8.672874385034162
 32
0.0
 13
4.281195665320538
 23
8.672874385034162
 33
0.0
  0
SOLID
  5
18581
330
1856E
100
AcDbEntity
  8
0
 62
    29
100
AcDbTrace
 10
4.279652267355416
 20
8.68059137485978
 30
0.0
 11
4.254957899913442
 21
8.598791282708234
 31
0.0
 12
4.276565471425168
 22
8.688308364685397
 32
0.0
 13
4.276565471425168
 23
8.688308364685397
 33
0.0
  0
SOLID
  5
18582
330
1856E
100
AcDbEntity
  8
0
 62
    29
100
AcDbTrace
 10
4.276565471425168
 20
8.688308364685397
 30
0.0
 11
4.254957899913442
 21
8.598791282708234
 31
0.0
 12
4.273478675494921
 22
8.697568752476136
 32
0.0
 13
4.273478675494921
 23
8.697568752476136
 33
0.0
  0
SOLID
  5
18583
330
1856E
100
AcDbEntity
  8
0
 62
    29
100
AcDbTrace
 10
4.273478675494921
 20
8.697568752476136
 30
0.0
 11
4.254957899913442
 21
8.598791282708234
 31
0.0
 12
4.267305083634425
 22
8.705285742301754
 32
0.0
 13
4.267305083634425
 23
8.705285742301754
 33
0.0
  0
SOLID
  5
18584
330
1856E
100
AcDbEntity
  8
0
 62
    29
100
AcDbTrace
 10
4.267305083634425
 20
8.705285742301754
 30
0.0
 11
4.254957899913442
 21
8.598791282708234
 31
0.0
 12
4.262674889739056
 22
8.713002732127371
 32
0.0
 13
4.262674889739056
 23
8.713002732127371
 33
0.0
  0
SOLID
  5
18585
330
1856E
100
AcDbEntity
  8
0
 62
    29
100
AcDbTrace
 10
4.262674889739056
 20
8.713002732127371
 30
0.0
 11
4.254957899913442
 21
8.598791282708234
 31
0.0
 12
4.254957899913442
 22
8.720719721952988
 32
0.0
 13
4.254957899913442
 23
8.598791282708234
 33
0.0
  0
SOLID
  5
18586
330
1856E
100
AcDbEntity
  8
0
 62
    29
100
AcDbTrace
 10
4.254957899913442
 20
8.720719721952988
 30
0.0
 11
4.254957899913442
 21
8.598791282708234
 31
0.0
 12
4.254957899913442
 22
8.598791282708234
 32
0.0
 13
4.254957899913442
 23
8.598791282708234
 33
0.0
  0
SOLID
  5
18587
330
1856E
100
AcDbEntity
  8
0
 62
    29
100
AcDbTrace
 10
1.146554398154844
 20
5.717267281822785
 30
0.0
 11
4.133029460668687
 21
8.720719721952988
 31
0.0
 12
1.293177204841569
 22
5.657074761182968
 32
0.0
 13
4.254957899913442
 23
8.598791282708234
 33
0.0
  0
SOLID
  5
18588
330
1856E
100
AcDbEntity
  8
0
 62
    29
100
AcDbTrace
 10
1.293177204841569
 20
5.657074761182968
 30
0.0
 11
4.254957899913442
 21
8.598791282708234
 31
0.0
 12
4.254957899913442
 22
8.598791282708234
 32
0.0
 13
1.293177204841569
 23
5.657074761182968
 33
0.0
  0
SOLID
  5
18589
330
1856E
100
AcDbEntity
  8
0
 62
    29
100
AcDbTrace
 10
1.146554398154844
 20
5.717267281822785
 30
0.0
 11
1.171248765596818
 21
5.779003200427716
 31
0.0
 12
4.133029460668687
 22
8.720719721952988
 32
0.0
 13
4.133029460668687
 23
8.720719721952988
 33
0.0
  0
SOLID
  5
1858A
330
1856E
100
AcDbEntity
  8
0
 62
    29
100
AcDbTrace
 10
1.146554398154844
 20
5.717267281822785
 30
0.0
 11
1.146554398154844
 21
5.738874853334507
 31
0.0
 12
1.171248765596818
 22
5.779003200427716
 32
0.0
 13
1.149641194085088
 23
5.746591843160125
 33
0.0
  0
SOLID
  5
1858B
330
1856E
100
AcDbEntity
  8
0
 62
    29
100
AcDbTrace
 10
1.171248765596818
 20
5.779003200427716
 30
0.0
 11
1.149641194085088
 21
5.746591843160125
 31
0.0
 12
1.165075173736322
 22
5.771286210602099
 32
0.0
 13
1.154271387980461
 23
5.755852230950864
 33
0.0
  0
SOLID
  5
1858C
330
1856E
100
AcDbEntity
  8
0
 62
    29
100
AcDbTrace
 10
1.165075173736322
 20
5.771286210602099
 30
0.0
 11
1.154271387980461
 21
5.755852230950864
 31
0.0
 12
1.158901581875831
 22
5.763569220776489
 32
0.0
 13
1.158901581875831
 23
5.763569220776489
 33
0.0
  0
SOLID
  5
1858D
330
1856E
100
AcDbEntity
  8
0
 62
    29
100
AcDbTrace
 10
1.145011000189718
 20
5.714180485892534
 30
0.0
 11
1.293177204841569
 21
5.657074761182968
 31
0.0
 12
1.145011000189718
 22
5.706463496066916
 32
0.0
 13
1.285460215015952
 23
5.649357771357351
 33
0.0
  0
SOLID
  5
1858E
330
1856E
100
AcDbEntity
  8
0
 62
    29
100
AcDbTrace
 10
1.145011000189718
 20
5.706463496066916
 30
0.0
 11
1.285460215015952
 21
5.649357771357351
 31
0.0
 12
1.146554398154844
 22
5.698746506241299
 32
0.0
 13
1.277743225190334
 23
5.643184179496856
 33
0.0
  0
SOLID
  5
1858F
330
1856E
100
AcDbEntity
  8
0
 62
    29
100
AcDbTrace
 10
1.146554398154844
 20
5.698746506241299
 30
0.0
 11
1.277743225190334
 21
5.643184179496856
 31
0.0
 12
1.149641194085088
 22
5.691029516415682
 32
0.0
 13
1.270026235364717
 23
5.63855398560149
 33
0.0
  0
SOLID
  5
18590
330
1856E
100
AcDbEntity
  8
0
 62
    29
100
AcDbTrace
 10
1.149641194085088
 20
5.691029516415682
 30
0.0
 11
1.270026235364717
 21
5.63855398560149
 31
0.0
 12
1.152727990015335
 22
5.683312526590064
 32
0.0
 13
1.2623092455391
 23
5.635467189671238
 33
0.0
  0
SOLID
  5
18591
330
1856E
100
AcDbEntity
  8
0
 62
    29
100
AcDbTrace
 10
1.152727990015335
 20
5.683312526590064
 30
0.0
 11
1.2623092455391
 21
5.635467189671238
 31
0.0
 12
1.160444979840953
 22
5.669421944903959
 32
0.0
 13
1.25304885774836
 23
5.632380393740994
 33
0.0
  0
SOLID
  5
18592
330
1856E
100
AcDbEntity
  8
0
 62
    29
100
AcDbTrace
 10
1.160444979840953
 20
5.669421944903959
 30
0.0
 11
1.25304885774836
 21
5.632380393740994
 31
0.0
 12
1.171248765596818
 22
5.657074761182968
 32
0.0
 13
1.245331867922743
 23
5.630836995775872
 33
0.0
  0
SOLID
  5
18593
330
1856E
100
AcDbEntity
  8
0
 62
    29
100
AcDbTrace
 10
1.171248765596818
 20
5.657074761182968
 30
0.0
 11
1.245331867922743
 21
5.630836995775872
 31
0.0
 12
1.183595949317805
 22
5.646270975427107
 32
0.0
 13
1.237614878097126
 23
5.630836995775872
 33
0.0
  0
SOLID
  5
18594
330
1856E
100
AcDbEntity
  8
0
 62
    29
100
AcDbTrace
 10
1.183595949317805
 20
5.646270975427107
 30
0.0
 11
1.237614878097126
 21
5.630836995775872
 31
0.0
 12
1.197486531003917
 22
5.63855398560149
 32
0.0
 13
1.228354490306386
 23
5.630836995775872
 33
0.0
  0
SOLID
  5
18595
330
1856E
100
AcDbEntity
  8
0
 62
    29
100
AcDbTrace
 10
1.197486531003917
 20
5.63855398560149
 30
0.0
 11
1.228354490306386
 21
5.630836995775872
 31
0.0
 12
1.205203520829535
 22
5.635467189671238
 32
0.0
 13
1.220637500480766
 23
5.630836995775872
 33
0.0
  0
SOLID
  5
18596
330
1856E
100
AcDbEntity
  8
0
 62
    29
100
AcDbTrace
 10
1.205203520829535
 20
5.635467189671238
 30
0.0
 11
1.220637500480766
 21
5.630836995775872
 31
0.0
 12
1.212920510655152
 22
5.632380393740994
 32
0.0
 13
1.212920510655152
 23
5.632380393740994
 33
0.0
  0
SOLID
  5
18597
330
1856E
100
AcDbEntity
  8
0
 62
    29
100
AcDbTrace
 10
1.293177204841569
 20
5.657074761182968
 30
0.0
 11
1.146554398154844
 21
5.717267281822785
 31
0.0
 12
1.146554398154844
 22
5.717267281822785
 32
0.0
 13
1.146554398154844
 23
5.717267281822785
 33
0.0
  0
SOLID
  5
18598
330
1856E
100
AcDbEntity
  8
0
 62
    29
100
AcDbTrace
 10
1.294720602806691
 20
11.70102119260634
 30
0.0
 11
1.319414970248669
 21
11.6392852740014
 31
0.0
 12
1.146554398154844
 22
11.6392852740014
 32
0.0
 13
1.319414970248669
 23
5.717267281822785
 33
0.0
  0
SOLID
  5
18599
330
1856E
100
AcDbEntity
  8
0
 62
    29
100
AcDbTrace
 10
1.146554398154844
 20
11.6392852740014
 30
0.0
 11
1.319414970248669
 21
5.717267281822785
 31
0.0
 12
1.146554398154844
 22
5.717267281822785
 32
0.0
 13
1.146554398154844
 23
5.717267281822785
 33
0.0
  0
SOLID
  5
1859A
330
1856E
100
AcDbEntity
  8
0
 62
    29
100
AcDbTrace
 10
1.294720602806691
 20
11.70102119260634
 30
0.0
 11
1.308611184492804
 21
11.6855872129551
 31
0.0
 12
1.319414970248669
 22
11.6392852740014
 32
0.0
 13
1.311697980423051
 23
11.67787022312948
 33
0.0
  0
SOLID
  5
1859B
330
1856E
100
AcDbEntity
  8
0
 62
    29
100
AcDbTrace
 10
1.319414970248669
 20
11.6392852740014
 30
0.0
 11
1.311697980423051
 21
11.67787022312948
 31
0.0
 12
1.319414970248669
 22
11.65008905975726
 32
0.0
 13
1.314784776353295
 23
11.66860983533875
 33
0.0
  0
SOLID
  5
1859C
330
1856E
100
AcDbEntity
  8
0
 62
    29
100
AcDbTrace
 10
1.319414970248669
 20
11.65008905975726
 30
0.0
 11
1.314784776353295
 21
11.66860983533875
 31
0.0
 12
1.317871572283543
 22
11.659349447548
 32
0.0
 13
1.317871572283543
 23
11.659349447548
 33
0.0
  0
SOLID
  5
1859D
330
1856E
100
AcDbEntity
  8
0
 62
    29
100
AcDbTrace
 10
1.293177204841569
 20
11.70410798853658
 30
0.0
 11
1.186682745248052
 21
11.71336837632732
 31
0.0
 12
1.279286623155456
 22
11.71336837632732
 32
0.0
 13
1.192856337108544
 23
11.71799857022269
 33
0.0
  0
SOLID
  5
1859E
330
1856E
100
AcDbEntity
  8
0
 62
    29
100
AcDbTrace
 10
1.279286623155456
 20
11.71336837632732
 30
0.0
 11
1.192856337108544
 21
11.71799857022269
 31
0.0
 12
1.265396041469347
 22
11.72108536615294
 32
0.0
 13
1.200573326934161
 23
11.72108536615294
 33
0.0
  0
SOLID
  5
1859F
330
1856E
100
AcDbEntity
  8
0
 62
    29
100
AcDbTrace
 10
1.265396041469347
 20
11.72108536615294
 30
0.0
 11
1.200573326934161
 21
11.72108536615294
 31
0.0
 12
1.248418663852987
 22
11.72417216208319
 32
0.0
 13
1.216007306585396
 23
11.72417216208319
 33
0.0
  0
SOLID
  5
185A0
330
1856E
100
AcDbEntity
  8
0
 62
    29
100
AcDbTrace
 10
1.248418663852987
 20
11.72417216208319
 30
0.0
 11
1.216007306585396
 21
11.72417216208319
 31
0.0
 12
1.232984684201756
 22
11.72571556004831
 32
0.0
 13
1.232984684201756
 23
11.72571556004831
 33
0.0
  0
SOLID
  5
185A1
330
1856E
100
AcDbEntity
  8
0
 62
    29
100
AcDbTrace
 10
1.293177204841569
 20
11.70410798853658
 30
0.0
 11
1.178965755422435
 21
11.70873818243195
 31
0.0
 12
1.186682745248052
 22
11.71336837632732
 32
0.0
 13
1.186682745248052
 23
11.71336837632732
 33
0.0
  0
SOLID
  5
185A2
330
1856E
100
AcDbEntity
  8
0
 62
    29
100
AcDbTrace
 10
1.157358183910705
 20
11.6855872129551
 30
0.0
 11
1.294720602806691
 21
11.70102119260634
 31
0.0
 12
1.152727990015335
 22
11.67787022312948
 32
0.0
 13
1.294720602806691
 23
11.70102119260634
 33
0.0
  0
SOLID
  5
185A3
330
1856E
100
AcDbEntity
  8
0
 62
    29
100
AcDbTrace
 10
1.152727990015335
 20
11.67787022312948
 30
0.0
 11
1.294720602806691
 21
11.70102119260634
 31
0.0
 12
1.149641194085088
 22
11.66860983533875
 32
0.0
 13
1.146554398154844
 23
11.6392852740014
 33
0.0
  0
SOLID
  5
185A4
330
1856E
100
AcDbEntity
  8
0
 62
    29
100
AcDbTrace
 10
1.149641194085088
 20
11.66860983533875
 30
0.0
 11
1.146554398154844
 21
11.6392852740014
 31
0.0
 12
1.148097796119966
 22
11.659349447548
 32
0.0
 13
1.146554398154844
 23
11.65008905975726
 33
0.0
  0
SOLID
  5
185A5
330
1856E
100
AcDbEntity
  8
0
 62
    29
100
AcDbTrace
 10
1.148097796119966
 20
11.659349447548
 30
0.0
 11
1.146554398154844
 21
11.65008905975726
 31
0.0
 12
1.146554398154844
 22
11.65008905975726
 32
0.0
 13
1.148097796119966
 23
11.659349447548
 33
0.0
  0
SOLID
  5
185A6
330
1856E
100
AcDbEntity
  8
0
 62
    29
100
AcDbTrace
 10
1.161988377806078
 20
11.6917608048156
 30
0.0
 11
1.294720602806691
 21
11.70102119260634
 31
0.0
 12
1.157358183910705
 22
11.6855872129551
 32
0.0
 13
1.157358183910705
 23
11.6855872129551
 33
0.0
  0
SOLID
  5
185A7
330
1856E
100
AcDbEntity
  8
0
 62
    29
100
AcDbTrace
 10
1.166618571701448
 20
11.69793439667609
 30
0.0
 11
1.294720602806691
 21
11.70102119260634
 31
0.0
 12
1.161988377806078
 22
11.6917608048156
 32
0.0
 13
1.161988377806078
 23
11.6917608048156
 33
0.0
  0
SOLID
  5
185A8
330
1856E
100
AcDbEntity
  8
0
 62
    29
100
AcDbTrace
 10
1.17279216356194
 20
11.70410798853658
 30
0.0
 11
1.294720602806691
 21
11.70102119260634
 31
0.0
 12
1.166618571701448
 22
11.69793439667609
 32
0.0
 13
1.166618571701448
 23
11.69793439667609
 33
0.0
  0
SOLID
  5
185A9
330
1856E
100
AcDbEntity
  8
0
 62
    29
100
AcDbTrace
 10
1.178965755422435
 20
11.70873818243195
 30
0.0
 11
1.294720602806691
 21
11.70102119260634
 31
0.0
 12
1.17279216356194
 22
11.70410798853658
 32
0.0
 13
1.17279216356194
 23
11.70410798853658
 33
0.0
  0
SOLID
  5
185AA
330
1856E
100
AcDbEntity
  8
0
 62
    29
100
AcDbTrace
 10
1.293177204841569
 20
11.70410798853658
 30
0.0
 11
1.294720602806691
 21
11.70102119260634
 31
0.0
 12
1.178965755422435
 22
11.70873818243195
 32
0.0
 13
1.178965755422435
 23
11.70873818243195
 33
0.0
  0
SOLID
  5
185AB
330
1856E
100
AcDbEntity
  8
0
 62
    29
100
AcDbTrace
 10
1.297807398736939
 20
11.69793439667609
 30
0.0
 11
1.294720602806691
 21
11.70102119260634
 31
0.0
 12
1.293177204841569
 22
11.70410798853658
 32
0.0
 13
1.293177204841569
 23
11.70410798853658
 33
0.0
  0
SOLID
  5
185AC
330
1856E
100
AcDbEntity
  8
0
 62
    29
100
AcDbTrace
 10
1.297807398736939
 20
11.69793439667609
 30
0.0
 11
1.303980990597434
 21
11.6917608048156
 31
0.0
 12
1.294720602806691
 22
11.70102119260634
 32
0.0
 13
1.308611184492804
 23
11.6855872129551
 33
0.0
  0
SOLID
  5
185AD
330
1856E
100
AcDbEntity
  8
0
 62
    29
100
AcDbTrace
 10
1.294720602806691
 20
11.70102119260634
 30
0.0
 11
1.308611184492804
 21
11.6855872129551
 31
0.0
 12
1.308611184492804
 22
11.6855872129551
 32
0.0
 13
1.294720602806691
 23
11.70102119260634
 33
0.0
  0
SOLID
  5
185AE
330
1856E
100
AcDbEntity
  8
0
 62
    30
100
AcDbTrace
 10
2.589631495545255
 20
8.635832833871198
 30
0.0
 11
2.589631495545255
 21
8.635832833871198
 31
0.0
 12
5.549868792652002
 22
5.655531363217846
 32
0.0
 13
2.589631495545255
 23
2.713814841692581
 33
0.0
  0
SOLID
  5
185AF
330
1856E
100
AcDbEntity
  8
0
 62
    30
100
AcDbTrace
 10
5.549868792652002
 20
5.655531363217846
 30
0.0
 11
2.589631495545255
 21
2.713814841692581
 31
0.0
 12
2.589631495545255
 22
2.713814841692581
 32
0.0
 13
5.549868792652002
 23
5.655531363217846
 33
0.0
  0
SOLID
  5
185B0
330
1856E
100
AcDbEntity
  8
0
 62
    29
100
AcDbTrace
 10
5.611604711256937
 20
5.59533884257803
 30
0.0
 11
2.527895576940316
 21
8.575640313231382
 31
0.0
 12
5.611604711256937
 22
5.717267281822785
 32
0.0
 13
2.65136741415019
 23
8.696025354511007
 33
0.0
  0
SOLID
  5
185B1
330
1856E
100
AcDbEntity
  8
0
 62
    29
100
AcDbTrace
 10
5.611604711256937
 20
5.717267281822785
 30
0.0
 11
2.65136741415019
 21
8.696025354511007
 31
0.0
 12
2.65136741415019
 22
8.696025354511007
 32
0.0
 13
5.611604711256937
 23
5.717267281822785
 33
0.0
  0
SOLID
  5
185B2
330
1856E
100
AcDbEntity
  8
0
 62
    29
100
AcDbTrace
 10
5.611604711256937
 20
5.59533884257803
 30
0.0
 11
5.488132874047064
 21
5.59533884257803
 31
0.0
 12
2.527895576940316
 22
8.575640313231382
 32
0.0
 13
2.527895576940316
 23
8.575640313231382
 33
0.0
  0
SOLID
  5
185B3
330
1856E
100
AcDbEntity
  8
0
 62
    29
100
AcDbTrace
 10
5.611604711256937
 20
5.59533884257803
 30
0.0
 11
5.599257527535954
 21
5.584535056822168
 31
0.0
 12
5.488132874047064
 22
5.59533884257803
 32
0.0
 13
5.585366945849841
 23
5.576818066996551
 33
0.0
  0
SOLID
  5
185B4
330
1856E
100
AcDbEntity
  8
0
 62
    29
100
AcDbTrace
 10
5.488132874047064
 20
5.59533884257803
 30
0.0
 11
5.585366945849841
 21
5.576818066996551
 31
0.0
 12
5.495849863872681
 22
5.587621852752413
 32
0.0
 13
5.577649956024224
 23
5.5737312710663
 33
0.0
  0
SOLID
  5
185B5
330
1856E
100
AcDbEntity
  8
0
 62
    29
100
AcDbTrace
 10
5.495849863872681
 20
5.587621852752413
 30
0.0
 11
5.577649956024224
 21
5.5737312710663
 31
0.0
 12
5.50511025166342
 22
5.582991658857039
 32
0.0
 13
5.569932966198607
 23
5.570644475136056
 33
0.0
  0
SOLID
  5
185B6
330
1856E
100
AcDbEntity
  8
0
 62
    29
100
AcDbTrace
 10
5.50511025166342
 20
5.582991658857039
 30
0.0
 11
5.569932966198607
 21
5.570644475136056
 31
0.0
 12
5.512827241489041
 22
5.576818066996551
 32
0.0
 13
5.562215976372989
 23
5.569101077170934
 33
0.0
  0
SOLID
  5
185B7
330
1856E
100
AcDbEntity
  8
0
 62
    29
100
AcDbTrace
 10
5.512827241489041
 20
5.576818066996551
 30
0.0
 11
5.562215976372989
 21
5.569101077170934
 31
0.0
 12
5.520544231314655
 22
5.5737312710663
 32
0.0
 13
5.554498986547372
 23
5.569101077170934
 33
0.0
  0
SOLID
  5
185B8
330
1856E
100
AcDbEntity
  8
0
 62
    29
100
AcDbTrace
 10
5.520544231314655
 20
5.5737312710663
 30
0.0
 11
5.554498986547372
 21
5.569101077170934
 31
0.0
 12
5.528261221140272
 22
5.570644475136056
 32
0.0
 13
5.545238598756633
 23
5.569101077170934
 33
0.0
  0
SOLID
  5
185B9
330
1856E
100
AcDbEntity
  8
0
 62
    29
100
AcDbTrace
 10
5.528261221140272
 20
5.570644475136056
 30
0.0
 11
5.545238598756633
 21
5.569101077170934
 31
0.0
 12
5.537521608931015
 22
5.569101077170934
 32
0.0
 13
5.537521608931015
 23
5.569101077170934
 33
0.0
  0
SOLID
  5
185BA
330
1856E
100
AcDbEntity
  8
0
 62
    29
100
AcDbTrace
 10
5.611604711256937
 20
5.59533884257803
 30
0.0
 11
5.637842476664037
 21
5.66787854693883
 31
0.0
 12
5.622408497012802
 22
5.60768602629902
 32
0.0
 13
5.637842476664037
 23
5.660161557113212
 33
0.0
  0
SOLID
  5
185BB
330
1856E
100
AcDbEntity
  8
0
 62
    29
100
AcDbTrace
 10
5.622408497012802
 20
5.60768602629902
 30
0.0
 11
5.637842476664037
 21
5.660161557113212
 31
0.0
 12
5.630125486838419
 22
5.621576607985133
 32
0.0
 13
5.637842476664037
 23
5.652444567287595
 33
0.0
  0
SOLID
  5
185BC
330
1856E
100
AcDbEntity
  8
0
 62
    29
100
AcDbTrace
 10
5.630125486838419
 20
5.621576607985133
 30
0.0
 11
5.637842476664037
 21
5.652444567287595
 31
0.0
 12
5.633212282768667
 22
5.627750199845621
 32
0.0
 13
5.637842476664037
 23
5.644727577461978
 33
0.0
  0
SOLID
  5
185BD
330
1856E
100
AcDbEntity
  8
0
 62
    29
100
AcDbTrace
 10
5.633212282768667
 20
5.627750199845621
 30
0.0
 11
5.637842476664037
 21
5.644727577461978
 31
0.0
 12
5.636299078698915
 22
5.635467189671238
 32
0.0
 13
5.636299078698915
 23
5.635467189671238
 33
0.0
  0
SOLID
  5
185BE
330
1856E
100
AcDbEntity
  8
0
 62
    29
100
AcDbTrace
 10
5.611604711256937
 20
5.59533884257803
 30
0.0
 11
5.636299078698915
 21
5.677138934729576
 31
0.0
 12
5.637842476664037
 22
5.66787854693883
 32
0.0
 13
5.637842476664037
 23
5.66787854693883
 33
0.0
  0
SOLID
  5
185BF
330
1856E
100
AcDbEntity
  8
0
 62
    29
100
AcDbTrace
 10
5.636299078698915
 20
5.677138934729576
 30
0.0
 11
5.611604711256937
 21
5.59533884257803
 31
0.0
 12
5.633212282768667
 22
5.684855924555193
 32
0.0
 13
5.633212282768667
 23
5.684855924555193
 33
0.0
  0
SOLID
  5
185C0
330
1856E
100
AcDbEntity
  8
0
 62
    29
100
AcDbTrace
 10
5.633212282768667
 20
5.684855924555193
 30
0.0
 11
5.611604711256937
 21
5.59533884257803
 31
0.0
 12
5.628582088873297
 22
5.692572914380804
 32
0.0
 13
5.628582088873297
 23
5.692572914380804
 33
0.0
  0
SOLID
  5
185C1
330
1856E
100
AcDbEntity
  8
0
 62
    29
100
AcDbTrace
 10
5.628582088873297
 20
5.692572914380804
 30
0.0
 11
5.611604711256937
 21
5.59533884257803
 31
0.0
 12
5.623951894977928
 22
5.70183330217155
 32
0.0
 13
5.623951894977928
 23
5.70183330217155
 33
0.0
  0
SOLID
  5
185C2
330
1856E
100
AcDbEntity
  8
0
 62
    29
100
AcDbTrace
 10
5.623951894977928
 20
5.70183330217155
 30
0.0
 11
5.611604711256937
 21
5.59533884257803
 31
0.0
 12
5.619321701082554
 22
5.709550291997167
 32
0.0
 13
5.619321701082554
 23
5.709550291997167
 33
0.0
  0
SOLID
  5
185C3
330
1856E
100
AcDbEntity
  8
0
 62
    29
100
AcDbTrace
 10
5.619321701082554
 20
5.709550291997167
 30
0.0
 11
5.611604711256937
 21
5.59533884257803
 31
0.0
 12
5.611604711256937
 22
5.717267281822785
 32
0.0
 13
5.611604711256937
 23
5.59533884257803
 33
0.0
  0
SOLID
  5
185C4
330
1856E
100
AcDbEntity
  8
0
 62
    29
100
AcDbTrace
 10
5.611604711256937
 20
5.717267281822785
 30
0.0
 11
5.611604711256937
 21
5.59533884257803
 31
0.0
 12
5.611604711256937
 22
5.59533884257803
 32
0.0
 13
5.611604711256937
 23
5.59533884257803
 33
0.0
  0
SOLID
  5
185C5
330
1856E
100
AcDbEntity
  8
0
 62
    29
100
AcDbTrace
 10
2.503201209498342
 20
2.713814841692581
 30
0.0
 11
5.489676272012189
 21
5.717267281822785
 31
0.0
 12
2.649824016185068
 22
2.653622321052765
 32
0.0
 13
5.611604711256937
 23
5.59533884257803
 33
0.0
  0
SOLID
  5
185C6
330
1856E
100
AcDbEntity
  8
0
 62
    29
100
AcDbTrace
 10
2.649824016185068
 20
2.653622321052765
 30
0.0
 11
5.611604711256937
 21
5.59533884257803
 31
0.0
 12
5.611604711256937
 22
5.59533884257803
 32
0.0
 13
2.649824016185068
 23
2.653622321052765
 33
0.0
  0
SOLID
  5
185C7
330
1856E
100
AcDbEntity
  8
0
 62
    29
100
AcDbTrace
 10
2.503201209498342
 20
2.713814841692581
 30
0.0
 11
2.527895576940316
 21
2.77555076029752
 31
0.0
 12
5.489676272012189
 22
5.717267281822785
 32
0.0
 13
5.489676272012189
 23
5.717267281822785
 33
0.0
  0
SOLID
  5
185C8
330
1856E
100
AcDbEntity
  8
0
 62
    29
100
AcDbTrace
 10
2.503201209498342
 20
2.713814841692581
 30
0.0
 11
2.503201209498342
 21
2.735422413204304
 31
0.0
 12
2.527895576940316
 22
2.77555076029752
 32
0.0
 13
2.50628800542859
 23
2.743139403029921
 33
0.0
  0
SOLID
  5
185C9
330
1856E
100
AcDbEntity
  8
0
 62
    29
100
AcDbTrace
 10
2.527895576940316
 20
2.77555076029752
 30
0.0
 11
2.50628800542859
 21
2.743139403029921
 31
0.0
 12
2.521721985079821
 22
2.767833770471895
 32
0.0
 13
2.51091819932396
 23
2.75239979082066
 33
0.0
  0
SOLID
  5
185CA
330
1856E
100
AcDbEntity
  8
0
 62
    29
100
AcDbTrace
 10
2.521721985079821
 20
2.767833770471895
 30
0.0
 11
2.51091819932396
 21
2.75239979082066
 31
0.0
 12
2.515548393219329
 22
2.760116780646285
 32
0.0
 13
2.515548393219329
 23
2.760116780646285
 33
0.0
  0
SOLID
  5
185CB
330
1856E
100
AcDbEntity
  8
0
 62
    29
100
AcDbTrace
 10
2.501657811533217
 20
2.71072804576233
 30
0.0
 11
2.649824016185068
 21
2.653622321052765
 31
0.0
 12
2.501657811533217
 22
2.703011055936713
 32
0.0
 13
2.64210702635945
 23
2.645905331227147
 33
0.0
  0
SOLID
  5
185CC
330
1856E
100
AcDbEntity
  8
0
 62
    29
100
AcDbTrace
 10
2.501657811533217
 20
2.703011055936713
 30
0.0
 11
2.64210702635945
 21
2.645905331227147
 31
0.0
 12
2.503201209498342
 22
2.695294066111095
 32
0.0
 13
2.634390036533833
 23
2.639731739366652
 33
0.0
  0
SOLID
  5
185CD
330
1856E
100
AcDbEntity
  8
0
 62
    29
100
AcDbTrace
 10
2.503201209498342
 20
2.695294066111095
 30
0.0
 11
2.634390036533833
 21
2.639731739366652
 31
0.0
 12
2.50628800542859
 22
2.687577076285478
 32
0.0
 13
2.626673046708216
 23
2.635101545471286
 33
0.0
  0
SOLID
  5
185CE
330
1856E
100
AcDbEntity
  8
0
 62
    29
100
AcDbTrace
 10
2.50628800542859
 20
2.687577076285478
 30
0.0
 11
2.626673046708216
 21
2.635101545471286
 31
0.0
 12
2.509374801358834
 22
2.679860086459861
 32
0.0
 13
2.618956056882598
 23
2.632014749541035
 33
0.0
  0
SOLID
  5
185CF
330
1856E
100
AcDbEntity
  8
0
 62
    29
100
AcDbTrace
 10
2.509374801358834
 20
2.679860086459861
 30
0.0
 11
2.618956056882598
 21
2.632014749541035
 31
0.0
 12
2.517091791184451
 22
2.665969504773755
 32
0.0
 13
2.609695669091859
 23
2.628927953610791
 33
0.0
  0
SOLID
  5
185D0
330
1856E
100
AcDbEntity
  8
0
 62
    29
100
AcDbTrace
 10
2.517091791184451
 20
2.665969504773755
 30
0.0
 11
2.609695669091859
 21
2.628927953610791
 31
0.0
 12
2.527895576940316
 22
2.653622321052765
 32
0.0
 13
2.601978679266242
 23
2.627384555645662
 33
0.0
  0
SOLID
  5
185D1
330
1856E
100
AcDbEntity
  8
0
 62
    29
100
AcDbTrace
 10
2.527895576940316
 20
2.653622321052765
 30
0.0
 11
2.601978679266242
 21
2.627384555645662
 31
0.0
 12
2.540242760661303
 22
2.642818535296903
 32
0.0
 13
2.592718291475499
 23
2.62584115768054
 33
0.0
  0
SOLID
  5
185D2
330
1856E
100
AcDbEntity
  8
0
 62
    29
100
AcDbTrace
 10
2.540242760661303
 20
2.642818535296903
 30
0.0
 11
2.592718291475499
 21
2.62584115768054
 31
0.0
 12
2.554133342347416
 22
2.635101545471286
 32
0.0
 13
2.585001301649885
 23
2.627384555645662
 33
0.0
  0
SOLID
  5
185D3
330
1856E
100
AcDbEntity
  8
0
 62
    29
100
AcDbTrace
 10
2.554133342347416
 20
2.635101545471286
 30
0.0
 11
2.585001301649885
 21
2.627384555645662
 31
0.0
 12
2.561850332173033
 22
2.632014749541035
 32
0.0
 13
2.577284311824268
 23
2.627384555645662
 33
0.0
  0
SOLID
  5
185D4
330
1856E
100
AcDbEntity
  8
0
 62
    29
100
AcDbTrace
 10
2.561850332173033
 20
2.632014749541035
 30
0.0
 11
2.577284311824268
 21
2.627384555645662
 31
0.0
 12
2.569567321998651
 22
2.628927953610791
 32
0.0
 13
2.569567321998651
 23
2.628927953610791
 33
0.0
  0
SOLID
  5
185D5
330
1856E
100
AcDbEntity
  8
0
 62
    29
100
AcDbTrace
 10
2.649824016185068
 20
2.653622321052765
 30
0.0
 11
2.503201209498342
 21
2.713814841692581
 31
0.0
 12
2.503201209498342
 22
2.713814841692581
 32
0.0
 13
2.503201209498342
 23
2.713814841692581
 33
0.0
  0
SOLID
  5
185D6
330
1856E
100
AcDbEntity
  8
0
 62
    29
100
AcDbTrace
 10
2.65136741415019
 20
8.696025354511007
 30
0.0
 11
2.676061781592167
 21
8.635832833871198
 31
0.0
 12
2.503201209498342
 22
8.635832833871198
 32
0.0
 13
2.676061781592167
 23
2.713814841692581
 33
0.0
  0
SOLID
  5
185D7
330
1856E
100
AcDbEntity
  8
0
 62
    29
100
AcDbTrace
 10
2.503201209498342
 20
8.635832833871198
 30
0.0
 11
2.676061781592167
 21
2.713814841692581
 31
0.0
 12
2.503201209498342
 22
2.713814841692581
 32
0.0
 13
2.503201209498342
 23
2.713814841692581
 33
0.0
  0
SOLID
  5
185D8
330
1856E
100
AcDbEntity
  8
0
 62
    29
100
AcDbTrace
 10
2.65136741415019
 20
8.696025354511007
 30
0.0
 11
2.660627801940933
 21
8.688308364685397
 31
0.0
 12
2.676061781592167
 22
8.635832833871198
 32
0.0
 13
2.665257995836302
 23
8.68059137485978
 33
0.0
  0
SOLID
  5
185D9
330
1856E
100
AcDbEntity
  8
0
 62
    29
100
AcDbTrace
 10
2.676061781592167
 20
8.635832833871198
 30
0.0
 11
2.665257995836302
 21
8.68059137485978
 31
0.0
 12
2.676061781592167
 22
8.646636619627059
 32
0.0
 13
2.66834479176655
 23
8.672874385034162
 33
0.0
  0
SOLID
  5
185DA
330
1856E
100
AcDbEntity
  8
0
 62
    29
100
AcDbTrace
 10
2.676061781592167
 20
8.646636619627059
 30
0.0
 11
2.66834479176655
 21
8.672874385034162
 31
0.0
 12
2.674518383627042
 22
8.655897007417799
 32
0.0
 13
2.671431587696794
 23
8.665157395208545
 33
0.0
  0
SOLID
  5
185DB
330
1856E
100
AcDbEntity
  8
0
 62
    29
100
AcDbTrace
 10
2.674518383627042
 20
8.655897007417799
 30
0.0
 11
2.671431587696794
 21
8.665157395208545
 31
0.0
 12
2.671431587696794
 22
8.665157395208545
 32
0.0
 13
2.674518383627042
 23
8.655897007417799
 33
0.0
  0
SOLID
  5
185DC
330
1856E
100
AcDbEntity
  8
0
 62
    29
100
AcDbTrace
 10
2.654454210080437
 20
8.694481956545885
 30
0.0
 11
2.605065475196489
 21
8.720719721952988
 31
0.0
 12
2.649824016185068
 22
8.700655548406381
 32
0.0
 13
2.620499454847724
 23
8.717632926022737
 33
0.0
  0
SOLID
  5
185DD
330
1856E
100
AcDbEntity
  8
0
 62
    29
100
AcDbTrace
 10
2.649824016185068
 20
8.700655548406381
 30
0.0
 11
2.620499454847724
 21
8.717632926022737
 31
0.0
 12
2.635933434498959
 22
8.70991593619712
 32
0.0
 13
2.635933434498959
 23
8.70991593619712
 33
0.0
  0
SOLID
  5
185DE
330
1856E
100
AcDbEntity
  8
0
 62
    29
100
AcDbTrace
 10
2.589631495545255
 20
8.72226311991811
 30
0.0
 11
2.65136741415019
 21
8.696025354511007
 31
0.0
 12
2.572654117928898
 22
8.720719721952988
 32
0.0
 13
2.503201209498342
 23
8.635832833871198
 33
0.0
  0
SOLID
  5
185DF
330
1856E
100
AcDbEntity
  8
0
 62
    29
100
AcDbTrace
 10
2.572654117928898
 20
8.720719721952988
 30
0.0
 11
2.503201209498342
 21
8.635832833871198
 31
0.0
 12
2.55722013827766
 22
8.717632926022737
 32
0.0
 13
2.503201209498342
 23
8.646636619627059
 33
0.0
  0
SOLID
  5
185E0
330
1856E
100
AcDbEntity
  8
0
 62
    29
100
AcDbTrace
 10
2.55722013827766
 20
8.717632926022737
 30
0.0
 11
2.503201209498342
 21
8.646636619627059
 31
0.0
 12
2.549503148452046
 22
8.714546130092493
 32
0.0
 13
2.504744607463464
 23
8.655897007417799
 33
0.0
  0
SOLID
  5
185E1
330
1856E
100
AcDbEntity
  8
0
 62
    29
100
AcDbTrace
 10
2.549503148452046
 20
8.714546130092493
 30
0.0
 11
2.504744607463464
 21
8.655897007417799
 31
0.0
 12
2.543329556591551
 22
8.70991593619712
 32
0.0
 13
2.50628800542859
 23
8.665157395208545
 33
0.0
  0
SOLID
  5
185E2
330
1856E
100
AcDbEntity
  8
0
 62
    29
100
AcDbTrace
 10
2.543329556591551
 20
8.70991593619712
 30
0.0
 11
2.50628800542859
 21
8.665157395208545
 31
0.0
 12
2.535612566765934
 22
8.705285742301754
 32
0.0
 13
2.509374801358834
 23
8.672874385034162
 33
0.0
  0
SOLID
  5
185E3
330
1856E
100
AcDbEntity
  8
0
 62
    29
100
AcDbTrace
 10
2.535612566765934
 20
8.705285742301754
 30
0.0
 11
2.509374801358834
 21
8.672874385034162
 31
0.0
 12
2.529438974905442
 22
8.700655548406381
 32
0.0
 13
2.514004995254204
 23
8.68059137485978
 33
0.0
  0
SOLID
  5
185E4
330
1856E
100
AcDbEntity
  8
0
 62
    29
100
AcDbTrace
 10
2.529438974905442
 20
8.700655548406381
 30
0.0
 11
2.514004995254204
 21
8.68059137485978
 31
0.0
 12
2.523265383044947
 22
8.694481956545885
 32
0.0
 13
2.518635189149577
 23
8.688308364685397
 33
0.0
  0
SOLID
  5
185E5
330
1856E
100
AcDbEntity
  8
0
 62
    29
100
AcDbTrace
 10
2.523265383044947
 20
8.694481956545885
 30
0.0
 11
2.518635189149577
 21
8.688308364685397
 31
0.0
 12
2.518635189149577
 22
8.688308364685397
 32
0.0
 13
2.523265383044947
 23
8.694481956545885
 33
0.0
  0
SOLID
  5
185E6
330
1856E
100
AcDbEntity
  8
0
 62
    29
100
AcDbTrace
 10
2.605065475196489
 20
8.720719721952988
 30
0.0
 11
2.65136741415019
 21
8.696025354511007
 31
0.0
 12
2.589631495545255
 22
8.72226311991811
 32
0.0
 13
2.589631495545255
 23
8.72226311991811
 33
0.0
  0
SOLID
  5
185E7
330
1856E
100
AcDbEntity
  8
0
 62
    29
100
AcDbTrace
 10
2.605065475196489
 20
8.720719721952988
 30
0.0
 11
2.660627801940933
 21
8.688308364685397
 31
0.0
 12
2.65136741415019
 22
8.696025354511007
 32
0.0
 13
2.65136741415019
 23
8.696025354511007
 33
0.0
  0
SOLID
  5
185E8
330
1856E
100
AcDbEntity
  8
0
 62
    29
100
AcDbTrace
 10
2.605065475196489
 20
8.720719721952988
 30
0.0
 11
2.654454210080437
 21
8.694481956545885
 31
0.0
 12
2.660627801940933
 22
8.688308364685397
 32
0.0
 13
2.660627801940933
 23
8.688308364685397
 33
0.0
  0
TEXT
  5
185E9
330
1856E
100
AcDbEntity
  8
RAHMEN025
100
AcDbText
 10
10.58651758814535
 20
10.69333983401643
 30
0.0
 40
1.448241032582157
  1
DHD
  7
ISOCP
100
AcDbText
  0
TEXT
  5
185EA
330
1856E
100
AcDbEntity
  8
RAHMEN025
100
AcDbText
 10
10.58651758814535
 20
8.825220068831612
 30
0.0
 40
1.448241032582157
  1
Deubner Hoffmann Digital GmbH
  7
ISOCP
100
AcDbText
  0
TEXT
  5
185EB
330
1856E
100
AcDbEntity
  8
RAHMEN025
100
AcDbText
 10
10.58651758814535
 20
6.900366638810396
 30
0.0
 40
1.448241032582157
  1
Haferkornstrasse 5
  7
ISOCP
100
AcDbText
  0
TEXT
  5
185EC
330
1856E
100
AcDbEntity
  8
RAHMEN025
100
AcDbText
 10
10.58651758814535
 20
4.810152651797494
 30
0.0
 40
1.448241032582157
  1
04129 Leipzig
  7
ISOCP
100
AcDbText
  0
TEXT
  5
185ED
330
1856E
100
AcDbEntity
  8
RAHMEN025
100
AcDbText
 10
10.58651758814535
 20
2.359874590047247
 30
0.0
 40
1.448241032582157
  1
Phone: +49  341  5897020
  7
ISOCP
100
AcDbText
  0
TEXT
  5
185EE
330
1856E
100
AcDbEntity
  8
RAHMEN025
100
AcDbText
 10
10.58651758814535
 20
0.4350211600260323
 30
0.0
 40
1.448241032582157
  1
Fax:  +49  341  5897022
  7
ISOCP
100
AcDbText
  0
ENDBLK
  5
185F0
330
1856E
100
AcDbEntity
  8
0
100
AcDbBlockEnd
  0
BLOCK
  5
274CE
330
274C4
100
AcDbEntity
  8
0
100
AcDbBlockBegin
  2
*D1
 70
     1
 10
0.0
 20
0.0
 30
0.0
  3
*D1
  1

  0
LINE
  5
27921
330
274C4
100
AcDbEntity
  8
BEMASSUNG
 62
     0
100
AcDbLine
 10
120.5027901801799
 20
234.7501550567406
 30
0.0
 11
120.5027901801799
 21
240.9764231592292
 31
0.0
  0
LINE
  5
27922
330
274C4
100
AcDbEntity
  8
BEMASSUNG
 62
     0
100
AcDbLine
 10
280.0026997801799
 20
234.7501550567406
 30
0.0
 11
280.0026997801799
 21
240.9764231592292
 31
0.0
  0
LINE
  5
27923
330
274C4
100
AcDbEntity
  8
BEMASSUNG
 62
     0
100
AcDbLine
 10
123.00279018018
 20
239.7264231592292
 30
0.0
 11
277.5026997801798
 21
239.7264231592292
 31
0.0
  0
SOLID
  5
27924
330
274C4
100
AcDbEntity
  8
BEMASSUNG
 62
     0
100
AcDbTrace
 10
123.00279018018
 20
240.1430898258959
 30
0.0
 11
123.00279018018
 21
239.3097564925626
 31
0.0
 12
120.5027901801799
 22
239.7264231592292
 32
0.0
 13
120.5027901801799
 23
239.7264231592292
 33
0.0
  0
SOLID
  5
27925
330
274C4
100
AcDbEntity
  8
BEMASSUNG
 62
     0
100
AcDbTrace
 10
277.5026997801798
 20
240.1430898258959
 30
0.0
 11
277.5026997801798
 21
239.3097564925626
 31
0.0
 12
280.0026997801799
 22
239.7264231592292
 32
0.0
 13
280.0026997801799
 23
239.7264231592292
 33
0.0
  0
MTEXT
  5
27926
330
274C4
100
AcDbEntity
  8
BEMASSUNG
 62
     0
100
AcDbMText
 10
200.2527449801799
 20
241.8097564925626
 30
0.0
 40
2.5
 41
0.0
 71
     5
 72
     1
  1
\A1;159,5
  0
POINT
  5
27927
330
274C4
100
AcDbEntity
  8
DEFPOINTS
 62
     0
100
AcDbPoint
 10
120.5027901801799
 20
234.1251550567406
 30
0.0
  0
POINT
  5
27928
330
274C4
100
AcDbEntity
  8
DEFPOINTS
 62
     0
100
AcDbPoint
 10
280.0026997801799
 20
234.1251550567406
 30
0.0
  0
POINT
  5
27929
330
274C4
100
AcDbEntity
  8
DEFPOINTS
 62
     0
100
AcDbPoint
 10
280.0026997801799
 20
239.7264231592292
 30
0.0
  0
ENDBLK
  5
274CF
330
274C4
100
AcDbEntity
  8
0
100
AcDbBlockEnd
  0
BLOCK
  5
274DB
330
274D1
100
AcDbEntity
  8
0
100
AcDbBlockBegin
  2
*D2
 70
     1
 10
0.0
 20
0.0
 30
0.0
  3
*D2
  1

  0
LINE
  5
2792A
330
274D1
100
AcDbEntity
  8
BEMASSUNG
 62
     0
100
AcDbLine
 10
119.87779018018
 20
234.1251550567406
 30
0.0
 11
112.4683101508513
 21
234.1251550567406
 31
0.0
  0
LINE
  5
2792B
330
274D1
100
AcDbEntity
  8
BEMASSUNG
 62
     0
100
AcDbLine
 10
119.87779018018
 20
106.1251570567405
 30
0.0
 11
112.4683101508512
 21
106.1251570567405
 31
0.0
  0
LINE
  5
2792C
330
274D1
100
AcDbEntity
  8
BEMASSUNG
 62
     0
100
AcDbLine
 10
113.7183101508512
 20
231.6251550567406
 30
0.0
 11
113.7183101508512
 21
108.6251570567405
 31
0.0
  0
SOLID
  5
2792D
330
274D1
100
AcDbEntity
  8
BEMASSUNG
 62
     0
100
AcDbTrace
 10
113.3016434841846
 20
231.6251550567406
 30
0.0
 11
114.1349768175179
 21
231.6251550567406
 31
0.0
 12
113.7183101508512
 22
234.1251550567406
 32
0.0
 13
113.7183101508512
 23
234.1251550567406
 33
0.0
  0
SOLID
  5
2792E
330
274D1
100
AcDbEntity
  8
BEMASSUNG
 62
     0
100
AcDbTrace
 10
113.3016434841845
 20
108.6251570567405
 30
0.0
 11
114.1349768175179
 21
108.6251570567405
 31
0.0
 12
113.7183101508512
 22
106.1251570567405
 32
0.0
 13
113.7183101508512
 23
106.1251570567405
 33
0.0
  0
MTEXT
  5
2792F
330
274D1
100
AcDbEntity
  8
BEMASSUNG
 62
     0
100
AcDbMText
 10
111.8433101508512
 20
170.1251560567406
 30
0.0
 40
2.5
 41
0.0
 71
     5
 72
     1
  1
\A1;128
 11
0.0000000000000001
 21
1.0
 31
0.0
  0
POINT
  5
27930
330
274D1
100
AcDbEntity
  8
DEFPOINTS
 62
     0
100
AcDbPoint
 10
120.5027901801799
 20
234.1251550567406
 30
0.0
  0
POINT
  5
27931
330
274D1
100
AcDbEntity
  8
DEFPOINTS
 62
     0
100
AcDbPoint
 10
120.5027901801799
 20
106.1251570567405
 30
0.0
  0
POINT
  5
27932
330
274D1
100
AcDbEntity
  8
DEFPOINTS
 62
     0
100
AcDbPoint
 10
113.7183101508512
 20
106.1251570567405
 30
0.0
  0
ENDBLK
  5
274DC
330
274D1
100
AcDbEntity
  8
0
100
AcDbBlockEnd
  0
BLOCK
  5
275BE
330
275AE
100
AcDbEntity
  8
0
100
AcDbBlockBegin
  2
A$C1BF1606D
 70
     0
 10
0.0
 20
0.0
 30
0.0
  3
A$C1BF1606D
  1

  0
CIRCLE
  5
275AF
330
275AE
100
AcDbEntity
  8
BLECH
100
AcDbCircle
 10
2.499999347997345
 20
2.500000075356297
 30
0.0
 40
2.5
  0
LINE
  5
275B0
330
275AE
100
AcDbEntity
  8
BLECH
100
AcDbLine
 10
0.997129614991195
 20
4.497844555193069
 30
0.0
 11
2.287867313641243
 21
3.207106856542964
 31
0.0
  0
LINE
  5
275B1
330
275AE
100
AcDbEntity
  8
BLECH
100
AcDbLine
 10
0.5021548681605737
 20
4.002869808362447
 30
0.0
 11
1.792892566810735
 21
2.712132109712342
 31
0.0
  0
LINE
  5
275B2
330
275AE
100
AcDbEntity
  8
BLECH
100
AcDbLine
 10
1.07203392164564
 20
1.567009395835214
 30
0.0
 11
1.792892566810735
 21
2.287868041000422
 31
0.0
  0
LINE
  5
275B3
330
275AE
100
AcDbEntity
  8
BLECH
100
AcDbLine
 10
1.567008668476205
 20
1.072034649004649
 30
0.0
 11
2.287867313641413
 21
1.792893294169743
 31
0.0
  0
LINE
  5
275B4
330
275AE
100
AcDbEntity
  8
BLECH
100
AcDbLine
 10
1.567008668476205
 20
1.072034649004592
 30
0.0
 11
1.07203392164564
 21
1.567009395835214
 31
0.0
  0
LINE
  5
275B5
330
275AE
100
AcDbEntity
  8
BLECH
100
AcDbLine
 10
3.927964774348993
 20
3.432990754877437
 30
0.0
 11
3.432990027518371
 21
3.927965501708001
 31
0.0
  0
LINE
  5
275B6
330
275AE
100
AcDbEntity
  8
BLECH
100
AcDbLine
 10
2.71213138235322
 20
3.207106856542964
 30
0.0
 11
3.432990027518371
 21
3.927965501708001
 31
0.0
  0
LINE
  5
275B7
330
275AE
100
AcDbEntity
  8
BLECH
100
AcDbLine
 10
3.207106129183898
 20
2.287868041000308
 30
0.0
 11
4.49784382783406
 21
0.9971303423502035
 31
0.0
  0
LINE
  5
275B8
330
275AE
100
AcDbEntity
  8
BLECH
100
AcDbLine
 10
2.712131382353334
 20
1.792893294169687
 30
0.0
 11
4.002869081003495
 21
0.5021555955195823
 31
0.0
  0
LINE
  5
275B9
330
275AE
100
AcDbEntity
  8
BLECH
100
AcDbLine
 10
3.207106129183898
 20
2.712132109712229
 30
0.0
 11
3.927964774348993
 21
3.432990754877437
 31
0.0
  0
LINE
  5
275BA
330
275AE
100
AcDbEntity
  8
BLECH
100
AcDbLine
 10
1.792892566810735
 20
2.287868041000422
 30
0.0
 11
1.792892566810735
 21
2.712132109712342
 31
0.0
  0
LINE
  5
275BB
330
275AE
100
AcDbEntity
  8
BLECH
100
AcDbLine
 10
2.287867313641243
 20
3.207106856542964
 30
0.0
 11
2.71213138235322
 21
3.207106856542964
 31
0.0
  0
LINE
  5
275BC
330
275AE
100
AcDbEntity
  8
BLECH
100
AcDbLine
 10
3.207106129183898
 20
2.712132109712229
 30
0.0
 11
3.207106129183898
 21
2.287868041000308
 31
0.0
  0
LINE
  5
275BD
330
275AE
100
AcDbEntity
  8
BLECH
100
AcDbLine
 10
2.287867313641413
 20
1.792893294169743
 30
0.0
 11
2.712131382353334
 21
1.792893294169687
 31
0.0
  0
ENDBLK
  5
275BF
330
275AE
100
AcDbEntity
  8
0
100
AcDbBlockEnd
  0
ENDSEC
  0
SECTION
  2
ENTITIES
  0
LINE
  5
18531
330
18
100
AcDbEntity
  8
RAHMEN07
100
AcDbLine
 10
227.7999999999999
 20
22.0
 30
0.0
 11
227.7999999999999
 21
5.0
 31
0.0
  0
LINE
  5
1853B
330
18
100
AcDbEntity
  8
RAHMEN07
100
AcDbLine
 10
227.7999999999999
 20
22.0
 30
0.0
 11
415.0
 21
22.0
 31
0.0
  0
LINE
  5
1853D
330
18
100
AcDbEntity
  8
RAHMEN07
100
AcDbLine
 10
227.7999999999999
 20
5.0
 30
0.0
 11
415.0
 21
5.0
 31
0.0
  0
LINE
  5
18549
330
18
100
AcDbEntity
  8
RAHMEN025
100
AcDbLine
 10
282.3999999999998
 20
22.0
 30
0.0
 11
282.3999999999998
 21
5.0
 31
0.0
  0
LINE
  5
18553
330
18
100
AcDbEntity
  8
RAHMEN025
100
AcDbLine
 10
326.6000000000001
 20
22.0
 30
0.0
 11
326.6
 21
5.0
 31
0.0
  0
TEXT
  5
1856D
330
18
100
AcDbEntity
  8
RAHMEN025
100
AcDbText
 10
284.1719162866017
 20
17.5625
 30
0.0
 40
2.5
  1
Maßstab
  7
ISOCP
100
AcDbText
  0
INSERT
  5
185FF
330
18
100
AcDbEntity
  8
RAHMEN05
100
AcDbBlockReference
  2
A$C4EFE16F9
 10
230.6712335244649
 20
6.059781767167123
 30
0.0
 41
1.199999999999999
 42
1.199999999999999
 43
1.199999999999999
  0
TEXT
  5
18600
330
18
100
AcDbEntity
  8
RAHMEN025
100
AcDbText
 10
335.4160443883504
 20
14.04955403426225
 30
0.0
 40
5.809351702482672
  1
Layout RM420-013
  7
TASTENTEXT
100
AcDbText
  0
TEXT
  5
25437
330
18
100
AcDbEntity
  8
RAHMEN025
100
AcDbText
 10
353.7150063305755
 20
8.094828887211917
 30
0.0
 40
3.0
  1
Central Overbridge Panel
  7
TASTENTEXT
100
AcDbText
  0
TEXT
  5
26613
330
18
100
AcDbEntity
  8
RAHMEN025
100
AcDbText
 10
300.1726170171525
 20
17.39077894527963
 30
0.0
 40
2.5
  1
1:1 (DIN A3)
  7
ISOCP
100
AcDbText
  0
LWPOLYLINE
  5
2735B
330
18
100
AcDbEntity
  8
BESCHRIFTUNG
100
AcDbPolyline
 90
       15
 70
     1
 43
0.0762
 10
129.48349358018
 20
219.2465462567406
 10
129.9116867801799
 20
219.2465462567406
 10
130.1288567801798
 20
219.2548520567405
 10
130.2963951801798
 20
219.2879482567406
 10
130.4143019801799
 20
219.3582554567405
 10
130.4942865801799
 20
219.4375796567405
 10
130.5452897801799
 20
219.5582296567405
 10
130.5631967801798
 20
219.7119504567406
 10
130.5459755801798
 20
219.8436240567406
 10
130.4997983801799
 20
219.9463670567406
 10
130.4328947801798
 20
220.0284598567406
 10
130.3419373801798
 20
220.1036184567406
 10
130.2260879801799
 20
220.1456554567406
 10
130.0977925801798
 20
220.1587618567405
 10
129.48349358018
 20
220.1587618567405
  0
LWPOLYLINE
  5
2735C
330
18
100
AcDbEntity
  8
BESCHRIFTUNG
100
AcDbPolyline
 90
       21
 70
     1
 43
0.0762
 10
129.1484929801799
 20
218.9673494567406
 10
129.1484929801799
 20
220.4007476567404
 10
130.07919978018
 20
220.4007476567404
 10
130.3211855801798
 20
220.3855838567406
 10
130.5259603801798
 20
220.3290434567406
 10
130.6934987801798
 20
220.2145402567405
 10
130.80449678018
 20
220.0835524567405
 10
130.87416898018
 20
219.9112134567406
 10
130.89829898018
 20
219.6933576567405
 10
130.8914155801799
 20
219.5685674567406
 10
130.8679459801799
 20
219.4520322567405
 10
130.8238007801799
 20
219.3396626567405
 10
130.7569479801798
 20
219.2348622567406
 10
130.67350898018
 20
219.1466480567405
 10
130.5817895801799
 20
219.0790586567405
 10
130.5197627801799
 20
219.0425080567406
 10
130.4453153801798
 20
219.0100976567405
 10
130.35849818018
 20
218.9859422567404
 10
130.2543835801798
 20
218.9811416567405
 10
130.1337081801798
 20
218.9721754567405
 10
130.00480318018
 20
218.9673494567406
  0
LWPOLYLINE
  5
2735D
330
18
100
AcDbEntity
  8
BESCHRIFTUNG
100
AcDbPolyline
 90
       12
 70
     1
 43
0.0762
 10
131.8477001801797
 20
218.9673494567406
 10
131.8477001801797
 20
220.4007476567404
 10
132.1827007801798
 20
220.4007476567404
 10
132.1827007801798
 20
219.8608452567405
 10
133.2251929801798
 20
219.8608452567405
 10
133.2251929801798
 20
220.4007476567404
 10
133.5788879801798
 20
220.4007476567404
 10
133.5788879801798
 20
218.9673494567406
 10
133.2251929801798
 20
218.9673494567406
 10
133.2251929801798
 20
219.5816484567405
 10
132.1827007801798
 20
219.5816484567405
 10
132.1827007801798
 20
218.9673494567406
  0
LWPOLYLINE
  5
2735E
330
18
100
AcDbEntity
  8
BESCHRIFTUNG
100
AcDbPolyline
 90
       15
 70
     1
 43
0.0762
 10
134.95640618018
 20
219.2465462567406
 10
135.4031921801799
 20
219.2465462567406
 10
135.6162219801799
 20
219.2548520567405
 10
135.7796201801797
 20
219.2879482567406
 10
135.9058073801797
 20
219.3582554567405
 10
135.9857665801798
 20
219.4375796567405
 10
136.0367951801799
 20
219.5582296567405
 10
136.0547021801798
 20
219.7119504567406
 10
136.0367951801799
 20
219.8436240567406
 10
135.9857665801798
 20
219.9463670567406
 10
135.9058073801797
 20
220.0284598567406
 10
135.8188885801798
 20
220.1036184567406
 10
135.7072047801798
 20
220.1456554567406
 10
135.5707051801798
 20
220.1587618567405
 10
134.95640618018
 20
220.1587618567405
  0
LWPOLYLINE
  5
2735F
330
18
100
AcDbEntity
  8
BESCHRIFTUNG
100
AcDbPolyline
 90
       21
 70
     1
 43
0.0762
 10
134.6398967801799
 20
218.9673494567406
 10
134.6398967801799
 20
220.4007476567404
 10
135.5520869801798
 20
220.4007476567404
 10
135.7989241801799
 20
220.3855838567406
 10
136.01263978018
 20
220.3290434567406
 10
136.1850041801799
 20
220.2145402567405
 10
136.2960021801798
 20
220.0835524567405
 10
136.3656489801799
 20
219.9112134567406
 10
136.3898043801798
 20
219.6933576567405
 10
136.38289558018
 20
219.5685674567406
 10
136.3594513801799
 20
219.4520322567405
 10
136.3153061801799
 20
219.3396626567405
 10
136.2401729801799
 20
219.2348622567406
 10
136.1608741801799
 20
219.1466480567405
 10
136.0732949801799
 20
219.0790586567405
 10
135.9981871801799
 20
219.0425080567406
 10
135.9188883801798
 20
219.0100976567405
 10
135.8313091801799
 20
218.9859422567404
 10
135.7313347801798
 20
218.9811416567405
 10
135.6148249801799
 20
218.9721754567405
 10
135.4775887801799
 20
218.9673494567406
  0
LWPOLYLINE
  5
27360
330
18
100
AcDbEntity
  8
0
  6
CONTINUOUS
100
AcDbPolyline
 90
        2
 70
     0
 43
0.4939030000000001
 10
139.41880518018
 20
219.1209432567406
 10
160.7632515990094
 20
219.1209432567406
  0
LWPOLYLINE
  5
2736B
330
18
100
AcDbEntity
  8
BESCHRIFTUNG
100
AcDbPolyline
 90
        8
 70
     1
 43
0.0
 10
125.2137164430698
 20
216.5808283190705
 10
155.2515782444634
 20
216.5808283190705
 42
-0.4142135623730951
 10
156.2515782444634
 20
215.5808283190705
 10
156.2515782444634
 20
211.0085045363817
 42
-0.4142135623730951
 10
155.2515782444634
 20
210.0085045363818
 10
125.2137164430698
 20
210.0085045363818
 42
-0.4142135623730951
 10
124.2137164430698
 20
211.0085045363817
 10
124.2137164430698
 20
215.5808283190705
 42
-0.4142135623730951
  0
LWPOLYLINE
  5
2736C
330
18
100
AcDbEntity
  8
BESCHRIFTUNG
100
AcDbPolyline
 90
        8
 70
     1
 43
0.0
 10
125.2137164430698
 20
206.5806451190705
 10
155.2515782444634
 20
206.5806451190705
 42
-0.4142135623730951
 10
156.2515782444634
 20
205.5806451190704
 10
156.2515782444634
 20
201.0083213363817
 42
-0.4142135623730951
 10
155.2515782444634
 20
200.0083213363817
 10
125.2137164430698
 20
200.0083213363817
 42
-0.4142135623730951
 10
124.2137164430698
 20
201.0083213363817
 10
124.2137164430698
 20
205.5806451190704
 42
-0.4142135623730951
  0
LWPOLYLINE
  5
2736D
330
18
100
AcDbEntity
  8
BESCHRIFTUNG
100
AcDbPolyline
 90
        8
 70
     1
 43
0.0
 10
245.2132478430698
 20
216.5808283190705
 10
275.2511096444634
 20
216.5808283190705
 42
-0.4142135623730951
 10
276.2511096444634
 20
215.5808283190705
 10
276.2511096444634
 20
211.0085045363817
 42
-0.4142135623730951
 10
275.2511096444634
 20
210.0085045363818
 10
245.2132478430698
 20
210.0085045363818
 42
-0.4142135623730951
 10
244.2132478430699
 20
211.0085045363817
 10
244.2132478430699
 20
215.5808283190705
 42
-0.4142135623730951
  0
LWPOLYLINE
  5
2736E
330
18
100
AcDbEntity
  8
BESCHRIFTUNG
100
AcDbPolyline
 90
        8
 70
     1
 43
0.0
 10
245.2132478430698
 20
206.5806451190705
 10
275.2511096444634
 20
206.5806451190705
 42
-0.4142135623730951
 10
276.2511096444634
 20
205.5806451190704
 10
276.2511096444634
 20
201.0083213363817
 42
-0.4142135623730951
 10
275.2511096444634
 20
200.0083213363817
 10
245.2132478430698
 20
200.0083213363817
 42
-0.4142135623730951
 10
244.2132478430699
 20
201.0083213363817
 10
244.2132478430699
 20
205.5806451190704
 42
-0.4142135623730951
  0
LWPOLYLINE
  5
2736F
330
18
100
AcDbEntity
  8
0
  6
CONTINUOUS
100
AcDbPolyline
 90
        2
 70
     0
 43
0.4939030000000001
 10
239.7475782428714
 20
219.1209432567406
 10
271.2010917801799
 20
219.1209432567406
  0
LWPOLYLINE
  5
27370
330
18
100
AcDbEntity
  8
0
  6
CONTINUOUS
100
AcDbPolyline
 90
        2
 70
     0
 43
0.4939030000000001
 10
165.7632515990094
 20
219.1209432567406
 10
234.7475782428714
 20
219.1209432567406
  0
LWPOLYLINE
  5
27371
330
18
100
AcDbEntity
  8
BESCHRIFTUNG
100
AcDbPolyline
 90
       15
 70
     1
 43
0.0762
 10
129.48349358018
 20
219.2465462567405
 10
129.9116867801799
 20
219.2465462567405
 10
130.1288567801798
 20
219.2548520567405
 10
130.2963951801798
 20
219.2879482567406
 10
130.4143019801799
 20
219.3582554567407
 10
130.4942865801799
 20
219.4375796567407
 10
130.5452897801799
 20
219.5582296567405
 10
130.56319678018
 20
219.7119504567407
 10
130.5459755801798
 20
219.8436240567406
 10
130.4997983801799
 20
219.9463670567405
 10
130.43289478018
 20
220.0284598567406
 10
130.3419373801798
 20
220.1036184567407
 10
130.2260879801799
 20
220.1456554567406
 10
130.0977925801798
 20
220.1587618567406
 10
129.48349358018
 20
220.1587618567406
  0
LWPOLYLINE
  5
27372
330
18
100
AcDbEntity
  8
BESCHRIFTUNG
100
AcDbPolyline
 90
       21
 70
     1
 43
0.0762
 10
129.1484929801799
 20
218.9673494567406
 10
129.1484929801799
 20
220.4007476567407
 10
130.0791997801798
 20
220.4007476567407
 10
130.3211855801798
 20
220.3855838567406
 10
130.52596038018
 20
220.3290434567406
 10
130.6934987801798
 20
220.2145402567406
 10
130.80449678018
 20
220.0835524567406
 10
130.87416898018
 20
219.9112134567406
 10
130.8982989801797
 20
219.6933576567406
 10
130.8914155801799
 20
219.5685674567406
 10
130.8679459801799
 20
219.4520322567405
 10
130.8238007801799
 20
219.3396626567406
 10
130.75694798018
 20
219.2348622567407
 10
130.67350898018
 20
219.1466480567406
 10
130.5817895801799
 20
219.0790586567405
 10
130.5197627801799
 20
219.0425080567405
 10
130.44531538018
 20
219.0100976567406
 10
130.35849818018
 20
218.9859422567407
 10
130.2543835801798
 20
218.9811416567405
 10
130.1337081801798
 20
218.9721754567407
 10
130.0048031801798
 20
218.9673494567406
  0
LWPOLYLINE
  5
27373
330
18
100
AcDbEntity
  8
BESCHRIFTUNG
100
AcDbPolyline
 90
       12
 70
     1
 43
0.0762
 10
131.8477001801797
 20
218.9673494567406
 10
131.8477001801797
 20
220.4007476567407
 10
132.1827007801798
 20
220.4007476567407
 10
132.1827007801798
 20
219.8608452567406
 10
133.22519298018
 20
219.8608452567406
 10
133.22519298018
 20
220.4007476567407
 10
133.5788879801798
 20
220.4007476567407
 10
133.5788879801798
 20
218.9673494567406
 10
133.22519298018
 20
218.9673494567406
 10
133.22519298018
 20
219.5816484567407
 10
132.1827007801798
 20
219.5816484567407
 10
132.1827007801798
 20
218.9673494567406
  0
LWPOLYLINE
  5
27374
330
18
100
AcDbEntity
  8
BESCHRIFTUNG
100
AcDbPolyline
 90
       15
 70
     1
 43
0.0762
 10
134.95640618018
 20
219.2465462567405
 10
135.4031921801799
 20
219.2465462567405
 10
135.6162219801799
 20
219.2548520567405
 10
135.7796201801797
 20
219.2879482567406
 10
135.9058073801797
 20
219.3582554567407
 10
135.9857665801798
 20
219.4375796567407
 10
136.0367951801799
 20
219.5582296567405
 10
136.0547021801798
 20
219.7119504567407
 10
136.0367951801799
 20
219.8436240567406
 10
135.9857665801798
 20
219.9463670567405
 10
135.9058073801797
 20
220.0284598567406
 10
135.8188885801798
 20
220.1036184567407
 10
135.7072047801798
 20
220.1456554567406
 10
135.57070518018
 20
220.1587618567406
 10
134.95640618018
 20
220.1587618567406
  0
LWPOLYLINE
  5
27375
330
18
100
AcDbEntity
  8
BESCHRIFTUNG
100
AcDbPolyline
 90
       21
 70
     1
 43
0.0762
 10
134.6398967801799
 20
218.9673494567406
 10
134.6398967801799
 20
220.4007476567407
 10
135.5520869801798
 20
220.4007476567407
 10
135.7989241801799
 20
220.3855838567406
 10
136.01263978018
 20
220.3290434567406
 10
136.1850041801799
 20
220.2145402567406
 10
136.29600218018
 20
220.0835524567406
 10
136.3656489801799
 20
219.9112134567406
 10
136.38980438018
 20
219.6933576567406
 10
136.38289558018
 20
219.5685674567406
 10
136.3594513801799
 20
219.4520322567405
 10
136.3153061801799
 20
219.3396626567406
 10
136.2401729801799
 20
219.2348622567407
 10
136.1608741801799
 20
219.1466480567406
 10
136.0732949801799
 20
219.0790586567405
 10
135.9981871801799
 20
219.0425080567405
 10
135.9188883801798
 20
219.0100976567406
 10
135.8313091801799
 20
218.9859422567407
 10
135.73133478018
 20
218.9811416567405
 10
135.6148249801799
 20
218.9721754567407
 10
135.4775887801799
 20
218.9673494567406
  0
LWPOLYLINE
  5
27376
330
18
100
AcDbEntity
  8
BESCHRIFTUNG
100
AcDbPolyline
 90
        5
 70
     0
 43
0.388112
 10
131.5775965801799
 20
226.3776535835959
 10
129.9520981801799
 20
225.0899432567406
 10
129.9520981801799
 20
231.5595518567405
 10
134.0150059801799
 20
228.3085550567406
 10
132.7901665145654
 20
227.3382443947234
  0
LWPOLYLINE
  5
27377
330
18
100
AcDbEntity
  8
BESCHRIFTUNG
100
AcDbPolyline
 90
        3
 70
     1
 43
0.388112
 10
131.5775965801799
 20
228.3085550567406
 10
135.64040278018
 20
225.0574566567405
 10
131.5775965801799
 20
221.8389464567406
  0
LWPOLYLINE
  5
27378
330
18
100
AcDbEntity
  8
BESCHRIFTUNG
100
AcDbPolyline
 90
       33
 70
     1
 43
0.0762
 10
253.41768818018
 20
213.3384554567407
 10
253.4588869801798
 20
213.7662168567406
 10
253.5825595801798
 20
214.1271254567405
 10
253.7889091801798
 20
214.4211558567407
 10
254.0605621801798
 20
214.6384782567405
 10
254.38024658018
 20
214.7689326567407
 10
254.7480893801798
 20
214.8124428567406
 10
254.9959425801798
 20
214.7919958567405
 10
255.22713338018
 20
214.7307310567406
 10
255.4414077801798
 20
214.6287500567406
 10
255.6308663801798
 20
214.4898882567405
 10
255.7878383801798
 20
214.3189716567407
 10
255.91219678018
 20
214.1158478567407
 10
256.0021635801799
 20
213.8871970567405
 10
256.0559861801798
 20
213.6387088567406
 10
256.0738931801799
 20
213.3708404567406
 10
256.0550971801799
 20
213.0987810567406
 10
255.9985313801798
 20
212.8466860567406
 10
255.9037893801798
 20
212.6147586567407
 10
255.77424938018
 20
212.4103648567405
 10
255.6132387801799
 20
212.2420390567407
 10
255.4207067801799
 20
212.1096542567405
 10
255.20658478018
 20
212.0143280567407
 10
254.9818201801799
 20
211.9572542567406
 10
254.7461081801798
 20
211.9382550567405
 10
254.4936321801799
 20
211.9592100567407
 10
254.25997758018
 20
212.0222782567406
 10
254.0449919801799
 20
212.1277644567407
 10
253.8554825801798
 20
212.2693694567407
 10
253.6994503801799
 20
212.4418862567405
 10
253.5767937801799
 20
212.6451624567406
 10
253.4884017801798
 20
212.8676156567406
 10
253.43536658018
 20
213.0988064567405
  0
LWPOLYLINE
  5
27379
330
18
100
AcDbEntity
  8
BESCHRIFTUNG
100
AcDbPolyline
 90
       27
 70
     1
 43
0.0762
 10
253.7967069801798
 20
213.3326642567407
 10
253.8266535801799
 20
213.0215396567406
 10
253.9165695801798
 20
212.7579638567407
 10
254.0664041801799
 20
212.5416574567406
 10
254.2619333801799
 20
212.3810532567405
 10
254.4878155801798
 20
212.2846856567406
 10
254.7442031801799
 20
212.2525546567406
 10
255.0046293801799
 20
212.2849142567405
 10
255.2322895801799
 20
212.3820946567406
 10
255.4272091801799
 20
212.5442482567406
 10
255.57610398018
 20
212.7661172567405
 10
255.6656897801799
 20
213.0422914567406
 10
255.69558558018
 20
213.3727454567405
 10
255.6827077801799
 20
213.5889756567406
 10
255.64425218018
 20
213.7862574567406
 10
255.5804981801798
 20
213.9645400567407
 10
255.49228398018
 20
214.1206738567406
 10
255.3805493801799
 20
214.2515092567406
 10
255.2453959801798
 20
214.3571478567406
 10
255.09210698018
 20
214.4342876567406
 10
254.9270069801798
 20
214.4806680567406
 10
254.7499943801799
 20
214.4961620567406
 10
254.5016331801798
 20
214.4663932567406
 10
254.2776813801799
 20
214.3769852567405
 10
254.0779865801798
 20
214.2277602567407
 10
253.92170038018
 20
214.0091932567405
 10
253.8279489801798
 20
213.7107432567405
  0
LWPOLYLINE
  5
2737A
330
18
100
AcDbEntity
  8
BESCHRIFTUNG
100
AcDbPolyline
 90
       10
 70
     1
 43
0.0762
 10
256.54419958018
 20
211.9854482567406
 10
256.54419958018
 20
214.7633446567405
 10
256.9211863801799
 20
214.7633446567405
 10
258.3802893801798
 20
212.5824498567407
 10
258.3802893801798
 20
214.7633446567405
 10
258.7327905801799
 20
214.7633446567405
 10
258.7327905801799
 20
211.9854482567406
 10
258.3558037801799
 20
211.9854482567406
 10
256.8967007801798
 20
214.1682480567407
 10
256.8967007801798
 20
211.9854482567406
  0
LWPOLYLINE
  5
2737B
330
18
100
AcDbEntity
  8
BESCHRIFTUNG
100
AcDbPolyline
 90
        8
 70
     1
 43
0.0762
 10
260.6625047801799
 20
211.9854482567406
 10
261.7296095801798
 20
214.7633446567405
 10
262.1254939801799
 20
214.7633446567405
 10
263.2624995801797
 20
211.9854482567406
 10
262.8433995801799
 20
211.9854482567406
 10
262.5192955801799
 20
212.8268486567407
 10
261.3578043801799
 20
212.8268486567407
 10
261.0531059801799
 20
211.9854482567406
  0
LWPOLYLINE
  5
2737C
330
18
100
AcDbEntity
  8
BESCHRIFTUNG
100
AcDbPolyline
 90
        9
 70
     1
 43
0.0762
 10
261.4637985801798
 20
213.1263400567405
 10
262.4061893801799
 20
213.1263400567405
 10
262.1157911801799
 20
213.8953504567406
 10
262.0351715801798
 20
214.1150604567406
 10
261.9695125801799
 20
214.3071606567406
 10
261.9190935801798
 20
214.4716510567405
 10
261.8788091801798
 20
214.2937494567405
 10
261.8288473801799
 20
214.1168384567405
 10
261.76910658018
 20
213.9406640567407
  0
LWPOLYLINE
  5
2737D
330
18
100
AcDbEntity
  8
BESCHRIFTUNG
100
AcDbPolyline
 90
        4
 70
     1
 43
0.0762
 10
263.6188869801799
 20
211.9854482567406
 10
263.6188869801799
 20
214.7633446567405
 10
263.9862979801798
 20
214.7633446567405
 10
263.9862979801798
 20
211.9854482567406
  0
LWPOLYLINE
  5
2737E
330
18
100
AcDbEntity
  8
BESCHRIFTUNG
100
AcDbPolyline
 90
       41
 70
     1
 43
0.0762
 10
264.64019558018
 20
211.9854482567406
 10
264.64019558018
 20
214.7633446567405
 10
265.8715875801799
 20
214.7633446567405
 10
266.09947638018
 20
214.7549372567406
 10
266.2876649801798
 20
214.7298674567406
 10
266.4362041801798
 20
214.6882622567405
 10
266.5563715801799
 20
214.6257528567406
 10
266.6593685801799
 20
214.5378180567405
 10
266.7453983801799
 20
214.4244578567405
 10
266.8094571801798
 20
214.2933430567405
 10
266.8477603801798
 20
214.1536430567406
 10
266.8604857801799
 20
214.0053578567407
 10
266.83932758018
 20
213.8185662567406
 10
266.7755989801798
 20
213.6526280567405
 10
266.6690967801798
 20
213.5072638567407
 10
266.5184239801799
 20
213.3884934567405
 10
266.3212945801799
 20
213.3024636567405
 10
266.0778863801799
 20
213.2492506567406
 10
266.16762458018
 20
213.2028702567405
 10
266.2415385801798
 20
213.1567692567406
 10
266.29980618018
 20
213.1108460567405
 10
266.4052161801798
 20
213.0041660567406
 10
266.5069431801798
 20
212.8809506567405
 10
266.6050887801798
 20
212.7415554567406
 10
267.0881967801799
 20
211.9854482567406
 10
266.6256881801798
 20
211.9854482567406
 10
266.2584041801799
 20
212.5636538567406
 10
266.15726138018
 20
212.7170698567405
 10
266.0686661801798
 20
212.8446286567406
 10
265.9925931801799
 20
212.9458476567407
 10
265.9257657801799
 20
213.0256290567407
 10
265.8636627801799
 20
213.0875542567406
 10
265.8063095801799
 20
213.1315470567407
 10
265.7510645801798
 20
213.1634494567405
 10
265.6952861801798
 20
213.1881636567405
 10
265.63879658018
 20
213.2058420567406
 10
265.5880473801798
 20
213.2130048567406
 10
265.5198229801799
 20
213.2173736567407
 10
265.4337931801799
 20
213.2188468567406
 10
265.0075049801798
 20
213.2188468567406
 10
265.0075049801798
 20
211.9854482567406
  0
LWPOLYLINE
  5
2737F
330
18
100
AcDbEntity
  8
BESCHRIFTUNG
100
AcDbPolyline
 90
       18
 70
     1
 43
0.0762
 10
265.0075049801798
 20
213.5370580567406
 10
265.79790218018
 20
213.5370580567406
 10
265.9534517801798
 20
213.5428746567405
 10
266.0848967801798
 20
213.5603498567405
 10
266.1918053801798
 20
213.5894582567406
 10
266.2790797801799
 20
213.6312412567407
 10
266.3510379801798
 20
213.6868418567406
 10
266.4078069801798
 20
213.7562600567406
 10
266.44872638018
 20
213.8348222567407
 10
266.4733135801798
 20
213.9178040567407
 10
266.48149238018
 20
214.0053578567407
 10
266.4657189801798
 20
214.1288526567405
 10
266.4181701801799
 20
214.2368534567407
 10
266.3385919801799
 20
214.3293602567406
 10
266.2249523801799
 20
214.3998452567406
 10
266.0742541801798
 20
214.4420346567406
 10
265.8864973801799
 20
214.4560554567407
 10
265.0075049801798
 20
214.4560554567407
  0
LWPOLYLINE
  5
27380
330
18
100
AcDbEntity
  8
BESCHRIFTUNG
100
AcDbPolyline
 90
       23
 70
     1
 43
0.0762
 10
131.9711949801799
 20
201.9852396567406
 10
131.9711949801799
 20
204.7631614567407
 10
133.0188941801798
 20
204.7631614567407
 10
133.1887439801798
 20
204.7601388567406
 10
133.32958698018
 20
204.7512234567406
 10
133.4412961801799
 20
204.7365422567405
 10
133.5704043801799
 20
204.7070528567406
 10
133.6848567801798
 20
204.6637204567406
 10
133.7847041801799
 20
204.6065450567406
 10
133.87068318018
 20
204.5344598567406
 10
133.94490198018
 20
204.4450772567405
 10
134.0072081801799
 20
204.3388544567406
 10
134.0539695801799
 20
204.2200332567405
 10
134.0819857801798
 20
204.0937444567406
 10
134.0913075801799
 20
203.9598610567405
 10
134.0662631801799
 20
203.7356552567406
 10
133.9912315801798
 20
203.5355032567405
 10
133.86618738018
 20
203.3596590567407
 10
133.67517938018
 20
203.2236674567406
 10
133.4035263801799
 20
203.1418794567406
 10
133.0513045801799
 20
203.1145490567406
 10
132.3385043801799
 20
203.1145490567406
 10
132.3385043801799
 20
201.9852396567406
  0
LWPOLYLINE
  5
27381
330
18
100
AcDbEntity
  8
BESCHRIFTUNG
100
AcDbPolyline
 90
       18
 70
     1
 43
0.0762
 10
132.3385043801799
 20
203.4424630567406
 10
133.0570957801799
 20
203.4424630567406
 10
133.27154798018
 20
203.4571188567405
 10
133.44015318018
 20
203.5012640567405
 10
133.56280978018
 20
203.5750510567405
 10
133.6457915801799
 20
203.6755080567405
 10
133.6956009801799
 20
203.7998156567406
 10
133.71218718018
 20
203.9481516567406
 10
133.70248438018
 20
204.0590226567406
 10
133.6732235801801
 20
204.1586160567407
 10
133.62430318018
 20
204.2469572567405
 10
133.5593299801798
 20
204.3203124567406
 10
133.4820631801799
 20
204.3748208567407
 10
133.3920963801799
 20
204.4106602567406
 10
133.3127213801799
 20
204.4241730567406
 10
133.1985483801799
 20
204.4324534567405
 10
133.0492979801799
 20
204.4352474567407
 10
132.3385043801799
 20
204.4352474567407
  0
LWPOLYLINE
  5
27382
330
18
100
AcDbEntity
  8
BESCHRIFTUNG
100
AcDbPolyline
 90
       12
 70
     1
 43
0.0762
 10
134.57050398018
 20
201.9852396567406
 10
134.57050398018
 20
204.7631614567407
 10
134.9386007801799
 20
204.7631614567407
 10
134.9386007801799
 20
203.6222442567406
 10
136.38210818018
 20
203.6222442567406
 10
136.38210818018
 20
204.7631614567407
 10
136.7502049801798
 20
204.7631614567407
 10
136.7502049801798
 20
201.9852396567406
 10
136.38210818018
 20
201.9852396567406
 10
136.38210818018
 20
203.2943556567405
 10
134.9386007801799
 20
203.2943556567405
 10
134.9386007801799
 20
201.9852396567406
  0
LWPOLYLINE
  5
27383
330
18
100
AcDbEntity
  8
BESCHRIFTUNG
100
AcDbPolyline
 90
       33
 70
     1
 43
0.0762
 10
137.2501023801798
 20
203.3382468567407
 10
137.2913011801799
 20
203.7660082567405
 10
137.4149737801799
 20
204.1269168567406
 10
137.6212979801798
 20
204.4209472567405
 10
137.8929509801798
 20
204.6382696567405
 10
138.21263538018
 20
204.7687494567406
 10
138.5805035801799
 20
204.8122596567405
 10
138.8283567801799
 20
204.7918126567407
 10
139.0595475801799
 20
204.7305224567407
 10
139.2737965801797
 20
204.6285414567406
 10
139.4632805801798
 20
204.4896796567405
 10
139.62025258018
 20
204.3187884567406
 10
139.74458558018
 20
204.1156646567407
 10
139.8345523801799
 20
203.8869884567406
 10
139.8884003801799
 20
203.6385002567407
 10
139.9063073801799
 20
203.3706572567406
 10
139.88751138018
 20
203.0985724567407
 10
139.8309201801798
 20
202.8464774567406
 10
139.7362035801797
 20
202.6145500567405
 10
139.6066635801798
 20
202.4101562567405
 10
139.4456275801799
 20
202.2418558567407
 10
139.2530955801798
 20
202.1094456567406
 10
139.03897358018
 20
202.0141194567405
 10
138.8142089801799
 20
201.9570456567406
 10
138.5784969801798
 20
201.9380464567406
 10
138.3260463801798
 20
201.9590014567405
 10
138.0923917801799
 20
202.0220696567406
 10
137.87740618018
 20
202.1275558567407
 10
137.68787138018
 20
202.2691608567405
 10
137.5318391801799
 20
202.4416776567405
 10
137.4092079801798
 20
202.6449538567407
 10
137.32079058018
 20
202.8674070567407
 10
137.26775538018
 20
203.0985978567406
  0
LWPOLYLINE
  5
27384
330
18
100
AcDbEntity
  8
BESCHRIFTUNG
100
AcDbPolyline
 90
       27
 70
     1
 43
0.0762
 10
137.6290957801797
 20
203.3324556567405
 10
137.65906778018
 20
203.0213310567406
 10
137.7489583801798
 20
202.7577806567407
 10
137.8987929801799
 20
202.5414488567406
 10
138.0943221801799
 20
202.3808446567405
 10
138.3202043801798
 20
202.2844770567406
 10
138.5765919801799
 20
202.2523460567405
 10
138.8370181801799
 20
202.2847056567405
 10
139.06470378018
 20
202.3818860567406
 10
139.2595979801799
 20
202.5440396567406
 10
139.4085181801799
 20
202.7659086567406
 10
139.4980785801799
 20
203.0420828567406
 10
139.5279997801799
 20
203.3725622567406
 10
139.51512198018
 20
203.5887924567406
 10
139.47664098018
 20
203.7860488567406
 10
139.4128869801797
 20
203.9643568567406
 10
139.3246981801798
 20
204.1204652567406
 10
139.2129381801799
 20
204.2513006567406
 10
139.07778478018
 20
204.3569646567406
 10
138.9245211801799
 20
204.4341044567405
 10
138.7594211801799
 20
204.4804594567407
 10
138.58240858018
 20
204.4959534567407
 10
138.3340473801799
 20
204.4661846567406
 10
138.1100955801798
 20
204.3767766567406
 10
137.9104007801799
 20
204.2275516567407
 10
137.75408918018
 20
204.0090100567405
 10
137.6603377801798
 20
203.7105346567406
  0
LWPOLYLINE
  5
27385
330
18
100
AcDbEntity
  8
BESCHRIFTUNG
100
AcDbPolyline
 90
       10
 70
     1
 43
0.0762
 10
140.37658838018
 20
201.9852396567406
 10
140.37658838018
 20
204.7631614567407
 10
140.7536005801798
 20
204.7631614567407
 10
142.21270358018
 20
202.5822412567405
 10
142.21270358018
 20
204.7631614567407
 10
142.56520478018
 20
204.7631614567407
 10
142.56520478018
 20
201.9852396567406
 10
142.1881925801799
 20
201.9852396567406
 10
140.7290895801797
 20
204.1680394567405
 10
140.7290895801797
 20
201.9852396567406
  0
LWPOLYLINE
  5
27386
330
18
100
AcDbEntity
  8
BESCHRIFTUNG
100
AcDbPolyline
 90
       12
 70
     1
 43
0.0762
 10
143.1906035801798
 20
201.9852396567406
 10
143.1906035801798
 20
204.7631614567407
 10
145.1988037801798
 20
204.7631614567407
 10
145.1988037801798
 20
204.4352474567407
 10
143.5579891801799
 20
204.4352474567407
 10
143.5579891801799
 20
203.5847538567405
 10
145.09468918018
 20
203.5847538567405
 10
145.09468918018
 20
203.2587448567407
 10
143.5579891801799
 20
203.2587448567407
 10
143.5579891801799
 20
202.3131536567406
 10
145.26349758018
 20
202.3131536567406
 10
145.26349758018
 20
201.9852396567406
  0
LWPOLYLINE
  5
27387
330
18
100
AcDbEntity
  8
BESCHRIFTUNG
100
AcDbPolyline
 90
       17
 70
     1
 43
0.0762
 10
148.5345857801799
 20
201.9852396567406
 10
148.19379398018
 20
201.9852396567406
 10
148.19379398018
 20
204.1583620567406
 10
148.10319218018
 20
204.0801300567405
 10
147.99567398018
 20
204.0018726567406
 10
147.8709853801799
 20
203.9236406567405
 10
147.7418771801799
 20
203.8518348567405
 10
147.62203998018
 20
203.7931354567405
 10
147.51139758018
 20
203.7476440567405
 10
147.51139758018
 20
204.0768534567406
 10
147.69422678018
 20
204.1730178567405
 10
147.86110478018
 20
204.2816790567406
 10
148.0120061801799
 20
204.4028624567405
 10
148.14068258018
 20
204.5294814567406
 10
148.2419269801798
 20
204.6533318567406
 10
148.3154091801798
 20
204.7747438567406
 10
148.5345857801799
 20
204.7747438567406
  0
LWPOLYLINE
  5
27388
330
18
100
AcDbEntity
  8
BESCHRIFTUNG
100
AcDbPolyline
 90
       23
 70
     1
 43
0.0762
 10
251.7170057801799
 20
201.9852396567406
 10
251.7170057801799
 20
204.7631614567407
 10
252.7647049801799
 20
204.7631614567407
 10
252.9345293801798
 20
204.7601388567406
 10
253.0753977801798
 20
204.7512234567406
 10
253.18710698018
 20
204.7365422567405
 10
253.3161897801799
 20
204.7070528567406
 10
253.4306675801799
 20
204.6637204567406
 10
253.5304895801798
 20
204.6065450567406
 10
253.61646858018
 20
204.5344598567406
 10
253.6906873801799
 20
204.4450772567405
 10
253.7529935801799
 20
204.3388544567406
 10
253.79978038018
 20
204.2200332567405
 10
253.82777118018
 20
204.0937444567406
 10
253.8370929801799
 20
203.9598610567405
 10
253.8120739801799
 20
203.7356552567406
 10
253.7370169801799
 20
203.5355032567405
 10
253.6119981801798
 20
203.3596590567407
 10
253.4209647801799
 20
203.2236674567406
 10
253.1493117801799
 20
203.1418794567406
 10
252.7970899801798
 20
203.1145490567406
 10
252.0842897801799
 20
203.1145490567406
 10
252.0842897801799
 20
201.9852396567406
  0
LWPOLYLINE
  5
27389
330
18
100
AcDbEntity
  8
BESCHRIFTUNG
100
AcDbPolyline
 90
       18
 70
     1
 43
0.0762
 10
252.0842897801799
 20
203.4424630567406
 10
252.8029065801799
 20
203.4424630567406
 10
253.0173333801799
 20
203.4571188567405
 10
253.1859639801798
 20
203.5012640567405
 10
253.3085951801799
 20
203.5750510567405
 10
253.3916023801798
 20
203.6755080567405
 10
253.4413863801798
 20
203.7998156567406
 10
253.4579979801799
 20
203.9481516567406
 10
253.44826978018
 20
204.0590226567406
 10
253.41900898018
 20
204.1586160567407
 10
253.3700885801799
 20
204.2469572567405
 10
253.3051407801799
 20
204.3203124567406
 10
253.2278485801798
 20
204.3748208567407
 10
253.1379071801798
 20
204.4106602567406
 10
253.0585067801798
 20
204.4241730567406
 10
252.9443591801798
 20
204.4324534567405
 10
252.7951087801798
 20
204.4352474567407
 10
252.0842897801799
 20
204.4352474567407
  0
LWPOLYLINE
  5
2738A
330
18
100
AcDbEntity
  8
BESCHRIFTUNG
100
AcDbPolyline
 90
       12
 70
     1
 43
0.0762
 10
254.31628938018
 20
201.9852396567406
 10
254.31628938018
 20
204.7631614567407
 10
254.6843861801799
 20
204.7631614567407
 10
254.6843861801799
 20
203.6222442567406
 10
256.1278935801799
 20
203.6222442567406
 10
256.1278935801799
 20
204.7631614567407
 10
256.49599038018
 20
204.7631614567407
 10
256.49599038018
 20
201.9852396567406
 10
256.1278935801799
 20
201.9852396567406
 10
256.1278935801799
 20
203.2943556567405
 10
254.6843861801799
 20
203.2943556567405
 10
254.6843861801799
 20
201.9852396567406
  0
LWPOLYLINE
  5
2738B
330
18
100
AcDbEntity
  8
BESCHRIFTUNG
100
AcDbPolyline
 90
       33
 70
     1
 43
0.0762
 10
256.99588778018
 20
203.3382468567407
 10
257.0370865801799
 20
203.7660082567405
 10
257.1607591801798
 20
204.1269168567406
 10
257.3671087801799
 20
204.4209472567405
 10
257.6387617801799
 20
204.6382696567405
 10
257.9584461801798
 20
204.7687494567406
 10
258.3262889801799
 20
204.8122596567405
 10
258.5741421801799
 20
204.7918126567407
 10
258.8053329801798
 20
204.7305224567407
 10
259.0196073801798
 20
204.6285414567406
 10
259.2090913801798
 20
204.4896796567405
 10
259.3660379801799
 20
204.3187884567406
 10
259.4903963801798
 20
204.1156646567407
 10
259.58036318018
 20
203.8869884567406
 10
259.6341857801799
 20
203.6385002567407
 10
259.6520927801798
 20
203.3706572567406
 10
259.6332967801799
 20
203.0985724567407
 10
259.5767309801799
 20
202.8464774567406
 10
259.4819889801799
 20
202.6145500567405
 10
259.3524489801798
 20
202.4101562567405
 10
259.1914383801799
 20
202.2418558567407
 10
258.9989063801799
 20
202.1094456567406
 10
258.7847843801798
 20
202.0141194567405
 10
258.56001978018
 20
201.9570456567406
 10
258.3243077801798
 20
201.9380464567406
 10
258.07183178018
 20
201.9590014567405
 10
257.8381771801798
 20
202.0220696567406
 10
257.62319158018
 20
202.1275558567407
 10
257.4336821801798
 20
202.2691608567405
 10
257.2776499801798
 20
202.4416776567405
 10
257.1549933801798
 20
202.6449538567407
 10
257.0666013801799
 20
202.8674070567407
 10
257.0135661801798
 20
203.0985978567406
  0
LWPOLYLINE
  5
2738C
330
18
100
AcDbEntity
  8
BESCHRIFTUNG
100
AcDbPolyline
 90
       27
 70
     1
 43
0.0762
 10
257.3749065801798
 20
203.3324556567405
 10
257.4048531801799
 20
203.0213310567406
 10
257.4947691801799
 20
202.7577806567407
 10
257.6446037801799
 20
202.5414488567406
 10
257.84013298018
 20
202.3808446567405
 10
258.0660151801798
 20
202.2844770567406
 10
258.32240278018
 20
202.2523460567405
 10
258.58282898018
 20
202.2847056567405
 10
258.8104891801799
 20
202.3818860567406
 10
259.0054087801799
 20
202.5440396567406
 10
259.1543035801799
 20
202.7659086567406
 10
259.24388938018
 20
203.0420828567406
 10
259.2737851801798
 20
203.3725622567406
 10
259.26090738018
 20
203.5887924567406
 10
259.2224517801799
 20
203.7860488567406
 10
259.1586977801798
 20
203.9643568567406
 10
259.0704835801798
 20
204.1204652567406
 10
258.9587489801799
 20
204.2513006567406
 10
258.8235955801799
 20
204.3569646567406
 10
258.6703065801798
 20
204.4341044567405
 10
258.5052065801799
 20
204.4804594567407
 10
258.3281939801799
 20
204.4959534567407
 10
258.0798327801799
 20
204.4661846567406
 10
257.85588098018
 20
204.3767766567406
 10
257.6561861801799
 20
204.2275516567407
 10
257.4998999801798
 20
204.0090100567405
 10
257.4061485801798
 20
203.7105346567406
  0
LWPOLYLINE
  5
2738D
330
18
100
AcDbEntity
  8
BESCHRIFTUNG
100
AcDbPolyline
 90
       10
 70
     1
 43
0.0762
 10
260.1223991801798
 20
201.9852396567406
 10
260.1223991801798
 20
204.7631614567407
 10
260.4993859801798
 20
204.7631614567407
 10
261.9584889801799
 20
202.5822412567405
 10
261.9584889801799
 20
204.7631614567407
 10
262.3109901801799
 20
204.7631614567407
 10
262.3109901801799
 20
201.9852396567406
 10
261.93400338018
 20
201.9852396567406
 10
260.4749003801798
 20
204.1680394567405
 10
260.4749003801798
 20
201.9852396567406
  0
LWPOLYLINE
  5
2738E
330
18
100
AcDbEntity
  8
BESCHRIFTUNG
100
AcDbPolyline
 90
       12
 70
     1
 43
0.0762
 10
262.9363889801798
 20
201.9852396567406
 10
262.9363889801798
 20
204.7631614567407
 10
264.9445891801799
 20
204.7631614567407
 10
264.9445891801799
 20
204.4352474567407
 10
263.3037999801799
 20
204.4352474567407
 10
263.3037999801799
 20
203.5847538567405
 10
264.8404999801801
 20
203.5847538567405
 10
264.8404999801801
 20
203.2587448567407
 10
263.3037999801799
 20
203.2587448567407
 10
263.3037999801799
 20
202.3131536567406
 10
265.0093083801798
 20
202.3131536567406
 10
265.0093083801798
 20
201.9852396567406
  0
LWPOLYLINE
  5
2738F
330
18
100
AcDbEntity
  8
BESCHRIFTUNG
100
AcDbPolyline
 90
       58
 70
     1
 43
0.0762
 10
268.7888029801799
 20
202.3131536567406
 10
268.7888029801799
 20
201.9852396567406
 10
266.9525861801798
 20
201.9852396567406
 10
266.9552277801799
 20
202.0662910567406
 10
266.9683341801799
 20
202.1451834567407
 10
266.9921085801799
 20
202.2219422567405
 10
267.0480901801799
 20
202.3466308567407
 10
267.1229693801799
 20
202.4698716567405
 10
267.21649218018
 20
202.5919440567405
 10
267.3350593801799
 20
202.7193250567405
 10
267.48382718018
 20
202.8595076567406
 10
267.66279558018
 20
203.0123394567407
 10
267.9322387801799
 20
203.2428190567405
 10
268.1364293801798
 20
203.4389324567406
 10
268.2751895801798
 20
203.6008574567405
 10
268.3636323801799
 20
203.7427164567406
 10
268.4166929801799
 20
203.8794954567405
 10
268.4343967801798
 20
204.0109404567405
 10
268.4182423801798
 20
204.1390072567407
 10
268.3698553801798
 20
204.2530024567405
 10
268.2894897801797
 20
204.3530530567405
 10
268.1827589801798
 20
204.4302182567406
 10
268.0566225801799
 20
204.4766494567405
 10
267.9111059801798
 20
204.4921434567405
 10
267.7577915801798
 20
204.4757350567407
 10
267.62649898018
 20
204.4264082567407
 10
267.51720278018
 20
204.3440614567406
 10
267.4346527801799
 20
204.2330126567406
 10
267.38469098018
 20
204.0967162567407
 10
267.3671903801798
 20
203.9352484567406
 10
267.0165941801799
 20
203.9708592567407
 10
267.0627459801798
 20
204.2118798567406
 10
267.15311918018
 20
204.4112190567406
 10
267.2875867801799
 20
204.5690546567406
 10
267.46221178018
 20
204.6833038567407
 10
267.6727269801799
 20
204.7518838567406
 10
267.91890378018
 20
204.7747438567406
 10
268.1667823801799
 20
204.7500042567406
 10
268.3776277801798
 20
204.6759632567406
 10
268.5513891801799
 20
204.5529510567406
 10
268.6812339801799
 20
204.3931596567405
 10
268.75900878018
 20
204.2099494567406
 10
268.7848913801799
 20
204.0031426567405
 10
268.7773221801799
 20
203.8925764567405
 10
268.7545383801798
 20
203.7832802567405
 10
268.7162859801799
 20
203.6752540567405
 10
268.6609647801799
 20
203.5659578567407
 10
268.58547598018
 20
203.4529786567405
 10
268.4899973801798
 20
203.3363418567406
 10
268.36129558018
 20
203.2026870567407
 10
268.18603558018
 20
203.0396952567406
 10
267.9641919801799
 20
202.8473410567406
 10
267.7841567801799
 20
202.6938488567405
 10
267.6528641801799
 20
202.5772882567406
 10
267.5702887801798
 20
202.4974560567406
 10
267.5155009801799
 20
202.4364452567407
 10
267.4674441801798
 20
202.3750280567406
 10
267.42599138018
 20
202.3131536567406
  0
LWPOLYLINE
  5
27390
330
18
100
AcDbEntity
  8
BESCHRIFTUNG
  6
CONTINUOUS
100
AcDbPolyline
 90
        6
 70
     1
 43
0.0762
 10
128.34189058018
 20
130.6887604567406
 10
128.34189058018
 20
132.4726532567406
 10
128.75720598018
 20
132.4726532567406
 10
128.75720598018
 20
131.0245484567406
 10
130.0953033801799
 20
131.0245484567406
 10
130.0953033801799
 20
130.6887604567406
  0
LWPOLYLINE
  5
27391
330
18
100
AcDbEntity
  8
BESCHRIFTUNG
  6
CONTINUOUS
100
AcDbPolyline
 90
       12
 70
     1
 43
0.0762
 10
130.5121935801798
 20
130.6887604567406
 10
130.5121935801798
 20
132.1500478567405
 10
132.0800847801799
 20
132.1500478567405
 10
132.0800847801799
 20
131.8920600567405
 10
130.87170518018
 20
131.8920600567405
 10
130.87170518018
 20
131.5734424567406
 10
131.5754883801798
 20
131.5734424567406
 10
131.5754883801798
 20
131.3217538567405
 10
130.87170518018
 20
131.3217538567405
 10
130.87170518018
 20
130.9623438567405
 10
132.0984997801799
 20
130.9623438567405
 10
132.0984997801799
 20
130.6887604567406
  0
LWPOLYLINE
  5
27392
330
18
100
AcDbEntity
  8
BESCHRIFTUNG
  6
CONTINUOUS
100
AcDbPolyline
 90
        7
 70
     1
 43
0.0762
 10
133.2966939801799
 20
130.6887604567406
 10
132.41249458018
 20
132.1500478567405
 10
132.8156941801798
 20
132.1500478567405
 10
133.4355049801799
 20
131.0902582567405
 10
134.0189937801799
 20
132.1500478567405
 10
134.3886907801797
 20
132.1500478567405
 10
133.5414991801799
 20
130.6887604567406
  0
LWPOLYLINE
  5
27393
330
18
100
AcDbEntity
  8
BESCHRIFTUNG
  6
CONTINUOUS
100
AcDbPolyline
 90
       12
 70
     1
 43
0.0762
 10
134.79648778018
 20
130.6887604567406
 10
134.79648778018
 20
132.1500478567405
 10
136.36440438018
 20
132.1500478567405
 10
136.36440438018
 20
131.8920600567405
 10
135.1559993801799
 20
131.8920600567405
 10
135.1559993801799
 20
131.5734424567406
 10
135.85980798018
 20
131.5734424567406
 10
135.85980798018
 20
131.3217538567405
 10
135.1559993801799
 20
131.3217538567405
 10
135.1559993801799
 20
130.9623438567405
 10
136.3827939801799
 20
130.9623438567405
 10
136.3827939801799
 20
130.6887604567406
  0
LWPOLYLINE
  5
27394
330
18
100
AcDbEntity
  8
BESCHRIFTUNG
  6
CONTINUOUS
100
AcDbPolyline
 90
        6
 70
     1
 43
0.0762
 10
136.8971947801799
 20
130.6887604567406
 10
136.8971947801799
 20
132.1500478567405
 10
137.2567063801798
 20
132.1500478567405
 10
137.2567063801798
 20
130.9623438567405
 10
138.40229718018
 20
130.9623438567405
 10
138.40229718018
 20
130.6887604567406
  0
LWPOLYLINE
  5
27395
330
18
100
AcDbEntity
  8
BESCHRIFTUNG
  6
CONTINUOUS
100
AcDbPolyline
 90
        3
 70
     1
 43
0.0762
 10
140.7299023801799
 20
131.4006462567406
 10
141.5109015801799
 20
131.4006462567406
 10
141.1260915801799
 20
132.1264512567405
  0
LWPOLYLINE
  5
27396
330
18
100
AcDbEntity
  8
BESCHRIFTUNG
  6
CONTINUOUS
100
AcDbPolyline
 90
        8
 70
     1
 43
0.0762
 10
139.9315041801798
 20
130.6887604567406
 10
140.9406969801798
 20
132.4726532567406
 10
141.3403913801798
 20
132.4726532567406
 10
142.36340178018
 20
130.6887604567406
 10
141.8973879801799
 20
130.6887604567406
 10
141.68308818018
 20
131.0781424567405
 10
140.55250878018
 20
131.0781424567405
 10
140.3450923801799
 20
130.6887604567406
  0
LWPOLYLINE
  5
27397
330
18
100
AcDbEntity
  8
BESCHRIFTUNG
  6
CONTINUOUS
100
AcDbPolyline
 90
        6
 70
     1
 43
0.0762
 10
158.4161001801799
 20
130.6756540567405
 10
158.4161001801799
 20
132.4595468567405
 10
158.8313901801798
 20
132.4595468567405
 10
158.8313901801798
 20
131.0114420567405
 10
160.1694875801799
 20
131.0114420567405
 10
160.1694875801799
 20
130.6756540567405
  0
LWPOLYLINE
  5
27398
330
18
100
AcDbEntity
  8
BESCHRIFTUNG
  6
CONTINUOUS
100
AcDbPolyline
 90
       12
 70
     1
 43
0.0762
 10
160.5864031801797
 20
130.6756540567405
 10
160.5864031801797
 20
132.1369414567405
 10
162.15429438018
 20
132.1369414567405
 10
162.15429438018
 20
131.8789536567405
 10
160.94588938018
 20
131.8789536567405
 10
160.94588938018
 20
131.5603614567405
 10
161.64969798018
 20
131.5603614567405
 10
161.64969798018
 20
131.3086474567405
 10
160.94588938018
 20
131.3086474567405
 10
160.94588938018
 20
130.9492628567405
 10
162.1727093801798
 20
130.9492628567405
 10
162.1727093801798
 20
130.6756540567405
  0
LWPOLYLINE
  5
27399
330
18
100
AcDbEntity
  8
BESCHRIFTUNG
  6
CONTINUOUS
100
AcDbPolyline
 90
        7
 70
     1
 43
0.0762
 10
163.3709035801798
 20
130.6756540567405
 10
162.4867041801799
 20
132.1369414567405
 10
162.8899037801797
 20
132.1369414567405
 10
163.5096891801799
 20
131.0771518567405
 10
164.09320338018
 20
132.1369414567405
 10
164.4629003801799
 20
132.1369414567405
 10
163.6157087801798
 20
130.6756540567405
  0
LWPOLYLINE
  5
2739A
330
18
100
AcDbEntity
  8
BESCHRIFTUNG
  6
CONTINUOUS
100
AcDbPolyline
 90
       12
 70
     1
 43
0.0762
 10
164.8706973801799
 20
130.6756540567405
 10
164.8706973801799
 20
132.1369414567405
 10
166.4385885801798
 20
132.1369414567405
 10
166.4385885801798
 20
131.8789536567405
 10
165.2302089801799
 20
131.8789536567405
 10
165.2302089801799
 20
131.5603614567405
 10
165.9339921801799
 20
131.5603614567405
 10
165.9339921801799
 20
131.3086474567405
 10
165.2302089801799
 20
131.3086474567405
 10
165.2302089801799
 20
130.9492628567405
 10
166.4570035801798
 20
130.9492628567405
 10
166.4570035801798
 20
130.6756540567405
  0
LWPOLYLINE
  5
2739B
330
18
100
AcDbEntity
  8
BESCHRIFTUNG
  6
CONTINUOUS
100
AcDbPolyline
 90
        6
 70
     1
 43
0.0762
 10
166.97140438018
 20
130.6756540567405
 10
166.97140438018
 20
132.1369414567405
 10
167.33089058018
 20
132.1369414567405
 10
167.33089058018
 20
130.9492628567405
 10
168.47650678018
 20
130.9492628567405
 10
168.47650678018
 20
130.6756540567405
  0
LWPOLYLINE
  5
2739C
330
18
100
AcDbEntity
  8
BESCHRIFTUNG
  6
CONTINUOUS
100
AcDbPolyline
 90
       16
 70
     1
 43
0.0762
 10
171.7020019801798
 20
132.1692502567406
 10
170.7550899801799
 20
132.1692502567406
 10
170.7550899801799
 20
131.7441558567405
 10
171.7020019801798
 20
131.7441558567405
 10
171.7665433801798
 20
131.7474070567405
 10
171.8162511801799
 20
131.7570336567405
 10
171.8512015801798
 20
131.7729594567405
 10
171.87426478018
 20
131.7967338567406
 10
171.8880823801798
 20
131.8299824567406
 10
171.8927051801799
 20
131.8725528567405
 10
171.8927051801799
 20
132.0407516567405
 10
171.8880823801798
 20
132.0825854567406
 10
171.87426478018
 20
132.1156816567405
 10
171.8512015801798
 20
132.1398624567406
 10
171.8162511801799
 20
132.1561946567405
 10
171.7665433801798
 20
132.1659736567405
  0
LWPOLYLINE
  5
2739D
330
18
100
AcDbEntity
  8
BESCHRIFTUNG
  6
CONTINUOUS
100
AcDbPolyline
 90
       16
 70
     1
 43
0.0762
 10
171.7020019801798
 20
131.4503540567405
 10
170.7550899801799
 20
131.4503540567405
 10
170.7550899801799
 20
130.9964560567406
 10
171.7020019801798
 20
130.9964560567406
 10
171.77202978018
 20
131.0004692567405
 10
171.8251411801797
 20
131.0124072567405
 10
171.8610059801799
 20
131.0321430567405
 10
171.8840691801799
 20
131.0617594567405
 10
171.8978867801799
 20
131.1032376567405
 10
171.9025095801798
 20
131.1566538567406
 10
171.9025095801798
 20
131.2919596567405
 10
171.8978867801799
 20
131.3452996567406
 10
171.8840691801799
 20
131.3866508567405
 10
171.8610059801799
 20
131.4158608567405
 10
171.8251411801797
 20
131.4350124567405
 10
171.77202978018
 20
131.4465186567405
  0
LWPOLYLINE
  5
2739E
330
18
100
AcDbEntity
  8
BESCHRIFTUNG
  6
CONTINUOUS
100
AcDbPolyline
 90
       29
 70
     1
 43
0.0762
 10
170.34670878018
 20
130.6756540567405
 10
170.34670878018
 20
132.4595468567405
 10
171.87599198018
 20
132.4595468567405
 10
172.0036269801799
 20
132.4503266567405
 10
172.1054555801799
 20
132.4226406567405
 10
172.18129998018
 20
132.3765396567405
 10
172.23367478018
 20
132.3107536567405
 10
172.2651707801799
 20
132.2229458567405
 10
172.2756863801798
 20
132.1133448567405
 10
172.2756863801798
 20
131.8961494567405
 10
172.26687258018
 20
131.8161394567405
 10
172.24040578018
 20
131.7477626567405
 10
172.1962859801799
 20
131.6911460567405
 10
172.1356053801798
 20
131.6463658567405
 10
172.05955778018
 20
131.6145396567405
 10
171.9681939801798
 20
131.5955404567405
 10
172.0628597801798
 20
131.5744584567405
 10
172.1419045801799
 20
131.5378824567405
 10
172.20550618018
 20
131.4860410567405
 10
172.2519373801799
 20
131.4202042567405
 10
172.2797503801798
 20
131.3424802567406
 10
172.28899598018
 20
131.2528436567405
 10
172.28899598018
 20
131.0252596567405
 10
172.2745941801799
 20
130.9172334567405
 10
172.2313887801799
 20
130.8294002567405
 10
172.1594051801798
 20
130.7620394567405
 10
172.05757658018
 20
130.7140588567406
 10
171.92597918018
 20
130.6852552567405
 10
171.7643081801798
 20
130.6756540567405
  0
LWPOLYLINE
  5
2739F
330
18
100
AcDbEntity
  8
BESCHRIFTUNG
100
AcDbPolyline
 90
       19
 70
     1
 43
0.0762
 10
133.2802093801799
 20
211.9854482567406
 10
133.2802093801799
 20
214.7633446567405
 10
133.8338023801798
 20
214.7633446567405
 10
134.49100198018
 20
212.7964448567405
 10
134.5463485801799
 20
212.6287540567405
 10
134.5906207801799
 20
212.4916448567406
 10
134.6234883801798
 20
212.3851426567406
 10
134.6610549801798
 20
212.5019826567405
 10
134.71040718018
 20
212.6505726567405
 10
134.7716973801798
 20
212.8307602567407
 10
135.4364915801797
 20
214.7633446567405
 10
135.9313089801798
 20
214.7633446567405
 10
135.9313089801798
 20
211.9854482567406
 10
135.5769027801798
 20
211.9854482567406
 10
135.5769027801798
 20
214.3105642567405
 10
134.7696907801798
 20
211.9854482567406
 10
134.43789058018
 20
211.9854482567406
 10
133.6345901801798
 20
214.3500612567405
 10
133.6345901801798
 20
211.9854482567406
  0
LWPOLYLINE
  5
273A0
330
18
100
AcDbEntity
  8
BESCHRIFTUNG
100
AcDbPolyline
 90
        4
 70
     1
 43
0.0762
 10
136.58708618018
 20
211.9854482567406
 10
136.58708618018
 20
214.7633446567405
 10
136.9544971801799
 20
214.7633446567405
 10
136.9544971801799
 20
211.9854482567406
  0
LWPOLYLINE
  5
273A1
330
18
100
AcDbEntity
  8
BESCHRIFTUNG
100
AcDbPolyline
 90
       62
 70
     1
 43
0.0762
 10
139.5842099801798
 20
212.9594620567405
 10
139.9523067801799
 20
212.8663456567406
 10
139.8546437801799
 20
212.5886728567405
 10
139.7159089801798
 20
212.3584218567406
 10
139.53640718018
 20
212.1755418567405
 10
139.32119298018
 20
212.0436396567405
 10
139.07638778018
 20
211.9645694567406
 10
138.8016867801798
 20
211.9382550567405
 10
138.5209405801799
 20
211.9585242567405
 10
138.27758318018
 20
212.0193064567405
 10
138.07148758018
 20
212.1206524567406
 10
137.8988183801798
 20
212.2609874567407
 10
137.7560449801799
 20
212.4375682567405
 10
137.6432943801799
 20
212.6503440567406
 10
137.56181118018
 20
212.8874784567407
 10
137.5128399801799
 20
213.1358650567407
 10
137.4965077801798
 20
213.3954530567406
 10
137.5148465801798
 20
213.6722622567407
 10
137.5700153801799
 20
213.9244842567405
 10
137.6620903801799
 20
214.1521444567405
 10
137.7882267801799
 20
214.3502390567406
 10
137.9455289801799
 20
214.5138912567405
 10
138.1342001801799
 20
214.6430502567405
 10
138.3448169801799
 20
214.7362174567405
 10
138.5692767801799
 20
214.7919958567405
 10
138.8075033801799
 20
214.8105632567407
 10
139.0707489801798
 20
214.7870174567407
 10
139.3044035801799
 20
214.7163546567406
 10
139.5085941801798
 20
214.5983462567406
 10
139.67890118018
 20
214.4377166567406
 10
139.8108287801799
 20
214.2388346567405
 10
139.9044023801798
 20
214.0014462567406
 10
139.5429095801798
 20
213.9160514567405
 10
139.46866538018
 20
214.0999982567405
 10
139.3751679801798
 20
214.2471404567405
 10
139.2621887801799
 20
214.3577574567406
 10
139.1293467801799
 20
214.4347448567406
 10
138.97521958018
 20
214.4808204567406
 10
138.7997055801799
 20
214.4961620567406
 10
138.5980803801799
 20
214.4791440567406
 10
138.41987398018
 20
214.4280900567406
 10
138.2648069801798
 20
214.3429492567405
 10
138.1355209801799
 20
214.2285984567405
 10
138.0348099801799
 20
214.0911336567406
 10
137.9628009801799
 20
213.9302500567406
 10
137.9142869801798
 20
213.7563108567407
 10
137.88520398018
 20
213.5786124567406
 10
137.8755011801799
 20
213.3973580567407
 10
137.88693118018
 20
213.1709170567406
 10
137.9211957801799
 20
212.9647198567405
 10
137.9782949801799
 20
212.7783600567405
 10
138.06005758018
 20
212.6171462567405
 10
138.1671185801799
 20
212.4853964567406
 10
138.2998081801799
 20
212.3832630567406
 10
138.4492109801799
 20
212.3105174567407
 10
138.6065385801798
 20
212.2670072567406
 10
138.77189258018
 20
212.2525546567406
 10
138.96704078018
 20
212.2723666567407
 10
139.1412085801798
 20
212.3317010567406
 10
139.2944975801799
 20
212.4304562567407
 10
139.4219039801798
 20
212.5686068567405
 10
139.5184493801798
 20
212.7449590567406
  0
LWPOLYLINE
  5
273A2
330
18
100
AcDbEntity
  8
BESCHRIFTUNG
100
AcDbPolyline
 90
       33
 70
     1
 43
0.0762
 10
141.9103927801797
 20
213.3384554567407
 10
141.9515915801798
 20
213.7662168567406
 10
142.07526418018
 20
214.1271254567405
 10
142.2815883801799
 20
214.4211558567407
 10
142.5532667801799
 20
214.6384782567405
 10
142.8729257801799
 20
214.7689326567407
 10
143.2407939801798
 20
214.8124428567406
 10
143.4886471801799
 20
214.7919958567405
 10
143.7198379801798
 20
214.7307310567406
 10
143.9340869801799
 20
214.6287500567406
 10
144.1235709801799
 20
214.4898882567405
 10
144.2805429801799
 20
214.3189716567407
 10
144.40490138018
 20
214.1158478567407
 10
144.49486818018
 20
213.8871970567405
 10
144.5486907801798
 20
213.6387088567406
 10
144.56659778018
 20
213.3708404567406
 10
144.5478017801799
 20
213.0987810567406
 10
144.4912105801799
 20
212.8466860567406
 10
144.3964939801799
 20
212.6147586567407
 10
144.26695398018
 20
212.4103648567405
 10
144.1059433801799
 20
212.2420390567407
 10
143.91338598018
 20
212.1096542567405
 10
143.6992893801798
 20
212.0143280567407
 10
143.4745247801799
 20
211.9572542567406
 10
143.2387873801799
 20
211.9382550567405
 10
142.9863367801799
 20
211.9592100567407
 10
142.7526821801798
 20
212.0222782567406
 10
142.5376965801799
 20
212.1277644567407
 10
142.34818718018
 20
212.2693694567407
 10
142.19215498018
 20
212.4418862567405
 10
142.0694983801799
 20
212.6451624567406
 10
141.9810809801799
 20
212.8676156567406
 10
141.9280711801798
 20
213.0988064567405
  0
LWPOLYLINE
  5
273A3
330
18
100
AcDbEntity
  8
BESCHRIFTUNG
100
AcDbPolyline
 90
       27
 70
     1
 43
0.0762
 10
142.2893861801799
 20
213.3326642567407
 10
142.3193581801799
 20
213.0215396567406
 10
142.4092741801801
 20
212.7579638567407
 10
142.5591087801799
 20
212.5416574567406
 10
142.75461258018
 20
212.3810532567405
 10
142.9804947801799
 20
212.2846856567406
 10
143.2369077801799
 20
212.2525546567406
 10
143.4973339801799
 20
212.2849142567405
 10
143.7249941801799
 20
212.3820946567406
 10
143.91988838018
 20
212.5442482567406
 10
144.0688085801798
 20
212.7661172567405
 10
144.15836898018
 20
213.0422914567406
 10
144.18829018018
 20
213.3727454567405
 10
144.1754123801799
 20
213.5889756567406
 10
144.1369567801798
 20
213.7862574567406
 10
144.07320278018
 20
213.9645400567407
 10
143.98498858018
 20
214.1206738567406
 10
143.8732539801799
 20
214.2515092567406
 10
143.7381005801798
 20
214.3571478567406
 10
143.58481158018
 20
214.4342876567406
 10
143.4197115801798
 20
214.4806680567406
 10
143.2426989801799
 20
214.4961620567406
 10
142.9943377801798
 20
214.4663932567406
 10
142.7703859801799
 20
214.3769852567405
 10
142.5706911801798
 20
214.2277602567407
 10
142.4143795801799
 20
214.0091932567405
 10
142.3206281801799
 20
213.7107432567405
  0
LWPOLYLINE
  5
273A4
330
18
100
AcDbEntity
  8
BESCHRIFTUNG
100
AcDbPolyline
 90
       10
 70
     1
 43
0.0762
 10
145.03690418018
 20
211.9854482567406
 10
145.03690418018
 20
214.7633446567405
 10
145.4138909801799
 20
214.7633446567405
 10
146.8729939801798
 20
212.5824498567407
 10
146.8729939801798
 20
214.7633446567405
 10
147.2254951801799
 20
214.7633446567405
 10
147.2254951801799
 20
211.9854482567406
 10
146.8485083801799
 20
211.9854482567406
 10
145.38940538018
 20
214.1682480567407
 10
145.38940538018
 20
211.9854482567406
  0
LWPOLYLINE
  5
273A5
330
18
100
AcDbEntity
  8
BESCHRIFTUNG
  6
CONTINUOUS
100
AcDbPolyline
 90
        2
 70
     0
 43
0.508
 10
131.2007601264931
 20
137.6162886744272
 10
129.4597953801799
 20
134.6002588567405
  0
LWPOLYLINE
  5
273A6
330
18
100
AcDbEntity
  8
BESCHRIFTUNG
  6
CONTINUOUS
100
AcDbPolyline
 90
       54
 70
     1
 43
0.0762
 10
134.4059881801799
 20
158.0504532567405
 10
134.4954977801799
 20
158.9244418567405
 10
135.8559979801798
 20
158.9244418567405
 10
135.82899778018
 20
158.6562432567405
 10
134.7295079801799
 20
158.6562432567405
 10
134.6938971801798
 20
158.3502494567405
 10
134.8234117801798
 20
158.3627970567405
 10
134.9422837801798
 20
158.3726776567406
 10
135.0503861801798
 20
158.3797642567406
 10
135.1501827801798
 20
158.3848950567405
 10
135.24401038018
 20
158.3879430567406
 10
135.3315895801799
 20
158.3889590567405
 10
135.5699431801799
 20
158.3741762567406
 10
135.7650913801799
 20
158.3297262567405
 10
135.9169071801798
 20
158.2555582567405
 10
136.02546678018
 20
158.1517484567406
 10
136.0905923801799
 20
158.0182460567406
 10
136.1123093801797
 20
157.8549494567405
 10
136.0895509801798
 20
157.6869792567405
 10
136.02127578018
 20
157.5527402567405
 10
135.90740758018
 20
157.4523594567406
 10
135.74279018018
 20
157.3827634567405
 10
135.5219371801799
 20
157.3409804567405
 10
135.2452041801798
 20
157.3270612567405
 10
135.0902641801799
 20
157.3288900567405
 10
134.9458397801799
 20
157.3343764567405
 10
134.8119055801798
 20
157.3433426567405
 10
134.6900109801799
 20
157.3560934567406
 10
134.5809179801799
 20
157.3720446567405
 10
134.4849059801799
 20
157.3912470567405
 10
134.4059881801799
 20
157.6956406567405
 10
134.5571435801798
 20
157.6701644567406
 10
134.70235538018
 20
157.6496666567405
 10
134.8419029801798
 20
157.6340456567405
 10
134.9768531801798
 20
157.6226410567405
 10
135.1081711801798
 20
157.6158846567406
 10
135.2360093801799
 20
157.6136494567405
 10
135.4141903801798
 20
157.6202534567405
 10
135.5533061801798
 20
157.6400146567406
 10
135.6535091801799
 20
157.6727552567405
 10
135.7204889801798
 20
157.7207866567405
 10
135.7606971801799
 20
157.7865472567406
 10
135.77410838018
 20
157.8702402567405
 10
135.7610273801799
 20
157.9494628567405
 10
135.7218605801799
 20
158.0120992567406
 10
135.65660798018
 20
158.0580478567405
 10
135.5598085801798
 20
158.0894676567405
 10
135.4270681801799
 20
158.1082890567405
 10
135.2583867801799
 20
158.1145628567405
 10
135.1353491801799
 20
158.1127086567405
 10
135.0042851801799
 20
158.1072222567405
 10
134.8652963801798
 20
158.0982560567405
 10
134.7186621801799
 20
158.0855306567406
 10
134.5655763801798
 20
158.0696556567405
  0
LWPOLYLINE
  5
273A7
330
18
100
AcDbEntity
  8
BESCHRIFTUNG
  6
CONTINUOUS
100
AcDbPolyline
 90
        6
 70
     1
 43
0.0762
 10
142.8550949801799
 20
134.1408490567405
 10
142.8550949801799
 20
135.4175546567405
 10
142.5200943801798
 20
135.4175546567405
 10
142.5200943801798
 20
135.6277396567405
 10
143.1871999801799
 20
135.7290602567405
 10
143.1871999801799
 20
134.1408490567405
  0
LWPOLYLINE
  5
273A8
330
18
100
AcDbEntity
  8
BESCHRIFTUNG
  6
CONTINUOUS
100
AcDbPolyline
 90
        4
 70
     1
 43
0.0762
 10
144.75008738018
 20
134.4243638567405
 10
145.87548518018
 20
134.4243638567405
 10
145.87548518018
 20
135.4491522567406
 10
144.75008738018
 20
135.4491522567406
  0
LWPOLYLINE
  5
273A9
330
18
100
AcDbEntity
  8
BESCHRIFTUNG
  6
CONTINUOUS
100
AcDbPolyline
 90
       28
 70
     1
 43
0.0762
 10
144.4210049801799
 20
135.3447582567405
 10
144.4293361801799
 20
135.4735362567405
 10
144.4544313801798
 20
135.5716310567405
 10
144.4962905801799
 20
135.6389410567405
 10
144.5610351801799
 20
135.6826036567405
 10
144.65562478018
 20
135.7086894567405
 10
144.78008478018
 20
135.7173508567406
 10
145.84548778018
 20
135.7173508567406
 10
145.9707859801799
 20
135.7086894567405
 10
146.0659089801799
 20
135.6826036567405
 10
146.1308059801799
 20
135.6389410567405
 10
146.17266518018
 20
135.5716310567405
 10
146.1977603801799
 20
135.4735362567405
 10
146.2060915801798
 20
135.3447582567405
 10
146.2060915801798
 20
134.5139496567405
 10
146.1977603801799
 20
134.3848668567405
 10
146.17266518018
 20
134.2866196567405
 10
146.1308059801799
 20
134.2192588567405
 10
146.0659089801799
 20
134.1756470567405
 10
145.9707859801799
 20
134.1495358567406
 10
145.84548778018
 20
134.1408490567405
 10
144.78008478018
 20
134.1408490567405
 10
144.65562478018
 20
134.1495358567406
 10
144.5610351801799
 20
134.1756470567405
 10
144.4962905801799
 20
134.2192588567405
 10
144.4544313801798
 20
134.2866196567405
 10
144.4293361801799
 20
134.3848668567405
 10
144.4210049801799
 20
134.5139496567405
  0
LWPOLYLINE
  5
273AA
330
18
100
AcDbEntity
  8
BESCHRIFTUNG
  6
CONTINUOUS
100
AcDbPolyline
 90
        4
 70
     1
 43
0.0762
 10
126.4244953801799
 20
134.4243638567405
 10
127.5498931801798
 20
134.4243638567405
 10
127.5498931801798
 20
135.4491522567406
 10
126.4244953801799
 20
135.4491522567406
  0
LWPOLYLINE
  5
273AB
330
18
100
AcDbEntity
  8
BESCHRIFTUNG
  6
CONTINUOUS
100
AcDbPolyline
 90
       28
 70
     1
 43
0.0762
 10
126.0953875801799
 20
135.3447582567405
 10
126.1037441801799
 20
135.4735362567405
 10
126.1288139801799
 20
135.5716310567405
 10
126.1706985801799
 20
135.6389410567405
 10
126.2354431801799
 20
135.6826036567405
 10
126.3300327801799
 20
135.7086894567405
 10
126.4544927801799
 20
135.7173508567406
 10
127.5198957801799
 20
135.7173508567406
 10
127.64519398018
 20
135.7086894567405
 10
127.7402915801799
 20
135.6826036567405
 10
127.8051885801799
 20
135.6389410567405
 10
127.8470731801799
 20
135.5716310567405
 10
127.8721429801798
 20
135.4735362567405
 10
127.8804995801799
 20
135.3447582567405
 10
127.8804995801799
 20
134.5139496567405
 10
127.8721429801798
 20
134.3848668567405
 10
127.8470731801799
 20
134.2866196567405
 10
127.8051885801799
 20
134.2192588567405
 10
127.7402915801799
 20
134.1756470567405
 10
127.64519398018
 20
134.1495358567406
 10
127.5198957801799
 20
134.1408490567405
 10
126.4544927801799
 20
134.1408490567405
 10
126.3300327801799
 20
134.1495358567406
 10
126.2354431801799
 20
134.1756470567405
 10
126.1706985801799
 20
134.2192588567405
 10
126.1288139801799
 20
134.2866196567405
 10
126.1037441801799
 20
134.3848668567405
 10
126.0953875801799
 20
134.5139496567405
  0
LWPOLYLINE
  5
273AC
330
18
100
AcDbEntity
  8
BESCHRIFTUNG
  6
CONTINUOUS
100
AcDbPolyline
 90
        2
 70
     0
 43
0.508
 10
135.2526971801798
 20
156.1415416567405
 10
135.2526971801798
 20
152.5142453365814
  0
LWPOLYLINE
  5
273AD
330
18
100
AcDbEntity
  8
BESCHRIFTUNG
  6
CONTINUOUS
100
AcDbPolyline
 90
        2
 70
     0
 43
0.508
 10
140.9890077801799
 20
134.6887524567405
 10
139.2986196466404
 20
137.6127591636335
  0
LWPOLYLINE
  5
273AE
330
18
100
AcDbEntity
  8
BESCHRIFTUNG
  6
CONTINUOUS
100
AcDbPolyline
 90
       54
 70
     1
 43
0.0762
 10
164.4055979801798
 20
158.0504532567405
 10
164.49510758018
 20
158.9244418567405
 10
165.8556077801799
 20
158.9244418567405
 10
165.82860758018
 20
158.6562432567405
 10
164.7290923801799
 20
158.6562432567405
 10
164.6935069801797
 20
158.3502494567405
 10
164.82302158018
 20
158.3627970567405
 10
164.94189358018
 20
158.3726776567406
 10
165.04999598018
 20
158.3797642567406
 10
165.14979258018
 20
158.3848950567405
 10
165.24359478018
 20
158.3879430567406
 10
165.3311993801799
 20
158.3889590567405
 10
165.5695529801798
 20
158.3741762567406
 10
165.7646757801799
 20
158.3297262567405
 10
165.9164915801798
 20
158.2555582567405
 10
166.02507658018
 20
158.1517484567406
 10
166.0902021801798
 20
158.0182460567406
 10
166.1118937801798
 20
157.8549494567405
 10
166.08916078018
 20
157.6869792567405
 10
166.0208855801799
 20
157.5527402567405
 10
165.90699198018
 20
157.4523594567406
 10
165.7423745801797
 20
157.3827634567405
 10
165.5215469801798
 20
157.3409804567405
 10
165.2447885801798
 20
157.3270612567405
 10
165.0898485801799
 20
157.3288900567405
 10
164.94542418018
 20
157.3343764567405
 10
164.8114899801798
 20
157.3433426567405
 10
164.6896207801798
 20
157.3560934567406
 10
164.58052778018
 20
157.3720446567405
 10
164.4844903801799
 20
157.3912470567405
 10
164.4055979801798
 20
157.6956406567405
 10
164.55675338018
 20
157.6701644567406
 10
164.7019651801799
 20
157.6496666567405
 10
164.8414873801798
 20
157.6340456567405
 10
164.9764375801798
 20
157.6226410567405
 10
165.1077809801799
 20
157.6158846567406
 10
165.2355937801798
 20
157.6136494567405
 10
165.4138001801798
 20
157.6202534567405
 10
165.5528905801797
 20
157.6400146567406
 10
165.6530935801799
 20
157.6727552567405
 10
165.7200987801797
 20
157.7207866567405
 10
165.7603069801798
 20
157.7865472567406
 10
165.7736927801799
 20
157.8702402567405
 10
165.7606371801798
 20
157.9494628567405
 10
165.7214703801798
 20
158.0120992567406
 10
165.65619238018
 20
158.0580478567405
 10
165.5593929801798
 20
158.0894676567405
 10
165.4266525801799
 20
158.1082890567405
 10
165.2579965801798
 20
158.1145628567405
 10
165.1349589801798
 20
158.1127086567405
 10
165.0038695801799
 20
158.1072222567405
 10
164.8649061801797
 20
158.0982560567405
 10
164.7182719801799
 20
158.0855306567406
 10
164.5651607801799
 20
158.0696556567405
  0
LWPOLYLINE
  5
273AF
330
18
100
AcDbEntity
  8
BESCHRIFTUNG
  6
CONTINUOUS
100
AcDbPolyline
 90
        2
 70
     0
 43
0.508
 10
130.7286015801798
 20
152.4248612567405
 10
129.8120933801799
 20
154.0120564567405
  0
LWPOLYLINE
  5
273B0
330
18
100
AcDbEntity
  8
BESCHRIFTUNG
  6
CONTINUOUS
100
AcDbPolyline
 90
        2
 70
     0
 43
0.508
 10
127.4421971801799
 20
149.1256552567405
 10
125.8549003801799
 20
150.0419602567405
  0
LWPOLYLINE
  5
273B1
330
18
100
AcDbEntity
  8
BESCHRIFTUNG
  6
CONTINUOUS
100
AcDbPolyline
 90
        2
 70
     0
 43
0.508
 10
126.2377037801799
 20
144.6328524567405
 10
124.4041031801799
 20
144.6327508567405
  0
LWPOLYLINE
  5
273B2
330
18
100
AcDbEntity
  8
BESCHRIFTUNG
  6
CONTINUOUS
100
AcDbPolyline
 90
        2
 70
     0
 43
0.508
 10
127.4502997801798
 20
140.1266638567406
 10
125.8631045801798
 20
139.2101556567405
  0
LWPOLYLINE
  5
273B3
330
18
100
AcDbEntity
  8
BESCHRIFTUNG
  6
CONTINUOUS
100
AcDbPolyline
 90
        2
 70
     0
 43
0.508
 10
139.7321903801798
 20
152.4512518567405
 10
140.64849538018
 20
154.0385486567405
  0
LWPOLYLINE
  5
273B4
330
18
100
AcDbEntity
  8
BESCHRIFTUNG
  6
CONTINUOUS
100
AcDbPolyline
 90
        2
 70
     0
 43
0.508
 10
143.0417087801799
 20
149.1620534567405
 10
144.6288023801798
 20
150.0785616567405
  0
LWPOLYLINE
  5
273B5
330
18
100
AcDbEntity
  8
BESCHRIFTUNG
  6
CONTINUOUS
100
AcDbPolyline
 90
        2
 70
     0
 43
0.508
 10
143.06329878018
 20
140.1405576567406
 10
144.65069718018
 20
139.2242526567405
  0
LWPOLYLINE
  5
273B6
330
18
100
AcDbEntity
  8
BESCHRIFTUNG
  6
CONTINUOUS
100
AcDbPolyline
 90
        2
 70
     0
 43
0.508
 10
144.25709878018
 20
144.6328524567405
 10
146.0897849801799
 20
144.6330556567405
  0
LWPOLYLINE
  5
273B7
330
18
100
AcDbEntity
  8
BESCHRIFTUNG
  6
CONTINUOUS
100
AcDbPolyline
 90
        2
 70
     0
 43
0.508
 10
161.2014621264929
 20
137.6162886744272
 10
159.4604973801799
 20
134.6002588567405
  0
LWPOLYLINE
  5
273B8
330
18
100
AcDbEntity
  8
BESCHRIFTUNG
  6
CONTINUOUS
100
AcDbPolyline
 90
        6
 70
     1
 43
0.0762
 10
172.85579698018
 20
134.1408490567405
 10
172.85579698018
 20
135.4175546567405
 10
172.5207963801799
 20
135.4175546567405
 10
172.5207963801799
 20
135.6277396567405
 10
173.1879019801799
 20
135.7290602567405
 10
173.1879019801799
 20
134.1408490567405
  0
LWPOLYLINE
  5
273B9
330
18
100
AcDbEntity
  8
BESCHRIFTUNG
  6
CONTINUOUS
100
AcDbPolyline
 90
        4
 70
     1
 43
0.0762
 10
174.7507893801798
 20
134.4243638567405
 10
175.8761871801798
 20
134.4243638567405
 10
175.8761871801798
 20
135.4491522567406
 10
174.7507893801798
 20
135.4491522567406
  0
LWPOLYLINE
  5
273BA
330
18
100
AcDbEntity
  8
BESCHRIFTUNG
  6
CONTINUOUS
100
AcDbPolyline
 90
       28
 70
     1
 43
0.0762
 10
174.4217069801798
 20
135.3447582567405
 10
174.4300381801799
 20
135.4735362567405
 10
174.4551079801799
 20
135.5716310567405
 10
174.4969925801799
 20
135.6389410567405
 10
174.56173718018
 20
135.6826036567405
 10
174.6563267801798
 20
135.7086894567405
 10
174.7807867801798
 20
135.7173508567406
 10
175.8461897801798
 20
135.7173508567406
 10
175.9714879801799
 20
135.7086894567405
 10
176.0665855801798
 20
135.6826036567405
 10
176.13150798018
 20
135.6389410567405
 10
176.1733671801798
 20
135.5716310567405
 10
176.1984623801799
 20
135.4735362567405
 10
176.2067935801799
 20
135.3447582567405
 10
176.2067935801799
 20
134.5139496567405
 10
176.1984623801799
 20
134.3848668567405
 10
176.1733671801798
 20
134.2866196567405
 10
176.13150798018
 20
134.2192588567405
 10
176.0665855801798
 20
134.1756470567405
 10
175.9714879801799
 20
134.1495358567406
 10
175.8461897801798
 20
134.1408490567405
 10
174.7807867801798
 20
134.1408490567405
 10
174.6563267801798
 20
134.1495358567406
 10
174.56173718018
 20
134.1756470567405
 10
174.4969925801799
 20
134.2192588567405
 10
174.4551079801799
 20
134.2866196567405
 10
174.4300381801799
 20
134.3848668567405
 10
174.4217069801798
 20
134.5139496567405
  0
LWPOLYLINE
  5
273BB
330
18
100
AcDbEntity
  8
BESCHRIFTUNG
  6
CONTINUOUS
100
AcDbPolyline
 90
        4
 70
     1
 43
0.0762
 10
156.4251973801799
 20
134.4243638567405
 10
157.5505951801799
 20
134.4243638567405
 10
157.5505951801799
 20
135.4491522567406
 10
156.4251973801799
 20
135.4491522567406
  0
LWPOLYLINE
  5
273BC
330
18
100
AcDbEntity
  8
BESCHRIFTUNG
  6
CONTINUOUS
100
AcDbPolyline
 90
       28
 70
     1
 43
0.0762
 10
156.0960895801799
 20
135.3447582567405
 10
156.1044461801798
 20
135.4735362567405
 10
156.1295159801798
 20
135.5716310567405
 10
156.17140058018
 20
135.6389410567405
 10
156.2361197801799
 20
135.6826036567405
 10
156.3307347801799
 20
135.7086894567405
 10
156.4551947801799
 20
135.7173508567406
 10
157.5205977801799
 20
135.7173508567406
 10
157.6458959801798
 20
135.7086894567405
 10
157.7409935801799
 20
135.6826036567405
 10
157.8058905801799
 20
135.6389410567405
 10
157.8477751801799
 20
135.5716310567405
 10
157.8728449801799
 20
135.4735362567405
 10
157.8812015801799
 20
135.3447582567405
 10
157.8812015801799
 20
134.5139496567405
 10
157.8728449801799
 20
134.3848668567405
 10
157.8477751801799
 20
134.2866196567405
 10
157.8058905801799
 20
134.2192588567405
 10
157.7409935801799
 20
134.1756470567405
 10
157.6458959801798
 20
134.1495358567406
 10
157.5205977801799
 20
134.1408490567405
 10
156.4551947801799
 20
134.1408490567405
 10
156.3307347801799
 20
134.1495358567406
 10
156.2361197801799
 20
134.1756470567405
 10
156.17140058018
 20
134.2192588567405
 10
156.1295159801798
 20
134.2866196567405
 10
156.1044461801798
 20
134.3848668567405
 10
156.0960895801799
 20
134.5139496567405
  0
LWPOLYLINE
  5
273BD
330
18
100
AcDbEntity
  8
BESCHRIFTUNG
  6
CONTINUOUS
100
AcDbPolyline
 90
        2
 70
     0
 43
0.508
 10
165.2533991801799
 20
156.1415416567405
 10
165.2533991801799
 20
152.5142453365814
  0
LWPOLYLINE
  5
273BE
330
18
100
AcDbEntity
  8
BESCHRIFTUNG
  6
CONTINUOUS
100
AcDbPolyline
 90
        2
 70
     0
 43
0.508
 10
170.9897097801799
 20
134.6887524567405
 10
169.2993136433055
 20
137.6127544717702
  0
LWPOLYLINE
  5
273BF
330
18
100
AcDbEntity
  8
BESCHRIFTUNG
  6
CONTINUOUS
100
AcDbPolyline
 90
        2
 70
     0
 43
0.508
 10
160.7293035801799
 20
152.4248612567405
 10
159.8127953801799
 20
154.0120564567405
  0
LWPOLYLINE
  5
273C0
330
18
100
AcDbEntity
  8
BESCHRIFTUNG
  6
CONTINUOUS
100
AcDbPolyline
 90
        2
 70
     0
 43
0.508
 10
157.4428991801799
 20
149.1256552567405
 10
155.8556023801797
 20
150.0419602567405
  0
LWPOLYLINE
  5
273C1
330
18
100
AcDbEntity
  8
BESCHRIFTUNG
  6
CONTINUOUS
100
AcDbPolyline
 90
        2
 70
     0
 43
0.508
 10
156.23840578018
 20
144.6328524567405
 10
154.4048051801798
 20
144.6327508567405
  0
LWPOLYLINE
  5
273C2
330
18
100
AcDbEntity
  8
BESCHRIFTUNG
  6
CONTINUOUS
100
AcDbPolyline
 90
        2
 70
     0
 43
0.508
 10
157.4510017801799
 20
140.1266638567406
 10
155.8638065801799
 20
139.2101556567405
  0
LWPOLYLINE
  5
273C3
330
18
100
AcDbEntity
  8
BESCHRIFTUNG
  6
CONTINUOUS
100
AcDbPolyline
 90
        2
 70
     0
 43
0.508
 10
169.7328923801799
 20
152.4512518567405
 10
170.6491973801798
 20
154.0385486567405
  0
LWPOLYLINE
  5
273C4
330
18
100
AcDbEntity
  8
BESCHRIFTUNG
  6
CONTINUOUS
100
AcDbPolyline
 90
        2
 70
     0
 43
0.508
 10
173.0423853801799
 20
149.1620534567405
 10
174.6295043801799
 20
150.0785616567405
  0
LWPOLYLINE
  5
273C5
330
18
100
AcDbEntity
  8
BESCHRIFTUNG
  6
CONTINUOUS
100
AcDbPolyline
 90
        2
 70
     0
 43
0.508
 10
173.0640007801798
 20
140.1405576567406
 10
174.6513991801798
 20
139.2242526567405
  0
LWPOLYLINE
  5
273C6
330
18
100
AcDbEntity
  8
BESCHRIFTUNG
  6
CONTINUOUS
100
AcDbPolyline
 90
        2
 70
     0
 43
0.508
 10
174.2578007801798
 20
144.6328524567405
 10
176.09048698018
 20
144.6330556567405
  0
LWPOLYLINE
  5
273C7
330
18
100
AcDbEntity
  8
BESCHRIFTUNG
100
AcDbPolyline
 90
       16
 70
     1
 43
0.0762
 10
246.8826999801799
 20
221.8177628567406
 10
246.1074919801799
 20
221.8177628567406
 10
246.1074919801799
 20
221.4055462567406
 10
246.8826999801799
 20
221.4055462567406
 10
246.93606538018
 20
221.4084164567406
 10
246.9768577801799
 20
221.4170270567407
 10
247.0051025801799
 20
221.4313526567406
 10
247.0234413801799
 20
221.4530188567406
 10
247.0344395801798
 20
221.4836258567405
 10
247.0380971801798
 20
221.5231482567407
 10
247.0380971801798
 20
221.7015578567405
 10
247.0344395801798
 20
221.7402674567405
 10
247.0234413801799
 20
221.7703918567407
 10
247.0051025801799
 20
221.7919564567406
 10
246.9768577801799
 20
221.8062820567405
 10
246.93606538018
 20
221.8148926567406
  0
LWPOLYLINE
  5
273C8
330
18
100
AcDbEntity
  8
BESCHRIFTUNG
100
AcDbPolyline
 90
       22
 70
     1
 43
0.0762
 10
245.7685035801798
 20
220.5931526567407
 10
245.7685035801798
 20
222.0740488567406
 10
247.0352015801799
 20
222.0740488567406
 10
247.1419831801799
 20
222.0665304567406
 10
247.2272001801798
 20
222.0439244567407
 10
247.2910049801798
 20
222.0061546567407
 10
247.3348199801798
 20
221.9515192567406
 10
247.3611343801799
 20
221.8784688567406
 10
247.3698973801799
 20
221.7871558567407
 10
247.3698973801799
 20
221.4390488567406
 10
247.3611343801799
 20
221.3481676567406
 10
247.3348199801798
 20
221.2754982567406
 10
247.2910049801798
 20
221.2209644567407
 10
247.2272001801798
 20
221.1827120567405
 10
247.1419831801799
 20
221.1598012567407
 10
247.0352015801799
 20
221.1521558567407
 10
246.8420091801799
 20
221.1521558567407
 10
247.5252945801798
 20
220.5931526567407
 10
247.0309089801799
 20
220.5931526567407
 10
246.4340851801798
 20
221.1521558567407
 10
246.1074919801799
 20
221.1521558567407
 10
246.1074919801799
 20
220.5931526567407
  0
LWPOLYLINE
  5
273C9
330
18
100
AcDbEntity
  8
BESCHRIFTUNG
100
AcDbPolyline
 90
       37
 70
     1
 43
0.0762
 10
248.0661875801799
 20
220.5931526567407
 10
248.0661875801799
 20
222.0740488567406
 10
248.3449017801799
 20
222.0740488567406
 10
249.0425889801799
 20
221.1789528567407
 10
249.72490918018
 20
222.0740488567406
 10
250.0008039801798
 20
222.0740488567406
 10
250.0008039801798
 20
220.5931526567407
 10
249.6813989801799
 20
220.5931526567407
 10
249.6813989801799
 20
221.5078574567406
 10
249.68175458018
 20
221.5271614567405
 10
249.6828467801799
 20
221.5496404567405
 10
249.6848025801798
 20
221.5753452567406
 10
249.6874187801799
 20
221.6035392567406
 10
249.6905175801798
 20
221.6337652567407
 10
249.6937941801797
 20
221.6661502567407
 10
249.6759633801798
 20
221.6301838567407
 10
249.6597327801798
 20
221.5987386567407
 10
249.6451023801798
 20
221.5719416567407
 10
249.6315641801797
 20
221.5485228567405
 10
249.6188895801799
 20
221.5281012567405
 10
249.60730718018
 20
221.5107530567405
 10
249.0511995801798
 20
220.7710542567407
 10
248.9822893801799
 20
220.7710542567407
 10
248.4247847801798
 20
221.5136486567406
 10
248.40517598018
 20
221.5412330567406
 10
248.3876245801798
 20
221.5676490567406
 10
248.37220678018
 20
221.5929474567407
 10
248.3586177801798
 20
221.6173060567406
 10
248.34667978018
 20
221.6413344567405
 10
248.33629118018
 20
221.6647532567407
 10
248.3390089801798
 20
221.6349844567406
 10
248.34129498018
 20
221.6070190567405
 10
248.3429967801798
 20
221.5810602567406
 10
248.3441651801799
 20
221.5560158567405
 10
248.34474938018
 20
221.5316318567405
 10
248.3449017801799
 20
221.5078574567406
 10
248.3449017801799
 20
220.5931526567407
  0
LWPOLYLINE
  5
273CA
330
18
100
AcDbEntity
  8
BESCHRIFTUNG
100
AcDbPolyline
 90
       11
 70
     1
 43
0.0762
 10
251.7015879801799
 20
220.5764394567405
 10
251.7015879801799
 20
220.9197458567406
 10
250.5793905801799
 20
220.9197458567406
 10
250.5793905801799
 20
221.1679546567405
 10
251.6886847801799
 20
222.0907620567405
 10
252.0139063801798
 20
222.0907620567405
 10
252.0139063801798
 20
221.1679546567405
 10
252.3725035801799
 20
221.1679546567405
 10
252.3725035801799
 20
220.9197458567406
 10
252.0139063801798
 20
220.9197458567406
 10
252.0139063801798
 20
220.5764394567405
  0
LWPOLYLINE
  5
273CB
330
18
100
AcDbEntity
  8
BESCHRIFTUNG
100
AcDbPolyline
 90
        3
 70
     1
 43
0.0762
 10
251.7015879801799
 20
221.1679546567405
 10
251.7015879801799
 20
221.8301580567407
 10
250.8916073801799
 20
221.1679546567405
  0
LWPOLYLINE
  5
273CC
330
18
100
AcDbEntity
  8
BESCHRIFTUNG
100
AcDbPolyline
 90
       45
 70
     1
 43
0.0762
 10
252.96678738018
 20
221.7842602567405
 10
252.9744327801799
 20
221.8835488567407
 10
252.99729278018
 20
221.9595964567405
 10
253.03518958018
 20
222.0123522567406
 10
253.0957431801798
 20
222.0466168567405
 10
253.1855067801798
 20
222.0671908567406
 10
253.3044041801799
 20
222.0740488567406
 10
254.06518498018
 20
222.0740488567406
 10
254.18410778018
 20
222.0671908567406
 10
254.2739983801798
 20
222.0466168567405
 10
254.33490758018
 20
222.0123522567406
 10
254.3734901801799
 20
221.9595964567405
 10
254.3965533801799
 20
221.8835488567407
 10
254.4041987801799
 20
221.7842602567405
 10
254.4041987801799
 20
221.6891626567406
 10
254.4005411801799
 20
221.6226654567407
 10
254.38954298018
 20
221.5675474567407
 10
254.37120418018
 20
221.5236562567405
 10
254.3388445801799
 20
221.4830162567405
 10
254.28591098018
 20
221.4375756567406
 10
254.21250498018
 20
221.3873598567405
 10
253.3421993801798
 20
220.8594462567406
 10
254.2023957801798
 20
220.8594462567406
 10
254.2023957801798
 20
221.0780640567405
 10
254.4754965801798
 20
221.0010512567406
 10
254.4754965801798
 20
220.8833476567407
 10
254.4678257801799
 20
220.7837288567406
 10
254.4447117801798
 20
220.7076050567406
 10
254.4061037801798
 20
220.6548492567407
 10
254.3451945801798
 20
220.6205846567405
 10
254.2553039801798
 20
220.6000106567406
 10
254.1364065801799
 20
220.5931526567407
 10
252.8912985801798
 20
220.5931526567407
 10
252.8912985801798
 20
220.7275440567406
 10
252.8958959801798
 20
220.7880976567406
 10
252.90966278018
 20
220.8386436567406
 10
252.9323957801798
 20
220.8790550567406
 10
252.96711758018
 20
220.9158850567406
 10
253.0159109801798
 20
220.9555852567406
 10
253.0786997801799
 20
220.9981556567405
 10
254.10300558018
 20
221.6288630567406
 10
254.10300558018
 20
221.8220554567407
 10
253.2594969801798
 20
221.8220554567407
 10
253.2594969801798
 20
221.5164426567406
 10
252.96678738018
 20
221.5920584567405
  0
LWPOLYLINE
  5
273CD
330
18
100
AcDbEntity
  8
BESCHRIFTUNG
100
AcDbPolyline
 90
        4
 70
     1
 43
0.0762
 10
255.36190578018
 20
220.8594462567406
 10
256.4200951801799
 20
220.8594462567406
 10
256.4200951801799
 20
221.8220554567407
 10
255.36190578018
 20
221.8220554567407
  0
LWPOLYLINE
  5
273CE
330
18
100
AcDbEntity
  8
BESCHRIFTUNG
100
AcDbPolyline
 90
       28
 70
     1
 43
0.0762
 10
255.05260998018
 20
221.7240622567406
 10
255.0604077801799
 20
221.8449916567407
 10
255.0839535801799
 20
221.9371428567407
 10
255.1232981801799
 20
222.0003634567407
 10
255.1842073801799
 20
222.0413590567405
 10
255.2731327801798
 20
222.0658954567405
 10
255.3900997801799
 20
222.0740488567406
 10
256.3919011801799
 20
222.0740488567406
 10
256.50970638018
 20
222.0658954567405
 10
256.59911438018
 20
222.0413590567405
 10
256.6602013801798
 20
222.0003634567407
 10
256.6995459801798
 20
221.9371428567407
 10
256.7230663801799
 20
221.8449916567407
 10
256.73088958018
 20
221.7240622567406
 10
256.73088958018
 20
220.9436472567405
 10
256.7230663801799
 20
220.8223622567405
 10
256.6995459801798
 20
220.7300586567406
 10
256.6602013801798
 20
220.6667618567406
 10
256.59911438018
 20
220.6257916567407
 10
256.50970638018
 20
220.6013060567405
 10
256.3919011801799
 20
220.5931526567407
 10
255.3900997801799
 20
220.5931526567407
 10
255.2731327801798
 20
220.6013060567405
 10
255.1842073801799
 20
220.6257916567407
 10
255.1232981801799
 20
220.6667618567406
 10
255.0839535801799
 20
220.7300586567406
 10
255.0604077801799
 20
220.8223622567405
 10
255.05260998018
 20
220.9436472567405
  0
LWPOLYLINE
  5
273CF
330
18
100
AcDbEntity
  8
BESCHRIFTUNG
100
AcDbPolyline
 90
        4
 70
     1
 43
0.0762
 10
257.5796051801798
 20
220.8594462567406
 10
258.6377945801798
 20
220.8594462567406
 10
258.6377945801798
 20
221.8220554567407
 10
257.5796051801798
 20
221.8220554567407
  0
LWPOLYLINE
  5
273D0
330
18
100
AcDbEntity
  8
BESCHRIFTUNG
100
AcDbPolyline
 90
       28
 70
     1
 43
0.0762
 10
257.2703093801799
 20
221.7240622567406
 10
257.2781071801798
 20
221.8449916567407
 10
257.3016529801798
 20
221.9371428567407
 10
257.3409975801798
 20
222.0003634567407
 10
257.4019067801798
 20
222.0413590567405
 10
257.4908321801799
 20
222.0658954567405
 10
257.6077991801799
 20
222.0740488567406
 10
258.6096005801798
 20
222.0740488567406
 10
258.7274057801798
 20
222.0658954567405
 10
258.8168391801798
 20
222.0413590567405
 10
258.8779007801799
 20
222.0003634567407
 10
258.91724538018
 20
221.9371428567407
 10
258.9407911801799
 20
221.8449916567407
 10
258.9485889801799
 20
221.7240622567406
 10
258.9485889801799
 20
220.9436472567405
 10
258.9407911801799
 20
220.8223622567405
 10
258.91724538018
 20
220.7300586567406
 10
258.8779007801799
 20
220.6667618567406
 10
258.8168391801798
 20
220.6257916567407
 10
258.7274057801798
 20
220.6013060567405
 10
258.6096005801798
 20
220.5931526567407
 10
257.6077991801799
 20
220.5931526567407
 10
257.4908321801799
 20
220.6013060567405
 10
257.4019067801798
 20
220.6257916567407
 10
257.3409975801798
 20
220.6667618567406
 10
257.3016529801798
 20
220.7300586567406
 10
257.2781071801798
 20
220.8223622567405
 10
257.2703093801799
 20
220.9436472567405
  0
LWPOLYLINE
  5
273D1
330
18
100
AcDbEntity
  8
BESCHRIFTUNG
100
AcDbPolyline
 90
       15
 70
     1
 43
0.0762
 10
261.05160738018
 20
220.8719430567406
 10
261.4971995801799
 20
220.8719430567406
 10
261.7112961801799
 20
220.8842112567407
 10
261.8792409801799
 20
220.9210158567405
 10
262.0011863801798
 20
220.9823568567407
 10
262.0837617801798
 20
221.0723998567406
 10
262.1333425801799
 20
221.1943706567407
 10
262.1499033801799
 20
221.3481422567407
 10
262.13618738018
 20
221.4873596567405
 10
262.09509018018
 20
221.6018882567406
 10
262.0265863801798
 20
221.6919566567406
 10
261.9312601801798
 20
221.7570060567406
 10
261.80979738018
 20
221.7960966567405
 10
261.6621979801798
 20
221.8091522567407
 10
261.05160738018
 20
221.8091522567407
  0
LWPOLYLINE
  5
273D2
330
18
100
AcDbEntity
  8
BESCHRIFTUNG
100
AcDbPolyline
 90
       21
 70
     1
 43
0.0762
 10
260.7068023801798
 20
220.5931526567407
 10
260.7068023801798
 20
222.0740488567406
 10
261.6597849801798
 20
222.0740488567406
 10
261.91053378018
 20
222.0528652567405
 10
262.11949958018
 20
221.9893906567407
 10
262.2867077801799
 20
221.8837520567407
 10
262.4082721801798
 20
221.7388450567406
 10
262.4813225801799
 20
221.5585812567407
 10
262.5057065801799
 20
221.3429606567407
 10
262.4961561801799
 20
221.2090264567406
 10
262.4675811801798
 20
221.0845664567406
 10
262.4201085801798
 20
220.9694536567407
 10
262.3553893801799
 20
220.8665074567405
 10
262.2750745801799
 20
220.7793600567405
 10
262.1790879801799
 20
220.7079606567407
 10
262.1096189801799
 20
220.6714100567406
 10
262.0295581801799
 20
220.6422508567405
 10
261.93910878018
 20
220.6204576567405
 10
261.8343591801799
 20
220.6052938567405
 10
261.71172798018
 20
220.5961752567406
 10
261.5713929801799
 20
220.5931526567407
  0
LWPOLYLINE
  5
273D3
330
18
100
AcDbEntity
  8
BESCHRIFTUNG
100
AcDbPolyline
 90
        4
 70
     1
 43
0.0762
 10
263.0293021801799
 20
220.5931526567407
 10
263.0293021801799
 20
221.8062566567406
 10
263.3233071801798
 20
221.8062566567406
 10
263.3233071801798
 20
220.5931526567407
  0
LWPOLYLINE
  5
273D4
330
18
100
AcDbEntity
  8
BESCHRIFTUNG
100
AcDbPolyline
 90
       38
 70
     1
 43
0.0762
 10
265.05380918018
 20
221.5834478567407
 10
264.1304937801799
 20
221.5834478567407
 10
264.1304937801799
 20
220.8255626567405
 10
265.05380918018
 20
220.8255626567405
 10
265.05380918018
 20
221.0837536567406
 10
264.5718949801799
 20
221.0837536567406
 10
264.5718949801799
 20
221.2994504567406
 10
265.34359778018
 20
221.2994504567406
 10
265.34359778018
 20
220.8800456567406
 10
265.3364095801798
 20
220.7809348567406
 10
265.3147941801798
 20
220.7053444567406
 10
265.2785991801799
 20
220.6533506567406
 10
265.2218555801798
 20
220.6199242567405
 10
265.1385181801799
 20
220.5998582567407
 10
265.0284853801799
 20
220.5931526567407
 10
264.1501025801799
 20
220.5931526567407
 10
264.0400697801799
 20
220.5998582567407
 10
263.9567577801799
 20
220.6199242567405
 10
263.8999887801799
 20
220.6533506567406
 10
263.8638191801799
 20
220.7053444567406
 10
263.84217838018
 20
220.7809348567406
 10
263.8349901801798
 20
220.8800456567406
 10
263.8349901801798
 20
221.5203542567406
 10
263.84217838018
 20
221.6190078567407
 10
263.8638191801799
 20
221.6941918567405
 10
263.8999887801799
 20
221.7460586567407
 10
263.9567577801799
 20
221.7794850567405
 10
264.0400697801799
 20
221.7995510567405
 10
264.1501025801799
 20
221.8062566567406
 10
265.0284853801799
 20
221.8062566567406
 10
265.1378069801799
 20
221.7997288567406
 10
265.2208903801799
 20
221.7801200567406
 10
265.2776085801799
 20
221.7474556567407
 10
265.3142607801799
 20
221.6975954567407
 10
265.3362571801799
 20
221.6265770567405
 10
265.34359778018
 20
221.5346544567406
 10
265.34359778018
 20
221.5021424567406
 10
265.05380918018
 20
221.4533490567406
  0
LWPOLYLINE
  5
273D5
330
18
100
AcDbEntity
  8
BESCHRIFTUNG
100
AcDbPolyline
 90
        4
 70
     1
 43
0.0762
 10
265.8491085801799
 20
220.5931526567407
 10
265.8491085801799
 20
221.8062566567406
 10
266.1430881801797
 20
221.8062566567406
 10
266.1430881801797
 20
220.5931526567407
  0
LWPOLYLINE
  5
273D6
330
18
100
AcDbEntity
  8
BESCHRIFTUNG
100
AcDbPolyline
 90
        8
 70
     1
 43
0.0762
 10
267.4069921801799
 20
221.5891628567407
 10
267.4069921801799
 20
220.5931526567407
 10
267.1113869801799
 20
220.5931526567407
 10
267.1113869801799
 20
221.5891628567407
 10
266.5256883801798
 20
221.5891628567407
 10
266.5256883801798
 20
221.8062566567406
 10
267.99408778018
 20
221.8062566567406
 10
267.99408778018
 20
221.5891628567407
  0
LWPOLYLINE
  5
273D7
330
18
100
AcDbEntity
  8
BESCHRIFTUNG
100
AcDbPolyline
 90
        8
 70
     1
 43
0.0762
 10
267.9826069801799
 20
220.5931526567407
 10
268.70269698018
 20
221.8062566567406
 10
268.9872023801799
 20
221.8062566567406
 10
269.7182905801799
 20
220.5931526567407
 10
269.38649038018
 20
220.5931526567407
 10
269.23350618018
 20
220.8594462567406
 10
268.43109478018
 20
220.8594462567406
 10
268.2780851801799
 20
220.5931526567407
  0
LWPOLYLINE
  5
273D8
330
18
100
AcDbEntity
  8
BESCHRIFTUNG
100
AcDbPolyline
 90
        3
 70
     1
 43
0.0762
 10
268.5569009801799
 20
221.0808580567405
 10
269.1130085801798
 20
221.0808580567405
 10
268.8304081801798
 20
221.5863434567405
  0
LWPOLYLINE
  5
273D9
330
18
100
AcDbEntity
  8
BESCHRIFTUNG
100
AcDbPolyline
 90
        6
 70
     1
 43
0.0762
 10
270.0206013801798
 20
220.5931526567407
 10
270.0206013801798
 20
221.8062566567406
 10
270.3188989801799
 20
221.8062566567406
 10
270.3188989801799
 20
220.8202540567407
 10
271.27000198018
 20
220.8202540567407
 10
271.27000198018
 20
220.5931526567407
  0
LWPOLYLINE
  5
273DA
330
18
100
AcDbEntity
  8
BESCHRIFTUNG
  6
CONTINUOUS
100
AcDbPolyline
 90
       16
 70
     1
 43
0.0762
 10
258.7932933801798
 20
108.2671644567404
 10
258.2697993801798
 20
108.2671644567404
 10
258.2697993801798
 20
107.9887550567406
 10
258.7932933801798
 20
107.9887550567406
 10
258.8293359801798
 20
107.9906854567406
 10
258.8568949801799
 20
107.9965274567406
 10
258.8759957801798
 20
108.0062556567405
 10
258.8883401801799
 20
108.0208860567405
 10
258.8957315801799
 20
108.0415616567405
 10
258.8981953801799
 20
108.0682570567405
 10
258.8981953801799
 20
108.1886530567405
 10
258.8957315801799
 20
108.2148404567405
 10
258.8883401801799
 20
108.2352112567406
 10
258.8759957801798
 20
108.2497400567405
 10
258.8568949801799
 20
108.2594174567406
 10
258.8293359801798
 20
108.2652086567405
  0
LWPOLYLINE
  5
273DB
330
18
100
AcDbEntity
  8
BESCHRIFTUNG
  6
CONTINUOUS
100
AcDbPolyline
 90
       22
 70
     1
 43
0.0762
 10
258.0407929801799
 20
107.4400642567405
 10
258.0407929801799
 20
108.4402400567405
 10
258.8962903801798
 20
108.4402400567405
 10
258.9684517801799
 20
108.4351854567405
 10
259.0260081801798
 20
108.4199200567405
 10
259.0690865801798
 20
108.3944438567406
 10
259.0987029801799
 20
108.3575376567406
 10
259.1164575801799
 20
108.3081854567406
 10
259.1224011801798
 20
108.2464634567405
 10
259.1224011801798
 20
108.0113610567406
 10
259.1164575801799
 20
107.9499946567406
 10
259.0987029801799
 20
107.9009218567406
 10
259.0690865801798
 20
107.8641426567405
 10
259.0260081801798
 20
107.8382854567405
 10
258.9684517801799
 20
107.8227406567406
 10
258.8962903801798
 20
107.8175590567406
 10
258.76578518018
 20
107.8175590567406
 10
259.2273031801799
 20
107.4400642567405
 10
258.8933947801799
 20
107.4400642567405
 10
258.4902967801799
 20
107.8175590567406
 10
258.2697993801798
 20
107.8175590567406
 10
258.2697993801798
 20
107.4400642567405
  0
LWPOLYLINE
  5
273DC
330
18
100
AcDbEntity
  8
BESCHRIFTUNG
  6
CONTINUOUS
100
AcDbPolyline
 90
       37
 70
     1
 43
0.0762
 10
259.5926059801799
 20
107.4400642567405
 10
259.5926059801799
 20
108.4402400567405
 10
259.7808961801799
 20
108.4402400567405
 10
260.2520915801799
 20
107.8356438567406
 10
260.71299998018
 20
108.4402400567405
 10
260.8993851801799
 20
108.4402400567405
 10
260.8993851801799
 20
107.4400642567405
 10
260.6835867801799
 20
107.4400642567405
 10
260.6835867801799
 20
108.0578430567405
 10
260.6838407801799
 20
108.0709240567406
 10
260.6845773801799
 20
108.0861132567405
 10
260.6858981801799
 20
108.1034614567405
 10
260.68767618018
 20
108.1225114567406
 10
260.6897589801799
 20
108.1429076567405
 10
260.69199418018
 20
108.1647516567405
 10
260.6799291801798
 20
108.1404692567406
 10
260.6689563801799
 20
108.1192348567405
 10
260.6591011801799
 20
108.1011500567405
 10
260.6499571801798
 20
108.0853258567404
 10
260.64139738018
 20
108.0715336567406
 10
260.6335995801798
 20
108.0598496567405
 10
260.25790818018
 20
107.5601554567405
 10
260.2114007801799
 20
107.5601554567405
 10
259.8348965801799
 20
108.0617546567406
 10
259.82163778018
 20
108.0803982567405
 10
259.8097505801799
 20
108.0982290567406
 10
259.7992857801798
 20
108.1153486567405
 10
259.7901671801798
 20
108.1318078567405
 10
259.7821153801799
 20
108.1480638567405
 10
259.77510498018
 20
108.1638626567405
 10
259.7769083801799
 20
108.1437204567406
 10
259.7784577801799
 20
108.1247974567405
 10
259.7796007801798
 20
108.1072460567405
 10
259.7803881801798
 20
108.0903804567405
 10
259.7807945801798
 20
108.0739212567406
 10
259.7808961801799
 20
108.0578430567405
 10
259.7808961801799
 20
107.4400642567405
  0
LWPOLYLINE
  5
273DD
330
18
100
AcDbEntity
  8
BESCHRIFTUNG
  6
CONTINUOUS
100
AcDbPolyline
 90
       11
 70
     1
 43
0.0762
 10
262.0482017801798
 20
107.4287612567405
 10
262.0482017801798
 20
107.6606632567405
 10
261.2901895801799
 20
107.6606632567405
 10
261.2901895801799
 20
107.8282524567406
 10
262.0393879801799
 20
108.4515430567405
 10
262.2590979801798
 20
108.4515430567405
 10
262.2590979801798
 20
107.8282524567406
 10
262.5012869801798
 20
107.8282524567406
 10
262.5012869801798
 20
107.6606632567405
 10
262.2590979801798
 20
107.6606632567405
 10
262.2590979801798
 20
107.4287612567405
  0
LWPOLYLINE
  5
273DE
330
18
100
AcDbEntity
  8
BESCHRIFTUNG
  6
CONTINUOUS
100
AcDbPolyline
 90
        3
 70
     1
 43
0.0762
 10
262.0482017801798
 20
107.8282524567406
 10
262.0482017801798
 20
108.2755464567405
 10
261.5010857801798
 20
107.8282524567406
  0
LWPOLYLINE
  5
273DF
330
18
100
AcDbEntity
  8
BESCHRIFTUNG
  6
CONTINUOUS
100
AcDbPolyline
 90
       45
 70
     1
 43
0.0762
 10
262.9027085801799
 20
108.2445584567405
 10
262.9078647801798
 20
108.3116144567405
 10
262.92328258018
 20
108.3629986567406
 10
262.9488857801798
 20
108.3986602567405
 10
262.98977978018
 20
108.4217488567405
 10
263.05040958018
 20
108.4356172567405
 10
263.1306989801799
 20
108.4402400567405
 10
263.64459178018
 20
108.4402400567405
 10
263.72490658018
 20
108.4356172567405
 10
263.7855871801798
 20
108.4217488567405
 10
263.8267097801799
 20
108.3986602567405
 10
263.8528209801797
 20
108.3629986567406
 10
263.8684165801798
 20
108.3116144567405
 10
263.8735981801799
 20
108.2445584567405
 10
263.8735981801799
 20
108.1802456567405
 10
263.87110898018
 20
108.1353892567404
 10
263.86366678018
 20
108.0981528567405
 10
263.85129698018
 20
108.0685618567405
 10
263.8294275801799
 20
108.0411298567405
 10
263.7936643801799
 20
108.0104212567406
 10
263.7440073801799
 20
107.9764614567406
 10
263.15620058018
 20
107.6199470567405
 10
263.7373017801798
 20
107.6199470567405
 10
263.7373017801798
 20
107.7675464567405
 10
263.92170578018
 20
107.7155526567405
 10
263.92170578018
 20
107.6360506567406
 10
263.9165241801799
 20
107.5687914567405
 10
263.9009031801799
 20
107.5173564567405
 10
263.8747919801799
 20
107.4817456567406
 10
263.8336947801799
 20
107.4585808567405
 10
263.7729887801799
 20
107.4446870567405
 10
263.6926993801798
 20
107.4400642567405
 10
262.8517053801799
 20
107.4400642567405
 10
262.8517053801799
 20
107.5308438567404
 10
262.85480418018
 20
107.5717124567405
 10
262.8641005801798
 20
107.6058246567405
 10
262.8794929801799
 20
107.6331550567405
 10
262.9029371801798
 20
107.6580216567405
 10
262.93585558018
 20
107.6848440567406
 10
262.9782989801799
 20
107.7136476567405
 10
263.6700933801798
 20
108.1395548567405
 10
263.6700933801798
 20
108.2700600567406
 10
263.1003967801798
 20
108.2700600567406
 10
263.1003967801798
 20
108.0636596567405
 10
262.9027085801799
 20
108.1147644567405
  0
LWPOLYLINE
  5
273E0
330
18
100
AcDbEntity
  8
BESCHRIFTUNG
  6
CONTINUOUS
100
AcDbPolyline
 90
        4
 70
     1
 43
0.0762
 10
264.5204091801799
 20
107.6199470567405
 10
265.2351905801799
 20
107.6199470567405
 10
265.2351905801799
 20
108.2700600567406
 10
264.5204091801799
 20
108.2700600567406
  0
LWPOLYLINE
  5
273E1
330
18
100
AcDbEntity
  8
BESCHRIFTUNG
  6
CONTINUOUS
100
AcDbPolyline
 90
       28
 70
     1
 43
0.0762
 10
264.31149418018
 20
108.2038422567405
 10
264.3167773801799
 20
108.2855540567405
 10
264.3326777801799
 20
108.3477840567405
 10
264.3592969801797
 20
108.3905576567405
 10
264.40039418018
 20
108.4182436567406
 10
264.4604651801798
 20
108.4347790567405
 10
264.5395099801798
 20
108.4402400567405
 10
265.21608978018
 20
108.4402400567405
 10
265.2956425801799
 20
108.4347790567405
 10
265.3560183801798
 20
108.4182436567406
 10
265.3972933801799
 20
108.3905576567405
 10
265.4239125801798
 20
108.3477840567405
 10
265.43981298018
 20
108.2855540567405
 10
265.4450961801799
 20
108.2038422567405
 10
265.4450961801799
 20
107.6767414567406
 10
265.43981298018
 20
107.5948518567405
 10
265.4239125801798
 20
107.5325202567405
 10
265.3972933801799
 20
107.4897466567405
 10
265.3560183801798
 20
107.4621114567405
 10
265.2956425801799
 20
107.4455506567405
 10
265.21608978018
 20
107.4400642567405
 10
264.5395099801798
 20
107.4400642567405
 10
264.4604651801798
 20
107.4455506567405
 10
264.40039418018
 20
107.4621114567405
 10
264.3592969801797
 20
107.4897466567405
 10
264.3326777801799
 20
107.5325202567405
 10
264.3167773801799
 20
107.5948518567405
 10
264.31149418018
 20
107.6767414567406
  0
SOLID
  5
273E2
330
18
100
AcDbEntity
  8
BESCHRIFTUNG
  6
CONTINUOUS
100
AcDbTrace
 10
265.7207877801799
 20
107.8522554567406
 30
0.0
 11
265.7207877801799
 21
108.0525598567405
 31
0.0
 12
266.1717901801798
 22
107.8522554567406
 32
0.0
 13
266.1717901801798
 23
108.0525598567405
 33
0.0
  0
LWPOLYLINE
  5
273E3
330
18
100
AcDbEntity
  8
BESCHRIFTUNG
  6
CONTINUOUS
100
AcDbPolyline
 90
        4
 70
     1
 43
0.0762
 10
265.7207877801799
 20
107.8522554567406
 10
265.7207877801799
 20
108.0525598567405
 10
266.1717901801798
 20
108.0525598567405
 10
266.1717901801798
 20
107.8522554567406
  0
LWPOLYLINE
  5
273E4
330
18
100
AcDbEntity
  8
BESCHRIFTUNG
  6
CONTINUOUS
100
AcDbPolyline
 90
        4
 70
     1
 43
0.0762
 10
266.6585049801799
 20
107.6150448567406
 10
267.37280378018
 20
107.6150448567406
 10
267.37280378018
 20
108.2674438567405
 10
266.6585049801799
 20
108.2674438567405
  0
LWPOLYLINE
  5
273E5
330
18
100
AcDbEntity
  8
BESCHRIFTUNG
  6
CONTINUOUS
100
AcDbPolyline
 90
       28
 70
     1
 43
0.0762
 10
266.44958998018
 20
108.2010482567405
 10
266.4548985801798
 20
108.2830140567406
 10
266.4708497801798
 20
108.3454472567406
 10
266.4974943801798
 20
108.3883478567405
 10
266.5385153801798
 20
108.4161354567405
 10
266.5985355801799
 20
108.4327470567405
 10
266.67750418018
 20
108.4382588567406
 10
267.3538045801799
 20
108.4382588567406
 10
267.4332557801799
 20
108.4327470567405
 10
267.4936061801799
 20
108.4161354567405
 10
267.53480498018
 20
108.3883478567405
 10
267.5613987801798
 20
108.3454472567406
 10
267.5772483801799
 20
108.2830140567406
 10
267.5825061801799
 20
108.2010482567405
 10
267.5825061801799
 20
107.6721440567406
 10
267.5772483801799
 20
107.5898988567405
 10
267.5613987801798
 20
107.5273640567405
 10
267.53480498018
 20
107.4844634567406
 10
267.4936061801799
 20
107.4566758567406
 10
267.4332557801799
 20
107.4400642567405
 10
267.3538045801799
 20
107.4345524567405
 10
266.67750418018
 20
107.4345524567405
 10
266.5985355801799
 20
107.4400642567405
 10
266.5385153801798
 20
107.4566758567406
 10
266.4974943801798
 20
107.4844634567406
 10
266.4708497801798
 20
107.5273640567405
 10
266.4548985801798
 20
107.5898988567405
 10
266.44958998018
 20
107.6721440567406
  0
LWPOLYLINE
  5
273E6
330
18
100
AcDbEntity
  8
BESCHRIFTUNG
  6
CONTINUOUS
100
AcDbPolyline
 90
        6
 70
     1
 43
0.0762
 10
268.4498907801799
 20
107.4345524567405
 10
268.4498907801799
 20
108.2473524567405
 10
268.2371911801799
 20
108.2473524567405
 10
268.2371911801799
 20
108.3811596567405
 10
268.6606853801799
 20
108.4456502567405
 10
268.6606853801799
 20
107.4345524567405
  0
LWPOLYLINE
  5
273E7
330
18
100
AcDbEntity
  8
BESCHRIFTUNG
  6
CONTINUOUS
100
AcDbPolyline
 90
       77
 70
     1
 43
0.0762
 10
269.7027965801798
 20
107.4345524567405
 10
269.62258338018
 20
107.4392006567405
 10
269.5619789801799
 20
107.4531198567405
 10
269.5209071801798
 20
107.4763608567405
 10
269.4947959801798
 20
107.5121240567406
 10
269.4792511801799
 20
107.5637368567405
 10
269.4740949801798
 20
107.6312500567405
 10
269.4740949801798
 20
107.7129618567405
 10
269.6793015801799
 20
107.7557608567405
 10
269.6793015801799
 20
107.6150448567406
 10
270.2182895801799
 20
107.6150448567406
 10
270.2525541801799
 20
107.6171022567406
 10
270.2783097801798
 20
107.6231982567405
 10
270.2955055801798
 20
107.6332566567406
 10
270.3062497801799
 20
107.6492332567405
 10
270.3127267801799
 20
107.6732616567405
 10
270.3148857801798
 20
107.7054434567405
 10
270.3148857801798
 20
107.7784430567405
 10
270.3126505801799
 20
107.8110312567406
 10
270.3059195801799
 20
107.8355676567406
 10
270.29479438018
 20
107.8519506567405
 10
270.2774969801798
 20
107.8622122567405
 10
270.25199538018
 20
107.8683844567404
 10
270.2182895801799
 20
107.8704418567405
 10
269.8806981801799
 20
107.8704418567405
 10
269.8806981801799
 20
108.0337638567406
 10
270.18158658018
 20
108.0337638567406
 10
270.2151145801799
 20
108.0357958567405
 10
270.2403113801799
 20
108.0418918567405
 10
270.2571007801798
 20
108.0519502567405
 10
270.2675909801798
 20
108.0680538567405
 10
270.2739409801799
 20
108.0923616567405
 10
270.2760999801798
 20
108.1248482567406
 10
270.2760999801798
 20
108.1754450567406
 10
270.2739409801799
 20
108.2084650567405
 10
270.2675909801798
 20
108.2331030567405
 10
270.2571007801798
 20
108.2492574567405
 10
270.2403113801799
 20
108.2593158567405
 10
270.2151145801799
 20
108.2654118567405
 10
270.18158658018
 20
108.2674438567405
 10
269.6877089801798
 20
108.2674438567405
 10
269.6877089801798
 20
108.1420440567405
 10
269.4901985801798
 20
108.1789502567405
 10
269.4901985801798
 20
108.2418406567405
 10
269.49532938018
 20
108.3091506567406
 10
269.5107979801798
 20
108.3606872567405
 10
269.53660438018
 20
108.3964504567405
 10
269.5772697801799
 20
108.4196914567405
 10
269.6378233801799
 20
108.4336106567405
 10
269.7180873801798
 20
108.4382588567406
 10
270.2590057801799
 20
108.4382588567406
 10
270.33929518018
 20
108.4336106567405
 10
270.3998741801799
 20
108.4196914567405
 10
270.4406919801799
 20
108.3964504567405
 10
270.4663205801798
 20
108.3606872567405
 10
270.4817383801799
 20
108.3091506567406
 10
270.4868945801799
 20
108.2418406567405
 10
270.4868945801799
 20
108.1504514567406
 10
270.48217018018
 20
108.0967558567405
 10
270.4679715801798
 20
108.0531186567405
 10
270.4442987801799
 20
108.0195398567406
 10
270.4086371801799
 20
107.9939366567406
 10
270.3585991801799
 20
107.9739722567405
 10
270.2941847801799
 20
107.9595450567405
 10
270.3670319801799
 20
107.9479118567405
 10
270.4255535801798
 20
107.9277188567406
 10
270.46980038018
 20
107.8989406567405
 10
270.5007629801798
 20
107.8611708567406
 10
270.51938118018
 20
107.8133934567405
 10
270.5256041801799
 20
107.7557608567405
 10
270.5256041801799
 20
107.6503508567405
 10
270.5197113801798
 20
107.5764622567405
 10
270.5020583801799
 20
107.5198964567406
 10
270.4726959801798
 20
107.4805518567405
 10
270.42829678018
 20
107.4549486567406
 10
270.36527938018
 20
107.4396324567405
 10
270.2835929801799
 20
107.4345524567405
  0
LWPOLYLINE
  5
273E8
330
18
100
AcDbEntity
  8
BLECH
100
AcDbPolyline
 90
        4
 70
     1
 43
0.0
 10
168.1026949801798
 20
205.7252626567406
 10
232.4026933801799
 20
205.7252626567406
 10
232.4026933801799
 20
211.0252520567406
 10
168.1026949801798
 20
211.0252520567406
  0
LWPOLYLINE
  5
273E9
330
18
100
AcDbEntity
  8
BLECH
100
AcDbPolyline
 90
        4
 70
     1
 43
0.0
 10
169.1026949801798
 20
206.7252626567407
 10
231.4026933801799
 20
206.7252626567407
 10
231.4026933801799
 20
210.0252520567406
 10
169.1026949801798
 20
210.0252520567406
  0
LWPOLYLINE
  5
273EA
330
18
100
AcDbEntity
  8
BLECH
 62
     5
100
AcDbPolyline
 90
        4
 70
     1
 43
0.0
 10
262.0050979801799
 20
139.3749508567406
 10
181.5051065801799
 20
139.3749508567406
 10
181.5051065801799
 20
149.8749552567405
 10
262.0050979801799
 20
149.8749552567405
  0
CIRCLE
  5
273EB
330
18
100
AcDbEntity
  8
TASTEN
  6
CONTINUOUS
100
AcDbCircle
 10
270.1865441896279
 20
144.5142453365814
 30
0.0
 40
8.0
  0
CIRCLE
  5
273ED
330
18
100
AcDbEntity
  8
TASTEN
  6
CONTINUOUS
100
AcDbCircle
 10
165.2533991801799
 20
144.5142453365814
 30
0.0
 40
8.0
  0
CIRCLE
  5
273EF
330
18
100
AcDbEntity
  8
TASTEN
  6
CONTINUOUS
100
AcDbCircle
 10
135.2526971801798
 20
144.5142453365814
 30
0.0
 40
8.0
  0
LINE
  5
27485
330
18
100
AcDbEntity
  8
RAHMEN025
100
AcDbLine
 10
420.0
 20
297.0
 30
0.0
 11
0.0
 21
297.0
 31
0.0
  0
LINE
  5
27486
330
18
100
AcDbEntity
  8
RAHMEN07
100
AcDbLine
 10
415.0
 20
292.0
 30
0.0
 11
17.80000000000026
 21
292.0
 31
0.0
  0
LINE
  5
27487
330
18
100
AcDbEntity
  8
RAHMEN07
100
AcDbLine
 10
17.80000000000026
 20
5.0
 30
0.0
 11
415.0
 21
5.0
 31
0.0
  0
LINE
  5
27488
330
18
100
AcDbEntity
  8
RAHMEN025
100
AcDbLine
 10
0.0
 20
0.0
 30
0.0
 11
420.0
 21
0.0
 31
0.0
  0
LINE
  5
27489
330
18
100
AcDbEntity
  8
RAHMEN025
100
AcDbLine
 10
0.0
 20
297.0
 30
0.0
 11
0.0
 21
0.0
 31
0.0
  0
LINE
  5
2748A
330
18
100
AcDbEntity
  8
RAHMEN07
100
AcDbLine
 10
17.80000000000026
 20
5.0
 30
0.0
 11
17.80000000000026
 21
292.0
 31
0.0
  0
LINE
  5
2748B
330
18
100
AcDbEntity
  8
RAHMEN025
100
AcDbLine
 10
0.0
 20
0.0
 30
0.0
 11
210.0
 21
0.0
 31
0.0
  0
LINE
  5
2748C
330
18
100
AcDbEntity
  8
RAHMEN07
100
AcDbLine
 10
415.0
 20
5.0
 30
0.0
 11
415.0
 21
292.0
 31
0.0
  0
LINE
  5
2748D
330
18
100
AcDbEntity
  8
RAHMEN025
100
AcDbLine
 10
420.0
 20
0.0
 30
0.0
 11
420.0
 21
297.0
 31
0.0
  0
LINE
  5
27492
330
18
100
AcDbEntity
  8
RAHMEN07
100
AcDbLine
 10
227.8000000000002
 20
5.0
 30
0.0
 11
415.0
 21
5.0
 31
0.0
  0
DIMENSION
  5
274C3
330
18
100
AcDbEntity
  8
BEMASSUNG
100
AcDbDimension
  2
*D1
 10
280.0026997801799
 20
239.7264231592292
 30
0.0
 11
200.2527449801799
 21
241.8097564925626
 31
0.0
 70
    32
  1
159,5
  3
STANDARD
100
AcDbAlignedDimension
 13
120.5027901801799
 23
234.1251550567406
 33
0.0
 14
280.0026997801799
 24
234.1251550567406
 34
0.0
100
AcDbRotatedDimension
1001
ACAD
1000
DSTYLE
1002
{
1070
   270
1070
     8
1070
   270
1070
     8
1070
   270
1070
     8
1070
    41
1040
2.5
1070
    42
1040
0.625
1070
    43
1040
3.75
1070
    44
1040
1.25
1070
    73
1070
     0
1070
    74
1070
     0
1070
    77
1070
     1
1070
    78
1070
     8
1070
   140
1040
2.5
1070
   141
1040
2.5
1070
   143
1040
0.0394
1070
   147
1040
0.625
1070
   171
1070
     4
1070
   172
1070
     1
1070
   273
1070
     8
1070
   274
1070
     4
1070
   277
1070
     6
1002
}
  0
DIMENSION
  5
274D0
330
18
100
AcDbEntity
  8
BEMASSUNG
100
AcDbDimension
  2
*D2
 10
113.7183101508512
 20
106.1251570567405
 30
0.0
 11
111.8433101508512
 21
170.1251560567406
 31
0.0
 70
    32
  3
STANDARD
100
AcDbAlignedDimension
 13
120.5027901801799
 23
234.1251550567406
 33
0.0
 14
120.5027901801799
 24
106.1251570567405
 34
0.0
 50
90.0
100
AcDbRotatedDimension
1001
ACAD
1000
DSTYLE
1002
{
1070
   270
1070
     8
1070
   270
1070
     8
1070
   270
1070
     8
1070
    41
1040
2.5
1070
    42
1040
0.625
1070
    43
1040
3.75
1070
    44
1040
1.25
1070
    73
1070
     0
1070
    74
1070
     0
1070
    77
1070
     1
1070
    78
1070
     8
1070
   140
1040
2.5
1070
   141
1040
2.5
1070
   143
1040
0.0394
1070
   147
1040
0.625
1070
   171
1070
     4
1070
   172
1070
     1
1070
   273
1070
     8
1070
   274
1070
     4
1070
   277
1070
     6
1002
}
  0
LWPOLYLINE
  5
275AD
330
18
100
AcDbEntity
  8
BLECH
100
AcDbPolyline
 90
        4
 70
     1
 43
0.0
 10
120.5027901801799
 20
106.1251570567405
 10
280.0026997801799
 20
106.1251570567405
 10
280.0026997801799
 20
234.1251550567406
 10
120.5027901801799
 20
234.1251550567406
  0
LWPOLYLINE
  5
275CD
102
{ACAD_REACTORS
330
275E6
102
}
330
18
100
AcDbEntity
  8
BLECH
  6
CONTINUOUS
100
AcDbPolyline
 90
        4
 70
     1
 43
0.0
 10
123.5124238499881
 20
180.3751112567406
 10
137.0124238499881
 20
180.3751112567406
 10
137.0124238499881
 20
193.8751112567406
 10
123.5124238499881
 20
193.8751112567406
  0
CIRCLE
  5
275CE
102
{ACAD_REACTORS
330
275D6
102
}
330
18
100
AcDbEntity
  8
BLECH
100
AcDbCircle
 10
163.2632515990094
 20
219.1209432567406
 30
0.0
 40
2.5
  0
LWPOLYLINE
  5
275CF
102
{ACAD_REACTORS
330
275D6
102
}
330
18
100
AcDbEntity
  8
BLECH
100
AcDbPolyline
 90
        6
 70
     1
 43
0.0
 10
162.7963136156865
 20
219.9297035678394
 10
162.3293756323637
 20
219.1209432567406
 10
162.7963136156865
 20
218.3121829456416
 10
163.7301895823322
 20
218.3121829456416
 10
164.1971275656551
 20
219.1209432567406
 10
163.7301895823322
 20
219.9297035678394
  0
LWPOLYLINE
  5
275D0
102
{ACAD_REACTORS
330
275E6
102
}
330
18
100
AcDbEntity
  8
TASTEN
100
AcDbPolyline
 90
        8
 70
     1
 43
0.0
 10
124.3500488499881
 20
180.8746612567406
 10
136.1747988499881
 20
180.8746612567406
 42
0.4142135623730948
 10
136.5126488499881
 20
181.2125112567406
 10
136.5126488499881
 20
193.0372612567406
 42
0.4142135623730956
 10
136.1747988499881
 20
193.3751112567406
 10
124.3500488499881
 20
193.3751112567406
 42
0.4142135623730951
 10
124.0121988499881
 20
193.0372612567406
 10
124.0121988499881
 20
181.2125112567406
 42
0.4142135623730956
  0
LWPOLYLINE
  5
275D1
102
{ACAD_REACTORS
330
275E6
102
}
330
18
100
AcDbEntity
  8
TASTEN
100
AcDbPolyline
 90
        8
 70
     1
 43
0.0
 10
125.0257488499881
 20
181.2125112567406
 10
135.4990988499881
 20
181.2125112567406
 42
0.4142135623730951
 10
136.1747988499881
 20
181.8882112567406
 10
136.1747988499881
 20
192.3615612567406
 42
0.4142135623730951
 10
135.4990988499881
 20
193.0372612567406
 10
125.0257488499881
 20
193.0372612567406
 42
0.4142135623730951
 10
124.3500488499881
 20
192.3615612567406
 10
124.3500488499881
 20
181.8882112567406
 42
0.4142135623730951
  0
INSERT
  5
275D2
330
18
100
AcDbEntity
  8
BLECH
100
AcDbBlockReference
  2
A$C1BF1606D
 10
122.7574106654155
 20
228.6622607182585
 30
0.0
  0
INSERT
  5
275D3
330
18
100
AcDbEntity
  8
BLECH
100
AcDbBlockReference
  2
A$C1BF1606D
 10
272.7480805989496
 20
228.6622607182585
 30
0.0
  0
INSERT
  5
275D4
330
18
100
AcDbEntity
  8
BLECH
100
AcDbBlockReference
  2
A$C1BF1606D
 10
272.7480805989496
 20
106.58805124451
 30
0.0
  0
INSERT
  5
275D5
330
18
100
AcDbEntity
  8
BLECH
100
AcDbBlockReference
  2
A$C1BF1606D
 10
122.7574106654155
 20
106.58805124451
 30
0.0
  0
CIRCLE
  5
275D7
102
{ACAD_REACTORS
330
275D9
102
}
330
18
100
AcDbEntity
  8
BLECH
100
AcDbCircle
 10
237.2475782428714
 20
219.1209432567406
 30
0.0
 40
2.5
  0
LWPOLYLINE
  5
275D8
102
{ACAD_REACTORS
330
275D9
102
}
330
18
100
AcDbEntity
  8
BLECH
100
AcDbPolyline
 90
        6
 70
     1
 43
0.0
 10
236.7806402595486
 20
219.9297035678394
 10
236.3137022762257
 20
219.1209432567406
 10
236.7806402595486
 20
218.3121829456416
 10
237.7145162261943
 20
218.3121829456416
 10
238.1814542095171
 20
219.1209432567406
 10
237.7145162261943
 20
219.9297035678394
  0
CIRCLE
  5
275DA
102
{ACAD_REACTORS
330
275DC
102
}
330
18
100
AcDbEntity
  8
BLECH
100
AcDbCircle
 10
160.1978683106608
 20
176.9014694547969
 30
0.0
 40
2.5
  0
LWPOLYLINE
  5
275DB
102
{ACAD_REACTORS
330
275DC
102
}
330
18
100
AcDbEntity
  8
BLECH
100
AcDbPolyline
 90
        6
 70
     1
 43
0.0
 10
159.730930327338
 20
177.7102297658958
 10
159.2639923440151
 20
176.9014694547969
 10
159.730930327338
 20
176.092709143698
 10
160.6648062939837
 20
176.092709143698
 10
161.1317442773065
 20
176.9014694547969
 10
160.6648062939837
 20
177.7102297658958
  0
CIRCLE
  5
275DD
102
{ACAD_REACTORS
330
275DF
102
}
330
18
100
AcDbEntity
  8
BLECH
100
AcDbCircle
 10
240.307621649699
 20
176.9014694547969
 30
0.0
 40
2.5
  0
LWPOLYLINE
  5
275DE
102
{ACAD_REACTORS
330
275DF
102
}
330
18
100
AcDbEntity
  8
BLECH
100
AcDbPolyline
 90
        6
 70
     1
 43
0.0
 10
239.8406836663762
 20
177.7102297658958
 10
239.3737456830533
 20
176.9014694547969
 10
239.8406836663762
 20
176.092709143698
 10
240.7745596330219
 20
176.092709143698
 10
241.2414976163447
 20
176.9014694547969
 10
240.7745596330219
 20
177.7102297658958
  0
CIRCLE
  5
275E0
102
{ACAD_REACTORS
330
275E2
102
}
330
18
100
AcDbEntity
  8
BLECH
100
AcDbCircle
 10
160.1978683106608
 20
122.0113319663365
 30
0.0
 40
2.5
  0
LWPOLYLINE
  5
275E1
102
{ACAD_REACTORS
330
275E2
102
}
330
18
100
AcDbEntity
  8
BLECH
100
AcDbPolyline
 90
        6
 70
     1
 43
0.0
 10
159.730930327338
 20
122.8200922774354
 10
159.2639923440151
 20
122.0113319663365
 10
159.730930327338
 20
121.2025716552376
 10
160.6648062939837
 20
121.2025716552376
 10
161.1317442773065
 20
122.0113319663365
 10
160.6648062939837
 20
122.8200922774354
  0
CIRCLE
  5
275E3
102
{ACAD_REACTORS
330
275E5
102
}
330
18
100
AcDbEntity
  8
BLECH
100
AcDbCircle
 10
240.307621649699
 20
122.0113319663365
 30
0.0
 40
2.5
  0
LWPOLYLINE
  5
275E4
102
{ACAD_REACTORS
330
275E5
102
}
330
18
100
AcDbEntity
  8
BLECH
100
AcDbPolyline
 90
        6
 70
     1
 43
0.0
 10
239.8406836663762
 20
122.8200922774354
 10
239.3737456830533
 20
122.0113319663365
 10
239.8406836663762
 20
121.2025716552376
 10
240.7745596330219
 20
121.2025716552376
 10
241.2414976163447
 20
122.0113319663365
 10
240.7745596330219
 20
122.8200922774354
  0
LWPOLYLINE
  5
275E7
102
{ACAD_REACTORS
330
275EA
102
}
330
18
100
AcDbEntity
  8
BLECH
  6
CONTINUOUS
100
AcDbPolyline
 90
        4
 70
     1
 43
0.0
 10
123.5124238499881
 20
160.3751112567406
 10
137.0124238499881
 20
160.3751112567406
 10
137.0124238499881
 20
173.8751112567406
 10
123.5124238499881
 20
173.8751112567406
  0
LWPOLYLINE
  5
275E8
102
{ACAD_REACTORS
330
275EA
102
}
330
18
100
AcDbEntity
  8
TASTEN
100
AcDbPolyline
 90
        8
 70
     1
 43
0.0
 10
124.3500488499881
 20
160.8746612567406
 10
136.1747988499881
 20
160.8746612567406
 42
0.4142135623730948
 10
136.5126488499881
 20
161.2125112567406
 10
136.5126488499881
 20
173.0372612567406
 42
0.4142135623730956
 10
136.1747988499881
 20
173.3751112567406
 10
124.3500488499881
 20
173.3751112567406
 42
0.4142135623730951
 10
124.0121988499881
 20
173.0372612567406
 10
124.0121988499881
 20
161.2125112567406
 42
0.4142135623730956
  0
LWPOLYLINE
  5
275E9
102
{ACAD_REACTORS
330
275EA
102
}
330
18
100
AcDbEntity
  8
TASTEN
100
AcDbPolyline
 90
        8
 70
     1
 43
0.0
 10
125.0257488499881
 20
161.2125112567406
 10
135.4990988499881
 20
161.2125112567406
 42
0.4142135623730951
 10
136.1747988499881
 20
161.8882112567406
 10
136.1747988499881
 20
172.3615612567406
 42
0.4142135623730951
 10
135.4990988499881
 20
173.0372612567406
 10
125.0257488499881
 20
173.0372612567406
 42
0.4142135623730951
 10
124.3500488499881
 20
172.3615612567406
 10
124.3500488499881
 20
161.8882112567406
 42
0.4142135623730951
  0
LWPOLYLINE
  5
275EB
102
{ACAD_REACTORS
330
275EE
102
}
330
18
100
AcDbEntity
  8
BLECH
  6
CONTINUOUS
100
AcDbPolyline
 90
        4
 70
     1
 43
0.0
 10
143.5124238499881
 20
180.3751112567406
 10
157.0124238499881
 20
180.3751112567406
 10
157.0124238499881
 20
193.8751112567406
 10
143.5124238499881
 20
193.8751112567406
  0
LWPOLYLINE
  5
275EC
102
{ACAD_REACTORS
330
275EE
102
}
330
18
100
AcDbEntity
  8
TASTEN
100
AcDbPolyline
 90
        8
 70
     1
 43
0.0
 10
144.3500488499881
 20
180.8746612567406
 10
156.1747988499881
 20
180.8746612567406
 42
0.4142135623730948
 10
156.5126488499881
 20
181.2125112567406
 10
156.5126488499881
 20
193.0372612567406
 42
0.4142135623730956
 10
156.1747988499881
 20
193.3751112567406
 10
144.3500488499881
 20
193.3751112567406
 42
0.4142135623730951
 10
144.0121988499881
 20
193.0372612567406
 10
144.0121988499881
 20
181.2125112567406
 42
0.4142135623730956
  0
LWPOLYLINE
  5
275ED
102
{ACAD_REACTORS
330
275EE
102
}
330
18
100
AcDbEntity
  8
TASTEN
100
AcDbPolyline
 90
        8
 70
     1
 43
0.0
 10
145.0257488499881
 20
181.2125112567406
 10
155.4990988499881
 20
181.2125112567406
 42
0.4142135623730951
 10
156.1747988499881
 20
181.8882112567406
 10
156.1747988499881
 20
192.3615612567406
 42
0.4142135623730951
 10
155.4990988499881
 20
193.0372612567406
 10
145.0257488499881
 20
193.0372612567406
 42
0.4142135623730951
 10
144.3500488499881
 20
192.3615612567406
 10
144.3500488499881
 20
181.8882112567406
 42
0.4142135623730951
  0
LWPOLYLINE
  5
275EF
102
{ACAD_REACTORS
330
275F2
102
}
330
18
100
AcDbEntity
  8
BLECH
  6
CONTINUOUS
100
AcDbPolyline
 90
        4
 70
     1
 43
0.0
 10
143.5124238499881
 20
160.3751112567406
 10
157.0124238499881
 20
160.3751112567406
 10
157.0124238499881
 20
173.8751112567406
 10
143.5124238499881
 20
173.8751112567406
  0
LWPOLYLINE
  5
275F0
102
{ACAD_REACTORS
330
275F2
102
}
330
18
100
AcDbEntity
  8
TASTEN
100
AcDbPolyline
 90
        8
 70
     1
 43
0.0
 10
144.3500488499881
 20
160.8746612567406
 10
156.1747988499881
 20
160.8746612567406
 42
0.4142135623730948
 10
156.5126488499881
 20
161.2125112567406
 10
156.5126488499881
 20
173.0372612567406
 42
0.4142135623730956
 10
156.1747988499881
 20
173.3751112567406
 10
144.3500488499881
 20
173.3751112567406
 42
0.4142135623730951
 10
144.0121988499881
 20
173.0372612567406
 10
144.0121988499881
 20
161.2125112567406
 42
0.4142135623730956
  0
LWPOLYLINE
  5
275F1
102
{ACAD_REACTORS
330
275F2
102
}
330
18
100
AcDbEntity
  8
TASTEN
100
AcDbPolyline
 90
        8
 70
     1
 43
0.0
 10
145.0257488499881
 20
161.2125112567406
 10
155.4990988499881
 20
161.2125112567406
 42
0.4142135623730951
 10
156.1747988499881
 20
161.8882112567406
 10
156.1747988499881
 20
172.3615612567406
 42
0.4142135623730951
 10
155.4990988499881
 20
173.0372612567406
 10
145.0257488499881
 20
173.0372612567406
 42
0.4142135623730951
 10
144.3500488499881
 20
172.3615612567406
 10
144.3500488499881
 20
161.8882112567406
 42
0.4142135623730951
  0
LWPOLYLINE
  5
275F3
102
{ACAD_REACTORS
330
275F6
102
}
330
18
100
AcDbEntity
  8
BLECH
  6
CONTINUOUS
100
AcDbPolyline
 90
        4
 70
     1
 43
0.0
 10
163.5124238499881
 20
180.3751112567406
 10
177.0124238499881
 20
180.3751112567406
 10
177.0124238499881
 20
193.8751112567406
 10
163.5124238499881
 20
193.8751112567406
  0
LWPOLYLINE
  5
275F4
102
{ACAD_REACTORS
330
275F6
102
}
330
18
100
AcDbEntity
  8
TASTEN
100
AcDbPolyline
 90
        8
 70
     1
 43
0.0
 10
164.3500488499881
 20
180.8746612567406
 10
176.1747988499881
 20
180.8746612567406
 42
0.4142135623730948
 10
176.5126488499881
 20
181.2125112567406
 10
176.5126488499881
 20
193.0372612567406
 42
0.4142135623730956
 10
176.1747988499881
 20
193.3751112567406
 10
164.3500488499881
 20
193.3751112567406
 42
0.4142135623730951
 10
164.0121988499881
 20
193.0372612567406
 10
164.0121988499881
 20
181.2125112567406
 42
0.4142135623730956
  0
LWPOLYLINE
  5
275F5
102
{ACAD_REACTORS
330
275F6
102
}
330
18
100
AcDbEntity
  8
TASTEN
100
AcDbPolyline
 90
        8
 70
     1
 43
0.0
 10
165.0257488499881
 20
181.2125112567406
 10
175.4990988499881
 20
181.2125112567406
 42
0.4142135623730951
 10
176.1747988499881
 20
181.8882112567406
 10
176.1747988499881
 20
192.3615612567406
 42
0.4142135623730951
 10
175.4990988499881
 20
193.0372612567406
 10
165.0257488499881
 20
193.0372612567406
 42
0.4142135623730951
 10
164.3500488499881
 20
192.3615612567406
 10
164.3500488499881
 20
181.8882112567406
 42
0.4142135623730951
  0
LWPOLYLINE
  5
275F7
102
{ACAD_REACTORS
330
275FA
102
}
330
18
100
AcDbEntity
  8
BLECH
  6
CONTINUOUS
100
AcDbPolyline
 90
        4
 70
     1
 43
0.0
 10
163.5124238499881
 20
160.3751112567406
 10
177.0124238499881
 20
160.3751112567406
 10
177.0124238499881
 20
173.8751112567406
 10
163.5124238499881
 20
173.8751112567406
  0
LWPOLYLINE
  5
275F8
102
{ACAD_REACTORS
330
275FA
102
}
330
18
100
AcDbEntity
  8
TASTEN
100
AcDbPolyline
 90
        8
 70
     1
 43
0.0
 10
164.3500488499881
 20
160.8746612567406
 10
176.1747988499881
 20
160.8746612567406
 42
0.4142135623730948
 10
176.5126488499881
 20
161.2125112567406
 10
176.5126488499881
 20
173.0372612567406
 42
0.4142135623730956
 10
176.1747988499881
 20
173.3751112567406
 10
164.3500488499881
 20
173.3751112567406
 42
0.4142135623730951
 10
164.0121988499881
 20
173.0372612567406
 10
164.0121988499881
 20
161.2125112567406
 42
0.4142135623730956
  0
LWPOLYLINE
  5
275F9
102
{ACAD_REACTORS
330
275FA
102
}
330
18
100
AcDbEntity
  8
TASTEN
100
AcDbPolyline
 90
        8
 70
     1
 43
0.0
 10
165.0257488499881
 20
161.2125112567406
 10
175.4990988499881
 20
161.2125112567406
 42
0.4142135623730951
 10
176.1747988499881
 20
161.8882112567406
 10
176.1747988499881
 20
172.3615612567406
 42
0.4142135623730951
 10
175.4990988499881
 20
173.0372612567406
 10
165.0257488499881
 20
173.0372612567406
 42
0.4142135623730951
 10
164.3500488499881
 20
172.3615612567406
 10
164.3500488499881
 20
161.8882112567406
 42
0.4142135623730951
  0
LWPOLYLINE
  5
275FB
102
{ACAD_REACTORS
330
275FE
102
}
330
18
100
AcDbEntity
  8
BLECH
  6
CONTINUOUS
100
AcDbPolyline
 90
        4
 70
     1
 43
0.0
 10
183.5124238499881
 20
180.3751112567406
 10
197.0124238499881
 20
180.3751112567406
 10
197.0124238499881
 20
193.8751112567406
 10
183.5124238499881
 20
193.8751112567406
  0
LWPOLYLINE
  5
275FC
102
{ACAD_REACTORS
330
275FE
102
}
330
18
100
AcDbEntity
  8
TASTEN
100
AcDbPolyline
 90
        8
 70
     1
 43
0.0
 10
184.3500488499881
 20
180.8746612567406
 10
196.1747988499881
 20
180.8746612567406
 42
0.4142135623730948
 10
196.5126488499881
 20
181.2125112567406
 10
196.5126488499881
 20
193.0372612567406
 42
0.4142135623730956
 10
196.1747988499881
 20
193.3751112567406
 10
184.3500488499881
 20
193.3751112567406
 42
0.4142135623730951
 10
184.0121988499881
 20
193.0372612567406
 10
184.0121988499881
 20
181.2125112567406
 42
0.4142135623730956
  0
LWPOLYLINE
  5
275FD
102
{ACAD_REACTORS
330
275FE
102
}
330
18
100
AcDbEntity
  8
TASTEN
100
AcDbPolyline
 90
        8
 70
     1
 43
0.0
 10
185.0257488499881
 20
181.2125112567406
 10
195.4990988499881
 20
181.2125112567406
 42
0.4142135623730951
 10
196.1747988499881
 20
181.8882112567406
 10
196.1747988499881
 20
192.3615612567406
 42
0.4142135623730951
 10
195.4990988499881
 20
193.0372612567406
 10
185.0257488499881
 20
193.0372612567406
 42
0.4142135623730951
 10
184.3500488499881
 20
192.3615612567406
 10
184.3500488499881
 20
181.8882112567406
 42
0.4142135623730951
  0
LWPOLYLINE
  5
275FF
102
{ACAD_REACTORS
330
27602
102
}
330
18
100
AcDbEntity
  8
BLECH
  6
CONTINUOUS
100
AcDbPolyline
 90
        4
 70
     1
 43
0.0
 10
183.5124238499881
 20
160.3751112567406
 10
197.0124238499881
 20
160.3751112567406
 10
197.0124238499881
 20
173.8751112567406
 10
183.5124238499881
 20
173.8751112567406
  0
LWPOLYLINE
  5
27600
102
{ACAD_REACTORS
330
27602
102
}
330
18
100
AcDbEntity
  8
TASTEN
100
AcDbPolyline
 90
        8
 70
     1
 43
0.0
 10
184.3500488499881
 20
160.8746612567406
 10
196.1747988499881
 20
160.8746612567406
 42
0.4142135623730948
 10
196.5126488499881
 20
161.2125112567406
 10
196.5126488499881
 20
173.0372612567406
 42
0.4142135623730956
 10
196.1747988499881
 20
173.3751112567406
 10
184.3500488499881
 20
173.3751112567406
 42
0.4142135623730951
 10
184.0121988499881
 20
173.0372612567406
 10
184.0121988499881
 20
161.2125112567406
 42
0.4142135623730956
  0
LWPOLYLINE
  5
27601
102
{ACAD_REACTORS
330
27602
102
}
330
18
100
AcDbEntity
  8
TASTEN
100
AcDbPolyline
 90
        8
 70
     1
 43
0.0
 10
185.0257488499881
 20
161.2125112567406
 10
195.4990988499881
 20
161.2125112567406
 42
0.4142135623730951
 10
196.1747988499881
 20
161.8882112567406
 10
196.1747988499881
 20
172.3615612567406
 42
0.4142135623730951
 10
195.4990988499881
 20
173.0372612567406
 10
185.0257488499881
 20
173.0372612567406
 42
0.4142135623730951
 10
184.3500488499881
 20
172.3615612567406
 10
184.3500488499881
 20
161.8882112567406
 42
0.4142135623730951
  0
LWPOLYLINE
  5
27603
102
{ACAD_REACTORS
330
27606
102
}
330
18
100
AcDbEntity
  8
BLECH
  6
CONTINUOUS
100
AcDbPolyline
 90
        4
 70
     1
 43
0.0
 10
203.5124238499881
 20
180.3751112567406
 10
217.0124238499882
 20
180.3751112567406
 10
217.0124238499882
 20
193.8751112567406
 10
203.5124238499881
 20
193.8751112567406
  0
LWPOLYLINE
  5
27604
102
{ACAD_REACTORS
330
27606
102
}
330
18
100
AcDbEntity
  8
TASTEN
100
AcDbPolyline
 90
        8
 70
     1
 43
0.0
 10
204.3500488499881
 20
180.8746612567406
 10
216.1747988499882
 20
180.8746612567406
 42
0.4142135623730948
 10
216.5126488499881
 20
181.2125112567406
 10
216.5126488499881
 20
193.0372612567406
 42
0.4142135623730956
 10
216.1747988499882
 20
193.3751112567406
 10
204.3500488499881
 20
193.3751112567406
 42
0.4142135623730951
 10
204.0121988499882
 20
193.0372612567406
 10
204.0121988499882
 20
181.2125112567406
 42
0.4142135623730956
  0
LWPOLYLINE
  5
27605
102
{ACAD_REACTORS
330
27606
102
}
330
18
100
AcDbEntity
  8
TASTEN
100
AcDbPolyline
 90
        8
 70
     1
 43
0.0
 10
205.0257488499881
 20
181.2125112567406
 10
215.4990988499881
 20
181.2125112567406
 42
0.4142135623730951
 10
216.1747988499882
 20
181.8882112567406
 10
216.1747988499882
 20
192.3615612567406
 42
0.4142135623730951
 10
215.4990988499881
 20
193.0372612567406
 10
205.0257488499881
 20
193.0372612567406
 42
0.4142135623730951
 10
204.3500488499881
 20
192.3615612567406
 10
204.3500488499881
 20
181.8882112567406
 42
0.4142135623730951
  0
LWPOLYLINE
  5
27607
102
{ACAD_REACTORS
330
2760A
102
}
330
18
100
AcDbEntity
  8
BLECH
  6
CONTINUOUS
100
AcDbPolyline
 90
        4
 70
     1
 43
0.0
 10
203.5124238499881
 20
160.3751112567406
 10
217.0124238499882
 20
160.3751112567406
 10
217.0124238499882
 20
173.8751112567406
 10
203.5124238499881
 20
173.8751112567406
  0
LWPOLYLINE
  5
27608
102
{ACAD_REACTORS
330
2760A
102
}
330
18
100
AcDbEntity
  8
TASTEN
100
AcDbPolyline
 90
        8
 70
     1
 43
0.0
 10
204.3500488499881
 20
160.8746612567406
 10
216.1747988499882
 20
160.8746612567406
 42
0.4142135623730948
 10
216.5126488499881
 20
161.2125112567406
 10
216.5126488499881
 20
173.0372612567406
 42
0.4142135623730956
 10
216.1747988499882
 20
173.3751112567406
 10
204.3500488499881
 20
173.3751112567406
 42
0.4142135623730951
 10
204.0121988499882
 20
173.0372612567406
 10
204.0121988499882
 20
161.2125112567406
 42
0.4142135623730956
  0
LWPOLYLINE
  5
27609
102
{ACAD_REACTORS
330
2760A
102
}
330
18
100
AcDbEntity
  8
TASTEN
100
AcDbPolyline
 90
        8
 70
     1
 43
0.0
 10
205.0257488499881
 20
161.2125112567406
 10
215.4990988499881
 20
161.2125112567406
 42
0.4142135623730951
 10
216.1747988499882
 20
161.8882112567406
 10
216.1747988499882
 20
172.3615612567406
 42
0.4142135623730951
 10
215.4990988499881
 20
173.0372612567406
 10
205.0257488499881
 20
173.0372612567406
 42
0.4142135623730951
 10
204.3500488499881
 20
172.3615612567406
 10
204.3500488499881
 20
161.8882112567406
 42
0.4142135623730951
  0
LWPOLYLINE
  5
2760B
102
{ACAD_REACTORS
330
2760E
102
}
330
18
100
AcDbEntity
  8
BLECH
  6
CONTINUOUS
100
AcDbPolyline
 90
        4
 70
     1
 43
0.0
 10
223.5124238499881
 20
180.3751112567406
 10
237.0124238499881
 20
180.3751112567406
 10
237.0124238499881
 20
193.8751112567406
 10
223.5124238499881
 20
193.8751112567406
  0
LWPOLYLINE
  5
2760C
102
{ACAD_REACTORS
330
2760E
102
}
330
18
100
AcDbEntity
  8
TASTEN
100
AcDbPolyline
 90
        8
 70
     1
 43
0.0
 10
224.3500488499881
 20
180.8746612567406
 10
236.1747988499881
 20
180.8746612567406
 42
0.4142135623730948
 10
236.5126488499881
 20
181.2125112567406
 10
236.5126488499881
 20
193.0372612567406
 42
0.4142135623730956
 10
236.1747988499881
 20
193.3751112567406
 10
224.3500488499881
 20
193.3751112567406
 42
0.4142135623730951
 10
224.0121988499881
 20
193.0372612567406
 10
224.0121988499881
 20
181.2125112567406
 42
0.4142135623730956
  0
LWPOLYLINE
  5
2760D
102
{ACAD_REACTORS
330
2760E
102
}
330
18
100
AcDbEntity
  8
TASTEN
100
AcDbPolyline
 90
        8
 70
     1
 43
0.0
 10
225.0257488499881
 20
181.2125112567406
 10
235.4990988499881
 20
181.2125112567406
 42
0.4142135623730951
 10
236.1747988499881
 20
181.8882112567406
 10
236.1747988499881
 20
192.3615612567406
 42
0.4142135623730951
 10
235.4990988499881
 20
193.0372612567406
 10
225.0257488499881
 20
193.0372612567406
 42
0.4142135623730951
 10
224.3500488499881
 20
192.3615612567406
 10
224.3500488499881
 20
181.8882112567406
 42
0.4142135623730951
  0
LWPOLYLINE
  5
2760F
102
{ACAD_REACTORS
330
27612
102
}
330
18
100
AcDbEntity
  8
BLECH
  6
CONTINUOUS
100
AcDbPolyline
 90
        4
 70
     1
 43
0.0
 10
223.5124238499881
 20
160.3751112567406
 10
237.0124238499881
 20
160.3751112567406
 10
237.0124238499881
 20
173.8751112567406
 10
223.5124238499881
 20
173.8751112567406
  0
LWPOLYLINE
  5
27610
102
{ACAD_REACTORS
330
27612
102
}
330
18
100
AcDbEntity
  8
TASTEN
100
AcDbPolyline
 90
        8
 70
     1
 43
0.0
 10
224.3500488499881
 20
160.8746612567406
 10
236.1747988499881
 20
160.8746612567406
 42
0.4142135623730948
 10
236.5126488499881
 20
161.2125112567406
 10
236.5126488499881
 20
173.0372612567406
 42
0.4142135623730956
 10
236.1747988499881
 20
173.3751112567406
 10
224.3500488499881
 20
173.3751112567406
 42
0.4142135623730951
 10
224.0121988499881
 20
173.0372612567406
 10
224.0121988499881
 20
161.2125112567406
 42
0.4142135623730956
  0
LWPOLYLINE
  5
27611
102
{ACAD_REACTORS
330
27612
102
}
330
18
100
AcDbEntity
  8
TASTEN
100
AcDbPolyline
 90
        8
 70
     1
 43
0.0
 10
225.0257488499881
 20
161.2125112567406
 10
235.4990988499881
 20
161.2125112567406
 42
0.4142135623730951
 10
236.1747988499881
 20
161.8882112567406
 10
236.1747988499881
 20
172.3615612567406
 42
0.4142135623730951
 10
235.4990988499881
 20
173.0372612567406
 10
225.0257488499881
 20
173.0372612567406
 42
0.4142135623730951
 10
224.3500488499881
 20
172.3615612567406
 10
224.3500488499881
 20
161.8882112567406
 42
0.4142135623730951
  0
LWPOLYLINE
  5
27613
102
{ACAD_REACTORS
330
27616
102
}
330
18
100
AcDbEntity
  8
BLECH
  6
CONTINUOUS
100
AcDbPolyline
 90
        4
 70
     1
 43
0.0
 10
243.5124238499881
 20
180.3751112567406
 10
257.0124238499881
 20
180.3751112567406
 10
257.0124238499881
 20
193.8751112567406
 10
243.5124238499881
 20
193.8751112567406
  0
LWPOLYLINE
  5
27614
102
{ACAD_REACTORS
330
27616
102
}
330
18
100
AcDbEntity
  8
TASTEN
100
AcDbPolyline
 90
        8
 70
     1
 43
0.0
 10
244.3500488499882
 20
180.8746612567406
 10
256.1747988499881
 20
180.8746612567406
 42
0.4142135623730948
 10
256.5126488499881
 20
181.2125112567406
 10
256.5126488499881
 20
193.0372612567406
 42
0.4142135623730956
 10
256.1747988499881
 20
193.3751112567406
 10
244.3500488499882
 20
193.3751112567406
 42
0.4142135623730951
 10
244.0121988499881
 20
193.0372612567406
 10
244.0121988499881
 20
181.2125112567406
 42
0.4142135623730956
  0
LWPOLYLINE
  5
27615
102
{ACAD_REACTORS
330
27616
102
}
330
18
100
AcDbEntity
  8
TASTEN
100
AcDbPolyline
 90
        8
 70
     1
 43
0.0
 10
245.0257488499881
 20
181.2125112567406
 10
255.4990988499881
 20
181.2125112567406
 42
0.4142135623730951
 10
256.1747988499881
 20
181.8882112567406
 10
256.1747988499881
 20
192.3615612567406
 42
0.4142135623730951
 10
255.4990988499881
 20
193.0372612567406
 10
245.0257488499881
 20
193.0372612567406
 42
0.4142135623730951
 10
244.3500488499882
 20
192.3615612567406
 10
244.3500488499882
 20
181.8882112567406
 42
0.4142135623730951
  0
LWPOLYLINE
  5
27617
102
{ACAD_REACTORS
330
2761A
102
}
330
18
100
AcDbEntity
  8
BLECH
  6
CONTINUOUS
100
AcDbPolyline
 90
        4
 70
     1
 43
0.0
 10
243.5124238499881
 20
160.3751112567406
 10
257.0124238499881
 20
160.3751112567406
 10
257.0124238499881
 20
173.8751112567406
 10
243.5124238499881
 20
173.8751112567406
  0
LWPOLYLINE
  5
27618
102
{ACAD_REACTORS
330
2761A
102
}
330
18
100
AcDbEntity
  8
TASTEN
100
AcDbPolyline
 90
        8
 70
     1
 43
0.0
 10
244.3500488499882
 20
160.8746612567406
 10
256.1747988499881
 20
160.8746612567406
 42
0.4142135623730948
 10
256.5126488499881
 20
161.2125112567406
 10
256.5126488499881
 20
173.0372612567406
 42
0.4142135623730956
 10
256.1747988499881
 20
173.3751112567406
 10
244.3500488499882
 20
173.3751112567406
 42
0.4142135623730951
 10
244.0121988499881
 20
173.0372612567406
 10
244.0121988499881
 20
161.2125112567406
 42
0.4142135623730956
  0
LWPOLYLINE
  5
27619
102
{ACAD_REACTORS
330
2761A
102
}
330
18
100
AcDbEntity
  8
TASTEN
100
AcDbPolyline
 90
        8
 70
     1
 43
0.0
 10
245.0257488499881
 20
161.2125112567406
 10
255.4990988499881
 20
161.2125112567406
 42
0.4142135623730951
 10
256.1747988499881
 20
161.8882112567406
 10
256.1747988499881
 20
172.3615612567406
 42
0.4142135623730951
 10
255.4990988499881
 20
173.0372612567406
 10
245.0257488499881
 20
173.0372612567406
 42
0.4142135623730951
 10
244.3500488499882
 20
172.3615612567406
 10
244.3500488499882
 20
161.8882112567406
 42
0.4142135623730951
  0
LWPOLYLINE
  5
2761B
102
{ACAD_REACTORS
330
2761E
102
}
330
18
100
AcDbEntity
  8
BLECH
  6
CONTINUOUS
100
AcDbPolyline
 90
        4
 70
     1
 43
0.0
 10
263.5124238499881
 20
180.3751112567406
 10
277.0124238499881
 20
180.3751112567406
 10
277.0124238499881
 20
193.8751112567406
 10
263.5124238499881
 20
193.8751112567406
  0
LWPOLYLINE
  5
2761C
102
{ACAD_REACTORS
330
2761E
102
}
330
18
100
AcDbEntity
  8
TASTEN
100
AcDbPolyline
 90
        8
 70
     1
 43
0.0
 10
264.3500488499881
 20
180.8746612567406
 10
276.1747988499881
 20
180.8746612567406
 42
0.4142135623730948
 10
276.5126488499881
 20
181.2125112567406
 10
276.5126488499881
 20
193.0372612567406
 42
0.4142135623730956
 10
276.1747988499881
 20
193.3751112567406
 10
264.3500488499881
 20
193.3751112567406
 42
0.4142135623730951
 10
264.0121988499881
 20
193.0372612567406
 10
264.0121988499881
 20
181.2125112567406
 42
0.4142135623730956
  0
LWPOLYLINE
  5
2761D
102
{ACAD_REACTORS
330
2761E
102
}
330
18
100
AcDbEntity
  8
TASTEN
100
AcDbPolyline
 90
        8
 70
     1
 43
0.0
 10
265.0257488499881
 20
181.2125112567406
 10
275.4990988499881
 20
181.2125112567406
 42
0.4142135623730951
 10
276.1747988499881
 20
181.8882112567406
 10
276.1747988499881
 20
192.3615612567406
 42
0.4142135623730951
 10
275.4990988499881
 20
193.0372612567406
 10
265.0257488499881
 20
193.0372612567406
 42
0.4142135623730951
 10
264.3500488499881
 20
192.3615612567406
 10
264.3500488499881
 20
181.8882112567406
 42
0.4142135623730951
  0
LWPOLYLINE
  5
2761F
102
{ACAD_REACTORS
330
27622
102
}
330
18
100
AcDbEntity
  8
BLECH
  6
CONTINUOUS
100
AcDbPolyline
 90
        4
 70
     1
 43
0.0
 10
263.5124238499881
 20
160.3751112567406
 10
277.0124238499881
 20
160.3751112567406
 10
277.0124238499881
 20
173.8751112567406
 10
263.5124238499881
 20
173.8751112567406
  0
LWPOLYLINE
  5
27620
102
{ACAD_REACTORS
330
27622
102
}
330
18
100
AcDbEntity
  8
TASTEN
100
AcDbPolyline
 90
        8
 70
     1
 43
0.0
 10
264.3500488499881
 20
160.8746612567406
 10
276.1747988499881
 20
160.8746612567406
 42
0.4142135623730948
 10
276.5126488499881
 20
161.2125112567406
 10
276.5126488499881
 20
173.0372612567406
 42
0.4142135623730956
 10
276.1747988499881
 20
173.3751112567406
 10
264.3500488499881
 20
173.3751112567406
 42
0.4142135623730951
 10
264.0121988499881
 20
173.0372612567406
 10
264.0121988499881
 20
161.2125112567406
 42
0.4142135623730956
  0
LWPOLYLINE
  5
27621
102
{ACAD_REACTORS
330
27622
102
}
330
18
100
AcDbEntity
  8
TASTEN
100
AcDbPolyline
 90
        8
 70
     1
 43
0.0
 10
265.0257488499881
 20
161.2125112567406
 10
275.4990988499881
 20
161.2125112567406
 42
0.4142135623730951
 10
276.1747988499881
 20
161.8882112567406
 10
276.1747988499881
 20
172.3615612567406
 42
0.4142135623730951
 10
275.4990988499881
 20
173.0372612567406
 10
265.0257488499881
 20
173.0372612567406
 42
0.4142135623730951
 10
264.3500488499881
 20
172.3615612567406
 10
264.3500488499881
 20
161.8882112567406
 42
0.4142135623730951
  0
LWPOLYLINE
  5
27623
102
{ACAD_REACTORS
330
2763B
102
}
330
18
100
AcDbEntity
  8
BLECH
  6
CONTINUOUS
100
AcDbPolyline
 90
        4
 70
     1
 43
0.0
 10
123.5124238499881
 20
115.3814662665364
 10
137.0124238499881
 20
115.3814662665364
 10
137.0124238499881
 20
128.8814662665364
 10
123.5124238499881
 20
128.8814662665364
  0
LWPOLYLINE
  5
27624
102
{ACAD_REACTORS
330
2763B
102
}
330
18
100
AcDbEntity
  8
TASTEN
100
AcDbPolyline
 90
        8
 70
     1
 43
0.0
 10
124.3500488499881
 20
115.8810162665364
 10
136.1747988499881
 20
115.8810162665364
 42
0.4142135623730948
 10
136.5126488499881
 20
116.2188662665364
 10
136.5126488499881
 20
128.0436162665364
 42
0.4142135623730956
 10
136.1747988499881
 20
128.3814662665364
 10
124.3500488499881
 20
128.3814662665364
 42
0.4142135623730951
 10
124.0121988499881
 20
128.0436162665364
 10
124.0121988499881
 20
116.2188662665364
 42
0.4142135623730956
  0
LWPOLYLINE
  5
27625
102
{ACAD_REACTORS
330
2763B
102
}
330
18
100
AcDbEntity
  8
TASTEN
100
AcDbPolyline
 90
        8
 70
     1
 43
0.0
 10
125.0257488499881
 20
116.2188662665364
 10
135.4990988499881
 20
116.2188662665364
 42
0.4142135623730951
 10
136.1747988499881
 20
116.8945662665364
 10
136.1747988499881
 20
127.3679162665364
 42
0.4142135623730951
 10
135.4990988499881
 20
128.0436162665364
 10
125.0257488499881
 20
128.0436162665364
 42
0.4142135623730951
 10
124.3500488499881
 20
127.3679162665364
 10
124.3500488499881
 20
116.8945662665364
 42
0.4142135623730951
  0
LWPOLYLINE
  5
27626
102
{ACAD_REACTORS
330
2763C
102
}
330
18
100
AcDbEntity
  8
BLECH
  6
CONTINUOUS
100
AcDbPolyline
 90
        4
 70
     1
 43
0.0
 10
143.5124238499881
 20
115.3814662665364
 10
157.0124238499881
 20
115.3814662665364
 10
157.0124238499881
 20
128.8814662665364
 10
143.5124238499881
 20
128.8814662665364
  0
LWPOLYLINE
  5
27627
102
{ACAD_REACTORS
330
2763C
102
}
330
18
100
AcDbEntity
  8
TASTEN
100
AcDbPolyline
 90
        8
 70
     1
 43
0.0
 10
144.3500488499881
 20
115.8810162665364
 10
156.1747988499881
 20
115.8810162665364
 42
0.4142135623730948
 10
156.5126488499881
 20
116.2188662665364
 10
156.5126488499881
 20
128.0436162665364
 42
0.4142135623730956
 10
156.1747988499881
 20
128.3814662665364
 10
144.3500488499881
 20
128.3814662665364
 42
0.4142135623730951
 10
144.0121988499881
 20
128.0436162665364
 10
144.0121988499881
 20
116.2188662665364
 42
0.4142135623730956
  0
LWPOLYLINE
  5
27628
102
{ACAD_REACTORS
330
2763C
102
}
330
18
100
AcDbEntity
  8
TASTEN
100
AcDbPolyline
 90
        8
 70
     1
 43
0.0
 10
145.0257488499881
 20
116.2188662665364
 10
155.4990988499881
 20
116.2188662665364
 42
0.4142135623730951
 10
156.1747988499881
 20
116.8945662665364
 10
156.1747988499881
 20
127.3679162665364
 42
0.4142135623730951
 10
155.4990988499881
 20
128.0436162665364
 10
145.0257488499881
 20
128.0436162665364
 42
0.4142135623730951
 10
144.3500488499881
 20
127.3679162665364
 10
144.3500488499881
 20
116.8945662665364
 42
0.4142135623730951
  0
LWPOLYLINE
  5
27629
102
{ACAD_REACTORS
330
2763D
102
}
330
18
100
AcDbEntity
  8
BLECH
  6
CONTINUOUS
100
AcDbPolyline
 90
        4
 70
     1
 43
0.0
 10
163.5124238499881
 20
115.3814662665364
 10
177.0124238499881
 20
115.3814662665364
 10
177.0124238499881
 20
128.8814662665364
 10
163.5124238499881
 20
128.8814662665364
  0
LWPOLYLINE
  5
2762A
102
{ACAD_REACTORS
330
2763D
102
}
330
18
100
AcDbEntity
  8
TASTEN
100
AcDbPolyline
 90
        8
 70
     1
 43
0.0
 10
164.3500488499881
 20
115.8810162665364
 10
176.1747988499881
 20
115.8810162665364
 42
0.4142135623730948
 10
176.5126488499881
 20
116.2188662665364
 10
176.5126488499881
 20
128.0436162665364
 42
0.4142135623730956
 10
176.1747988499881
 20
128.3814662665364
 10
164.3500488499881
 20
128.3814662665364
 42
0.4142135623730951
 10
164.0121988499881
 20
128.0436162665364
 10
164.0121988499881
 20
116.2188662665364
 42
0.4142135623730956
  0
LWPOLYLINE
  5
2762B
102
{ACAD_REACTORS
330
2763D
102
}
330
18
100
AcDbEntity
  8
TASTEN
100
AcDbPolyline
 90
        8
 70
     1
 43
0.0
 10
165.0257488499881
 20
116.2188662665364
 10
175.4990988499881
 20
116.2188662665364
 42
0.4142135623730951
 10
176.1747988499881
 20
116.8945662665364
 10
176.1747988499881
 20
127.3679162665364
 42
0.4142135623730951
 10
175.4990988499881
 20
128.0436162665364
 10
165.0257488499881
 20
128.0436162665364
 42
0.4142135623730951
 10
164.3500488499881
 20
127.3679162665364
 10
164.3500488499881
 20
116.8945662665364
 42
0.4142135623730951
  0
LWPOLYLINE
  5
2762C
102
{ACAD_REACTORS
330
2763E
102
}
330
18
100
AcDbEntity
  8
BLECH
  6
CONTINUOUS
100
AcDbPolyline
 90
        4
 70
     1
 43
0.0
 10
183.5124238499881
 20
115.3814662665364
 10
197.0124238499881
 20
115.3814662665364
 10
197.0124238499881
 20
128.8814662665364
 10
183.5124238499881
 20
128.8814662665364
  0
LWPOLYLINE
  5
2762D
102
{ACAD_REACTORS
330
2763E
102
}
330
18
100
AcDbEntity
  8
TASTEN
100
AcDbPolyline
 90
        8
 70
     1
 43
0.0
 10
184.3500488499881
 20
115.8810162665364
 10
196.1747988499881
 20
115.8810162665364
 42
0.4142135623730948
 10
196.5126488499881
 20
116.2188662665364
 10
196.5126488499881
 20
128.0436162665364
 42
0.4142135623730956
 10
196.1747988499881
 20
128.3814662665364
 10
184.3500488499881
 20
128.3814662665364
 42
0.4142135623730951
 10
184.0121988499881
 20
128.0436162665364
 10
184.0121988499881
 20
116.2188662665364
 42
0.4142135623730956
  0
LWPOLYLINE
  5
2762E
102
{ACAD_REACTORS
330
2763E
102
}
330
18
100
AcDbEntity
  8
TASTEN
100
AcDbPolyline
 90
        8
 70
     1
 43
0.0
 10
185.0257488499881
 20
116.2188662665364
 10
195.4990988499881
 20
116.2188662665364
 42
0.4142135623730951
 10
196.1747988499881
 20
116.8945662665364
 10
196.1747988499881
 20
127.3679162665364
 42
0.4142135623730951
 10
195.4990988499881
 20
128.0436162665364
 10
185.0257488499881
 20
128.0436162665364
 42
0.4142135623730951
 10
184.3500488499881
 20
127.3679162665364
 10
184.3500488499881
 20
116.8945662665364
 42
0.4142135623730951
  0
LWPOLYLINE
  5
2762F
102
{ACAD_REACTORS
330
2763F
102
}
330
18
100
AcDbEntity
  8
BLECH
  6
CONTINUOUS
100
AcDbPolyline
 90
        4
 70
     1
 43
0.0
 10
203.5124238499881
 20
115.3814662665364
 10
217.0124238499881
 20
115.3814662665364
 10
217.0124238499881
 20
128.8814662665364
 10
203.5124238499881
 20
128.8814662665364
  0
LWPOLYLINE
  5
27630
102
{ACAD_REACTORS
330
2763F
102
}
330
18
100
AcDbEntity
  8
TASTEN
100
AcDbPolyline
 90
        8
 70
     1
 43
0.0
 10
204.3500488499881
 20
115.8810162665364
 10
216.1747988499881
 20
115.8810162665364
 42
0.4142135623730948
 10
216.5126488499881
 20
116.2188662665364
 10
216.5126488499881
 20
128.0436162665364
 42
0.4142135623730956
 10
216.1747988499881
 20
128.3814662665364
 10
204.3500488499881
 20
128.3814662665364
 42
0.4142135623730951
 10
204.0121988499881
 20
128.0436162665364
 10
204.0121988499881
 20
116.2188662665364
 42
0.4142135623730956
  0
LWPOLYLINE
  5
27631
102
{ACAD_REACTORS
330
2763F
102
}
330
18
100
AcDbEntity
  8
TASTEN
100
AcDbPolyline
 90
        8
 70
     1
 43
0.0
 10
205.0257488499881
 20
116.2188662665364
 10
215.4990988499881
 20
116.2188662665364
 42
0.4142135623730951
 10
216.1747988499881
 20
116.8945662665364
 10
216.1747988499881
 20
127.3679162665364
 42
0.4142135623730951
 10
215.4990988499881
 20
128.0436162665364
 10
205.0257488499881
 20
128.0436162665364
 42
0.4142135623730951
 10
204.3500488499881
 20
127.3679162665364
 10
204.3500488499881
 20
116.8945662665364
 42
0.4142135623730951
  0
LWPOLYLINE
  5
27632
102
{ACAD_REACTORS
330
27640
102
}
330
18
100
AcDbEntity
  8
BLECH
  6
CONTINUOUS
100
AcDbPolyline
 90
        4
 70
     1
 43
0.0
 10
223.5124238499881
 20
115.3814662665364
 10
237.0124238499881
 20
115.3814662665364
 10
237.0124238499881
 20
128.8814662665364
 10
223.5124238499881
 20
128.8814662665364
  0
LWPOLYLINE
  5
27633
102
{ACAD_REACTORS
330
27640
102
}
330
18
100
AcDbEntity
  8
TASTEN
100
AcDbPolyline
 90
        8
 70
     1
 43
0.0
 10
224.3500488499881
 20
115.8810162665364
 10
236.1747988499881
 20
115.8810162665364
 42
0.4142135623730948
 10
236.5126488499881
 20
116.2188662665364
 10
236.5126488499881
 20
128.0436162665364
 42
0.4142135623730956
 10
236.1747988499881
 20
128.3814662665364
 10
224.3500488499881
 20
128.3814662665364
 42
0.4142135623730951
 10
224.0121988499881
 20
128.0436162665364
 10
224.0121988499881
 20
116.2188662665364
 42
0.4142135623730956
  0
LWPOLYLINE
  5
27634
102
{ACAD_REACTORS
330
27640
102
}
330
18
100
AcDbEntity
  8
TASTEN
100
AcDbPolyline
 90
        8
 70
     1
 43
0.0
 10
225.025748849988
 20
116.2188662665364
 10
235.4990988499881
 20
116.2188662665364
 42
0.4142135623730951
 10
236.1747988499881
 20
116.8945662665364
 10
236.1747988499881
 20
127.3679162665364
 42
0.4142135623730951
 10
235.4990988499881
 20
128.0436162665364
 10
225.025748849988
 20
128.0436162665364
 42
0.4142135623730951
 10
224.3500488499881
 20
127.3679162665364
 10
224.3500488499881
 20
116.8945662665364
 42
0.4142135623730951
  0
LWPOLYLINE
  5
27635
102
{ACAD_REACTORS
330
27641
102
}
330
18
100
AcDbEntity
  8
BLECH
  6
CONTINUOUS
100
AcDbPolyline
 90
        4
 70
     1
 43
0.0
 10
243.5124238499881
 20
115.3814662665364
 10
257.0124238499881
 20
115.3814662665364
 10
257.0124238499881
 20
128.8814662665364
 10
243.5124238499881
 20
128.8814662665364
  0
LWPOLYLINE
  5
27636
102
{ACAD_REACTORS
330
27641
102
}
330
18
100
AcDbEntity
  8
TASTEN
100
AcDbPolyline
 90
        8
 70
     1
 43
0.0
 10
244.3500488499881
 20
115.8810162665364
 10
256.1747988499881
 20
115.8810162665364
 42
0.4142135623730948
 10
256.5126488499881
 20
116.2188662665364
 10
256.5126488499881
 20
128.0436162665364
 42
0.4142135623730956
 10
256.1747988499881
 20
128.3814662665364
 10
244.3500488499881
 20
128.3814662665364
 42
0.4142135623730951
 10
244.0121988499881
 20
128.0436162665364
 10
244.0121988499881
 20
116.2188662665364
 42
0.4142135623730956
  0
LWPOLYLINE
  5
27637
102
{ACAD_REACTORS
330
27641
102
}
330
18
100
AcDbEntity
  8
TASTEN
100
AcDbPolyline
 90
        8
 70
     1
 43
0.0
 10
245.0257488499881
 20
116.2188662665364
 10
255.4990988499881
 20
116.2188662665364
 42
0.4142135623730951
 10
256.1747988499881
 20
116.8945662665364
 10
256.1747988499881
 20
127.3679162665364
 42
0.4142135623730951
 10
255.4990988499881
 20
128.0436162665364
 10
245.0257488499881
 20
128.0436162665364
 42
0.4142135623730951
 10
244.3500488499881
 20
127.3679162665364
 10
244.3500488499881
 20
116.8945662665364
 42
0.4142135623730951
  0
LWPOLYLINE
  5
27638
102
{ACAD_REACTORS
330
27642
102
}
330
18
100
AcDbEntity
  8
BLECH
  6
CONTINUOUS
100
AcDbPolyline
 90
        4
 70
     1
 43
0.0
 10
263.5124238499881
 20
115.3814662665364
 10
277.0124238499881
 20
115.3814662665364
 10
277.0124238499881
 20
128.8814662665364
 10
263.5124238499881
 20
128.8814662665364
  0
LWPOLYLINE
  5
27639
102
{ACAD_REACTORS
330
27642
102
}
330
18
100
AcDbEntity
  8
TASTEN
100
AcDbPolyline
 90
        8
 70
     1
 43
0.0
 10
264.3500488499881
 20
115.8810162665364
 10
276.1747988499881
 20
115.8810162665364
 42
0.4142135623730948
 10
276.5126488499881
 20
116.2188662665364
 10
276.5126488499881
 20
128.0436162665364
 42
0.4142135623730956
 10
276.1747988499881
 20
128.3814662665364
 10
264.3500488499881
 20
128.3814662665364
 42
0.4142135623730951
 10
264.0121988499881
 20
128.0436162665364
 10
264.0121988499881
 20
116.2188662665364
 42
0.4142135623730956
  0
LWPOLYLINE
  5
2763A
102
{ACAD_REACTORS
330
27642
102
}
330
18
100
AcDbEntity
  8
TASTEN
100
AcDbPolyline
 90
        8
 70
     1
 43
0.0
 10
265.0257488499881
 20
116.2188662665364
 10
275.4990988499881
 20
116.2188662665364
 42
0.4142135623730951
 10
276.1747988499881
 20
116.8945662665364
 10
276.1747988499881
 20
127.3679162665364
 42
0.4142135623730951
 10
275.4990988499881
 20
128.0436162665364
 10
265.0257488499881
 20
128.0436162665364
 42
0.4142135623730951
 10
264.3500488499881
 20
127.3679162665364
 10
264.3500488499881
 20
116.8945662665364
 42
0.4142135623730951
  0
CIRCLE
  5
27764
330
18
100
AcDbEntity
  8
TASTEN
100
AcDbCircle
 10
270.1865441896279
 20
144.5142453365814
 30
0.0
 40
7.25
  0
SOLID
  5
27765
330
18
100
AcDbEntity
  8
EBENE_1
 62
    62
100
AcDbTrace
 10
184.9416491967335
 20
142.7455495507402
 30
0.0
 11
185.4882991967335
 21
142.7455495507402
 31
0.0
 12
184.9416491967335
 22
143.2921995507402
 32
0.0
 13
185.4882991967335
 23
143.2921995507402
 33
0.0
  0
LWPOLYLINE
  5
27766
330
18
100
AcDbEntity
  8
EBENE_1
  6
CONTINUOUS
 62
    62
100
AcDbPolyline
 90
        4
 70
     1
 43
0.075
 10
184.9416491967335
 20
142.7455495507402
 10
185.4882991967335
 20
142.7455495507402
 10
185.4882991967335
 20
143.2921995507402
 10
184.9416491967335
 20
143.2921995507402
  0
SOLID
  5
27767
330
18
100
AcDbEntity
  8
EBENE_1
 62
    62
100
AcDbTrace
 10
184.9416491967335
 20
145.0689745507402
 30
0.0
 11
185.4882991967335
 21
145.0689745507402
 31
0.0
 12
184.9416491967335
 22
145.6156245507402
 32
0.0
 13
185.4882991967335
 23
145.6156245507402
 33
0.0
  0
LWPOLYLINE
  5
27768
330
18
100
AcDbEntity
  8
EBENE_1
  6
CONTINUOUS
 62
    62
100
AcDbPolyline
 90
        4
 70
     1
 43
0.075
 10
184.9416491967335
 20
145.0689745507402
 10
185.4882991967335
 20
145.0689745507402
 10
185.4882991967335
 20
145.6156245507402
 10
184.9416491967335
 20
145.6156245507402
  0
SOLID
  5
27769
330
18
100
AcDbEntity
  8
EBENE_1
 62
    62
100
AcDbTrace
 10
184.9416491967335
 20
145.8433745507402
 30
0.0
 11
185.4882991967335
 21
145.8433745507402
 31
0.0
 12
184.9416491967335
 22
146.3900245507402
 32
0.0
 13
185.4882991967335
 23
146.3900245507402
 33
0.0
  0
LWPOLYLINE
  5
2776A
330
18
100
AcDbEntity
  8
EBENE_1
  6
CONTINUOUS
 62
    62
100
AcDbPolyline
 90
        4
 70
     1
 43
0.075
 10
184.9416491967335
 20
145.8433745507402
 10
185.4882991967335
 20
145.8433745507402
 10
185.4882991967335
 20
146.3900245507402
 10
184.9416491967335
 20
146.3900245507402
  0
SOLID
  5
2776B
330
18
100
AcDbEntity
  8
EBENE_1
 62
    62
100
AcDbTrace
 10
185.7616241967335
 20
141.9710495507402
 30
0.0
 11
186.3082741967335
 21
141.9710495507402
 31
0.0
 12
185.7616241967335
 22
142.5176995507402
 32
0.0
 13
186.3082741967335
 23
142.5176995507402
 33
0.0
  0
LWPOLYLINE
  5
2776C
330
18
100
AcDbEntity
  8
EBENE_1
  6
CONTINUOUS
 62
    62
100
AcDbPolyline
 90
        4
 70
     1
 43
0.075
 10
185.7616241967335
 20
141.9710495507402
 10
186.3082741967335
 20
141.9710495507402
 10
186.3082741967335
 20
142.5176995507402
 10
185.7616241967335
 20
142.5176995507402
  0
SOLID
  5
2776D
330
18
100
AcDbEntity
  8
EBENE_1
 62
    62
100
AcDbTrace
 10
185.7616241967335
 20
144.2944745507402
 30
0.0
 11
186.3082741967335
 21
144.2944745507402
 31
0.0
 12
185.7616241967335
 22
144.8411245507402
 32
0.0
 13
186.3082741967335
 23
144.8411245507402
 33
0.0
  0
LWPOLYLINE
  5
2776E
330
18
100
AcDbEntity
  8
EBENE_1
  6
CONTINUOUS
 62
    62
100
AcDbPolyline
 90
        4
 70
     1
 43
0.075
 10
185.7616241967335
 20
144.2944745507402
 10
186.3082741967335
 20
144.2944745507402
 10
186.3082741967335
 20
144.8411245507402
 10
185.7616241967335
 20
144.8411245507402
  0
SOLID
  5
2776F
330
18
100
AcDbEntity
  8
EBENE_1
 62
    62
100
AcDbTrace
 10
185.7616241967335
 20
146.6178995507402
 30
0.0
 11
186.3082741967335
 21
146.6178995507402
 31
0.0
 12
185.7616241967335
 22
147.1645495507402
 32
0.0
 13
186.3082741967335
 23
147.1645495507402
 33
0.0
  0
LWPOLYLINE
  5
27770
330
18
100
AcDbEntity
  8
EBENE_1
  6
CONTINUOUS
 62
    62
100
AcDbPolyline
 90
        4
 70
     1
 43
0.075
 10
185.7616241967335
 20
146.6178995507402
 10
186.3082741967335
 20
146.6178995507402
 10
186.3082741967335
 20
147.1645495507402
 10
185.7616241967335
 20
147.1645495507402
  0
SOLID
  5
27771
330
18
100
AcDbEntity
  8
EBENE_1
 62
    62
100
AcDbTrace
 10
186.5815991967335
 20
141.9710495507402
 30
0.0
 11
187.1282741967336
 21
141.9710495507402
 31
0.0
 12
186.5815991967335
 22
142.5176995507402
 32
0.0
 13
187.1282741967336
 23
142.5176995507402
 33
0.0
  0
LWPOLYLINE
  5
27772
330
18
100
AcDbEntity
  8
EBENE_1
  6
CONTINUOUS
 62
    62
100
AcDbPolyline
 90
        4
 70
     1
 43
0.075
 10
186.5815991967335
 20
141.9710495507402
 10
187.1282741967336
 20
141.9710495507402
 10
187.1282741967336
 20
142.5176995507402
 10
186.5815991967335
 20
142.5176995507402
  0
SOLID
  5
27773
330
18
100
AcDbEntity
  8
EBENE_1
 62
    62
100
AcDbTrace
 10
186.5815991967335
 20
144.2944745507402
 30
0.0
 11
187.1282741967336
 21
144.2944745507402
 31
0.0
 12
186.5815991967335
 22
144.8411245507402
 32
0.0
 13
187.1282741967336
 23
144.8411245507402
 33
0.0
  0
LWPOLYLINE
  5
27774
330
18
100
AcDbEntity
  8
EBENE_1
  6
CONTINUOUS
 62
    62
100
AcDbPolyline
 90
        4
 70
     1
 43
0.075
 10
186.5815991967335
 20
144.2944745507402
 10
187.1282741967336
 20
144.2944745507402
 10
187.1282741967336
 20
144.8411245507402
 10
186.5815991967335
 20
144.8411245507402
  0
SOLID
  5
27775
330
18
100
AcDbEntity
  8
EBENE_1
 62
    62
100
AcDbTrace
 10
186.5815991967335
 20
146.6178995507402
 30
0.0
 11
187.1282741967336
 21
146.6178995507402
 31
0.0
 12
186.5815991967335
 22
147.1645495507402
 32
0.0
 13
187.1282741967336
 23
147.1645495507402
 33
0.0
  0
LWPOLYLINE
  5
27776
330
18
100
AcDbEntity
  8
EBENE_1
  6
CONTINUOUS
 62
    62
100
AcDbPolyline
 90
        4
 70
     1
 43
0.075
 10
186.5815991967335
 20
146.6178995507402
 10
187.1282741967336
 20
146.6178995507402
 10
187.1282741967336
 20
147.1645495507402
 10
186.5815991967335
 20
147.1645495507402
  0
SOLID
  5
27777
330
18
100
AcDbEntity
  8
EBENE_1
 62
    62
100
AcDbTrace
 10
187.4016991967335
 20
141.9710495507402
 30
0.0
 11
187.9483491967335
 21
141.9710495507402
 31
0.0
 12
187.4016991967335
 22
142.5176995507402
 32
0.0
 13
187.9483491967335
 23
142.5176995507402
 33
0.0
  0
LWPOLYLINE
  5
27778
330
18
100
AcDbEntity
  8
EBENE_1
  6
CONTINUOUS
 62
    62
100
AcDbPolyline
 90
        4
 70
     1
 43
0.075
 10
187.4016991967335
 20
141.9710495507402
 10
187.9483491967335
 20
141.9710495507402
 10
187.9483491967335
 20
142.5176995507402
 10
187.4016991967335
 20
142.5176995507402
  0
SOLID
  5
27779
330
18
100
AcDbEntity
  8
EBENE_1
 62
    62
100
AcDbTrace
 10
187.4016991967335
 20
144.2944745507402
 30
0.0
 11
187.9483491967335
 21
144.2944745507402
 31
0.0
 12
187.4016991967335
 22
144.8411245507402
 32
0.0
 13
187.9483491967335
 23
144.8411245507402
 33
0.0
  0
LWPOLYLINE
  5
2777A
330
18
100
AcDbEntity
  8
EBENE_1
  6
CONTINUOUS
 62
    62
100
AcDbPolyline
 90
        4
 70
     1
 43
0.075
 10
187.4016991967335
 20
144.2944745507402
 10
187.9483491967335
 20
144.2944745507402
 10
187.9483491967335
 20
144.8411245507402
 10
187.4016991967335
 20
144.8411245507402
  0
SOLID
  5
2777B
330
18
100
AcDbEntity
  8
EBENE_1
 62
    62
100
AcDbTrace
 10
187.4016991967335
 20
146.6178995507402
 30
0.0
 11
187.9483491967335
 21
146.6178995507402
 31
0.0
 12
187.4016991967335
 22
147.1645495507402
 32
0.0
 13
187.9483491967335
 23
147.1645495507402
 33
0.0
  0
LWPOLYLINE
  5
2777C
330
18
100
AcDbEntity
  8
EBENE_1
  6
CONTINUOUS
 62
    62
100
AcDbPolyline
 90
        4
 70
     1
 43
0.075
 10
187.4016991967335
 20
146.6178995507402
 10
187.9483491967335
 20
146.6178995507402
 10
187.9483491967335
 20
147.1645495507402
 10
187.4016991967335
 20
147.1645495507402
  0
SOLID
  5
2777D
330
18
100
AcDbEntity
  8
EBENE_1
 62
    62
100
AcDbTrace
 10
188.2216741967336
 20
142.7455495507402
 30
0.0
 11
188.7683241967335
 21
142.7455495507402
 31
0.0
 12
188.2216741967336
 22
143.2921995507402
 32
0.0
 13
188.7683241967335
 23
143.2921995507402
 33
0.0
  0
LWPOLYLINE
  5
2777E
330
18
100
AcDbEntity
  8
EBENE_1
  6
CONTINUOUS
 62
    62
100
AcDbPolyline
 90
        4
 70
     1
 43
0.075
 10
188.2216741967336
 20
142.7455495507402
 10
188.7683241967335
 20
142.7455495507402
 10
188.7683241967335
 20
143.2921995507402
 10
188.2216741967336
 20
143.2921995507402
  0
SOLID
  5
2777F
330
18
100
AcDbEntity
  8
EBENE_1
 62
    62
100
AcDbTrace
 10
188.2216741967336
 20
143.5199495507402
 30
0.0
 11
188.7683241967335
 21
143.5199495507402
 31
0.0
 12
188.2216741967336
 22
144.0665995507401
 32
0.0
 13
188.7683241967335
 23
144.0665995507401
 33
0.0
  0
LWPOLYLINE
  5
27780
330
18
100
AcDbEntity
  8
EBENE_1
  6
CONTINUOUS
 62
    62
100
AcDbPolyline
 90
        4
 70
     1
 43
0.075
 10
188.2216741967336
 20
143.5199495507402
 10
188.7683241967335
 20
143.5199495507402
 10
188.7683241967335
 20
144.0665995507401
 10
188.2216741967336
 20
144.0665995507401
  0
SOLID
  5
27781
330
18
100
AcDbEntity
  8
EBENE_1
 62
    62
100
AcDbTrace
 10
188.2216741967336
 20
145.8433745507402
 30
0.0
 11
188.7683241967335
 21
145.8433745507402
 31
0.0
 12
188.2216741967336
 22
146.3900245507402
 32
0.0
 13
188.7683241967335
 23
146.3900245507402
 33
0.0
  0
LWPOLYLINE
  5
27782
330
18
100
AcDbEntity
  8
EBENE_1
  6
CONTINUOUS
 62
    62
100
AcDbPolyline
 90
        4
 70
     1
 43
0.075
 10
188.2216741967336
 20
145.8433745507402
 10
188.7683241967335
 20
145.8433745507402
 10
188.7683241967335
 20
146.3900245507402
 10
188.2216741967336
 20
146.3900245507402
  0
SOLID
  5
27783
330
18
100
AcDbEntity
  8
EBENE_1
 62
    62
100
AcDbTrace
 10
189.8242241967336
 20
142.7455495507402
 30
0.0
 11
190.3708741967336
 21
142.7455495507402
 31
0.0
 12
189.8242241967336
 22
143.2921995507402
 32
0.0
 13
190.3708741967336
 23
143.2921995507402
 33
0.0
  0
LWPOLYLINE
  5
27784
330
18
100
AcDbEntity
  8
EBENE_1
  6
CONTINUOUS
 62
    62
100
AcDbPolyline
 90
        4
 70
     1
 43
0.075
 10
189.8242241967336
 20
142.7455495507402
 10
190.3708741967336
 20
142.7455495507402
 10
190.3708741967336
 20
143.2921995507402
 10
189.8242241967336
 20
143.2921995507402
  0
SOLID
  5
27785
330
18
100
AcDbEntity
  8
EBENE_1
 62
    62
100
AcDbTrace
 10
189.8242241967336
 20
143.5199495507402
 30
0.0
 11
190.3708741967336
 21
143.5199495507402
 31
0.0
 12
189.8242241967336
 22
144.0665995507401
 32
0.0
 13
190.3708741967336
 23
144.0665995507401
 33
0.0
  0
LWPOLYLINE
  5
27786
330
18
100
AcDbEntity
  8
EBENE_1
  6
CONTINUOUS
 62
    62
100
AcDbPolyline
 90
        4
 70
     1
 43
0.075
 10
189.8242241967336
 20
143.5199495507402
 10
190.3708741967336
 20
143.5199495507402
 10
190.3708741967336
 20
144.0665995507401
 10
189.8242241967336
 20
144.0665995507401
  0
SOLID
  5
27787
330
18
100
AcDbEntity
  8
EBENE_1
 62
    62
100
AcDbTrace
 10
189.8242241967336
 20
144.2944745507402
 30
0.0
 11
190.3708741967336
 21
144.2944745507402
 31
0.0
 12
189.8242241967336
 22
144.8411245507402
 32
0.0
 13
190.3708741967336
 23
144.8411245507402
 33
0.0
  0
LWPOLYLINE
  5
27788
330
18
100
AcDbEntity
  8
EBENE_1
  6
CONTINUOUS
 62
    62
100
AcDbPolyline
 90
        4
 70
     1
 43
0.075
 10
189.8242241967336
 20
144.2944745507402
 10
190.3708741967336
 20
144.2944745507402
 10
190.3708741967336
 20
144.8411245507402
 10
189.8242241967336
 20
144.8411245507402
  0
SOLID
  5
27789
330
18
100
AcDbEntity
  8
EBENE_1
 62
    62
100
AcDbTrace
 10
190.6441991967336
 20
141.9710495507402
 30
0.0
 11
191.1908741967335
 21
141.9710495507402
 31
0.0
 12
190.6441991967336
 22
142.5176995507402
 32
0.0
 13
191.1908741967335
 23
142.5176995507402
 33
0.0
  0
LWPOLYLINE
  5
2778A
330
18
100
AcDbEntity
  8
EBENE_1
  6
CONTINUOUS
 62
    62
100
AcDbPolyline
 90
        4
 70
     1
 43
0.075
 10
190.6441991967336
 20
141.9710495507402
 10
191.1908741967335
 20
141.9710495507402
 10
191.1908741967335
 20
142.5176995507402
 10
190.6441991967336
 20
142.5176995507402
  0
SOLID
  5
2778B
330
18
100
AcDbEntity
  8
EBENE_1
 62
    62
100
AcDbTrace
 10
190.6441991967336
 20
143.5199495507402
 30
0.0
 11
191.1908741967335
 21
143.5199495507402
 31
0.0
 12
190.6441991967336
 22
144.0665995507401
 32
0.0
 13
191.1908741967335
 23
144.0665995507401
 33
0.0
  0
LWPOLYLINE
  5
2778C
330
18
100
AcDbEntity
  8
EBENE_1
  6
CONTINUOUS
 62
    62
100
AcDbPolyline
 90
        4
 70
     1
 43
0.075
 10
190.6441991967336
 20
143.5199495507402
 10
191.1908741967335
 20
143.5199495507402
 10
191.1908741967335
 20
144.0665995507401
 10
190.6441991967336
 20
144.0665995507401
  0
SOLID
  5
2778D
330
18
100
AcDbEntity
  8
EBENE_1
 62
    62
100
AcDbTrace
 10
190.6441991967336
 20
145.0689745507402
 30
0.0
 11
191.1908741967335
 21
145.0689745507402
 31
0.0
 12
190.6441991967336
 22
145.6156245507402
 32
0.0
 13
191.1908741967335
 23
145.6156245507402
 33
0.0
  0
LWPOLYLINE
  5
2778E
330
18
100
AcDbEntity
  8
EBENE_1
  6
CONTINUOUS
 62
    62
100
AcDbPolyline
 90
        4
 70
     1
 43
0.075
 10
190.6441991967336
 20
145.0689745507402
 10
191.1908741967335
 20
145.0689745507402
 10
191.1908741967335
 20
145.6156245507402
 10
190.6441991967336
 20
145.6156245507402
  0
SOLID
  5
2778F
330
18
100
AcDbEntity
  8
EBENE_1
 62
    62
100
AcDbTrace
 10
191.4641991967336
 20
141.9710495507402
 30
0.0
 11
192.0108491967336
 21
141.9710495507402
 31
0.0
 12
191.4641991967336
 22
142.5176995507402
 32
0.0
 13
192.0108491967336
 23
142.5176995507402
 33
0.0
  0
LWPOLYLINE
  5
27790
330
18
100
AcDbEntity
  8
EBENE_1
  6
CONTINUOUS
 62
    62
100
AcDbPolyline
 90
        4
 70
     1
 43
0.075
 10
191.4641991967336
 20
141.9710495507402
 10
192.0108491967336
 20
141.9710495507402
 10
192.0108491967336
 20
142.5176995507402
 10
191.4641991967336
 20
142.5176995507402
  0
SOLID
  5
27791
330
18
100
AcDbEntity
  8
EBENE_1
 62
    62
100
AcDbTrace
 10
191.4641991967336
 20
143.5199495507402
 30
0.0
 11
192.0108491967336
 21
143.5199495507402
 31
0.0
 12
191.4641991967336
 22
144.0665995507401
 32
0.0
 13
192.0108491967336
 23
144.0665995507401
 33
0.0
  0
LWPOLYLINE
  5
27792
330
18
100
AcDbEntity
  8
EBENE_1
  6
CONTINUOUS
 62
    62
100
AcDbPolyline
 90
        4
 70
     1
 43
0.075
 10
191.4641991967336
 20
143.5199495507402
 10
192.0108491967336
 20
143.5199495507402
 10
192.0108491967336
 20
144.0665995507401
 10
191.4641991967336
 20
144.0665995507401
  0
SOLID
  5
27793
330
18
100
AcDbEntity
  8
EBENE_1
 62
    62
100
AcDbTrace
 10
191.4641991967336
 20
145.0689745507402
 30
0.0
 11
192.0108491967336
 21
145.0689745507402
 31
0.0
 12
191.4641991967336
 22
145.6156245507402
 32
0.0
 13
192.0108491967336
 23
145.6156245507402
 33
0.0
  0
LWPOLYLINE
  5
27794
330
18
100
AcDbEntity
  8
EBENE_1
  6
CONTINUOUS
 62
    62
100
AcDbPolyline
 90
        4
 70
     1
 43
0.075
 10
191.4641991967336
 20
145.0689745507402
 10
192.0108491967336
 20
145.0689745507402
 10
192.0108491967336
 20
145.6156245507402
 10
191.4641991967336
 20
145.6156245507402
  0
SOLID
  5
27795
330
18
100
AcDbEntity
  8
EBENE_1
 62
    62
100
AcDbTrace
 10
192.2841741967335
 20
141.9710495507402
 30
0.0
 11
192.8308241967336
 21
141.9710495507402
 31
0.0
 12
192.2841741967335
 22
142.5176995507402
 32
0.0
 13
192.8308241967336
 23
142.5176995507402
 33
0.0
  0
LWPOLYLINE
  5
27796
330
18
100
AcDbEntity
  8
EBENE_1
  6
CONTINUOUS
 62
    62
100
AcDbPolyline
 90
        4
 70
     1
 43
0.075
 10
192.2841741967335
 20
141.9710495507402
 10
192.8308241967336
 20
141.9710495507402
 10
192.8308241967336
 20
142.5176995507402
 10
192.2841741967335
 20
142.5176995507402
  0
SOLID
  5
27797
330
18
100
AcDbEntity
  8
EBENE_1
 62
    62
100
AcDbTrace
 10
192.2841741967335
 20
143.5199495507402
 30
0.0
 11
192.8308241967336
 21
143.5199495507402
 31
0.0
 12
192.2841741967335
 22
144.0665995507401
 32
0.0
 13
192.8308241967336
 23
144.0665995507401
 33
0.0
  0
LWPOLYLINE
  5
27798
330
18
100
AcDbEntity
  8
EBENE_1
  6
CONTINUOUS
 62
    62
100
AcDbPolyline
 90
        4
 70
     1
 43
0.075
 10
192.2841741967335
 20
143.5199495507402
 10
192.8308241967336
 20
143.5199495507402
 10
192.8308241967336
 20
144.0665995507401
 10
192.2841741967335
 20
144.0665995507401
  0
SOLID
  5
27799
330
18
100
AcDbEntity
  8
EBENE_1
 62
    62
100
AcDbTrace
 10
192.2841741967335
 20
145.0689745507402
 30
0.0
 11
192.8308241967336
 21
145.0689745507402
 31
0.0
 12
192.2841741967335
 22
145.6156245507402
 32
0.0
 13
192.8308241967336
 23
145.6156245507402
 33
0.0
  0
LWPOLYLINE
  5
2779A
330
18
100
AcDbEntity
  8
EBENE_1
  6
CONTINUOUS
 62
    62
100
AcDbPolyline
 90
        4
 70
     1
 43
0.075
 10
192.2841741967335
 20
145.0689745507402
 10
192.8308241967336
 20
145.0689745507402
 10
192.8308241967336
 20
145.6156245507402
 10
192.2841741967335
 20
145.6156245507402
  0
SOLID
  5
2779B
330
18
100
AcDbEntity
  8
EBENE_1
 62
    62
100
AcDbTrace
 10
193.1041491967335
 20
143.5199495507402
 30
0.0
 11
193.6507991967335
 21
143.5199495507402
 31
0.0
 12
193.1041491967335
 22
144.0665995507401
 32
0.0
 13
193.6507991967335
 23
144.0665995507401
 33
0.0
  0
LWPOLYLINE
  5
2779C
330
18
100
AcDbEntity
  8
EBENE_1
  6
CONTINUOUS
 62
    62
100
AcDbPolyline
 90
        4
 70
     1
 43
0.075
 10
193.1041491967335
 20
143.5199495507402
 10
193.6507991967335
 20
143.5199495507402
 10
193.6507991967335
 20
144.0665995507401
 10
193.1041491967335
 20
144.0665995507401
  0
SOLID
  5
2779D
330
18
100
AcDbEntity
  8
EBENE_1
 62
    62
100
AcDbTrace
 10
193.1041491967335
 20
144.2944745507402
 30
0.0
 11
193.6507991967335
 21
144.2944745507402
 31
0.0
 12
193.1041491967335
 22
144.8411245507402
 32
0.0
 13
193.6507991967335
 23
144.8411245507402
 33
0.0
  0
LWPOLYLINE
  5
2779E
330
18
100
AcDbEntity
  8
EBENE_1
  6
CONTINUOUS
 62
    62
100
AcDbPolyline
 90
        4
 70
     1
 43
0.075
 10
193.1041491967335
 20
144.2944745507402
 10
193.6507991967335
 20
144.2944745507402
 10
193.6507991967335
 20
144.8411245507402
 10
193.1041491967335
 20
144.8411245507402
  0
SOLID
  5
2779F
330
18
100
AcDbEntity
  8
EBENE_1
 62
    62
100
AcDbTrace
 10
195.4629991967336
 20
141.9710495507402
 30
0.0
 11
196.0096741967335
 21
141.9710495507402
 31
0.0
 12
195.4629991967336
 22
142.5176995507402
 32
0.0
 13
196.0096741967335
 23
142.5176995507402
 33
0.0
  0
LWPOLYLINE
  5
277A0
330
18
100
AcDbEntity
  8
EBENE_1
  6
CONTINUOUS
 62
    62
100
AcDbPolyline
 90
        4
 70
     1
 43
0.075
 10
195.4629991967336
 20
141.9710495507402
 10
196.0096741967335
 20
141.9710495507402
 10
196.0096741967335
 20
142.5176995507402
 10
195.4629991967336
 20
142.5176995507402
  0
SOLID
  5
277A1
330
18
100
AcDbEntity
  8
EBENE_1
 62
    62
100
AcDbTrace
 10
195.4629991967336
 20
146.6178995507402
 30
0.0
 11
196.0096741967335
 21
146.6178995507402
 31
0.0
 12
195.4629991967336
 22
147.1645495507402
 32
0.0
 13
196.0096741967335
 23
147.1645495507402
 33
0.0
  0
LWPOLYLINE
  5
277A2
330
18
100
AcDbEntity
  8
EBENE_1
  6
CONTINUOUS
 62
    62
100
AcDbPolyline
 90
        4
 70
     1
 43
0.075
 10
195.4629991967336
 20
146.6178995507402
 10
196.0096741967335
 20
146.6178995507402
 10
196.0096741967335
 20
147.1645495507402
 10
195.4629991967336
 20
147.1645495507402
  0
SOLID
  5
277A3
330
18
100
AcDbEntity
  8
EBENE_1
 62
    62
100
AcDbTrace
 10
196.2829991967336
 20
141.9710495507402
 30
0.0
 11
196.8296491967336
 21
141.9710495507402
 31
0.0
 12
196.2829991967336
 22
142.5176995507402
 32
0.0
 13
196.8296491967336
 23
142.5176995507402
 33
0.0
  0
LWPOLYLINE
  5
277A4
330
18
100
AcDbEntity
  8
EBENE_1
  6
CONTINUOUS
 62
    62
100
AcDbPolyline
 90
        4
 70
     1
 43
0.075
 10
196.2829991967336
 20
141.9710495507402
 10
196.8296491967336
 20
141.9710495507402
 10
196.8296491967336
 20
142.5176995507402
 10
196.2829991967336
 20
142.5176995507402
  0
SOLID
  5
277A5
330
18
100
AcDbEntity
  8
EBENE_1
 62
    62
100
AcDbTrace
 10
196.2829991967336
 20
142.7455495507402
 30
0.0
 11
196.8296491967336
 21
142.7455495507402
 31
0.0
 12
196.2829991967336
 22
143.2921995507402
 32
0.0
 13
196.8296491967336
 23
143.2921995507402
 33
0.0
  0
LWPOLYLINE
  5
277A6
330
18
100
AcDbEntity
  8
EBENE_1
  6
CONTINUOUS
 62
    62
100
AcDbPolyline
 90
        4
 70
     1
 43
0.075
 10
196.2829991967336
 20
142.7455495507402
 10
196.8296491967336
 20
142.7455495507402
 10
196.8296491967336
 20
143.2921995507402
 10
196.2829991967336
 20
143.2921995507402
  0
SOLID
  5
277A7
330
18
100
AcDbEntity
  8
EBENE_1
 62
    62
100
AcDbTrace
 10
196.2829991967336
 20
143.5199495507402
 30
0.0
 11
196.8296491967336
 21
143.5199495507402
 31
0.0
 12
196.2829991967336
 22
144.0665995507401
 32
0.0
 13
196.8296491967336
 23
144.0665995507401
 33
0.0
  0
LWPOLYLINE
  5
277A8
330
18
100
AcDbEntity
  8
EBENE_1
  6
CONTINUOUS
 62
    62
100
AcDbPolyline
 90
        4
 70
     1
 43
0.075
 10
196.2829991967336
 20
143.5199495507402
 10
196.8296491967336
 20
143.5199495507402
 10
196.8296491967336
 20
144.0665995507401
 10
196.2829991967336
 20
144.0665995507401
  0
SOLID
  5
277A9
330
18
100
AcDbEntity
  8
EBENE_1
 62
    62
100
AcDbTrace
 10
196.2829991967336
 20
144.2944745507402
 30
0.0
 11
196.8296491967336
 21
144.2944745507402
 31
0.0
 12
196.2829991967336
 22
144.8411245507402
 32
0.0
 13
196.8296491967336
 23
144.8411245507402
 33
0.0
  0
LWPOLYLINE
  5
277AA
330
18
100
AcDbEntity
  8
EBENE_1
  6
CONTINUOUS
 62
    62
100
AcDbPolyline
 90
        4
 70
     1
 43
0.075
 10
196.2829991967336
 20
144.2944745507402
 10
196.8296491967336
 20
144.2944745507402
 10
196.8296491967336
 20
144.8411245507402
 10
196.2829991967336
 20
144.8411245507402
  0
SOLID
  5
277AB
330
18
100
AcDbEntity
  8
EBENE_1
 62
    62
100
AcDbTrace
 10
196.2829991967336
 20
145.0689745507402
 30
0.0
 11
196.8296491967336
 21
145.0689745507402
 31
0.0
 12
196.2829991967336
 22
145.6156245507402
 32
0.0
 13
196.8296491967336
 23
145.6156245507402
 33
0.0
  0
LWPOLYLINE
  5
277AC
330
18
100
AcDbEntity
  8
EBENE_1
  6
CONTINUOUS
 62
    62
100
AcDbPolyline
 90
        4
 70
     1
 43
0.075
 10
196.2829991967336
 20
145.0689745507402
 10
196.8296491967336
 20
145.0689745507402
 10
196.8296491967336
 20
145.6156245507402
 10
196.2829991967336
 20
145.6156245507402
  0
SOLID
  5
277AD
330
18
100
AcDbEntity
  8
EBENE_1
 62
    62
100
AcDbTrace
 10
196.2829991967336
 20
145.8433745507402
 30
0.0
 11
196.8296491967336
 21
145.8433745507402
 31
0.0
 12
196.2829991967336
 22
146.3900245507402
 32
0.0
 13
196.8296491967336
 23
146.3900245507402
 33
0.0
  0
LWPOLYLINE
  5
277AE
330
18
100
AcDbEntity
  8
EBENE_1
  6
CONTINUOUS
 62
    62
100
AcDbPolyline
 90
        4
 70
     1
 43
0.075
 10
196.2829991967336
 20
145.8433745507402
 10
196.8296491967336
 20
145.8433745507402
 10
196.8296491967336
 20
146.3900245507402
 10
196.2829991967336
 20
146.3900245507402
  0
SOLID
  5
277AF
330
18
100
AcDbEntity
  8
EBENE_1
 62
    62
100
AcDbTrace
 10
196.2829991967336
 20
146.6178995507402
 30
0.0
 11
196.8296491967336
 21
146.6178995507402
 31
0.0
 12
196.2829991967336
 22
147.1645495507402
 32
0.0
 13
196.8296491967336
 23
147.1645495507402
 33
0.0
  0
LWPOLYLINE
  5
277B0
330
18
100
AcDbEntity
  8
EBENE_1
  6
CONTINUOUS
 62
    62
100
AcDbPolyline
 90
        4
 70
     1
 43
0.075
 10
196.2829991967336
 20
146.6178995507402
 10
196.8296491967336
 20
146.6178995507402
 10
196.8296491967336
 20
147.1645495507402
 10
196.2829991967336
 20
147.1645495507402
  0
SOLID
  5
277B1
330
18
100
AcDbEntity
  8
EBENE_1
 62
    62
100
AcDbTrace
 10
197.1029741967336
 20
141.9710495507402
 30
0.0
 11
197.6496241967336
 21
141.9710495507402
 31
0.0
 12
197.1029741967336
 22
142.5176995507402
 32
0.0
 13
197.6496241967336
 23
142.5176995507402
 33
0.0
  0
LWPOLYLINE
  5
277B2
330
18
100
AcDbEntity
  8
EBENE_1
  6
CONTINUOUS
 62
    62
100
AcDbPolyline
 90
        4
 70
     1
 43
0.075
 10
197.1029741967336
 20
141.9710495507402
 10
197.6496241967336
 20
141.9710495507402
 10
197.6496241967336
 20
142.5176995507402
 10
197.1029741967336
 20
142.5176995507402
  0
SOLID
  5
277B3
330
18
100
AcDbEntity
  8
EBENE_1
 62
    62
100
AcDbTrace
 10
200.3781741967336
 20
141.9710495507402
 30
0.0
 11
200.9248241967335
 21
141.9710495507402
 31
0.0
 12
200.3781741967336
 22
142.5176995507402
 32
0.0
 13
200.9248241967335
 23
142.5176995507402
 33
0.0
  0
LWPOLYLINE
  5
277B4
330
18
100
AcDbEntity
  8
EBENE_1
  6
CONTINUOUS
 62
    62
100
AcDbPolyline
 90
        4
 70
     1
 43
0.075
 10
200.3781741967336
 20
141.9710495507402
 10
200.9248241967335
 20
141.9710495507402
 10
200.9248241967335
 20
142.5176995507402
 10
200.3781741967336
 20
142.5176995507402
  0
SOLID
  5
277B5
330
18
100
AcDbEntity
  8
EBENE_1
 62
    62
100
AcDbTrace
 10
200.3781741967336
 20
142.7455495507402
 30
0.0
 11
200.9248241967335
 21
142.7455495507402
 31
0.0
 12
200.3781741967336
 22
143.2921995507402
 32
0.0
 13
200.9248241967335
 23
143.2921995507402
 33
0.0
  0
LWPOLYLINE
  5
277B6
330
18
100
AcDbEntity
  8
EBENE_1
  6
CONTINUOUS
 62
    62
100
AcDbPolyline
 90
        4
 70
     1
 43
0.075
 10
200.3781741967336
 20
142.7455495507402
 10
200.9248241967335
 20
142.7455495507402
 10
200.9248241967335
 20
143.2921995507402
 10
200.3781741967336
 20
143.2921995507402
  0
SOLID
  5
277B7
330
18
100
AcDbEntity
  8
EBENE_1
 62
    62
100
AcDbTrace
 10
201.1981491967336
 20
141.9710495507402
 30
0.0
 11
201.7447991967336
 21
141.9710495507402
 31
0.0
 12
201.1981491967336
 22
142.5176995507402
 32
0.0
 13
201.7447991967336
 23
142.5176995507402
 33
0.0
  0
LWPOLYLINE
  5
277B8
330
18
100
AcDbEntity
  8
EBENE_1
  6
CONTINUOUS
 62
    62
100
AcDbPolyline
 90
        4
 70
     1
 43
0.075
 10
201.1981491967336
 20
141.9710495507402
 10
201.7447991967336
 20
141.9710495507402
 10
201.7447991967336
 20
142.5176995507402
 10
201.1981491967336
 20
142.5176995507402
  0
SOLID
  5
277B9
330
18
100
AcDbEntity
  8
EBENE_1
 62
    62
100
AcDbTrace
 10
201.1981491967336
 20
142.7455495507402
 30
0.0
 11
201.7447991967336
 21
142.7455495507402
 31
0.0
 12
201.1981491967336
 22
143.2921995507402
 32
0.0
 13
201.7447991967336
 23
143.2921995507402
 33
0.0
  0
LWPOLYLINE
  5
277BA
330
18
100
AcDbEntity
  8
EBENE_1
  6
CONTINUOUS
 62
    62
100
AcDbPolyline
 90
        4
 70
     1
 43
0.075
 10
201.1981491967336
 20
142.7455495507402
 10
201.7447991967336
 20
142.7455495507402
 10
201.7447991967336
 20
143.2921995507402
 10
201.1981491967336
 20
143.2921995507402
  0
SOLID
  5
277BB
330
18
100
AcDbEntity
  8
EBENE_1
 62
    62
100
AcDbTrace
 10
204.2990241967336
 20
141.9710495507402
 30
0.0
 11
204.8456741967336
 21
141.9710495507402
 31
0.0
 12
204.2990241967336
 22
142.5176995507402
 32
0.0
 13
204.8456741967336
 23
142.5176995507402
 33
0.0
  0
LWPOLYLINE
  5
277BC
330
18
100
AcDbEntity
  8
EBENE_1
  6
CONTINUOUS
 62
    62
100
AcDbPolyline
 90
        4
 70
     1
 43
0.075
 10
204.2990241967336
 20
141.9710495507402
 10
204.8456741967336
 20
141.9710495507402
 10
204.8456741967336
 20
142.5176995507402
 10
204.2990241967336
 20
142.5176995507402
  0
SOLID
  5
277BD
330
18
100
AcDbEntity
  8
EBENE_1
 62
    62
100
AcDbTrace
 10
204.2990241967336
 20
142.7455495507402
 30
0.0
 11
204.8456741967336
 21
142.7455495507402
 31
0.0
 12
204.2990241967336
 22
143.2921995507402
 32
0.0
 13
204.8456741967336
 23
143.2921995507402
 33
0.0
  0
LWPOLYLINE
  5
277BE
330
18
100
AcDbEntity
  8
EBENE_1
  6
CONTINUOUS
 62
    62
100
AcDbPolyline
 90
        4
 70
     1
 43
0.075
 10
204.2990241967336
 20
142.7455495507402
 10
204.8456741967336
 20
142.7455495507402
 10
204.8456741967336
 20
143.2921995507402
 10
204.2990241967336
 20
143.2921995507402
  0
SOLID
  5
277BF
330
18
100
AcDbEntity
  8
EBENE_1
 62
    62
100
AcDbTrace
 10
204.2990241967336
 20
143.5199495507402
 30
0.0
 11
204.8456741967336
 21
143.5199495507402
 31
0.0
 12
204.2990241967336
 22
144.0665995507401
 32
0.0
 13
204.8456741967336
 23
144.0665995507401
 33
0.0
  0
LWPOLYLINE
  5
277C0
330
18
100
AcDbEntity
  8
EBENE_1
  6
CONTINUOUS
 62
    62
100
AcDbPolyline
 90
        4
 70
     1
 43
0.075
 10
204.2990241967336
 20
143.5199495507402
 10
204.8456741967336
 20
143.5199495507402
 10
204.8456741967336
 20
144.0665995507401
 10
204.2990241967336
 20
144.0665995507401
  0
SOLID
  5
277C1
330
18
100
AcDbEntity
  8
EBENE_1
 62
    62
100
AcDbTrace
 10
204.2990241967336
 20
144.2944745507402
 30
0.0
 11
204.8456741967336
 21
144.2944745507402
 31
0.0
 12
204.2990241967336
 22
144.8411245507402
 32
0.0
 13
204.8456741967336
 23
144.8411245507402
 33
0.0
  0
LWPOLYLINE
  5
277C2
330
18
100
AcDbEntity
  8
EBENE_1
  6
CONTINUOUS
 62
    62
100
AcDbPolyline
 90
        4
 70
     1
 43
0.075
 10
204.2990241967336
 20
144.2944745507402
 10
204.8456741967336
 20
144.2944745507402
 10
204.8456741967336
 20
144.8411245507402
 10
204.2990241967336
 20
144.8411245507402
  0
SOLID
  5
277C3
330
18
100
AcDbEntity
  8
EBENE_1
 62
    62
100
AcDbTrace
 10
204.2990241967336
 20
145.0689745507402
 30
0.0
 11
204.8456741967336
 21
145.0689745507402
 31
0.0
 12
204.2990241967336
 22
145.6156245507402
 32
0.0
 13
204.8456741967336
 23
145.6156245507402
 33
0.0
  0
LWPOLYLINE
  5
277C4
330
18
100
AcDbEntity
  8
EBENE_1
  6
CONTINUOUS
 62
    62
100
AcDbPolyline
 90
        4
 70
     1
 43
0.075
 10
204.2990241967336
 20
145.0689745507402
 10
204.8456741967336
 20
145.0689745507402
 10
204.8456741967336
 20
145.6156245507402
 10
204.2990241967336
 20
145.6156245507402
  0
SOLID
  5
277C5
330
18
100
AcDbEntity
  8
EBENE_1
 62
    62
100
AcDbTrace
 10
204.2990241967336
 20
145.8433745507402
 30
0.0
 11
204.8456741967336
 21
145.8433745507402
 31
0.0
 12
204.2990241967336
 22
146.3900245507402
 32
0.0
 13
204.8456741967336
 23
146.3900245507402
 33
0.0
  0
LWPOLYLINE
  5
277C6
330
18
100
AcDbEntity
  8
EBENE_1
  6
CONTINUOUS
 62
    62
100
AcDbPolyline
 90
        4
 70
     1
 43
0.075
 10
204.2990241967336
 20
145.8433745507402
 10
204.8456741967336
 20
145.8433745507402
 10
204.8456741967336
 20
146.3900245507402
 10
204.2990241967336
 20
146.3900245507402
  0
SOLID
  5
277C7
330
18
100
AcDbEntity
  8
EBENE_1
 62
    62
100
AcDbTrace
 10
204.2990241967336
 20
146.6178995507402
 30
0.0
 11
204.8456741967336
 21
146.6178995507402
 31
0.0
 12
204.2990241967336
 22
147.1645495507402
 32
0.0
 13
204.8456741967336
 23
147.1645495507402
 33
0.0
  0
LWPOLYLINE
  5
277C8
330
18
100
AcDbEntity
  8
EBENE_1
  6
CONTINUOUS
 62
    62
100
AcDbPolyline
 90
        4
 70
     1
 43
0.075
 10
204.2990241967336
 20
146.6178995507402
 10
204.8456741967336
 20
146.6178995507402
 10
204.8456741967336
 20
147.1645495507402
 10
204.2990241967336
 20
147.1645495507402
  0
SOLID
  5
277C9
330
18
100
AcDbEntity
  8
EBENE_1
 62
    62
100
AcDbTrace
 10
205.1190241967336
 20
144.2944745507402
 30
0.0
 11
205.6656741967336
 21
144.2944745507402
 31
0.0
 12
205.1190241967336
 22
144.8411245507402
 32
0.0
 13
205.6656741967336
 23
144.8411245507402
 33
0.0
  0
LWPOLYLINE
  5
277CA
330
18
100
AcDbEntity
  8
EBENE_1
  6
CONTINUOUS
 62
    62
100
AcDbPolyline
 90
        4
 70
     1
 43
0.075
 10
205.1190241967336
 20
144.2944745507402
 10
205.6656741967336
 20
144.2944745507402
 10
205.6656741967336
 20
144.8411245507402
 10
205.1190241967336
 20
144.8411245507402
  0
SOLID
  5
277CB
330
18
100
AcDbEntity
  8
EBENE_1
 62
    62
100
AcDbTrace
 10
205.1190241967336
 20
146.6178995507402
 30
0.0
 11
205.6656741967336
 21
146.6178995507402
 31
0.0
 12
205.1190241967336
 22
147.1645495507402
 32
0.0
 13
205.6656741967336
 23
147.1645495507402
 33
0.0
  0
LWPOLYLINE
  5
277CC
330
18
100
AcDbEntity
  8
EBENE_1
  6
CONTINUOUS
 62
    62
100
AcDbPolyline
 90
        4
 70
     1
 43
0.075
 10
205.1190241967336
 20
146.6178995507402
 10
205.6656741967336
 20
146.6178995507402
 10
205.6656741967336
 20
147.1645495507402
 10
205.1190241967336
 20
147.1645495507402
  0
SOLID
  5
277CD
330
18
100
AcDbEntity
  8
EBENE_1
 62
    62
100
AcDbTrace
 10
205.9390991967335
 20
144.2944745507402
 30
0.0
 11
206.4857491967336
 21
144.2944745507402
 31
0.0
 12
205.9390991967335
 22
144.8411245507402
 32
0.0
 13
206.4857491967336
 23
144.8411245507402
 33
0.0
  0
LWPOLYLINE
  5
277CE
330
18
100
AcDbEntity
  8
EBENE_1
  6
CONTINUOUS
 62
    62
100
AcDbPolyline
 90
        4
 70
     1
 43
0.075
 10
205.9390991967335
 20
144.2944745507402
 10
206.4857491967336
 20
144.2944745507402
 10
206.4857491967336
 20
144.8411245507402
 10
205.9390991967335
 20
144.8411245507402
  0
SOLID
  5
277CF
330
18
100
AcDbEntity
  8
EBENE_1
 62
    62
100
AcDbTrace
 10
205.9390991967335
 20
146.6178995507402
 30
0.0
 11
206.4857491967336
 21
146.6178995507402
 31
0.0
 12
205.9390991967335
 22
147.1645495507402
 32
0.0
 13
206.4857491967336
 23
147.1645495507402
 33
0.0
  0
LWPOLYLINE
  5
277D0
330
18
100
AcDbEntity
  8
EBENE_1
  6
CONTINUOUS
 62
    62
100
AcDbPolyline
 90
        4
 70
     1
 43
0.075
 10
205.9390991967335
 20
146.6178995507402
 10
206.4857491967336
 20
146.6178995507402
 10
206.4857491967336
 20
147.1645495507402
 10
205.9390991967335
 20
147.1645495507402
  0
SOLID
  5
277D1
330
18
100
AcDbEntity
  8
EBENE_1
 62
    62
100
AcDbTrace
 10
206.7590741967336
 20
144.2944745507402
 30
0.0
 11
207.3057241967336
 21
144.2944745507402
 31
0.0
 12
206.7590741967336
 22
144.8411245507402
 32
0.0
 13
207.3057241967336
 23
144.8411245507402
 33
0.0
  0
LWPOLYLINE
  5
277D2
330
18
100
AcDbEntity
  8
EBENE_1
  6
CONTINUOUS
 62
    62
100
AcDbPolyline
 90
        4
 70
     1
 43
0.075
 10
206.7590741967336
 20
144.2944745507402
 10
207.3057241967336
 20
144.2944745507402
 10
207.3057241967336
 20
144.8411245507402
 10
206.7590741967336
 20
144.8411245507402
  0
SOLID
  5
277D3
330
18
100
AcDbEntity
  8
EBENE_1
 62
    62
100
AcDbTrace
 10
206.7590741967336
 20
146.6178995507402
 30
0.0
 11
207.3057241967336
 21
146.6178995507402
 31
0.0
 12
206.7590741967336
 22
147.1645495507402
 32
0.0
 13
207.3057241967336
 23
147.1645495507402
 33
0.0
  0
LWPOLYLINE
  5
277D4
330
18
100
AcDbEntity
  8
EBENE_1
  6
CONTINUOUS
 62
    62
100
AcDbPolyline
 90
        4
 70
     1
 43
0.075
 10
206.7590741967336
 20
146.6178995507402
 10
207.3057241967336
 20
146.6178995507402
 10
207.3057241967336
 20
147.1645495507402
 10
206.7590741967336
 20
147.1645495507402
  0
SOLID
  5
277D5
330
18
100
AcDbEntity
  8
EBENE_1
 62
    62
100
AcDbTrace
 10
207.5790491967336
 20
146.6178995507402
 30
0.0
 11
208.1256991967336
 21
146.6178995507402
 31
0.0
 12
207.5790491967336
 22
147.1645495507402
 32
0.0
 13
208.1256991967336
 23
147.1645495507402
 33
0.0
  0
LWPOLYLINE
  5
277D6
330
18
100
AcDbEntity
  8
EBENE_1
  6
CONTINUOUS
 62
    62
100
AcDbPolyline
 90
        4
 70
     1
 43
0.075
 10
207.5790491967336
 20
146.6178995507402
 10
208.1256991967336
 20
146.6178995507402
 10
208.1256991967336
 20
147.1645495507402
 10
207.5790491967336
 20
147.1645495507402
  0
SOLID
  5
277D7
330
18
100
AcDbEntity
  8
EBENE_1
 62
    62
100
AcDbTrace
 10
209.8873241967336
 20
141.9710495507402
 30
0.0
 11
210.4339741967336
 21
141.9710495507402
 31
0.0
 12
209.8873241967336
 22
142.5176995507402
 32
0.0
 13
210.4339741967336
 23
142.5176995507402
 33
0.0
  0
LWPOLYLINE
  5
277D8
330
18
100
AcDbEntity
  8
EBENE_1
  6
CONTINUOUS
 62
    62
100
AcDbPolyline
 90
        4
 70
     1
 43
0.075
 10
209.8873241967336
 20
141.9710495507402
 10
210.4339741967336
 20
141.9710495507402
 10
210.4339741967336
 20
142.5176995507402
 10
209.8873241967336
 20
142.5176995507402
  0
SOLID
  5
277D9
330
18
100
AcDbEntity
  8
EBENE_1
 62
    62
100
AcDbTrace
 10
209.8873241967336
 20
142.7455495507402
 30
0.0
 11
210.4339741967336
 21
142.7455495507402
 31
0.0
 12
209.8873241967336
 22
143.2921995507402
 32
0.0
 13
210.4339741967336
 23
143.2921995507402
 33
0.0
  0
LWPOLYLINE
  5
277DA
330
18
100
AcDbEntity
  8
EBENE_1
  6
CONTINUOUS
 62
    62
100
AcDbPolyline
 90
        4
 70
     1
 43
0.075
 10
209.8873241967336
 20
142.7455495507402
 10
210.4339741967336
 20
142.7455495507402
 10
210.4339741967336
 20
143.2921995507402
 10
209.8873241967336
 20
143.2921995507402
  0
SOLID
  5
277DB
330
18
100
AcDbEntity
  8
EBENE_1
 62
    62
100
AcDbTrace
 10
209.8873241967336
 20
143.5199495507402
 30
0.0
 11
210.4339741967336
 21
143.5199495507402
 31
0.0
 12
209.8873241967336
 22
144.0665995507401
 32
0.0
 13
210.4339741967336
 23
144.0665995507401
 33
0.0
  0
LWPOLYLINE
  5
277DC
330
18
100
AcDbEntity
  8
EBENE_1
  6
CONTINUOUS
 62
    62
100
AcDbPolyline
 90
        4
 70
     1
 43
0.075
 10
209.8873241967336
 20
143.5199495507402
 10
210.4339741967336
 20
143.5199495507402
 10
210.4339741967336
 20
144.0665995507401
 10
209.8873241967336
 20
144.0665995507401
  0
SOLID
  5
277DD
330
18
100
AcDbEntity
  8
EBENE_1
 62
    62
100
AcDbTrace
 10
209.8873241967336
 20
144.2944745507402
 30
0.0
 11
210.4339741967336
 21
144.2944745507402
 31
0.0
 12
209.8873241967336
 22
144.8411245507402
 32
0.0
 13
210.4339741967336
 23
144.8411245507402
 33
0.0
  0
LWPOLYLINE
  5
277DE
330
18
100
AcDbEntity
  8
EBENE_1
  6
CONTINUOUS
 62
    62
100
AcDbPolyline
 90
        4
 70
     1
 43
0.075
 10
209.8873241967336
 20
144.2944745507402
 10
210.4339741967336
 20
144.2944745507402
 10
210.4339741967336
 20
144.8411245507402
 10
209.8873241967336
 20
144.8411245507402
  0
SOLID
  5
277DF
330
18
100
AcDbEntity
  8
EBENE_1
 62
    62
100
AcDbTrace
 10
209.8873241967336
 20
145.0689745507402
 30
0.0
 11
210.4339741967336
 21
145.0689745507402
 31
0.0
 12
209.8873241967336
 22
145.6156245507402
 32
0.0
 13
210.4339741967336
 23
145.6156245507402
 33
0.0
  0
LWPOLYLINE
  5
277E0
330
18
100
AcDbEntity
  8
EBENE_1
  6
CONTINUOUS
 62
    62
100
AcDbPolyline
 90
        4
 70
     1
 43
0.075
 10
209.8873241967336
 20
145.0689745507402
 10
210.4339741967336
 20
145.0689745507402
 10
210.4339741967336
 20
145.6156245507402
 10
209.8873241967336
 20
145.6156245507402
  0
SOLID
  5
277E1
330
18
100
AcDbEntity
  8
EBENE_1
 62
    62
100
AcDbTrace
 10
209.8873241967336
 20
145.8433745507402
 30
0.0
 11
210.4339741967336
 21
145.8433745507402
 31
0.0
 12
209.8873241967336
 22
146.3900245507402
 32
0.0
 13
210.4339741967336
 23
146.3900245507402
 33
0.0
  0
LWPOLYLINE
  5
277E2
330
18
100
AcDbEntity
  8
EBENE_1
  6
CONTINUOUS
 62
    62
100
AcDbPolyline
 90
        4
 70
     1
 43
0.075
 10
209.8873241967336
 20
145.8433745507402
 10
210.4339741967336
 20
145.8433745507402
 10
210.4339741967336
 20
146.3900245507402
 10
209.8873241967336
 20
146.3900245507402
  0
SOLID
  5
277E3
330
18
100
AcDbEntity
  8
EBENE_1
 62
    62
100
AcDbTrace
 10
209.8873241967336
 20
146.6178995507402
 30
0.0
 11
210.4339741967336
 21
146.6178995507402
 31
0.0
 12
209.8873241967336
 22
147.1645495507402
 32
0.0
 13
210.4339741967336
 23
147.1645495507402
 33
0.0
  0
LWPOLYLINE
  5
277E4
330
18
100
AcDbEntity
  8
EBENE_1
  6
CONTINUOUS
 62
    62
100
AcDbPolyline
 90
        4
 70
     1
 43
0.075
 10
209.8873241967336
 20
146.6178995507402
 10
210.4339741967336
 20
146.6178995507402
 10
210.4339741967336
 20
147.1645495507402
 10
209.8873241967336
 20
147.1645495507402
  0
SOLID
  5
277E5
330
18
100
AcDbEntity
  8
EBENE_1
 62
    62
100
AcDbTrace
 10
210.7072991967336
 20
143.5199495507402
 30
0.0
 11
211.2539491967336
 21
143.5199495507402
 31
0.0
 12
210.7072991967336
 22
144.0665995507401
 32
0.0
 13
211.2539491967336
 23
144.0665995507401
 33
0.0
  0
LWPOLYLINE
  5
277E6
330
18
100
AcDbEntity
  8
EBENE_1
  6
CONTINUOUS
 62
    62
100
AcDbPolyline
 90
        4
 70
     1
 43
0.075
 10
210.7072991967336
 20
143.5199495507402
 10
211.2539491967336
 20
143.5199495507402
 10
211.2539491967336
 20
144.0665995507401
 10
210.7072991967336
 20
144.0665995507401
  0
SOLID
  5
277E7
330
18
100
AcDbEntity
  8
EBENE_1
 62
    62
100
AcDbTrace
 10
211.5272741967336
 20
142.7455495507402
 30
0.0
 11
212.0739241967336
 21
142.7455495507402
 31
0.0
 12
211.5272741967336
 22
143.2921995507402
 32
0.0
 13
212.0739241967336
 23
143.2921995507402
 33
0.0
  0
LWPOLYLINE
  5
277E8
330
18
100
AcDbEntity
  8
EBENE_1
  6
CONTINUOUS
 62
    62
100
AcDbPolyline
 90
        4
 70
     1
 43
0.075
 10
211.5272741967336
 20
142.7455495507402
 10
212.0739241967336
 20
142.7455495507402
 10
212.0739241967336
 20
143.2921995507402
 10
211.5272741967336
 20
143.2921995507402
  0
SOLID
  5
277E9
330
18
100
AcDbEntity
  8
EBENE_1
 62
    62
100
AcDbTrace
 10
211.5272741967336
 20
144.2944745507402
 30
0.0
 11
212.0739241967336
 21
144.2944745507402
 31
0.0
 12
211.5272741967336
 22
144.8411245507402
 32
0.0
 13
212.0739241967336
 23
144.8411245507402
 33
0.0
  0
LWPOLYLINE
  5
277EA
330
18
100
AcDbEntity
  8
EBENE_1
  6
CONTINUOUS
 62
    62
100
AcDbPolyline
 90
        4
 70
     1
 43
0.075
 10
211.5272741967336
 20
144.2944745507402
 10
212.0739241967336
 20
144.2944745507402
 10
212.0739241967336
 20
144.8411245507402
 10
211.5272741967336
 20
144.8411245507402
  0
SOLID
  5
277EB
330
18
100
AcDbEntity
  8
EBENE_1
 62
    62
100
AcDbTrace
 10
212.3472491967336
 20
141.9710495507402
 30
0.0
 11
212.8939241967336
 21
141.9710495507402
 31
0.0
 12
212.3472491967336
 22
142.5176995507402
 32
0.0
 13
212.8939241967336
 23
142.5176995507402
 33
0.0
  0
LWPOLYLINE
  5
277EC
330
18
100
AcDbEntity
  8
EBENE_1
  6
CONTINUOUS
 62
    62
100
AcDbPolyline
 90
        4
 70
     1
 43
0.075
 10
212.3472491967336
 20
141.9710495507402
 10
212.8939241967336
 20
141.9710495507402
 10
212.8939241967336
 20
142.5176995507402
 10
212.3472491967336
 20
142.5176995507402
  0
SOLID
  5
277ED
330
18
100
AcDbEntity
  8
EBENE_1
 62
    62
100
AcDbTrace
 10
212.3472491967336
 20
145.0689745507402
 30
0.0
 11
212.8939241967336
 21
145.0689745507402
 31
0.0
 12
212.3472491967336
 22
145.6156245507402
 32
0.0
 13
212.8939241967336
 23
145.6156245507402
 33
0.0
  0
LWPOLYLINE
  5
277EE
330
18
100
AcDbEntity
  8
EBENE_1
  6
CONTINUOUS
 62
    62
100
AcDbPolyline
 90
        4
 70
     1
 43
0.075
 10
212.3472491967336
 20
145.0689745507402
 10
212.8939241967336
 20
145.0689745507402
 10
212.8939241967336
 20
145.6156245507402
 10
212.3472491967336
 20
145.6156245507402
  0
SOLID
  5
277EF
330
18
100
AcDbEntity
  8
EBENE_1
 62
    62
100
AcDbTrace
 10
214.6813241967336
 20
145.0689745507402
 30
0.0
 11
215.2279741967336
 21
145.0689745507402
 31
0.0
 12
214.6813241967336
 22
145.6156245507402
 32
0.0
 13
215.2279741967336
 23
145.6156245507402
 33
0.0
  0
LWPOLYLINE
  5
277F0
330
18
100
AcDbEntity
  8
EBENE_1
  6
CONTINUOUS
 62
    62
100
AcDbPolyline
 90
        4
 70
     1
 43
0.075
 10
214.6813241967336
 20
145.0689745507402
 10
215.2279741967336
 20
145.0689745507402
 10
215.2279741967336
 20
145.6156245507402
 10
214.6813241967336
 20
145.6156245507402
  0
SOLID
  5
277F1
330
18
100
AcDbEntity
  8
EBENE_1
 62
    62
100
AcDbTrace
 10
215.5012991967335
 20
142.7455495507402
 30
0.0
 11
216.0479491967336
 21
142.7455495507402
 31
0.0
 12
215.5012991967335
 22
143.2921995507402
 32
0.0
 13
216.0479491967336
 23
143.2921995507402
 33
0.0
  0
LWPOLYLINE
  5
277F2
330
18
100
AcDbEntity
  8
EBENE_1
  6
CONTINUOUS
 62
    62
100
AcDbPolyline
 90
        4
 70
     1
 43
0.075
 10
215.5012991967335
 20
142.7455495507402
 10
216.0479491967336
 20
142.7455495507402
 10
216.0479491967336
 20
143.2921995507402
 10
215.5012991967335
 20
143.2921995507402
  0
SOLID
  5
277F3
330
18
100
AcDbEntity
  8
EBENE_1
 62
    62
100
AcDbTrace
 10
215.5012991967335
 20
143.5199495507402
 30
0.0
 11
216.0479491967336
 21
143.5199495507402
 31
0.0
 12
215.5012991967335
 22
144.0665995507401
 32
0.0
 13
216.0479491967336
 23
144.0665995507401
 33
0.0
  0
LWPOLYLINE
  5
277F4
330
18
100
AcDbEntity
  8
EBENE_1
  6
CONTINUOUS
 62
    62
100
AcDbPolyline
 90
        4
 70
     1
 43
0.075
 10
215.5012991967335
 20
143.5199495507402
 10
216.0479491967336
 20
143.5199495507402
 10
216.0479491967336
 20
144.0665995507401
 10
215.5012991967335
 20
144.0665995507401
  0
SOLID
  5
277F5
330
18
100
AcDbEntity
  8
EBENE_1
 62
    62
100
AcDbTrace
 10
215.5012991967335
 20
144.2944745507402
 30
0.0
 11
216.0479491967336
 21
144.2944745507402
 31
0.0
 12
215.5012991967335
 22
144.8411245507402
 32
0.0
 13
216.0479491967336
 23
144.8411245507402
 33
0.0
  0
LWPOLYLINE
  5
277F6
330
18
100
AcDbEntity
  8
EBENE_1
  6
CONTINUOUS
 62
    62
100
AcDbPolyline
 90
        4
 70
     1
 43
0.075
 10
215.5012991967335
 20
144.2944745507402
 10
216.0479491967336
 20
144.2944745507402
 10
216.0479491967336
 20
144.8411245507402
 10
215.5012991967335
 20
144.8411245507402
  0
SOLID
  5
277F7
330
18
100
AcDbEntity
  8
EBENE_1
 62
    62
100
AcDbTrace
 10
215.5012991967335
 20
145.0689745507402
 30
0.0
 11
216.0479491967336
 21
145.0689745507402
 31
0.0
 12
215.5012991967335
 22
145.6156245507402
 32
0.0
 13
216.0479491967336
 23
145.6156245507402
 33
0.0
  0
LWPOLYLINE
  5
277F8
330
18
100
AcDbEntity
  8
EBENE_1
  6
CONTINUOUS
 62
    62
100
AcDbPolyline
 90
        4
 70
     1
 43
0.075
 10
215.5012991967335
 20
145.0689745507402
 10
216.0479491967336
 20
145.0689745507402
 10
216.0479491967336
 20
145.6156245507402
 10
215.5012991967335
 20
145.6156245507402
  0
SOLID
  5
277F9
330
18
100
AcDbEntity
  8
EBENE_1
 62
    62
100
AcDbTrace
 10
215.5012991967335
 20
145.8433745507402
 30
0.0
 11
216.0479491967336
 21
145.8433745507402
 31
0.0
 12
215.5012991967335
 22
146.3900245507402
 32
0.0
 13
216.0479491967336
 23
146.3900245507402
 33
0.0
  0
LWPOLYLINE
  5
277FA
330
18
100
AcDbEntity
  8
EBENE_1
  6
CONTINUOUS
 62
    62
100
AcDbPolyline
 90
        4
 70
     1
 43
0.075
 10
215.5012991967335
 20
145.8433745507402
 10
216.0479491967336
 20
145.8433745507402
 10
216.0479491967336
 20
146.3900245507402
 10
215.5012991967335
 20
146.3900245507402
  0
SOLID
  5
277FB
330
18
100
AcDbEntity
  8
EBENE_1
 62
    62
100
AcDbTrace
 10
215.5012991967335
 20
146.6178995507402
 30
0.0
 11
216.0479491967336
 21
146.6178995507402
 31
0.0
 12
215.5012991967335
 22
147.1645495507402
 32
0.0
 13
216.0479491967336
 23
147.1645495507402
 33
0.0
  0
LWPOLYLINE
  5
277FC
330
18
100
AcDbEntity
  8
EBENE_1
  6
CONTINUOUS
 62
    62
100
AcDbPolyline
 90
        4
 70
     1
 43
0.075
 10
215.5012991967335
 20
146.6178995507402
 10
216.0479491967336
 20
146.6178995507402
 10
216.0479491967336
 20
147.1645495507402
 10
215.5012991967335
 20
147.1645495507402
  0
SOLID
  5
277FD
330
18
100
AcDbEntity
  8
EBENE_1
 62
    62
100
AcDbTrace
 10
216.3212741967336
 20
141.9710495507402
 30
0.0
 11
216.8679241967335
 21
141.9710495507402
 31
0.0
 12
216.3212741967336
 22
142.5176995507402
 32
0.0
 13
216.8679241967335
 23
142.5176995507402
 33
0.0
  0
LWPOLYLINE
  5
277FE
330
18
100
AcDbEntity
  8
EBENE_1
  6
CONTINUOUS
 62
    62
100
AcDbPolyline
 90
        4
 70
     1
 43
0.075
 10
216.3212741967336
 20
141.9710495507402
 10
216.8679241967335
 20
141.9710495507402
 10
216.8679241967335
 20
142.5176995507402
 10
216.3212741967336
 20
142.5176995507402
  0
SOLID
  5
277FF
330
18
100
AcDbEntity
  8
EBENE_1
 62
    62
100
AcDbTrace
 10
216.3212741967336
 20
145.0689745507402
 30
0.0
 11
216.8679241967335
 21
145.0689745507402
 31
0.0
 12
216.3212741967336
 22
145.6156245507402
 32
0.0
 13
216.8679241967335
 23
145.6156245507402
 33
0.0
  0
LWPOLYLINE
  5
27800
330
18
100
AcDbEntity
  8
EBENE_1
  6
CONTINUOUS
 62
    62
100
AcDbPolyline
 90
        4
 70
     1
 43
0.075
 10
216.3212741967336
 20
145.0689745507402
 10
216.8679241967335
 20
145.0689745507402
 10
216.8679241967335
 20
145.6156245507402
 10
216.3212741967336
 20
145.6156245507402
  0
SOLID
  5
27801
330
18
100
AcDbEntity
  8
EBENE_1
 62
    62
100
AcDbTrace
 10
217.1412491967336
 20
141.9710495507402
 30
0.0
 11
217.6878991967336
 21
141.9710495507402
 31
0.0
 12
217.1412491967336
 22
142.5176995507402
 32
0.0
 13
217.6878991967336
 23
142.5176995507402
 33
0.0
  0
LWPOLYLINE
  5
27802
330
18
100
AcDbEntity
  8
EBENE_1
  6
CONTINUOUS
 62
    62
100
AcDbPolyline
 90
        4
 70
     1
 43
0.075
 10
217.1412491967336
 20
141.9710495507402
 10
217.6878991967336
 20
141.9710495507402
 10
217.6878991967336
 20
142.5176995507402
 10
217.1412491967336
 20
142.5176995507402
  0
SOLID
  5
27803
330
18
100
AcDbEntity
  8
EBENE_1
 62
    62
100
AcDbTrace
 10
217.1412491967336
 20
145.0689745507402
 30
0.0
 11
217.6878991967336
 21
145.0689745507402
 31
0.0
 12
217.1412491967336
 22
145.6156245507402
 32
0.0
 13
217.6878991967336
 23
145.6156245507402
 33
0.0
  0
LWPOLYLINE
  5
27804
330
18
100
AcDbEntity
  8
EBENE_1
  6
CONTINUOUS
 62
    62
100
AcDbPolyline
 90
        4
 70
     1
 43
0.075
 10
217.1412491967336
 20
145.0689745507402
 10
217.6878991967336
 20
145.0689745507402
 10
217.6878991967336
 20
145.6156245507402
 10
217.1412491967336
 20
145.6156245507402
  0
SOLID
  5
27805
330
18
100
AcDbEntity
  8
EBENE_1
 62
    62
100
AcDbTrace
 10
223.2669491967336
 20
142.7455495507402
 30
0.0
 11
223.8135991967336
 21
142.7455495507402
 31
0.0
 12
223.2669491967336
 22
143.2921995507402
 32
0.0
 13
223.8135991967336
 23
143.2921995507402
 33
0.0
  0
LWPOLYLINE
  5
27806
330
18
100
AcDbEntity
  8
EBENE_1
  6
CONTINUOUS
 62
    62
100
AcDbPolyline
 90
        4
 70
     1
 43
0.075
 10
223.2669491967336
 20
142.7455495507402
 10
223.8135991967336
 20
142.7455495507402
 10
223.8135991967336
 20
143.2921995507402
 10
223.2669491967336
 20
143.2921995507402
  0
SOLID
  5
27807
330
18
100
AcDbEntity
  8
EBENE_1
 62
    62
100
AcDbTrace
 10
223.2669491967336
 20
143.5199495507402
 30
0.0
 11
223.8135991967336
 21
143.5199495507402
 31
0.0
 12
223.2669491967336
 22
144.0665995507401
 32
0.0
 13
223.8135991967336
 23
144.0665995507401
 33
0.0
  0
LWPOLYLINE
  5
27808
330
18
100
AcDbEntity
  8
EBENE_1
  6
CONTINUOUS
 62
    62
100
AcDbPolyline
 90
        4
 70
     1
 43
0.075
 10
223.2669491967336
 20
143.5199495507402
 10
223.8135991967336
 20
143.5199495507402
 10
223.8135991967336
 20
144.0665995507401
 10
223.2669491967336
 20
144.0665995507401
  0
SOLID
  5
27809
330
18
100
AcDbEntity
  8
EBENE_1
 62
    62
100
AcDbTrace
 10
223.2669491967336
 20
144.2944745507402
 30
0.0
 11
223.8135991967336
 21
144.2944745507402
 31
0.0
 12
223.2669491967336
 22
144.8411245507402
 32
0.0
 13
223.8135991967336
 23
144.8411245507402
 33
0.0
  0
LWPOLYLINE
  5
2780A
330
18
100
AcDbEntity
  8
EBENE_1
  6
CONTINUOUS
 62
    62
100
AcDbPolyline
 90
        4
 70
     1
 43
0.075
 10
223.2669491967336
 20
144.2944745507402
 10
223.8135991967336
 20
144.2944745507402
 10
223.8135991967336
 20
144.8411245507402
 10
223.2669491967336
 20
144.8411245507402
  0
SOLID
  5
2780B
330
18
100
AcDbEntity
  8
EBENE_1
 62
    62
100
AcDbTrace
 10
223.2669491967336
 20
145.0689745507402
 30
0.0
 11
223.8135991967336
 21
145.0689745507402
 31
0.0
 12
223.2669491967336
 22
145.6156245507402
 32
0.0
 13
223.8135991967336
 23
145.6156245507402
 33
0.0
  0
LWPOLYLINE
  5
2780C
330
18
100
AcDbEntity
  8
EBENE_1
  6
CONTINUOUS
 62
    62
100
AcDbPolyline
 90
        4
 70
     1
 43
0.075
 10
223.2669491967336
 20
145.0689745507402
 10
223.8135991967336
 20
145.0689745507402
 10
223.8135991967336
 20
145.6156245507402
 10
223.2669491967336
 20
145.6156245507402
  0
SOLID
  5
2780D
330
18
100
AcDbEntity
  8
EBENE_1
 62
    62
100
AcDbTrace
 10
223.2669491967336
 20
145.8433745507402
 30
0.0
 11
223.8135991967336
 21
145.8433745507402
 31
0.0
 12
223.2669491967336
 22
146.3900245507402
 32
0.0
 13
223.8135991967336
 23
146.3900245507402
 33
0.0
  0
LWPOLYLINE
  5
2780E
330
18
100
AcDbEntity
  8
EBENE_1
  6
CONTINUOUS
 62
    62
100
AcDbPolyline
 90
        4
 70
     1
 43
0.075
 10
223.2669491967336
 20
145.8433745507402
 10
223.8135991967336
 20
145.8433745507402
 10
223.8135991967336
 20
146.3900245507402
 10
223.2669491967336
 20
146.3900245507402
  0
SOLID
  5
2780F
330
18
100
AcDbEntity
  8
EBENE_1
 62
    62
100
AcDbTrace
 10
224.0869241967335
 20
141.9710495507402
 30
0.0
 11
224.6335741967336
 21
141.9710495507402
 31
0.0
 12
224.0869241967335
 22
142.5176995507402
 32
0.0
 13
224.6335741967336
 23
142.5176995507402
 33
0.0
  0
LWPOLYLINE
  5
27810
330
18
100
AcDbEntity
  8
EBENE_1
  6
CONTINUOUS
 62
    62
100
AcDbPolyline
 90
        4
 70
     1
 43
0.075
 10
224.0869241967335
 20
141.9710495507402
 10
224.6335741967336
 20
141.9710495507402
 10
224.6335741967336
 20
142.5176995507402
 10
224.0869241967335
 20
142.5176995507402
  0
SOLID
  5
27811
330
18
100
AcDbEntity
  8
EBENE_1
 62
    62
100
AcDbTrace
 10
224.0869241967335
 20
146.6178995507402
 30
0.0
 11
224.6335741967336
 21
146.6178995507402
 31
0.0
 12
224.0869241967335
 22
147.1645495507402
 32
0.0
 13
224.6335741967336
 23
147.1645495507402
 33
0.0
  0
LWPOLYLINE
  5
27812
330
18
100
AcDbEntity
  8
EBENE_1
  6
CONTINUOUS
 62
    62
100
AcDbPolyline
 90
        4
 70
     1
 43
0.075
 10
224.0869241967335
 20
146.6178995507402
 10
224.6335741967336
 20
146.6178995507402
 10
224.6335741967336
 20
147.1645495507402
 10
224.0869241967335
 20
147.1645495507402
  0
SOLID
  5
27813
330
18
100
AcDbEntity
  8
EBENE_1
 62
    62
100
AcDbTrace
 10
224.9068991967336
 20
141.9710495507402
 30
0.0
 11
225.4535491967335
 21
141.9710495507402
 31
0.0
 12
224.9068991967336
 22
142.5176995507402
 32
0.0
 13
225.4535491967335
 23
142.5176995507402
 33
0.0
  0
LWPOLYLINE
  5
27814
330
18
100
AcDbEntity
  8
EBENE_1
  6
CONTINUOUS
 62
    62
100
AcDbPolyline
 90
        4
 70
     1
 43
0.075
 10
224.9068991967336
 20
141.9710495507402
 10
225.4535491967335
 20
141.9710495507402
 10
225.4535491967335
 20
142.5176995507402
 10
224.9068991967336
 20
142.5176995507402
  0
SOLID
  5
27815
330
18
100
AcDbEntity
  8
EBENE_1
 62
    62
100
AcDbTrace
 10
224.9068991967336
 20
144.2944745507402
 30
0.0
 11
225.4535491967335
 21
144.2944745507402
 31
0.0
 12
224.9068991967336
 22
144.8411245507402
 32
0.0
 13
225.4535491967335
 23
144.8411245507402
 33
0.0
  0
LWPOLYLINE
  5
27816
330
18
100
AcDbEntity
  8
EBENE_1
  6
CONTINUOUS
 62
    62
100
AcDbPolyline
 90
        4
 70
     1
 43
0.075
 10
224.9068991967336
 20
144.2944745507402
 10
225.4535491967335
 20
144.2944745507402
 10
225.4535491967335
 20
144.8411245507402
 10
224.9068991967336
 20
144.8411245507402
  0
SOLID
  5
27817
330
18
100
AcDbEntity
  8
EBENE_1
 62
    62
100
AcDbTrace
 10
224.9068991967336
 20
146.6178995507402
 30
0.0
 11
225.4535491967335
 21
146.6178995507402
 31
0.0
 12
224.9068991967336
 22
147.1645495507402
 32
0.0
 13
225.4535491967335
 23
147.1645495507402
 33
0.0
  0
LWPOLYLINE
  5
27818
330
18
100
AcDbEntity
  8
EBENE_1
  6
CONTINUOUS
 62
    62
100
AcDbPolyline
 90
        4
 70
     1
 43
0.075
 10
224.9068991967336
 20
146.6178995507402
 10
225.4535491967335
 20
146.6178995507402
 10
225.4535491967335
 20
147.1645495507402
 10
224.9068991967336
 20
147.1645495507402
  0
SOLID
  5
27819
330
18
100
AcDbEntity
  8
EBENE_1
 62
    62
100
AcDbTrace
 10
225.7268741967336
 20
141.9710495507402
 30
0.0
 11
226.2735491967335
 21
141.9710495507402
 31
0.0
 12
225.7268741967336
 22
142.5176995507402
 32
0.0
 13
226.2735491967335
 23
142.5176995507402
 33
0.0
  0
LWPOLYLINE
  5
2781A
330
18
100
AcDbEntity
  8
EBENE_1
  6
CONTINUOUS
 62
    62
100
AcDbPolyline
 90
        4
 70
     1
 43
0.075
 10
225.7268741967336
 20
141.9710495507402
 10
226.2735491967335
 20
141.9710495507402
 10
226.2735491967335
 20
142.5176995507402
 10
225.7268741967336
 20
142.5176995507402
  0
SOLID
  5
2781B
330
18
100
AcDbEntity
  8
EBENE_1
 62
    62
100
AcDbTrace
 10
225.7268741967336
 20
144.2944745507402
 30
0.0
 11
226.2735491967335
 21
144.2944745507402
 31
0.0
 12
225.7268741967336
 22
144.8411245507402
 32
0.0
 13
226.2735491967335
 23
144.8411245507402
 33
0.0
  0
LWPOLYLINE
  5
2781C
330
18
100
AcDbEntity
  8
EBENE_1
  6
CONTINUOUS
 62
    62
100
AcDbPolyline
 90
        4
 70
     1
 43
0.075
 10
225.7268741967336
 20
144.2944745507402
 10
226.2735491967335
 20
144.2944745507402
 10
226.2735491967335
 20
144.8411245507402
 10
225.7268741967336
 20
144.8411245507402
  0
SOLID
  5
2781D
330
18
100
AcDbEntity
  8
EBENE_1
 62
    62
100
AcDbTrace
 10
225.7268741967336
 20
146.6178995507402
 30
0.0
 11
226.2735491967335
 21
146.6178995507402
 31
0.0
 12
225.7268741967336
 22
147.1645495507402
 32
0.0
 13
226.2735491967335
 23
147.1645495507402
 33
0.0
  0
LWPOLYLINE
  5
2781E
330
18
100
AcDbEntity
  8
EBENE_1
  6
CONTINUOUS
 62
    62
100
AcDbPolyline
 90
        4
 70
     1
 43
0.075
 10
225.7268741967336
 20
146.6178995507402
 10
226.2735491967335
 20
146.6178995507402
 10
226.2735491967335
 20
147.1645495507402
 10
225.7268741967336
 20
147.1645495507402
  0
SOLID
  5
2781F
330
18
100
AcDbEntity
  8
EBENE_1
 62
    62
100
AcDbTrace
 10
226.5468741967335
 20
142.7455495507402
 30
0.0
 11
227.0935241967336
 21
142.7455495507402
 31
0.0
 12
226.5468741967335
 22
143.2921995507402
 32
0.0
 13
227.0935241967336
 23
143.2921995507402
 33
0.0
  0
LWPOLYLINE
  5
27820
330
18
100
AcDbEntity
  8
EBENE_1
  6
CONTINUOUS
 62
    62
100
AcDbPolyline
 90
        4
 70
     1
 43
0.075
 10
226.5468741967335
 20
142.7455495507402
 10
227.0935241967336
 20
142.7455495507402
 10
227.0935241967336
 20
143.2921995507402
 10
226.5468741967335
 20
143.2921995507402
  0
SOLID
  5
27821
330
18
100
AcDbEntity
  8
EBENE_1
 62
    62
100
AcDbTrace
 10
226.5468741967335
 20
143.5199495507402
 30
0.0
 11
227.0935241967336
 21
143.5199495507402
 31
0.0
 12
226.5468741967335
 22
144.0665995507401
 32
0.0
 13
227.0935241967336
 23
144.0665995507401
 33
0.0
  0
LWPOLYLINE
  5
27822
330
18
100
AcDbEntity
  8
EBENE_1
  6
CONTINUOUS
 62
    62
100
AcDbPolyline
 90
        4
 70
     1
 43
0.075
 10
226.5468741967335
 20
143.5199495507402
 10
227.0935241967336
 20
143.5199495507402
 10
227.0935241967336
 20
144.0665995507401
 10
226.5468741967335
 20
144.0665995507401
  0
SOLID
  5
27823
330
18
100
AcDbEntity
  8
EBENE_1
 62
    62
100
AcDbTrace
 10
226.5468741967335
 20
144.2944745507402
 30
0.0
 11
227.0935241967336
 21
144.2944745507402
 31
0.0
 12
226.5468741967335
 22
144.8411245507402
 32
0.0
 13
227.0935241967336
 23
144.8411245507402
 33
0.0
  0
LWPOLYLINE
  5
27824
330
18
100
AcDbEntity
  8
EBENE_1
  6
CONTINUOUS
 62
    62
100
AcDbPolyline
 90
        4
 70
     1
 43
0.075
 10
226.5468741967335
 20
144.2944745507402
 10
227.0935241967336
 20
144.2944745507402
 10
227.0935241967336
 20
144.8411245507402
 10
226.5468741967335
 20
144.8411245507402
  0
SOLID
  5
27825
330
18
100
AcDbEntity
  8
EBENE_1
 62
    62
100
AcDbTrace
 10
226.5468741967335
 20
145.8433745507402
 30
0.0
 11
227.0935241967336
 21
145.8433745507402
 31
0.0
 12
226.5468741967335
 22
146.3900245507402
 32
0.0
 13
227.0935241967336
 23
146.3900245507402
 33
0.0
  0
LWPOLYLINE
  5
27826
330
18
100
AcDbEntity
  8
EBENE_1
  6
CONTINUOUS
 62
    62
100
AcDbPolyline
 90
        4
 70
     1
 43
0.075
 10
226.5468741967335
 20
145.8433745507402
 10
227.0935241967336
 20
145.8433745507402
 10
227.0935241967336
 20
146.3900245507402
 10
226.5468741967335
 20
146.3900245507402
  0
SOLID
  5
27827
330
18
100
AcDbEntity
  8
EBENE_1
 62
    62
100
AcDbTrace
 10
228.1264991967336
 20
141.9710495507402
 30
0.0
 11
228.6731491967336
 21
141.9710495507402
 31
0.0
 12
228.1264991967336
 22
142.5176995507402
 32
0.0
 13
228.6731491967336
 23
142.5176995507402
 33
0.0
  0
LWPOLYLINE
  5
27828
330
18
100
AcDbEntity
  8
EBENE_1
  6
CONTINUOUS
 62
    62
100
AcDbPolyline
 90
        4
 70
     1
 43
0.075
 10
228.1264991967336
 20
141.9710495507402
 10
228.6731491967336
 20
141.9710495507402
 10
228.6731491967336
 20
142.5176995507402
 10
228.1264991967336
 20
142.5176995507402
  0
SOLID
  5
27829
330
18
100
AcDbEntity
  8
EBENE_1
 62
    62
100
AcDbTrace
 10
228.1264991967336
 20
142.7455495507402
 30
0.0
 11
228.6731491967336
 21
142.7455495507402
 31
0.0
 12
228.1264991967336
 22
143.2921995507402
 32
0.0
 13
228.6731491967336
 23
143.2921995507402
 33
0.0
  0
LWPOLYLINE
  5
2782A
330
18
100
AcDbEntity
  8
EBENE_1
  6
CONTINUOUS
 62
    62
100
AcDbPolyline
 90
        4
 70
     1
 43
0.075
 10
228.1264991967336
 20
142.7455495507402
 10
228.6731491967336
 20
142.7455495507402
 10
228.6731491967336
 20
143.2921995507402
 10
228.1264991967336
 20
143.2921995507402
  0
SOLID
  5
2782B
330
18
100
AcDbEntity
  8
EBENE_1
 62
    62
100
AcDbTrace
 10
228.1264991967336
 20
143.5199495507402
 30
0.0
 11
228.6731491967336
 21
143.5199495507402
 31
0.0
 12
228.1264991967336
 22
144.0665995507401
 32
0.0
 13
228.6731491967336
 23
144.0665995507401
 33
0.0
  0
LWPOLYLINE
  5
2782C
330
18
100
AcDbEntity
  8
EBENE_1
  6
CONTINUOUS
 62
    62
100
AcDbPolyline
 90
        4
 70
     1
 43
0.075
 10
228.1264991967336
 20
143.5199495507402
 10
228.6731491967336
 20
143.5199495507402
 10
228.6731491967336
 20
144.0665995507401
 10
228.1264991967336
 20
144.0665995507401
  0
SOLID
  5
2782D
330
18
100
AcDbEntity
  8
EBENE_1
 62
    62
100
AcDbTrace
 10
228.1264991967336
 20
144.2944745507402
 30
0.0
 11
228.6731491967336
 21
144.2944745507402
 31
0.0
 12
228.1264991967336
 22
144.8411245507402
 32
0.0
 13
228.6731491967336
 23
144.8411245507402
 33
0.0
  0
LWPOLYLINE
  5
2782E
330
18
100
AcDbEntity
  8
EBENE_1
  6
CONTINUOUS
 62
    62
100
AcDbPolyline
 90
        4
 70
     1
 43
0.075
 10
228.1264991967336
 20
144.2944745507402
 10
228.6731491967336
 20
144.2944745507402
 10
228.6731491967336
 20
144.8411245507402
 10
228.1264991967336
 20
144.8411245507402
  0
SOLID
  5
2782F
330
18
100
AcDbEntity
  8
EBENE_1
 62
    62
100
AcDbTrace
 10
228.1264991967336
 20
145.0689745507402
 30
0.0
 11
228.6731491967336
 21
145.0689745507402
 31
0.0
 12
228.1264991967336
 22
145.6156245507402
 32
0.0
 13
228.6731491967336
 23
145.6156245507402
 33
0.0
  0
LWPOLYLINE
  5
27830
330
18
100
AcDbEntity
  8
EBENE_1
  6
CONTINUOUS
 62
    62
100
AcDbPolyline
 90
        4
 70
     1
 43
0.075
 10
228.1264991967336
 20
145.0689745507402
 10
228.6731491967336
 20
145.0689745507402
 10
228.6731491967336
 20
145.6156245507402
 10
228.1264991967336
 20
145.6156245507402
  0
SOLID
  5
27831
330
18
100
AcDbEntity
  8
EBENE_1
 62
    62
100
AcDbTrace
 10
228.9465741967336
 20
143.5199495507402
 30
0.0
 11
229.4932241967336
 21
143.5199495507402
 31
0.0
 12
228.9465741967336
 22
144.0665995507401
 32
0.0
 13
229.4932241967336
 23
144.0665995507401
 33
0.0
  0
LWPOLYLINE
  5
27832
330
18
100
AcDbEntity
  8
EBENE_1
  6
CONTINUOUS
 62
    62
100
AcDbPolyline
 90
        4
 70
     1
 43
0.075
 10
228.9465741967336
 20
143.5199495507402
 10
229.4932241967336
 20
143.5199495507402
 10
229.4932241967336
 20
144.0665995507401
 10
228.9465741967336
 20
144.0665995507401
  0
SOLID
  5
27833
330
18
100
AcDbEntity
  8
EBENE_1
 62
    62
100
AcDbTrace
 10
228.9465741967336
 20
145.8433745507402
 30
0.0
 11
229.4932241967336
 21
145.8433745507402
 31
0.0
 12
228.9465741967336
 22
146.3900245507402
 32
0.0
 13
229.4932241967336
 23
146.3900245507402
 33
0.0
  0
LWPOLYLINE
  5
27834
330
18
100
AcDbEntity
  8
EBENE_1
  6
CONTINUOUS
 62
    62
100
AcDbPolyline
 90
        4
 70
     1
 43
0.075
 10
228.9465741967336
 20
145.8433745507402
 10
229.4932241967336
 20
145.8433745507402
 10
229.4932241967336
 20
146.3900245507402
 10
228.9465741967336
 20
146.3900245507402
  0
SOLID
  5
27835
330
18
100
AcDbEntity
  8
EBENE_1
 62
    62
100
AcDbTrace
 10
229.7665491967336
 20
143.5199495507402
 30
0.0
 11
230.3131991967336
 21
143.5199495507402
 31
0.0
 12
229.7665491967336
 22
144.0665995507401
 32
0.0
 13
230.3131991967336
 23
144.0665995507401
 33
0.0
  0
LWPOLYLINE
  5
27836
330
18
100
AcDbEntity
  8
EBENE_1
  6
CONTINUOUS
 62
    62
100
AcDbPolyline
 90
        4
 70
     1
 43
0.075
 10
229.7665491967336
 20
143.5199495507402
 10
230.3131991967336
 20
143.5199495507402
 10
230.3131991967336
 20
144.0665995507401
 10
229.7665491967336
 20
144.0665995507401
  0
SOLID
  5
27837
330
18
100
AcDbEntity
  8
EBENE_1
 62
    62
100
AcDbTrace
 10
229.7665491967336
 20
146.6178995507402
 30
0.0
 11
230.3131991967336
 21
146.6178995507402
 31
0.0
 12
229.7665491967336
 22
147.1645495507402
 32
0.0
 13
230.3131991967336
 23
147.1645495507402
 33
0.0
  0
LWPOLYLINE
  5
27838
330
18
100
AcDbEntity
  8
EBENE_1
  6
CONTINUOUS
 62
    62
100
AcDbPolyline
 90
        4
 70
     1
 43
0.075
 10
229.7665491967336
 20
146.6178995507402
 10
230.3131991967336
 20
146.6178995507402
 10
230.3131991967336
 20
147.1645495507402
 10
229.7665491967336
 20
147.1645495507402
  0
SOLID
  5
27839
330
18
100
AcDbEntity
  8
EBENE_1
 62
    62
100
AcDbTrace
 10
230.5865241967336
 20
143.5199495507402
 30
0.0
 11
231.1331741967336
 21
143.5199495507402
 31
0.0
 12
230.5865241967336
 22
144.0665995507401
 32
0.0
 13
231.1331741967336
 23
144.0665995507401
 33
0.0
  0
LWPOLYLINE
  5
2783A
330
18
100
AcDbEntity
  8
EBENE_1
  6
CONTINUOUS
 62
    62
100
AcDbPolyline
 90
        4
 70
     1
 43
0.075
 10
230.5865241967336
 20
143.5199495507402
 10
231.1331741967336
 20
143.5199495507402
 10
231.1331741967336
 20
144.0665995507401
 10
230.5865241967336
 20
144.0665995507401
  0
SOLID
  5
2783B
330
18
100
AcDbEntity
  8
EBENE_1
 62
    62
100
AcDbTrace
 10
230.5865241967336
 20
145.8433745507402
 30
0.0
 11
231.1331741967336
 21
145.8433745507402
 31
0.0
 12
230.5865241967336
 22
146.3900245507402
 32
0.0
 13
231.1331741967336
 23
146.3900245507402
 33
0.0
  0
LWPOLYLINE
  5
2783C
330
18
100
AcDbEntity
  8
EBENE_1
  6
CONTINUOUS
 62
    62
100
AcDbPolyline
 90
        4
 70
     1
 43
0.075
 10
230.5865241967336
 20
145.8433745507402
 10
231.1331741967336
 20
145.8433745507402
 10
231.1331741967336
 20
146.3900245507402
 10
230.5865241967336
 20
146.3900245507402
  0
SOLID
  5
2783D
330
18
100
AcDbEntity
  8
EBENE_1
 62
    62
100
AcDbTrace
 10
231.4065241967335
 20
141.9710495507402
 30
0.0
 11
231.9531741967336
 21
141.9710495507402
 31
0.0
 12
231.4065241967335
 22
142.5176995507402
 32
0.0
 13
231.9531741967336
 23
142.5176995507402
 33
0.0
  0
LWPOLYLINE
  5
2783E
330
18
100
AcDbEntity
  8
EBENE_1
  6
CONTINUOUS
 62
    62
100
AcDbPolyline
 90
        4
 70
     1
 43
0.075
 10
231.4065241967335
 20
141.9710495507402
 10
231.9531741967336
 20
141.9710495507402
 10
231.9531741967336
 20
142.5176995507402
 10
231.4065241967335
 20
142.5176995507402
  0
SOLID
  5
2783F
330
18
100
AcDbEntity
  8
EBENE_1
 62
    62
100
AcDbTrace
 10
231.4065241967335
 20
142.7455495507402
 30
0.0
 11
231.9531741967336
 21
142.7455495507402
 31
0.0
 12
231.4065241967335
 22
143.2921995507402
 32
0.0
 13
231.9531741967336
 23
143.2921995507402
 33
0.0
  0
LWPOLYLINE
  5
27840
330
18
100
AcDbEntity
  8
EBENE_1
  6
CONTINUOUS
 62
    62
100
AcDbPolyline
 90
        4
 70
     1
 43
0.075
 10
231.4065241967335
 20
142.7455495507402
 10
231.9531741967336
 20
142.7455495507402
 10
231.9531741967336
 20
143.2921995507402
 10
231.4065241967335
 20
143.2921995507402
  0
SOLID
  5
27841
330
18
100
AcDbEntity
  8
EBENE_1
 62
    62
100
AcDbTrace
 10
231.4065241967335
 20
143.5199495507402
 30
0.0
 11
231.9531741967336
 21
143.5199495507402
 31
0.0
 12
231.4065241967335
 22
144.0665995507401
 32
0.0
 13
231.9531741967336
 23
144.0665995507401
 33
0.0
  0
LWPOLYLINE
  5
27842
330
18
100
AcDbEntity
  8
EBENE_1
  6
CONTINUOUS
 62
    62
100
AcDbPolyline
 90
        4
 70
     1
 43
0.075
 10
231.4065241967335
 20
143.5199495507402
 10
231.9531741967336
 20
143.5199495507402
 10
231.9531741967336
 20
144.0665995507401
 10
231.4065241967335
 20
144.0665995507401
  0
SOLID
  5
27843
330
18
100
AcDbEntity
  8
EBENE_1
 62
    62
100
AcDbTrace
 10
231.4065241967335
 20
144.2944745507402
 30
0.0
 11
231.9531741967336
 21
144.2944745507402
 31
0.0
 12
231.4065241967335
 22
144.8411245507402
 32
0.0
 13
231.9531741967336
 23
144.8411245507402
 33
0.0
  0
LWPOLYLINE
  5
27844
330
18
100
AcDbEntity
  8
EBENE_1
  6
CONTINUOUS
 62
    62
100
AcDbPolyline
 90
        4
 70
     1
 43
0.075
 10
231.4065241967335
 20
144.2944745507402
 10
231.9531741967336
 20
144.2944745507402
 10
231.9531741967336
 20
144.8411245507402
 10
231.4065241967335
 20
144.8411245507402
  0
SOLID
  5
27845
330
18
100
AcDbEntity
  8
EBENE_1
 62
    62
100
AcDbTrace
 10
231.4065241967335
 20
145.0689745507402
 30
0.0
 11
231.9531741967336
 21
145.0689745507402
 31
0.0
 12
231.4065241967335
 22
145.6156245507402
 32
0.0
 13
231.9531741967336
 23
145.6156245507402
 33
0.0
  0
LWPOLYLINE
  5
27846
330
18
100
AcDbEntity
  8
EBENE_1
  6
CONTINUOUS
 62
    62
100
AcDbPolyline
 90
        4
 70
     1
 43
0.075
 10
231.4065241967335
 20
145.0689745507402
 10
231.9531741967336
 20
145.0689745507402
 10
231.9531741967336
 20
145.6156245507402
 10
231.4065241967335
 20
145.6156245507402
  0
SOLID
  5
27847
330
18
100
AcDbEntity
  8
EBENE_1
 62
    62
100
AcDbTrace
 10
233.7488241967335
 20
141.9710495507402
 30
0.0
 11
234.2954991967336
 21
141.9710495507402
 31
0.0
 12
233.7488241967335
 22
142.5176995507402
 32
0.0
 13
234.2954991967336
 23
142.5176995507402
 33
0.0
  0
LWPOLYLINE
  5
27848
330
18
100
AcDbEntity
  8
EBENE_1
  6
CONTINUOUS
 62
    62
100
AcDbPolyline
 90
        4
 70
     1
 43
0.075
 10
233.7488241967335
 20
141.9710495507402
 10
234.2954991967336
 20
141.9710495507402
 10
234.2954991967336
 20
142.5176995507402
 10
233.7488241967335
 20
142.5176995507402
  0
SOLID
  5
27849
330
18
100
AcDbEntity
  8
EBENE_1
 62
    62
100
AcDbTrace
 10
233.7488241967335
 20
146.6178995507402
 30
0.0
 11
234.2954991967336
 21
146.6178995507402
 31
0.0
 12
233.7488241967335
 22
147.1645495507402
 32
0.0
 13
234.2954991967336
 23
147.1645495507402
 33
0.0
  0
LWPOLYLINE
  5
2784A
330
18
100
AcDbEntity
  8
EBENE_1
  6
CONTINUOUS
 62
    62
100
AcDbPolyline
 90
        4
 70
     1
 43
0.075
 10
233.7488241967335
 20
146.6178995507402
 10
234.2954991967336
 20
146.6178995507402
 10
234.2954991967336
 20
147.1645495507402
 10
233.7488241967335
 20
147.1645495507402
  0
SOLID
  5
2784B
330
18
100
AcDbEntity
  8
EBENE_1
 62
    62
100
AcDbTrace
 10
234.5689241967336
 20
141.9710495507402
 30
0.0
 11
235.1155741967336
 21
141.9710495507402
 31
0.0
 12
234.5689241967336
 22
142.5176995507402
 32
0.0
 13
235.1155741967336
 23
142.5176995507402
 33
0.0
  0
LWPOLYLINE
  5
2784C
330
18
100
AcDbEntity
  8
EBENE_1
  6
CONTINUOUS
 62
    62
100
AcDbPolyline
 90
        4
 70
     1
 43
0.075
 10
234.5689241967336
 20
141.9710495507402
 10
235.1155741967336
 20
141.9710495507402
 10
235.1155741967336
 20
142.5176995507402
 10
234.5689241967336
 20
142.5176995507402
  0
SOLID
  5
2784D
330
18
100
AcDbEntity
  8
EBENE_1
 62
    62
100
AcDbTrace
 10
234.5689241967336
 20
142.7455495507402
 30
0.0
 11
235.1155741967336
 21
142.7455495507402
 31
0.0
 12
234.5689241967336
 22
143.2921995507402
 32
0.0
 13
235.1155741967336
 23
143.2921995507402
 33
0.0
  0
LWPOLYLINE
  5
2784E
330
18
100
AcDbEntity
  8
EBENE_1
  6
CONTINUOUS
 62
    62
100
AcDbPolyline
 90
        4
 70
     1
 43
0.075
 10
234.5689241967336
 20
142.7455495507402
 10
235.1155741967336
 20
142.7455495507402
 10
235.1155741967336
 20
143.2921995507402
 10
234.5689241967336
 20
143.2921995507402
  0
SOLID
  5
2784F
330
18
100
AcDbEntity
  8
EBENE_1
 62
    62
100
AcDbTrace
 10
234.5689241967336
 20
143.5199495507402
 30
0.0
 11
235.1155741967336
 21
143.5199495507402
 31
0.0
 12
234.5689241967336
 22
144.0665995507401
 32
0.0
 13
235.1155741967336
 23
144.0665995507401
 33
0.0
  0
LWPOLYLINE
  5
27850
330
18
100
AcDbEntity
  8
EBENE_1
  6
CONTINUOUS
 62
    62
100
AcDbPolyline
 90
        4
 70
     1
 43
0.075
 10
234.5689241967336
 20
143.5199495507402
 10
235.1155741967336
 20
143.5199495507402
 10
235.1155741967336
 20
144.0665995507401
 10
234.5689241967336
 20
144.0665995507401
  0
SOLID
  5
27851
330
18
100
AcDbEntity
  8
EBENE_1
 62
    62
100
AcDbTrace
 10
234.5689241967336
 20
144.2944745507402
 30
0.0
 11
235.1155741967336
 21
144.2944745507402
 31
0.0
 12
234.5689241967336
 22
144.8411245507402
 32
0.0
 13
235.1155741967336
 23
144.8411245507402
 33
0.0
  0
LWPOLYLINE
  5
27852
330
18
100
AcDbEntity
  8
EBENE_1
  6
CONTINUOUS
 62
    62
100
AcDbPolyline
 90
        4
 70
     1
 43
0.075
 10
234.5689241967336
 20
144.2944745507402
 10
235.1155741967336
 20
144.2944745507402
 10
235.1155741967336
 20
144.8411245507402
 10
234.5689241967336
 20
144.8411245507402
  0
SOLID
  5
27853
330
18
100
AcDbEntity
  8
EBENE_1
 62
    62
100
AcDbTrace
 10
234.5689241967336
 20
145.0689745507402
 30
0.0
 11
235.1155741967336
 21
145.0689745507402
 31
0.0
 12
234.5689241967336
 22
145.6156245507402
 32
0.0
 13
235.1155741967336
 23
145.6156245507402
 33
0.0
  0
LWPOLYLINE
  5
27854
330
18
100
AcDbEntity
  8
EBENE_1
  6
CONTINUOUS
 62
    62
100
AcDbPolyline
 90
        4
 70
     1
 43
0.075
 10
234.5689241967336
 20
145.0689745507402
 10
235.1155741967336
 20
145.0689745507402
 10
235.1155741967336
 20
145.6156245507402
 10
234.5689241967336
 20
145.6156245507402
  0
SOLID
  5
27855
330
18
100
AcDbEntity
  8
EBENE_1
 62
    62
100
AcDbTrace
 10
234.5689241967336
 20
145.8433745507402
 30
0.0
 11
235.1155741967336
 21
145.8433745507402
 31
0.0
 12
234.5689241967336
 22
146.3900245507402
 32
0.0
 13
235.1155741967336
 23
146.3900245507402
 33
0.0
  0
LWPOLYLINE
  5
27856
330
18
100
AcDbEntity
  8
EBENE_1
  6
CONTINUOUS
 62
    62
100
AcDbPolyline
 90
        4
 70
     1
 43
0.075
 10
234.5689241967336
 20
145.8433745507402
 10
235.1155741967336
 20
145.8433745507402
 10
235.1155741967336
 20
146.3900245507402
 10
234.5689241967336
 20
146.3900245507402
  0
SOLID
  5
27857
330
18
100
AcDbEntity
  8
EBENE_1
 62
    62
100
AcDbTrace
 10
234.5689241967336
 20
146.6178995507402
 30
0.0
 11
235.1155741967336
 21
146.6178995507402
 31
0.0
 12
234.5689241967336
 22
147.1645495507402
 32
0.0
 13
235.1155741967336
 23
147.1645495507402
 33
0.0
  0
LWPOLYLINE
  5
27858
330
18
100
AcDbEntity
  8
EBENE_1
  6
CONTINUOUS
 62
    62
100
AcDbPolyline
 90
        4
 70
     1
 43
0.075
 10
234.5689241967336
 20
146.6178995507402
 10
235.1155741967336
 20
146.6178995507402
 10
235.1155741967336
 20
147.1645495507402
 10
234.5689241967336
 20
147.1645495507402
  0
SOLID
  5
27859
330
18
100
AcDbEntity
  8
EBENE_1
 62
    62
100
AcDbTrace
 10
235.3888991967336
 20
141.9710495507402
 30
0.0
 11
235.9355491967336
 21
141.9710495507402
 31
0.0
 12
235.3888991967336
 22
142.5176995507402
 32
0.0
 13
235.9355491967336
 23
142.5176995507402
 33
0.0
  0
LWPOLYLINE
  5
2785A
330
18
100
AcDbEntity
  8
EBENE_1
  6
CONTINUOUS
 62
    62
100
AcDbPolyline
 90
        4
 70
     1
 43
0.075
 10
235.3888991967336
 20
141.9710495507402
 10
235.9355491967336
 20
141.9710495507402
 10
235.9355491967336
 20
142.5176995507402
 10
235.3888991967336
 20
142.5176995507402
  0
SOLID
  5
2785B
330
18
100
AcDbEntity
  8
EBENE_1
 62
    62
100
AcDbTrace
 10
235.3888991967336
 20
146.6178995507402
 30
0.0
 11
235.9355491967336
 21
146.6178995507402
 31
0.0
 12
235.3888991967336
 22
147.1645495507402
 32
0.0
 13
235.9355491967336
 23
147.1645495507402
 33
0.0
  0
LWPOLYLINE
  5
2785C
330
18
100
AcDbEntity
  8
EBENE_1
  6
CONTINUOUS
 62
    62
100
AcDbPolyline
 90
        4
 70
     1
 43
0.075
 10
235.3888991967336
 20
146.6178995507402
 10
235.9355491967336
 20
146.6178995507402
 10
235.9355491967336
 20
147.1645495507402
 10
235.3888991967336
 20
147.1645495507402
  0
SOLID
  5
2785D
330
18
100
AcDbEntity
  8
EBENE_1
 62
    62
100
AcDbTrace
 10
237.8751241967336
 20
141.9710495507402
 30
0.0
 11
238.4217741967336
 21
141.9710495507402
 31
0.0
 12
237.8751241967336
 22
142.5176995507402
 32
0.0
 13
238.4217741967336
 23
142.5176995507402
 33
0.0
  0
LWPOLYLINE
  5
2785E
330
18
100
AcDbEntity
  8
EBENE_1
  6
CONTINUOUS
 62
    62
100
AcDbPolyline
 90
        4
 70
     1
 43
0.075
 10
237.8751241967336
 20
141.9710495507402
 10
238.4217741967336
 20
141.9710495507402
 10
238.4217741967336
 20
142.5176995507402
 10
237.8751241967336
 20
142.5176995507402
  0
SOLID
  5
2785F
330
18
100
AcDbEntity
  8
EBENE_1
 62
    62
100
AcDbTrace
 10
237.8751241967336
 20
142.7455495507402
 30
0.0
 11
238.4217741967336
 21
142.7455495507402
 31
0.0
 12
237.8751241967336
 22
143.2921995507402
 32
0.0
 13
238.4217741967336
 23
143.2921995507402
 33
0.0
  0
LWPOLYLINE
  5
27860
330
18
100
AcDbEntity
  8
EBENE_1
  6
CONTINUOUS
 62
    62
100
AcDbPolyline
 90
        4
 70
     1
 43
0.075
 10
237.8751241967336
 20
142.7455495507402
 10
238.4217741967336
 20
142.7455495507402
 10
238.4217741967336
 20
143.2921995507402
 10
237.8751241967336
 20
143.2921995507402
  0
SOLID
  5
27861
330
18
100
AcDbEntity
  8
EBENE_1
 62
    62
100
AcDbTrace
 10
237.8751241967336
 20
143.5199495507402
 30
0.0
 11
238.4217741967336
 21
143.5199495507402
 31
0.0
 12
237.8751241967336
 22
144.0665995507401
 32
0.0
 13
238.4217741967336
 23
144.0665995507401
 33
0.0
  0
LWPOLYLINE
  5
27862
330
18
100
AcDbEntity
  8
EBENE_1
  6
CONTINUOUS
 62
    62
100
AcDbPolyline
 90
        4
 70
     1
 43
0.075
 10
237.8751241967336
 20
143.5199495507402
 10
238.4217741967336
 20
143.5199495507402
 10
238.4217741967336
 20
144.0665995507401
 10
237.8751241967336
 20
144.0665995507401
  0
SOLID
  5
27863
330
18
100
AcDbEntity
  8
EBENE_1
 62
    62
100
AcDbTrace
 10
237.8751241967336
 20
144.2944745507402
 30
0.0
 11
238.4217741967336
 21
144.2944745507402
 31
0.0
 12
237.8751241967336
 22
144.8411245507402
 32
0.0
 13
238.4217741967336
 23
144.8411245507402
 33
0.0
  0
LWPOLYLINE
  5
27864
330
18
100
AcDbEntity
  8
EBENE_1
  6
CONTINUOUS
 62
    62
100
AcDbPolyline
 90
        4
 70
     1
 43
0.075
 10
237.8751241967336
 20
144.2944745507402
 10
238.4217741967336
 20
144.2944745507402
 10
238.4217741967336
 20
144.8411245507402
 10
237.8751241967336
 20
144.8411245507402
  0
SOLID
  5
27865
330
18
100
AcDbEntity
  8
EBENE_1
 62
    62
100
AcDbTrace
 10
237.8751241967336
 20
145.0689745507402
 30
0.0
 11
238.4217741967336
 21
145.0689745507402
 31
0.0
 12
237.8751241967336
 22
145.6156245507402
 32
0.0
 13
238.4217741967336
 23
145.6156245507402
 33
0.0
  0
LWPOLYLINE
  5
27866
330
18
100
AcDbEntity
  8
EBENE_1
  6
CONTINUOUS
 62
    62
100
AcDbPolyline
 90
        4
 70
     1
 43
0.075
 10
237.8751241967336
 20
145.0689745507402
 10
238.4217741967336
 20
145.0689745507402
 10
238.4217741967336
 20
145.6156245507402
 10
237.8751241967336
 20
145.6156245507402
  0
SOLID
  5
27867
330
18
100
AcDbEntity
  8
EBENE_1
 62
    62
100
AcDbTrace
 10
237.8751241967336
 20
145.8433745507402
 30
0.0
 11
238.4217741967336
 21
145.8433745507402
 31
0.0
 12
237.8751241967336
 22
146.3900245507402
 32
0.0
 13
238.4217741967336
 23
146.3900245507402
 33
0.0
  0
LWPOLYLINE
  5
27868
330
18
100
AcDbEntity
  8
EBENE_1
  6
CONTINUOUS
 62
    62
100
AcDbPolyline
 90
        4
 70
     1
 43
0.075
 10
237.8751241967336
 20
145.8433745507402
 10
238.4217741967336
 20
145.8433745507402
 10
238.4217741967336
 20
146.3900245507402
 10
237.8751241967336
 20
146.3900245507402
  0
SOLID
  5
27869
330
18
100
AcDbEntity
  8
EBENE_1
 62
    62
100
AcDbTrace
 10
237.8751241967336
 20
146.6178995507402
 30
0.0
 11
238.4217741967336
 21
146.6178995507402
 31
0.0
 12
237.8751241967336
 22
147.1645495507402
 32
0.0
 13
238.4217741967336
 23
147.1645495507402
 33
0.0
  0
LWPOLYLINE
  5
2786A
330
18
100
AcDbEntity
  8
EBENE_1
  6
CONTINUOUS
 62
    62
100
AcDbPolyline
 90
        4
 70
     1
 43
0.075
 10
237.8751241967336
 20
146.6178995507402
 10
238.4217741967336
 20
146.6178995507402
 10
238.4217741967336
 20
147.1645495507402
 10
237.8751241967336
 20
147.1645495507402
  0
SOLID
  5
2786B
330
18
100
AcDbEntity
  8
EBENE_1
 62
    62
100
AcDbTrace
 10
238.6950991967336
 20
145.8433745507402
 30
0.0
 11
239.2417491967336
 21
145.8433745507402
 31
0.0
 12
238.6950991967336
 22
146.3900245507402
 32
0.0
 13
239.2417491967336
 23
146.3900245507402
 33
0.0
  0
LWPOLYLINE
  5
2786C
330
18
100
AcDbEntity
  8
EBENE_1
  6
CONTINUOUS
 62
    62
100
AcDbPolyline
 90
        4
 70
     1
 43
0.075
 10
238.6950991967336
 20
145.8433745507402
 10
239.2417491967336
 20
145.8433745507402
 10
239.2417491967336
 20
146.3900245507402
 10
238.6950991967336
 20
146.3900245507402
  0
SOLID
  5
2786D
330
18
100
AcDbEntity
  8
EBENE_1
 62
    62
100
AcDbTrace
 10
239.5150741967336
 20
145.0689745507402
 30
0.0
 11
240.0617241967336
 21
145.0689745507402
 31
0.0
 12
239.5150741967336
 22
145.6156245507402
 32
0.0
 13
240.0617241967336
 23
145.6156245507402
 33
0.0
  0
LWPOLYLINE
  5
2786E
330
18
100
AcDbEntity
  8
EBENE_1
  6
CONTINUOUS
 62
    62
100
AcDbPolyline
 90
        4
 70
     1
 43
0.075
 10
239.5150741967336
 20
145.0689745507402
 10
240.0617241967336
 20
145.0689745507402
 10
240.0617241967336
 20
145.6156245507402
 10
239.5150741967336
 20
145.6156245507402
  0
SOLID
  5
2786F
330
18
100
AcDbEntity
  8
EBENE_1
 62
    62
100
AcDbTrace
 10
240.3351491967335
 20
144.2944745507402
 30
0.0
 11
240.8817991967335
 21
144.2944745507402
 31
0.0
 12
240.3351491967335
 22
144.8411245507402
 32
0.0
 13
240.8817991967335
 23
144.8411245507402
 33
0.0
  0
LWPOLYLINE
  5
27870
330
18
100
AcDbEntity
  8
EBENE_1
  6
CONTINUOUS
 62
    62
100
AcDbPolyline
 90
        4
 70
     1
 43
0.075
 10
240.3351491967335
 20
144.2944745507402
 10
240.8817991967335
 20
144.2944745507402
 10
240.8817991967335
 20
144.8411245507402
 10
240.3351491967335
 20
144.8411245507402
  0
SOLID
  5
27871
330
18
100
AcDbEntity
  8
EBENE_1
 62
    62
100
AcDbTrace
 10
241.1551241967336
 20
141.9710495507402
 30
0.0
 11
241.7017991967335
 21
141.9710495507402
 31
0.0
 12
241.1551241967336
 22
142.5176995507402
 32
0.0
 13
241.7017991967335
 23
142.5176995507402
 33
0.0
  0
LWPOLYLINE
  5
27872
330
18
100
AcDbEntity
  8
EBENE_1
  6
CONTINUOUS
 62
    62
100
AcDbPolyline
 90
        4
 70
     1
 43
0.075
 10
241.1551241967336
 20
141.9710495507402
 10
241.7017991967335
 20
141.9710495507402
 10
241.7017991967335
 20
142.5176995507402
 10
241.1551241967336
 20
142.5176995507402
  0
SOLID
  5
27873
330
18
100
AcDbEntity
  8
EBENE_1
 62
    62
100
AcDbTrace
 10
241.1551241967336
 20
142.7455495507402
 30
0.0
 11
241.7017991967335
 21
142.7455495507402
 31
0.0
 12
241.1551241967336
 22
143.2921995507402
 32
0.0
 13
241.7017991967335
 23
143.2921995507402
 33
0.0
  0
LWPOLYLINE
  5
27874
330
18
100
AcDbEntity
  8
EBENE_1
  6
CONTINUOUS
 62
    62
100
AcDbPolyline
 90
        4
 70
     1
 43
0.075
 10
241.1551241967336
 20
142.7455495507402
 10
241.7017991967335
 20
142.7455495507402
 10
241.7017991967335
 20
143.2921995507402
 10
241.1551241967336
 20
143.2921995507402
  0
SOLID
  5
27875
330
18
100
AcDbEntity
  8
EBENE_1
 62
    62
100
AcDbTrace
 10
241.1551241967336
 20
143.5199495507402
 30
0.0
 11
241.7017991967335
 21
143.5199495507402
 31
0.0
 12
241.1551241967336
 22
144.0665995507401
 32
0.0
 13
241.7017991967335
 23
144.0665995507401
 33
0.0
  0
LWPOLYLINE
  5
27876
330
18
100
AcDbEntity
  8
EBENE_1
  6
CONTINUOUS
 62
    62
100
AcDbPolyline
 90
        4
 70
     1
 43
0.075
 10
241.1551241967336
 20
143.5199495507402
 10
241.7017991967335
 20
143.5199495507402
 10
241.7017991967335
 20
144.0665995507401
 10
241.1551241967336
 20
144.0665995507401
  0
SOLID
  5
27877
330
18
100
AcDbEntity
  8
EBENE_1
 62
    62
100
AcDbTrace
 10
241.1551241967336
 20
144.2944745507402
 30
0.0
 11
241.7017991967335
 21
144.2944745507402
 31
0.0
 12
241.1551241967336
 22
144.8411245507402
 32
0.0
 13
241.7017991967335
 23
144.8411245507402
 33
0.0
  0
LWPOLYLINE
  5
27878
330
18
100
AcDbEntity
  8
EBENE_1
  6
CONTINUOUS
 62
    62
100
AcDbPolyline
 90
        4
 70
     1
 43
0.075
 10
241.1551241967336
 20
144.2944745507402
 10
241.7017991967335
 20
144.2944745507402
 10
241.7017991967335
 20
144.8411245507402
 10
241.1551241967336
 20
144.8411245507402
  0
SOLID
  5
27879
330
18
100
AcDbEntity
  8
EBENE_1
 62
    62
100
AcDbTrace
 10
241.1551241967336
 20
145.0689745507402
 30
0.0
 11
241.7017991967335
 21
145.0689745507402
 31
0.0
 12
241.1551241967336
 22
145.6156245507402
 32
0.0
 13
241.7017991967335
 23
145.6156245507402
 33
0.0
  0
LWPOLYLINE
  5
2787A
330
18
100
AcDbEntity
  8
EBENE_1
  6
CONTINUOUS
 62
    62
100
AcDbPolyline
 90
        4
 70
     1
 43
0.075
 10
241.1551241967336
 20
145.0689745507402
 10
241.7017991967335
 20
145.0689745507402
 10
241.7017991967335
 20
145.6156245507402
 10
241.1551241967336
 20
145.6156245507402
  0
SOLID
  5
2787B
330
18
100
AcDbEntity
  8
EBENE_1
 62
    62
100
AcDbTrace
 10
241.1551241967336
 20
145.8433745507402
 30
0.0
 11
241.7017991967335
 21
145.8433745507402
 31
0.0
 12
241.1551241967336
 22
146.3900245507402
 32
0.0
 13
241.7017991967335
 23
146.3900245507402
 33
0.0
  0
LWPOLYLINE
  5
2787C
330
18
100
AcDbEntity
  8
EBENE_1
  6
CONTINUOUS
 62
    62
100
AcDbPolyline
 90
        4
 70
     1
 43
0.075
 10
241.1551241967336
 20
145.8433745507402
 10
241.7017991967335
 20
145.8433745507402
 10
241.7017991967335
 20
146.3900245507402
 10
241.1551241967336
 20
146.3900245507402
  0
SOLID
  5
2787D
330
18
100
AcDbEntity
  8
EBENE_1
 62
    62
100
AcDbTrace
 10
241.1551241967336
 20
146.6178995507402
 30
0.0
 11
241.7017991967335
 21
146.6178995507402
 31
0.0
 12
241.1551241967336
 22
147.1645495507402
 32
0.0
 13
241.7017991967335
 23
147.1645495507402
 33
0.0
  0
LWPOLYLINE
  5
2787E
330
18
100
AcDbEntity
  8
EBENE_1
  6
CONTINUOUS
 62
    62
100
AcDbPolyline
 90
        4
 70
     1
 43
0.075
 10
241.1551241967336
 20
146.6178995507402
 10
241.7017991967335
 20
146.6178995507402
 10
241.7017991967335
 20
147.1645495507402
 10
241.1551241967336
 20
147.1645495507402
  0
CIRCLE
  5
2787F
330
18
100
AcDbEntity
  8
TASTEN
100
AcDbCircle
 10
165.2533991801799
 20
144.5142453365814
 30
0.0
 40
7.25
  0
CIRCLE
  5
27880
330
18
100
AcDbEntity
  8
TASTEN
100
AcDbCircle
 10
135.2526971801798
 20
144.5142453365814
 30
0.0
 40
7.25
  0
ENDSEC
  0
SECTION
  2
OBJECTS
  0
DICTIONARY
  5
C
330
0
100
AcDbDictionary
  3
ACAD_GROUP
350
D
  3
ACAD_LAYOUT
350
1B1E4
  3
ACAD_MLINESTYLE
350
1B
  3
ACAD_PLOTSETTINGS
350
1B1E5
  3
ACAD_PLOTSTYLENAME
350
1B1E2
  3
ACDBHEADERROUNDTRIPXREC
350
278FE
  3
ACDBVARIABLEDICTIONARY
350
9820
  0
DICTIONARY
  5
9822
330
18
100
AcDbDictionary
280
     1
  3
ACAD_LAYOUTSELFREF
360
27920
  3
ACAD_SORTENTS
360
9823
  0
DICTIONARY
  5
2663A
330
15
100
AcDbDictionary
280
     1
  3
ACAD_LAYOUTSELFREF
360
2791F
  0
DICTIONARY
  5
D
102
{ACAD_REACTORS
330
C
102
}
330
C
100
AcDbDictionary
  3
*A1
350
981F
  3
*A10
350
9D2A
  3
*A11
350
21E84
  3
*A12
350
1BD83
  3
*A13
350
A22E
  3
*A14
350
A49A
  3
*A15
350
A49B
  3
*A16
350
194F7
  3
*A17
350
194F5
  3
*A18
350
1BD86
  3
*A19
350
194F8
  3
*A2
350
A22D
  3
*A20
350
9D4A
  3
*A21
350
9FC0
  3
*A22
350
9FC1
  3
*A23
350
1BD84
  3
*A24
350
1BD82
  3
*A25
350
1FC80
  3
*A26
350
1BD85
  3
*A27
350
2601A
  3
*A28
350
2601B
  3
*A29
350
1BD87
  3
*A3
350
1BD88
  3
*A30
350
265C2
  3
*A31
350
275D6
  3
*A32
350
275D9
  3
*A33
350
275DC
  3
*A34
350
275DF
  3
*A35
350
275E2
  3
*A36
350
275E5
  3
*A37
350
275E6
  3
*A38
350
275EA
  3
*A39
350
275EE
  3
*A4
350
194F6
  3
*A40
350
275F2
  3
*A41
350
275F6
  3
*A42
350
275FA
  3
*A43
350
275FE
  3
*A44
350
27602
  3
*A45
350
27606
  3
*A46
350
2760A
  3
*A47
350
2760E
  3
*A48
350
27612
  3
*A49
350
27616
  3
*A5
350
1BD89
  3
*A50
350
2761A
  3
*A51
350
2761E
  3
*A52
350
27622
  3
*A53
350
2763B
  3
*A54
350
2763C
  3
*A55
350
2763D
  3
*A56
350
2763E
  3
*A57
350
2763F
  3
*A58
350
27640
  3
*A59
350
27641
  3
*A6
350
1BD8A
  3
*A60
350
27642
  3
*A7
350
1BD8B
  3
*A8
350
1FC8F
  3
*A9
350
1BD8C
  0
DICTIONARY
  5
1B1E4
102
{ACAD_REACTORS
330
C
102
}
330
C
100
AcDbDictionary
  0
DICTIONARY
  5
1B
102
{ACAD_REACTORS
330
C
102
}
330
C
100
AcDbDictionary
  3
STANDARD
350
1C
  0
DICTIONARY
  5
1B1E5
102
{ACAD_REACTORS
330
C
102
}
330
C
100
AcDbDictionary
  0
ACDBDICTIONARYWDFLT
  5
1B1E2
102
{ACAD_REACTORS
330
C
102
}
330
C
100
AcDbDictionary
281
     1
  3
Normal
350
1B1E3
100
AcDbDictionaryWithDefault
340
1B1E3
  0
DICTIONARY
  5
278FE
102
{ACAD_REACTORS
330
C
102
}
330
C
100
AcDbDictionary
  3
CEPSNTYPE
350
27908
  3
DIMSTYLEDATA
350
2790C
  3
FINGERPRINTGUID
350
27909
  3
HYPERLINKBASE
350
27901
  3
INSUNITS
350
27907
  3
LAYOUTDICT
350
27903
  3
LWETCUNION
350
27906
  3
PLOTSETDICT
350
27904
  3
PLOTSTYLNAMDICT
350
27905
  3
PSVPSCALE
350
2790B
  3
PUCSBASE
350
2790F
  3
PUCSORGBACK
350
27915
  3
PUCSORGBOTTOM
350
27911
  3
PUCSORGFRONT
350
27914
  3
PUCSORGLEFT
350
27912
  3
PUCSORGRIGHT
350
27913
  3
PUCSORGTOP
350
27910
  3
PUCSORTHOREF
350
2790D
  3
PUCSORTHOVIEW
350
2790E
  3
STYLESHEET
350
27902
  3
TSTACKALIGN
350
278FF
  3
TSTACKSIZE
350
27900
  3
UCSBASE
350
27918
  3
UCSORGBACK
350
2791E
  3
UCSORGBOTTOM
350
2791A
  3
UCSORGFRONT
350
2791D
  3
UCSORGLEFT
350
2791B
  3
UCSORGRIGHT
350
2791C
  3
UCSORGTOP
350
27919
  3
UCSORTHOREF
350
27916
  3
UCSORTHOVIEW
350
27917
  3
VERSIONGUID
350
2790A
  0
DICTIONARY
  5
9820
102
{ACAD_REACTORS
330
C
102
}
330
C
100
AcDbDictionary
  3
DIMASSOC
350
1FD3B
  3
SORTENTS
350
9821
  0
XRECORD
  5
27920
102
{ACAD_REACTORS
330
9822
102
}
330
9822
100
AcDbXrecord
340
18
  0
SORTENTSTABLE
  5
9823
102
{ACAD_REACTORS
330
9822
102
}
330
9822
100
AcDbSortentsTable
330
18
  0
XRECORD
  5
2791F
102
{ACAD_REACTORS
330
2663A
102
}
330
2663A
100
AcDbXrecord
340
15
  0
GROUP
  5
981F
102
{ACAD_REACTORS
330
D
102
}
330
D
100
AcDbGroup
300

 70
     1
 71
     1
  0
GROUP
  5
9D2A
102
{ACAD_REACTORS
330
D
102
}
330
D
100
AcDbGroup
300

 70
     1
 71
     1
  0
GROUP
  5
21E84
102
{ACAD_REACTORS
330
D
102
}
330
D
100
AcDbGroup
300

 70
     1
 71
     1
  0
GROUP
  5
1BD83
102
{ACAD_REACTORS
330
D
102
}
330
D
100
AcDbGroup
300

 70
     1
 71
     1
  0
GROUP
  5
A22E
102
{ACAD_REACTORS
330
D
102
}
330
D
100
AcDbGroup
300

 70
     1
 71
     1
  0
GROUP
  5
A49A
102
{ACAD_REACTORS
330
D
102
}
330
D
100
AcDbGroup
300

 70
     1
 71
     1
  0
GROUP
  5
A49B
102
{ACAD_REACTORS
330
D
102
}
330
D
100
AcDbGroup
300

 70
     1
 71
     1
  0
GROUP
  5
194F7
102
{ACAD_REACTORS
330
D
102
}
330
D
100
AcDbGroup
300

 70
     1
 71
     1
  0
GROUP
  5
194F5
102
{ACAD_REACTORS
330
D
102
}
330
D
100
AcDbGroup
300

 70
     1
 71
     1
  0
GROUP
  5
1BD86
102
{ACAD_REACTORS
330
D
102
}
330
D
100
AcDbGroup
300

 70
     1
 71
     1
  0
GROUP
  5
194F8
102
{ACAD_REACTORS
330
D
102
}
330
D
100
AcDbGroup
300

 70
     1
 71
     1
  0
GROUP
  5
A22D
102
{ACAD_REACTORS
330
D
102
}
330
D
100
AcDbGroup
300

 70
     1
 71
     1
  0
GROUP
  5
9D4A
102
{ACAD_REACTORS
330
D
102
}
330
D
100
AcDbGroup
300

 70
     1
 71
     1
  0
GROUP
  5
9FC0
102
{ACAD_REACTORS
330
D
102
}
330
D
100
AcDbGroup
300

 70
     1
 71
     1
  0
GROUP
  5
9FC1
102
{ACAD_REACTORS
330
D
102
}
330
D
100
AcDbGroup
300

 70
     1
 71
     1
  0
GROUP
  5
1BD84
102
{ACAD_REACTORS
330
D
102
}
330
D
100
AcDbGroup
300

 70
     1
 71
     1
  0
GROUP
  5
1BD82
102
{ACAD_REACTORS
330
D
102
}
330
D
100
AcDbGroup
300

 70
     1
 71
     1
  0
GROUP
  5
1FC80
102
{ACAD_REACTORS
330
D
102
}
330
D
100
AcDbGroup
300

 70
     1
 71
     1
  0
GROUP
  5
1BD85
102
{ACAD_REACTORS
330
D
102
}
330
D
100
AcDbGroup
300

 70
     1
 71
     1
  0
GROUP
  5
2601A
102
{ACAD_REACTORS
330
D
102
}
330
D
100
AcDbGroup
300

 70
     1
 71
     1
  0
GROUP
  5
2601B
102
{ACAD_REACTORS
330
D
102
}
330
D
100
AcDbGroup
300

 70
     1
 71
     1
  0
GROUP
  5
1BD87
102
{ACAD_REACTORS
330
D
102
}
330
D
100
AcDbGroup
300

 70
     1
 71
     1
  0
GROUP
  5
1BD88
102
{ACAD_REACTORS
330
D
102
}
330
D
100
AcDbGroup
300

 70
     1
 71
     1
  0
GROUP
  5
265C2
102
{ACAD_REACTORS
330
D
102
}
330
D
100
AcDbGroup
300

 70
     1
 71
     1
  0
GROUP
  5
275D6
102
{ACAD_REACTORS
330
D
102
}
330
D
100
AcDbGroup
300

 70
     1
 71
     1
340
275CF
340
275CE
  0
GROUP
  5
275D9
102
{ACAD_REACTORS
330
D
102
}
330
D
100
AcDbGroup
300

 70
     1
 71
     1
340
275D8
340
275D7
  0
GROUP
  5
275DC
102
{ACAD_REACTORS
330
D
102
}
330
D
100
AcDbGroup
300

 70
     1
 71
     1
340
275DB
340
275DA
  0
GROUP
  5
275DF
102
{ACAD_REACTORS
330
D
102
}
330
D
100
AcDbGroup
300

 70
     1
 71
     1
340
275DE
340
275DD
  0
GROUP
  5
275E2
102
{ACAD_REACTORS
330
D
102
}
330
D
100
AcDbGroup
300

 70
     1
 71
     1
340
275E1
340
275E0
  0
GROUP
  5
275E5
102
{ACAD_REACTORS
330
D
102
}
330
D
100
AcDbGroup
300

 70
     1
 71
     1
340
275E4
340
275E3
  0
GROUP
  5
275E6
102
{ACAD_REACTORS
330
D
102
}
330
D
100
AcDbGroup
300

 70
     1
 71
     1
340
275D1
340
275D0
340
275CD
  0
GROUP
  5
275EA
102
{ACAD_REACTORS
330
D
102
}
330
D
100
AcDbGroup
300

 70
     1
 71
     1
340
275E9
340
275E8
340
275E7
  0
GROUP
  5
275EE
102
{ACAD_REACTORS
330
D
102
}
330
D
100
AcDbGroup
300

 70
     1
 71
     1
340
275ED
340
275EC
340
275EB
  0
GROUP
  5
194F6
102
{ACAD_REACTORS
330
D
102
}
330
D
100
AcDbGroup
300

 70
     1
 71
     1
  0
GROUP
  5
275F2
102
{ACAD_REACTORS
330
D
102
}
330
D
100
AcDbGroup
300

 70
     1
 71
     1
340
275F1
340
275F0
340
275EF
  0
GROUP
  5
275F6
102
{ACAD_REACTORS
330
D
102
}
330
D
100
AcDbGroup
300

 70
     1
 71
     1
340
275F5
340
275F4
340
275F3
  0
GROUP
  5
275FA
102
{ACAD_REACTORS
330
D
102
}
330
D
100
AcDbGroup
300

 70
     1
 71
     1
340
275F9
340
275F8
340
275F7
  0
GROUP
  5
275FE
102
{ACAD_REACTORS
330
D
102
}
330
D
100
AcDbGroup
300

 70
     1
 71
     1
340
275FD
340
275FC
340
275FB
  0
GROUP
  5
27602
102
{ACAD_REACTORS
330
D
102
}
330
D
100
AcDbGroup
300

 70
     1
 71
     1
340
27601
340
27600
340
275FF
  0
GROUP
  5
27606
102
{ACAD_REACTORS
330
D
102
}
330
D
100
AcDbGroup
300

 70
     1
 71
     1
340
27605
340
27604
340
27603
  0
GROUP
  5
2760A
102
{ACAD_REACTORS
330
D
102
}
330
D
100
AcDbGroup
300

 70
     1
 71
     1
340
27609
340
27608
340
27607
  0
GROUP
  5
2760E
102
{ACAD_REACTORS
330
D
102
}
330
D
100
AcDbGroup
300

 70
     1
 71
     1
340
2760D
340
2760C
340
2760B
  0
GROUP
  5
27612
102
{ACAD_REACTORS
330
D
102
}
330
D
100
AcDbGroup
300

 70
     1
 71
     1
340
27611
340
27610
340
2760F
  0
GROUP
  5
27616
102
{ACAD_REACTORS
330
D
102
}
330
D
100
AcDbGroup
300

 70
     1
 71
     1
340
27615
340
27614
340
27613
  0
GROUP
  5
1BD89
102
{ACAD_REACTORS
330
D
102
}
330
D
100
AcDbGroup
300

 70
     1
 71
     1
  0
GROUP
  5
2761A
102
{ACAD_REACTORS
330
D
102
}
330
D
100
AcDbGroup
300

 70
     1
 71
     1
340
27619
340
27618
340
27617
  0
GROUP
  5
2761E
102
{ACAD_REACTORS
330
D
102
}
330
D
100
AcDbGroup
300

 70
     1
 71
     1
340
2761D
340
2761C
340
2761B
  0
GROUP
  5
27622
102
{ACAD_REACTORS
330
D
102
}
330
D
100
AcDbGroup
300

 70
     1
 71
     1
340
27621
340
27620
340
2761F
  0
GROUP
  5
2763B
102
{ACAD_REACTORS
330
D
102
}
330
D
100
AcDbGroup
300

 70
     1
 71
     1
340
27625
340
27624
340
27623
  0
GROUP
  5
2763C
102
{ACAD_REACTORS
330
D
102
}
330
D
100
AcDbGroup
300

 70
     1
 71
     1
340
27628
340
27627
340
27626
  0
GROUP
  5
2763D
102
{ACAD_REACTORS
330
D
102
}
330
D
100
AcDbGroup
300

 70
     1
 71
     1
340
2762B
340
2762A
340
27629
  0
GROUP
  5
2763E
102
{ACAD_REACTORS
330
D
102
}
330
D
100
AcDbGroup
300

 70
     1
 71
     1
340
2762E
340
2762D
340
2762C
  0
GROUP
  5
2763F
102
{ACAD_REACTORS
330
D
102
}
330
D
100
AcDbGroup
300

 70
     1
 71
     1
340
27631
340
27630
340
2762F
  0
GROUP
  5
27640
102
{ACAD_REACTORS
330
D
102
}
330
D
100
AcDbGroup
300

 70
     1
 71
     1
340
27634
340
27633
340
27632
  0
GROUP
  5
27641
102
{ACAD_REACTORS
330
D
102
}
330
D
100
AcDbGroup
300

 70
     1
 71
     1
340
27637
340
27636
340
27635
  0
GROUP
  5
1BD8A
102
{ACAD_REACTORS
330
D
102
}
330
D
100
AcDbGroup
300

 70
     1
 71
     1
  0
GROUP
  5
27642
102
{ACAD_REACTORS
330
D
102
}
330
D
100
AcDbGroup
300

 70
     1
 71
     1
340
2763A
340
27639
340
27638
  0
GROUP
  5
1BD8B
102
{ACAD_REACTORS
330
D
102
}
330
D
100
AcDbGroup
300

 70
     1
 71
     1
  0
GROUP
  5
1FC8F
102
{ACAD_REACTORS
330
D
102
}
330
D
100
AcDbGroup
300

 70
     1
 71
     1
  0
GROUP
  5
1BD8C
102
{ACAD_REACTORS
330
D
102
}
330
D
100
AcDbGroup
300

 70
     1
 71
     1
  0
MLINESTYLE
  5
1C
102
{ACAD_REACTORS
330
1B
102
}
330
1B
100
AcDbMlineStyle
  2
STANDARD
 70
     0
  3

 62
   256
 51
90.0
 52
90.0
 71
     2
 49
0.5
 62
   256
  6
BYLAYER
 49
-0.5
 62
   256
  6
BYLAYER
  0
ACDBPLACEHOLDER
  5
1B1E3
102
{ACAD_REACTORS
330
1B1E2
102
}
330
1B1E2
100
AcDbPlaceHolder
280
     0
  0
XRECORD
  5
27908
102
{ACAD_REACTORS
330
278FE
102
}
330
278FE
100
AcDbXrecord
 90
        0
  0
XRECORD
  5
2790C
102
{ACAD_REACTORS
330
278FE
102
}
330
278FE
100
AcDbXrecord
1000
DSTYLE
1002
{
1070
   277
 70
     6
1002
}
  0
XRECORD
  5
27909
102
{ACAD_REACTORS
330
278FE
102
}
330
278FE
100
AcDbXrecord
  1
{E7552BDC-5169-4F54-A499-2C82C71F1FBB}
  0
XRECORD
  5
27901
102
{ACAD_REACTORS
330
278FE
102
}
330
278FE
100
AcDbXrecord
  1

  0
XRECORD
  5
27907
102
{ACAD_REACTORS
330
278FE
102
}
330
278FE
100
AcDbXrecord
 90
        0
  0
XRECORD
  5
27903
102
{ACAD_REACTORS
330
278FE
102
}
330
278FE
100
AcDbXrecord
340
1B1E4
  0
XRECORD
  5
27906
102
{ACAD_REACTORS
330
278FE
102
}
330
278FE
100
AcDbXrecord
 90
    14877
  0
XRECORD
  5
27904
102
{ACAD_REACTORS
330
278FE
102
}
330
278FE
100
AcDbXrecord
340
1B1E5
  0
XRECORD
  5
27905
102
{ACAD_REACTORS
330
278FE
102
}
330
278FE
100
AcDbXrecord
340
1B1E2
  0
XRECORD
  5
2790B
102
{ACAD_REACTORS
330
278FE
102
}
330
278FE
100
AcDbXrecord
 40
0.0
  0
XRECORD
  5
2790F
102
{ACAD_REACTORS
330
278FE
102
}
330
278FE
100
AcDbXrecord
340
0
  0
XRECORD
  5
27915
102
{ACAD_REACTORS
330
278FE
102
}
330
278FE
100
AcDbXrecord
 10
0.0
 20
0.0
 30
0.0
  0
XRECORD
  5
27911
102
{ACAD_REACTORS
330
278FE
102
}
330
278FE
100
AcDbXrecord
 10
0.0
 20
0.0
 30
0.0
  0
XRECORD
  5
27914
102
{ACAD_REACTORS
330
278FE
102
}
330
278FE
100
AcDbXrecord
 10
0.0
 20
0.0
 30
0.0
  0
XRECORD
  5
27912
102
{ACAD_REACTORS
330
278FE
102
}
330
278FE
100
AcDbXrecord
 10
0.0
 20
0.0
 30
0.0
  0
XRECORD
  5
27913
102
{ACAD_REACTORS
330
278FE
102
}
330
278FE
100
AcDbXrecord
 10
0.0
 20
0.0
 30
0.0
  0
XRECORD
  5
27910
102
{ACAD_REACTORS
330
278FE
102
}
330
278FE
100
AcDbXrecord
 10
0.0
 20
0.0
 30
0.0
  0
XRECORD
  5
2790D
102
{ACAD_REACTORS
330
278FE
102
}
330
278FE
100
AcDbXrecord
340
0
  0
XRECORD
  5
2790E
102
{ACAD_REACTORS
330
278FE
102
}
330
278FE
100
AcDbXrecord
 70
     0
  0
XRECORD
  5
27902
102
{ACAD_REACTORS
330
278FE
102
}
330
278FE
100
AcDbXrecord
  1

  0
XRECORD
  5
278FF
102
{ACAD_REACTORS
330
278FE
102
}
330
278FE
100
AcDbXrecord
 90
        1
  0
XRECORD
  5
27900
102
{ACAD_REACTORS
330
278FE
102
}
330
278FE
100
AcDbXrecord
 90
       70
  0
XRECORD
  5
27918
102
{ACAD_REACTORS
330
278FE
102
}
330
278FE
100
AcDbXrecord
340
0
  0
XRECORD
  5
2791E
102
{ACAD_REACTORS
330
278FE
102
}
330
278FE
100
AcDbXrecord
 10
0.0
 20
0.0
 30
0.0
  0
XRECORD
  5
2791A
102
{ACAD_REACTORS
330
278FE
102
}
330
278FE
100
AcDbXrecord
 10
0.0
 20
0.0
 30
0.0
  0
XRECORD
  5
2791D
102
{ACAD_REACTORS
330
278FE
102
}
330
278FE
100
AcDbXrecord
 10
0.0
 20
0.0
 30
0.0
  0
XRECORD
  5
2791B
102
{ACAD_REACTORS
330
278FE
102
}
330
278FE
100
AcDbXrecord
 10
0.0
 20
0.0
 30
0.0
  0
XRECORD
  5
2791C
102
{ACAD_REACTORS
330
278FE
102
}
330
278FE
100
AcDbXrecord
 10
0.0
 20
0.0
 30
0.0
  0
XRECORD
  5
27919
102
{ACAD_REACTORS
330
278FE
102
}
330
278FE
100
AcDbXrecord
 10
0.0
 20
0.0
 30
0.0
  0
XRECORD
  5
27916
102
{ACAD_REACTORS
330
278FE
102
}
330
278FE
100
AcDbXrecord
340
0
  0
XRECORD
  5
27917
102
{ACAD_REACTORS
330
278FE
102
}
330
278FE
100
AcDbXrecord
 70
     0
  0
XRECORD
  5
2790A
102
{ACAD_REACTORS
330
278FE
102
}
330
278FE
100
AcDbXrecord
  1
{5D38D863-12CB-4636-BDFC-85CE0757334B}
  0
DICTIONARYVAR
  5
1FD3B
102
{ACAD_REACTORS
330
9820
102
}
330
9820
100
DictionaryVariables
280
     0
  1
1
  0
DICTIONARYVAR
  5
9821
102
{ACAD_REACTORS
330
9820
102
}
330
9820
100
DictionaryVariables
280
     0
  1
127
  0
ENDSEC
  0
EOF
