  0
SECTION
  2
HEADER
  9
$ACADVER
  1
AC1015
  9
$ACADMAINTVER
 70
    20
  9
$DWGCODEPAGE
  3
ANSI_1252
  9
$INSBASE
 10
0.0
 20
0.0
 30
0.0
  9
$EXTMIN
 10
-0.0167942653370119
 20
-0.0148746223480885
 30
-0.000000000000013
  9
$EXTMAX
 10
420.027127073168
 20
297.0294275334894
 30
0.0000000000000023
  9
$LIMMIN
 10
0.0
 20
0.0
  9
$LIMMAX
 10
594.0
 20
420.0
  9
$ORTHOMODE
 70
     1
  9
$REGENMODE
 70
     1
  9
$FILLMODE
 70
     1
  9
$QTEXTMODE
 70
     0
  9
$MIRRTEXT
 70
     1
  9
$LTSCALE
 40
1.0
  9
$ATTMODE
 70
     1
  9
$TEXTSIZE
 40
2.5
  9
$TRACEWID
 40
1.0
  9
$TEXTSTYLE
  7
OLED
  9
$CLAYER
  8
abmessung
  9
$CELTYPE
  6
ByLayer
  9
$CECOLOR
 62
   256
  9
$CELTSCALE
 40
1.0
  9
$DISPSILH
 70
     0
  9
$DIMSCALE
 40
1.0
  9
$DIMASZ
 40
3.5
  9
$DIMEXO
 40
0.625
  9
$DIMDLI
 40
3.75
  9
$DIMRND
 40
0.0
  9
$DIMDLE
 40
0.0
  9
$DIMEXE
 40
1.25
  9
$DIMTP
 40
0.0
  9
$DIMTM
 40
0.0
  9
$DIMTXT
 40
3.5
  9
$DIMCEN
 40
2.5
  9
$DIMTSZ
 40
0.0
  9
$DIMTOL
 70
     0
  9
$DIMLIM
 70
     0
  9
$DIMTIH
 70
     0
  9
$DIMTOH
 70
     0
  9
$DIMSE1
 70
     0
  9
$DIMSE2
 70
     0
  9
$DIMTAD
 70
     1
  9
$DIMZIN
 70
     8
  9
$DIMBLK
  1

  9
$DIMASO
 70
     1
  9
$DIMSHO
 70
     1
  9
$DIMPOST
  1

  9
$DIMAPOST
  1

  9
$DIMALT
 70
     0
  9
$DIMALTD
 70
     3
  9
$DIMALTF
 40
0.03937007874016
  9
$DIMLFAC
 40
1.0
  9
$DIMTOFL
 70
     1
  9
$DIMTVP
 40
0.0
  9
$DIMTIX
 70
     0
  9
$DIMSOXD
 70
     0
  9
$DIMSAH
 70
     0
  9
$DIMBLK1
  1

  9
$DIMBLK2
  1

  9
$DIMSTYLE
  2
ISO-25
  9
$DIMCLRD
 70
     0
  9
$DIMCLRE
 70
     0
  9
$DIMCLRT
 70
     0
  9
$DIMTFAC
 40
1.0
  9
$DIMGAP
 40
1.5
  9
$DIMJUST
 70
     0
  9
$DIMSD1
 70
     0
  9
$DIMSD2
 70
     0
  9
$DIMTOLJ
 70
     0
  9
$DIMTZIN
 70
     8
  9
$DIMALTZ
 70
     0
  9
$DIMALTTZ
 70
     0
  9
$DIMUPT
 70
     0
  9
$DIMDEC
 70
     1
  9
$DIMTDEC
 70
     1
  9
$DIMALTU
 70
     2
  9
$DIMALTTD
 70
     3
  9
$DIMTXSTY
  7
Standard
  9
$DIMAUNIT
 70
     0
  9
$DIMADEC
 70
     0
  9
$DIMALTRND
 40
0.0
  9
$DIMAZIN
 70
     0
  9
$DIMDSEP
 70
    44
  9
$DIMATFIT
 70
     3
  9
$DIMFRAC
 70
     0
  9
$DIMLDRBLK
  1

  9
$DIMLUNIT
 70
     2
  9
$DIMLWD
 70
    -2
  9
$DIMLWE
 70
    -2
  9
$DIMTMOVE
 70
     0
  9
$LUNITS
 70
     2
  9
$LUPREC
 70
     2
  9
$SKETCHINC
 40
1.0
  9
$FILLETRAD
 40
10.0
  9
$AUNITS
 70
     0
  9
$AUPREC
 70
     0
  9
$MENU
  1
.
  9
$ELEVATION
 40
0.0
  9
$PELEVATION
 40
0.0
  9
$THICKNESS
 40
0.0
  9
$LIMCHECK
 70
     0
  9
$CHAMFERA
 40
0.0
  9
$CHAMFERB
 40
0.0
  9
$CHAMFERC
 40
20.0
  9
$CHAMFERD
 40
0.0
  9
$SKPOLY
 70
     0
  9
$TDCREATE
 40
2455069.349989144
  9
$TDUCREATE
 40
2455069.308322477
  9
$TDUPDATE
 40
2455593.513040718
  9
$TDUUPDATE
 40
2455593.471374051
  9
$TDINDWG
 40
0.8137865278
  9
$TDUSRTIMER
 40
0.8137865278
  9
$USRTIMER
 70
     1
  9
$ANGBASE
 50
0.0
  9
$ANGDIR
 70
     0
  9
$PDMODE
 70
     0
  9
$PDSIZE
 40
-1.0
  9
$PLINEWID
 40
0.0
  9
$SPLFRAME
 70
     0
  9
$SPLINETYPE
 70
     6
  9
$SPLINESEGS
 70
     8
  9
$HANDSEED
  5
173C0
  9
$SURFTAB1
 70
     6
  9
$SURFTAB2
 70
     6
  9
$SURFTYPE
 70
     6
  9
$SURFU
 70
     6
  9
$SURFV
 70
     6
  9
$UCSBASE
  2

  9
$UCSNAME
  2

  9
$UCSORG
 10
0.0
 20
0.0
 30
0.0
  9
$UCSXDIR
 10
1.0
 20
0.0
 30
0.0
  9
$UCSYDIR
 10
0.0
 20
1.0
 30
0.0
  9
$UCSORTHOREF
  2

  9
$UCSORTHOVIEW
 70
     0
  9
$UCSORGTOP
 10
0.0
 20
0.0
 30
0.0
  9
$UCSORGBOTTOM
 10
0.0
 20
0.0
 30
0.0
  9
$UCSORGLEFT
 10
0.0
 20
0.0
 30
0.0
  9
$UCSORGRIGHT
 10
0.0
 20
0.0
 30
0.0
  9
$UCSORGFRONT
 10
0.0
 20
0.0
 30
0.0
  9
$UCSORGBACK
 10
0.0
 20
0.0
 30
0.0
  9
$PUCSBASE
  2

  9
$PUCSNAME
  2

  9
$PUCSORG
 10
0.0
 20
0.0
 30
0.0
  9
$PUCSXDIR
 10
1.0
 20
0.0
 30
0.0
  9
$PUCSYDIR
 10
0.0
 20
1.0
 30
0.0
  9
$PUCSORTHOREF
  2

  9
$PUCSORTHOVIEW
 70
     0
  9
$PUCSORGTOP
 10
0.0
 20
0.0
 30
0.0
  9
$PUCSORGBOTTOM
 10
0.0
 20
0.0
 30
0.0
  9
$PUCSORGLEFT
 10
0.0
 20
0.0
 30
0.0
  9
$PUCSORGRIGHT
 10
0.0
 20
0.0
 30
0.0
  9
$PUCSORGFRONT
 10
0.0
 20
0.0
 30
0.0
  9
$PUCSORGBACK
 10
0.0
 20
0.0
 30
0.0
  9
$USERI1
 70
     0
  9
$USERI2
 70
     0
  9
$USERI3
 70
     0
  9
$USERI4
 70
     0
  9
$USERI5
 70
     0
  9
$USERR1
 40
0.0
  9
$USERR2
 40
0.0
  9
$USERR3
 40
0.0
  9
$USERR4
 40
0.0
  9
$USERR5
 40
0.0
  9
$WORLDVIEW
 70
     1
  9
$SHADEDGE
 70
     3
  9
$SHADEDIF
 70
    70
  9
$TILEMODE
 70
     1
  9
$MAXACTVP
 70
    64
  9
$PINSBASE
 10
0.0
 20
0.0
 30
0.0
  9
$PLIMCHECK
 70
     0
  9
$PEXTMIN
 10
1.000000000000000E+20
 20
1.000000000000000E+20
 30
1.000000000000000E+20
  9
$PEXTMAX
 10
-1.000000000000000E+20
 20
-1.000000000000000E+20
 30
-1.000000000000000E+20
  9
$PLIMMIN
 10
0.0
 20
0.0
  9
$PLIMMAX
 10
420.0
 20
297.0
  9
$UNITMODE
 70
     0
  9
$VISRETAIN
 70
     1
  9
$PLINEGEN
 70
     0
  9
$PSLTSCALE
 70
     1
  9
$TREEDEPTH
 70
  3020
  9
$CMLSTYLE
  2
Standard
  9
$CMLJUST
 70
     0
  9
$CMLSCALE
 40
20.0
  9
$PROXYGRAPHICS
 70
     1
  9
$MEASUREMENT
 70
     1
  9
$CELWEIGHT
370
    -1
  9
$ENDCAPS
280
     0
  9
$JOINSTYLE
280
     0
  9
$LWDISPLAY
290
     1
  9
$INSUNITS
 70
     4
  9
$HYPERLINKBASE
  1

  9
$STYLESHEET
  1
aclt.ctb
  9
$XEDIT
290
     1
  9
$CEPSNTYPE
380
     0
  9
$PSTYLEMODE
290
     1
  9
$FINGERPRINTGUID
  2
{DB7250D2-6D98-4010-90BA-56ECE810444C}
  9
$VERSIONGUID
  2
{E5E8D50D-05D2-4500-A927-464537F1B7BB}
  9
$EXTNAMES
290
     1
  9
$PSVPSCALE
 40
0.0
  9
$OLESTARTUP
290
     0
  0
ENDSEC
  0
SECTION
  2
CLASSES
  0
CLASS
  1
ACDBDICTIONARYWDFLT
  2
AcDbDictionaryWithDefault
  3
ObjectDBX Classes
 90
        0
280
     0
281
     0
  0
CLASS
  1
VISUALSTYLE
  2
AcDbVisualStyle
  3
ObjectDBX Classes
 90
     4095
280
     0
281
     0
  0
CLASS
  1
DICTIONARYVAR
  2
AcDbDictionaryVar
  3
ObjectDBX Classes
 90
        0
280
     0
281
     0
  0
CLASS
  1
ACDBPLACEHOLDER
  2
AcDbPlaceHolder
  3
ObjectDBX Classes
 90
        0
280
     0
281
     0
  0
CLASS
  1
LAYOUT
  2
AcDbLayout
  3
ObjectDBX Classes
 90
        0
280
     0
281
     0
  0
CLASS
  1
TABLESTYLE
  2
AcDbTableStyle
  3
ObjectDBX Classes
 90
     2047
280
     0
281
     0
  0
CLASS
  1
SORTENTSTABLE
  2
AcDbSortentsTable
  3
ObjectDBX Classes
 90
        0
280
     0
281
     0
  0
CLASS
  1
MATERIAL
  2
AcDbMaterial
  3
ObjectDBX Classes
 90
        0
280
     0
281
     0
  0
ENDSEC
  0
SECTION
  2
TABLES
  0
TABLE
  2
VPORT
  5
8
330
0
100
AcDbSymbolTable
 70
     2
  0
VPORT
  5
173B8
330
8
100
AcDbSymbolTableRecord
100
AcDbViewportTableRecord
  2
*Active
 70
     0
 10
0.0
 20
0.0
 11
1.0
 21
1.0
 12
296.9916028673315
 22
209.992562688826
 13
0.0
 23
0.0
 14
10.0
 24
10.0
 15
10.0
 25
10.0
 16
0.0
 26
0.0
 36
1.0
 17
0.0
 27
0.0
 37
0.0
 40
422.6620271934973
 41
1.616193480546792
 42
50.0
 43
0.0
 44
0.0
 50
0.0
 51
0.0
 71
     0
 72
  2000
 73
     1
 74
     3
 75
     0
 76
     0
 77
     0
 78
     0
281
     0
 65
     1
110
0.0
120
0.0
130
0.0
111
1.0
121
0.0
131
0.0
112
0.0
122
1.0
132
0.0
 79
     0
146
0.0
  0
ENDTAB
  0
TABLE
  2
LTYPE
  5
5
330
0
100
AcDbSymbolTable
 70
     2
  0
LTYPE
  5
14
330
5
100
AcDbSymbolTableRecord
100
AcDbLinetypeTableRecord
  2
ByBlock
 70
     0
  3

 72
    65
 73
     0
 40
0.0
  0
LTYPE
  5
15
330
5
100
AcDbSymbolTableRecord
100
AcDbLinetypeTableRecord
  2
ByLayer
 70
     0
  3

 72
    65
 73
     0
 40
0.0
  0
LTYPE
  5
16
330
5
100
AcDbSymbolTableRecord
100
AcDbLinetypeTableRecord
  2
Continuous
 70
     0
  3
Solid line
 72
    65
 73
     0
 40
0.0
  0
LTYPE
  5
1721C
330
5
100
AcDbSymbolTableRecord
100
AcDbLinetypeTableRecord
  2
HIDDEN
 70
     0
  3
Hidden __ __ __ __ __ __ __ __ __ __ __ __ __ __
 72
    65
 73
     2
 40
1.905
 49
1.27
 74
     0
 49
-0.635
 74
     0
  0
ENDTAB
  0
TABLE
  2
LAYER
  5
2
102
{ACAD_XDICTIONARY
360
1C1E
102
}
330
0
100
AcDbSymbolTable
 70
     8
  0
LAYER
  5
10
330
2
100
AcDbSymbolTableRecord
100
AcDbLayerTableRecord
  2
0
 70
     0
 62
     7
  6
Continuous
370
    -3
390
F
  0
LAYER
  5
1C1D
330
2
100
AcDbSymbolTableRecord
100
AcDbLayerTableRecord
  2
abmessung
 70
     0
 62
     3
  6
Continuous
370
    -3
390
F
1001
AcAecLayerStandard
1000

1000

  0
LAYER
  5
2107
330
2
100
AcDbSymbolTableRecord
100
AcDbLayerTableRecord
  2
Defpoints
 70
     0
 62
     7
  6
Continuous
290
     0
370
    -3
390
F
  0
LAYER
  5
33EC
330
2
100
AcDbSymbolTableRecord
100
AcDbLayerTableRecord
  2
RAHMEN025
 70
     0
 62
     7
  6
Continuous
370
    -3
390
F
  0
LAYER
  5
33ED
330
2
100
AcDbSymbolTableRecord
100
AcDbLayerTableRecord
  2
RAHMEN07
 70
     0
 62
     5
  6
Continuous
370
    -3
390
F
  0
LAYER
  5
33EE
330
2
100
AcDbSymbolTableRecord
100
AcDbLayerTableRecord
  2
TEXTFELD
 70
     0
 62
     7
  6
Continuous
370
    -3
390
F
  0
LAYER
  5
1721F
330
2
100
AcDbSymbolTableRecord
100
AcDbLayerTableRecord
  2
BEMAßUNG
 70
     0
 62
     3
  6
Continuous
370
    15
390
F
  0
LAYER
  5
17221
330
2
100
AcDbSymbolTableRecord
100
AcDbLayerTableRecord
  2
BAUTEIL
 70
     0
 62
     7
  6
Continuous
370
    30
390
F
  0
ENDTAB
  0
TABLE
  2
STYLE
  5
3
330
0
100
AcDbSymbolTable
 70
     2
  0
STYLE
  5
11
330
3
100
AcDbSymbolTableRecord
100
AcDbTextStyleTableRecord
  2
Standard
 70
     0
 40
0.0
 41
1.0
 50
0.0
 71
     0
 42
2.5
  3
txt
  4

  0
STYLE
  5
338A
330
3
100
AcDbSymbolTableRecord
100
AcDbTextStyleTableRecord
  2
OLED
 70
     0
 40
0.0
 41
1.0
 50
0.0
 71
     0
 42
2.5
  3
ericssonga628.TTF
  4

1001
ACAD
1000
Ericsson GA628
1071
        1
  0
ENDTAB
  0
TABLE
  2
VIEW
  5
6
330
0
100
AcDbSymbolTable
 70
     0
  0
ENDTAB
  0
TABLE
  2
UCS
  5
7
330
0
100
AcDbSymbolTable
 70
     0
  0
ENDTAB
  0
TABLE
  2
APPID
  5
9
330
0
100
AcDbSymbolTable
 70
    17
  0
APPID
  5
12
330
9
100
AcDbSymbolTableRecord
100
AcDbRegAppTableRecord
  2
ACAD
 70
     0
  0
APPID
  5
1C1B
330
9
100
AcDbSymbolTableRecord
100
AcDbRegAppTableRecord
  2
AcAecLayerStandard
 70
     0
  0
APPID
  5
2122
330
9
100
AcDbSymbolTableRecord
100
AcDbRegAppTableRecord
  2
ACAD_DSTYLE_DIMTEXT_FILL
 70
     0
  0
APPID
  5
2123
330
9
100
AcDbSymbolTableRecord
100
AcDbRegAppTableRecord
  2
ACAD_DSTYLE_DIMEXT_LENGTH
 70
     0
  0
APPID
  5
2124
330
9
100
AcDbSymbolTableRecord
100
AcDbRegAppTableRecord
  2
ACAD_DSTYLE_DIMEXT_ENABLED
 70
     0
  0
APPID
  5
2125
330
9
100
AcDbSymbolTableRecord
100
AcDbRegAppTableRecord
  2
ACAD_DSTYLE_DIM_LINETYPE
 70
     0
  0
APPID
  5
2126
330
9
100
AcDbSymbolTableRecord
100
AcDbRegAppTableRecord
  2
ACAD_DSTYLE_DIM_EXT1_LINETYPE
 70
     0
  0
APPID
  5
2127
330
9
100
AcDbSymbolTableRecord
100
AcDbRegAppTableRecord
  2
ACAD_DSTYLE_DIM_EXT2_LINETYPE
 70
     0
  0
APPID
  5
21E3
330
9
100
AcDbSymbolTableRecord
100
AcDbRegAppTableRecord
  2
ACAD_DSTYLE_DIMJOGGED_JOGANGLE_SYMBOL
 70
     0
  0
APPID
  5
2A57
330
9
100
AcDbSymbolTableRecord
100
AcDbRegAppTableRecord
  2
ACAD_DSTYLE_DIMARC_LENGTH_SYMBOL
 70
     0
  0
APPID
  5
2DEE
330
9
100
AcDbSymbolTableRecord
100
AcDbRegAppTableRecord
  2
ACAD_EXEMPT_FROM_CAD_STANDARDS
 70
     0
  0
APPID
  5
33EF
330
9
100
AcDbSymbolTableRecord
100
AcDbRegAppTableRecord
  2
ACAD_PSEXT
 70
     0
  0
APPID
  5
141B2
330
9
100
AcDbSymbolTableRecord
100
AcDbRegAppTableRecord
  2
GENIUS_GENODEF_13
 70
     0
  0
APPID
  5
141B3
330
9
100
AcDbSymbolTableRecord
100
AcDbRegAppTableRecord
  2
GENIUS_GENOBJ-N-TIT_13
 70
     0
  0
APPID
  5
141B4
330
9
100
AcDbSymbolTableRecord
100
AcDbRegAppTableRecord
  2
GENIUS_GENTITLE_13
 70
     0
  0
APPID
  5
141B5
330
9
100
AcDbSymbolTableRecord
100
AcDbRegAppTableRecord
  2
GENIUS_GENOENT_13
 70
     0
  0
APPID
  5
141B6
330
9
100
AcDbSymbolTableRecord
100
AcDbRegAppTableRecord
  2
GENIUS_GENOLIS_13
 70
     0
  0
ENDTAB
  0
TABLE
  2
DIMSTYLE
  5
A
330
0
100
AcDbSymbolTable
 70
     2
100
AcDbDimStyleTable
 71
     1
340
27
  0
DIMSTYLE
105
27
102
{ACAD_REACTORS
330
1727B
330
1727A
330
172A2
102
}
330
A
100
AcDbSymbolTableRecord
100
AcDbDimStyleTableRecord
  2
ISO-25
 70
     0
 41
3.5
 42
0.625
 43
3.75
 44
1.25
 73
     0
 74
     0
 77
     1
 78
     8
140
3.5
141
2.5
143
0.03937007874016
147
1.5
171
     3
172
     1
271
     1
272
     1
274
     3
278
    44
283
     0
284
     8
340
11
1001
ACAD_DSTYLE_DIMEXT_LENGTH
1070
   378
1040
1.25
1001
ACAD_DSTYLE_DIMEXT_ENABLED
1070
   383
1070
     0
1001
ACAD_DSTYLE_DIMARC_LENGTH_SYMBOL
1070
   379
1070
     0
1001
ACAD_DSTYLE_DIMJOGGED_JOGANGLE_SYMBOL
1070
   384
1040
1.570796326794896
  0
DIMSTYLE
105
2AD4
330
A
100
AcDbSymbolTableRecord
100
AcDbDimStyleTableRecord
  2
Standard
 70
     0
289
     0
340
11
  0
ENDTAB
  0
TABLE
  2
BLOCK_RECORD
  5
1
330
0
100
AcDbSymbolTable
 70
     4
  0
BLOCK_RECORD
  5
1F
102
{ACAD_XDICTIONARY
360
2DFE
102
}
330
1
100
AcDbSymbolTableRecord
100
AcDbBlockTableRecord
  2
*Model_Space
340
22
  0
BLOCK_RECORD
  5
1B
330
1
100
AcDbSymbolTableRecord
100
AcDbBlockTableRecord
  2
*Paper_Space
340
1E
  0
BLOCK_RECORD
  5
23
330
1
100
AcDbSymbolTableRecord
100
AcDbBlockTableRecord
  2
*Paper_Space0
340
26
  0
BLOCK_RECORD
  5
172AB
330
1
100
AcDbSymbolTableRecord
100
AcDbBlockTableRecord
  2
*D1
340
0
  0
BLOCK_RECORD
  5
172B7
330
1
100
AcDbSymbolTableRecord
100
AcDbBlockTableRecord
  2
*D2
340
0
  0
BLOCK_RECORD
  5
172C3
330
1
100
AcDbSymbolTableRecord
100
AcDbBlockTableRecord
  2
*D3
340
0
  0
ENDTAB
  0
ENDSEC
  0
SECTION
  2
BLOCKS
  0
BLOCK
  5
20
330
1F
100
AcDbEntity
  8
0
100
AcDbBlockBegin
  2
*Model_Space
 70
     0
 10
0.0
 20
0.0
 30
0.0
  3
*Model_Space
  1

  0
ENDBLK
  5
21
330
1F
100
AcDbEntity
  8
0
100
AcDbBlockEnd
  0
BLOCK
  5
1C
330
1B
100
AcDbEntity
 67
     1
  8
0
100
AcDbBlockBegin
  2
*Paper_Space
 70
     0
 10
0.0
 20
0.0
 30
0.0
  3
*Paper_Space
  1

  0
ENDBLK
  5
1D
330
1B
100
AcDbEntity
 67
     1
  8
0
100
AcDbBlockEnd
  0
BLOCK
  5
24
330
23
100
AcDbEntity
 67
     1
  8
0
100
AcDbBlockBegin
  2
*Paper_Space0
 70
     0
 10
0.0
 20
0.0
 30
0.0
  3
*Paper_Space0
  1

  0
ENDBLK
  5
25
330
23
100
AcDbEntity
 67
     1
  8
0
100
AcDbBlockEnd
  0
BLOCK
  5
172B5
330
172AB
100
AcDbEntity
  8
0
100
AcDbBlockBegin
  2
*D1
 70
     1
 10
0.0
 20
0.0
 30
0.0
  3
*D1
  1

  0
LINE
  5
1737B
330
172AB
100
AcDbEntity
  8
BEMAßUNG
370
    -2
100
AcDbLine
 10
74.39773046471619
 20
140.7505565442356
 30
0.0
 11
63.91362388588525
 21
140.7505565442356
 31
0.0
  0
LINE
  5
1737C
330
172AB
100
AcDbEntity
  8
BEMAßUNG
370
    -2
100
AcDbLine
 10
74.39773046471619
 20
174.7505565442357
 30
0.0
 11
63.91362388588526
 21
174.7505565442357
 31
0.0
  0
LINE
  5
1737D
330
172AB
100
AcDbEntity
  8
BEMAßUNG
370
    -2
100
AcDbLine
 10
65.16362388588525
 20
144.2505565442356
 30
0.0
 11
65.16362388588527
 21
171.2505565442357
 31
0.0
  0
SOLID
  5
1737E
330
172AB
100
AcDbEntity
  8
BEMAßUNG
100
AcDbTrace
 10
64.58029055255193
 20
144.2505565442356
 30
0.0
 11
65.74695721921859
 21
144.2505565442356
 31
0.0
 12
65.16362388588525
 22
140.7505565442356
 32
0.0
 13
65.16362388588525
 23
140.7505565442356
 33
0.0
  0
SOLID
  5
1737F
330
172AB
100
AcDbEntity
  8
BEMAßUNG
100
AcDbTrace
 10
64.58029055255194
 20
171.2505565442357
 30
0.0
 11
65.7469572192186
 21
171.2505565442357
 31
0.0
 12
65.16362388588527
 22
174.7505565442357
 32
0.0
 13
65.16362388588527
 23
174.7505565442357
 33
0.0
  0
MTEXT
  5
17380
330
172AB
100
AcDbEntity
  8
BEMAßUNG
 62
     0
100
AcDbMText
 10
60.16362388588524
 20
157.7505565442357
 30
0.0
 40
3.5
 41
0.0
 71
     2
 72
     1
  1
34
 11
0.0000000000000001
 21
1.0
 31
0.0
 73
     1
 44
1.0
1001
ACAD
1000
MTEXTBEGIN
1070
    73
1070
     1
1070
    44
1040
1.0
1070
    74
1070
     0
1000
MTEXTEND
  0
POINT
  5
17381
330
172AB
100
AcDbEntity
  8
Defpoints
 62
     0
100
AcDbPoint
 10
75.02273046471619
 20
140.7505565442356
 30
0.0
  0
POINT
  5
17382
330
172AB
100
AcDbEntity
  8
Defpoints
 62
     0
100
AcDbPoint
 10
75.02273046471619
 20
174.7505565442357
 30
0.0
  0
POINT
  5
17383
330
172AB
100
AcDbEntity
  8
Defpoints
 62
     0
100
AcDbPoint
 10
65.16362388588527
 20
174.7505565442357
 30
0.0
  0
ENDBLK
  5
172B6
330
172AB
100
AcDbEntity
  8
0
100
AcDbBlockEnd
  0
BLOCK
  5
172C1
330
172B7
100
AcDbEntity
  8
0
100
AcDbBlockBegin
  2
*D2
 70
     1
 10
0.0
 20
0.0
 30
0.0
  3
*D2
  1

  0
LINE
  5
1738D
330
172B7
100
AcDbEntity
  8
BEMAßUNG
370
    -2
100
AcDbLine
 10
290.0227304647162
 20
175.3755565442357
 30
0.0
 11
290.0227304647162
 21
183.9267916086457
 31
0.0
  0
LINE
  5
1738E
330
172B7
100
AcDbEntity
  8
BEMAßUNG
370
    -2
100
AcDbLine
 10
75.02273046471619
 20
175.3755565442357
 30
0.0
 11
75.02273046471619
 21
183.9267916086457
 31
0.0
  0
LINE
  5
1738F
330
172B7
100
AcDbEntity
  8
BEMAßUNG
370
    -2
100
AcDbLine
 10
286.5227304647163
 20
182.6767916086458
 30
0.0
 11
78.52273046471619
 21
182.6767916086458
 31
0.0
  0
SOLID
  5
17390
330
172B7
100
AcDbEntity
  8
BEMAßUNG
100
AcDbTrace
 10
286.5227304647163
 20
183.2601249419791
 30
0.0
 11
286.5227304647163
 21
182.0934582753124
 31
0.0
 12
290.0227304647162
 22
182.6767916086458
 32
0.0
 13
290.0227304647162
 23
182.6767916086458
 33
0.0
  0
SOLID
  5
17391
330
172B7
100
AcDbEntity
  8
BEMAßUNG
100
AcDbTrace
 10
78.52273046471619
 20
183.2601249419791
 30
0.0
 11
78.52273046471619
 21
182.0934582753124
 31
0.0
 12
75.02273046471619
 22
182.6767916086458
 32
0.0
 13
75.02273046471619
 23
182.6767916086458
 33
0.0
  0
MTEXT
  5
17392
330
172B7
100
AcDbEntity
  8
BEMAßUNG
 62
     0
100
AcDbMText
 10
182.5227304647162
 20
187.6767916086457
 30
0.0
 40
3.5
 41
0.0
 71
     2
 72
     1
  1
215
 73
     1
 44
1.0
1001
ACAD
1000
MTEXTBEGIN
1070
    73
1070
     1
1070
    44
1040
1.0
1070
    74
1070
     0
1000
MTEXTEND
  0
POINT
  5
17393
330
172B7
100
AcDbEntity
  8
Defpoints
 62
     0
100
AcDbPoint
 10
290.0227304647162
 20
174.7505565442357
 30
0.0
  0
POINT
  5
17394
330
172B7
100
AcDbEntity
  8
Defpoints
 62
     0
100
AcDbPoint
 10
75.02273046471619
 20
174.7505565442357
 30
0.0
  0
POINT
  5
17395
330
172B7
100
AcDbEntity
  8
Defpoints
 62
     0
100
AcDbPoint
 10
75.02273046471619
 20
182.6767916086458
 30
0.0
  0
ENDBLK
  5
172C2
330
172B7
100
AcDbEntity
  8
0
100
AcDbBlockEnd
  0
BLOCK
  5
172CE
330
172C3
100
AcDbEntity
  8
0
100
AcDbBlockBegin
  2
*D3
 70
     1
 10
0.0
 20
0.0
 30
0.0
  3
*D3
  1

  0
LINE
  5
17355
330
172C3
100
AcDbEntity
  8
BEMAßUNG
370
    -2
100
AcDbLine
 10
337.2136982066162
 20
175.3755565442357
 30
0.0
 11
337.2136982066162
 21
184.0005565442357
 31
0.0
  0
LINE
  5
17356
330
172C3
100
AcDbEntity
  8
BEMAßUNG
370
    -2
100
AcDbLine
 10
336.2136982066162
 20
175.3755565442357
 30
0.0
 11
336.2136982066162
 21
184.0005565442357
 31
0.0
  0
LINE
  5
17357
330
172C3
100
AcDbEntity
  8
BEMAßUNG
370
    -2
100
AcDbLine
 10
340.7136982066162
 20
182.7505565442357
 30
0.0
 11
344.2136982066162
 21
182.7505565442357
 31
0.0
  0
LINE
  5
17358
330
172C3
100
AcDbEntity
  8
BEMAßUNG
370
    -2
100
AcDbLine
 10
332.7136982066162
 20
182.7505565442357
 30
0.0
 11
322.9024482066161
 21
182.7505565442357
 31
0.0
  0
LINE
  5
17359
330
172C3
100
AcDbEntity
  8
BEMAßUNG
370
    -2
100
AcDbLine
 10
337.2136982066162
 20
182.7505565442357
 30
0.0
 11
336.2136982066162
 21
182.7505565442357
 31
0.0
  0
SOLID
  5
1735A
330
172C3
100
AcDbEntity
  8
BEMAßUNG
100
AcDbTrace
 10
340.7136982066162
 20
183.333889877569
 30
0.0
 11
340.7136982066162
 21
182.1672232109023
 31
0.0
 12
337.2136982066162
 22
182.7505565442357
 32
0.0
 13
337.2136982066162
 23
182.7505565442357
 33
0.0
  0
SOLID
  5
1735B
330
172C3
100
AcDbEntity
  8
BEMAßUNG
100
AcDbTrace
 10
332.7136982066162
 20
183.333889877569
 30
0.0
 11
332.7136982066162
 21
182.1672232109023
 31
0.0
 12
336.2136982066162
 22
182.7505565442357
 32
0.0
 13
336.2136982066162
 23
182.7505565442357
 33
0.0
  0
MTEXT
  5
1735C
330
172C3
100
AcDbEntity
  8
BEMAßUNG
 62
     0
100
AcDbMText
 10
324.9857815399495
 20
187.7505565442357
 30
0.0
 40
3.5
 41
0.0
 71
     2
 72
     1
  1
1
 73
     1
 44
1.0
1001
ACAD
1000
MTEXTBEGIN
1070
    73
1070
     1
1070
    44
1040
1.0
1070
    74
1070
     0
1000
MTEXTEND
  0
POINT
  5
1735D
330
172C3
100
AcDbEntity
  8
Defpoints
 62
     0
100
AcDbPoint
 10
337.2136982066162
 20
174.7505565442357
 30
0.0
  0
POINT
  5
1735E
330
172C3
100
AcDbEntity
  8
Defpoints
 62
     0
100
AcDbPoint
 10
336.2136982066162
 20
174.7505565442357
 30
0.0
  0
POINT
  5
1735F
330
172C3
100
AcDbEntity
  8
Defpoints
 62
     0
100
AcDbPoint
 10
336.2136982066162
 20
182.7505565442357
 30
0.0
  0
ENDBLK
  5
172CF
330
172C3
100
AcDbEntity
  8
0
100
AcDbBlockEnd
  0
ENDSEC
  0
SECTION
  2
ENTITIES
  0
LINE
  5
3425
330
1F
100
AcDbEntity
  8
TEXTFELD
100
AcDbLine
 10
414.9999993094326
 20
13.39999985890097
 30
0.0
 11
310.4529448909186
 21
13.39999985890097
 31
0.0
  0
LINE
  5
3426
330
1F
100
AcDbEntity
  8
TEXTFELD
100
AcDbLine
 10
354.9999993094331
 20
9.199999858901158
 30
0.0
 11
314.9999993094327
 21
9.199999858901158
 31
0.0
  0
LINE
  5
3427
330
1F
100
AcDbEntity
  8
TEXTFELD
100
AcDbLine
 10
414.9999993094326
 20
21.69999985890116
 30
0.0
 11
354.9999993094331
 21
21.69999985890116
 31
0.0
  0
LINE
  5
3428
330
1F
100
AcDbEntity
  8
TEXTFELD
100
AcDbLine
 10
404.48087435443
 20
4.999999858900885
 30
0.0
 11
404.4808743544304
 21
13.39999985890097
 31
0.0
  0
LINE
  5
3429
330
1F
100
AcDbEntity
  8
TEXTFELD
100
AcDbLine
 10
414.9999993094326
 20
9.199999858901158
 30
0.0
 11
404.48087435443
 21
9.199999858901158
 31
0.0
  0
TEXT
  5
342A
330
1F
100
AcDbEntity
  8
TEXTFELD
100
AcDbText
 10
405.5778827215448
 20
10.29688692605158
 30
0.0
 40
1.738212755828499
  1
Page:
100
AcDbText
  0
TEXT
  5
342B
330
1F
100
AcDbEntity
  8
TEXTFELD
100
AcDbText
 10
405.5778827215448
 20
6.128347441165153
 30
0.0
 40
1.738212755828499
  1
1 / 1
100
AcDbText
  0
LINE
  5
342C
330
1F
100
AcDbEntity
  8
TEXTFELD
100
AcDbLine
 10
354.9999993094326
 20
4.99999985890134
 30
0.0
 11
354.9999993094326
 21
29.99999985890134
 31
0.0
  0
LINE
  5
342E
330
1F
100
AcDbEntity
  8
TEXTFELD
100
AcDbLine
 10
332.7264721001764
 20
13.39999985890097
 30
0.0
 11
332.7264721001759
 21
9.199999858901158
 31
0.0
  0
TEXT
  5
342F
330
1F
100
AcDbEntity
  8
TEXTFELD
100
AcDbText
 10
310.7600843012688
 20
10.29688692605158
 30
0.0
 40
1.738212755828499
  1
Name:
100
AcDbText
  0
TEXT
  5
3430
330
1F
100
AcDbEntity
  8
TEXTFELD
100
AcDbText
 10
310.7600843012688
 20
6.128347441165153
 30
0.0
 40
1.738212755828499
  1
File: 
100
AcDbText
  0
TEXT
  5
3431
330
1F
100
AcDbEntity
  8
TEXTFELD
100
AcDbText
 10
355.8297957925591
 20
24.83281084208068
 30
0.0
 40
1.738212755828499
  1
Scale 1:1 (DIN A3)
100
AcDbText
  0
LINE
  5
3432
330
1F
100
AcDbEntity
  8
TEXTFELD
100
AcDbLine
 10
404.4808743544301
 20
21.69999985890116
 30
0.0
 11
404.4808743544306
 21
29.99999985890094
 31
0.0
  0
LINE
  5
3433
330
1F
100
AcDbEntity
  8
TEXTFELD
100
AcDbLine
 10
414.9999993094326
 20
4.999999858900885
 30
0.0
 11
310.4529448909186
 21
4.999999858901368
 31
0.0
  0
LINE
  5
3434
330
1F
100
AcDbEntity
  8
TEXTFELD
100
AcDbLine
 10
310.4529448909186
 20
4.99999985890134
 30
0.0
 11
310.4529448909186
 21
29.99999985890134
 31
0.0
  0
LINE
  5
3435
330
1F
100
AcDbEntity
  8
TEXTFELD
100
AcDbLine
 10
310.4529448909186
 20
29.99999985890137
 30
0.0
 11
414.9999993094326
 21
29.99999985890088
 31
0.0
  0
LINE
  5
3436
330
1F
100
AcDbEntity
  8
TEXTFELD
100
AcDbLine
 10
414.9999993094326
 20
29.99999985890088
 30
0.0
 11
414.9999993094326
 21
4.999999858900885
 31
0.0
  0
LINE
  5
3437
330
1F
100
AcDbEntity
  8
TEXTFELD
100
AcDbLine
 10
354.9999993094326
 20
4.999999858901169
 30
0.0
 11
354.9999993094326
 21
29.99999985890117
 31
0.0
  0
TEXT
  5
3438
330
1F
100
AcDbEntity
  8
TEXTFELD
100
AcDbText
 10
319.2748596103286
 20
10.31526679560665
 30
0.0
 40
1.738212755828499
  1
Miethling
100
AcDbText
  0
TEXT
  5
3439
330
1F
100
AcDbEntity
  8
TEXTFELD
100
AcDbText
 10
311.4147388350846
 20
14.86348631136724
 30
0.0
 40
1.738212755828499
  1
Fax:
100
AcDbText
  0
TEXT
  5
343A
330
1F
100
AcDbEntity
  8
TEXTFELD
100
AcDbText
 10
311.4147388350846
 20
26.05193481824467
 30
0.0
 40
1.738212755828499
  1
DHD GmbH
100
AcDbText
  0
TEXT
  5
343B
330
1F
100
AcDbEntity
  8
TEXTFELD
100
AcDbText
 10
311.4147388350846
 20
23.37740292250812
 30
0.0
 40
1.738212755828499
  1
Haferkornstraße 5
100
AcDbText
  0
TEXT
  5
343C
330
1F
100
AcDbEntity
  8
TEXTFELD
100
AcDbText
 10
311.4147388350846
 20
20.64738744522453
 30
0.0
 40
1.738212755828499
  1
04129 Leipzig / Germany
100
AcDbText
  0
TEXT
  5
343D
330
1F
100
AcDbEntity
  8
TEXTFELD
100
AcDbText
 10
319.740275674714
 20
14.76608519818246
 30
0.0
 40
1.738212755828499
  1
+ 49  341  5897022
100
AcDbText
  0
TEXT
  5
343E
330
1F
100
AcDbEntity
  8
TEXTFELD
100
AcDbText
 10
333.197781851336
 20
10.2968869260514
 30
0.0
 40
1.738212755828499
  1
Date:
100
AcDbText
  0
TEXT
  5
343F
330
1F
100
AcDbEntity
  8
TEXTFELD
100
AcDbText
 10
310.7600843012688
 20
10.2968869260514
 30
0.0
 40
1.738212755828499
  1
Name:
100
AcDbText
  0
TEXT
  5
3440
330
1F
100
AcDbEntity
  8
TEXTFELD
100
AcDbText
 10
310.7600843012688
 20
6.128347441164983
 30
0.0
 40
1.738212755828499
  1
File: 
100
AcDbText
  0
LINE
  5
3441
330
1F
100
AcDbEntity
  8
TEXTFELD
100
AcDbLine
 10
354.9999993094331
 20
9.199999858900987
 30
0.0
 11
310.4529448909186
 21
9.199999858900987
 31
0.0
  0
TEXT
  5
3442
330
1F
100
AcDbEntity
  8
TEXTFELD
100
AcDbText
 10
311.4147388350846
 20
17.29284373999514
 30
0.0
 40
1.738212755828499
  1
Phone: + 49  341  5897020
100
AcDbText
  0
TEXT
  5
3443
330
1F
100
AcDbEntity
  8
TEXTFELD
100
AcDbText
 10
316.840306129822
 20
6.234549152978054
 30
0.0
 40
1.738212755828499
  1
52-7493dimension.dwg
100
AcDbText
  0
TEXT
  5
3444
330
1F
100
AcDbEntity
  8
TEXTFELD
100
AcDbText
 10
340.8424729428999
 20
10.40738149236548
 30
0.0
 40
1.738212755828499
  1
31.01.2011
100
AcDbText
  0
TEXT
  5
3445
330
1F
100
AcDbEntity
  8
TEXTFELD
100
AcDbText
 10
371.5716297704377
 20
7.497173059517031
 30
0.0
 40
2.629907217668009
  1
52-7493
100
AcDbText
  0
TEXT
  5
344D
330
1F
100
AcDbEntity
  8
TEXTFELD
100
AcDbText
 10
368.0321732914225
 20
17.97702603586362
 30
0.0
 40
2.2
  1
52/XC Blank Panel
100
AcDbText
  0
LINE
  5
384F
330
1F
100
AcDbEntity
  8
RAHMEN07
100
AcDbLine
 10
414.9999993094326
 20
291.9999998589009
 30
0.0
 11
19.99999930943258
 21
291.9999998589009
 31
0.0
  0
LINE
  5
3850
330
1F
100
AcDbEntity
  8
RAHMEN07
100
AcDbLine
 10
19.99999930943257
 20
4.999999858900899
 30
0.0
 11
414.9999993094326
 21
4.999999858900877
 31
0.0
  0
LINE
  5
3851
330
1F
100
AcDbEntity
  8
RAHMEN025
100
AcDbLine
 10
419.9999993094325
 20
296.9999998589009
 30
0.0
 11
-0.000000690567426
 21
296.9999998589009
 31
0.0
  0
LINE
  5
3852
330
1F
100
AcDbEntity
  8
RAHMEN025
100
AcDbLine
 10
-0.000000690567426
 20
-0.0000001410991004
 30
0.0
 11
419.9999993094325
 21
-0.0000001410991217
 31
0.0
  0
LINE
  5
3853
330
1F
100
AcDbEntity
  8
RAHMEN07
100
AcDbLine
 10
19.99999930943258
 20
291.9999998589009
 30
0.0
 11
19.99999930943257
 21
4.999999858900899
 31
0.0
  0
LINE
  5
3854
330
1F
100
AcDbEntity
  8
RAHMEN025
100
AcDbLine
 10
-0.000000690567426
 20
296.9999998589009
 30
0.0
 11
-0.000000690567426
 21
-0.0000001410991004
 31
0.0
  0
LINE
  5
3855
330
1F
100
AcDbEntity
  8
RAHMEN07
100
AcDbLine
 10
414.9999993094326
 20
4.999999858900877
 30
0.0
 11
414.9999993094326
 21
291.9999998589009
 31
0.0
  0
LINE
  5
3856
330
1F
100
AcDbEntity
  8
RAHMEN025
100
AcDbLine
 10
419.9999993094325
 20
-0.0000001410991217
 30
0.0
 11
419.9999993094325
 21
296.9999998589009
 31
0.0
  0
MTEXT
  5
5B8B
330
1F
100
AcDbEntity
  8
RAHMEN025
100
AcDbMText
 10
26.46204805812886
 20
26.77362566456809
 30
0.0
 40
2.5
 41
279.1974643534359
 71
     1
 72
     5
  3
Specifications and design are subject to change without notice. \PThe content of this document is for information only. The information presented in this document does not form part of any quotation or contract, is believed to be accurate and reliabl
  1
e and may be changed without notice. No liability will be accepted by the publisher for any consequence of its use. Publication thereof does neither convey nor imply any license under patent- or other industrial or intellectual property rights.
 73
     1
 44
1.0
1001
ACAD
1000
ACAD_MTEXT_DEFINED_HEIGHT_BEGIN
1070
    46
1040
0.0
1000
ACAD_MTEXT_DEFINED_HEIGHT_END
1000
MTEXTBEGIN
1070
    73
1070
     1
1070
    44
1040
1.0
1070
    74
1070
     0
1000
MTEXTEND
  0
TEXT
  5
5B8D
330
1F
100
AcDbEntity
  8
TEXTFELD
100
AcDbText
 10
364.6091162594231
 20
14.45163577035232
 30
0.0
 40
2.2
  1
Dimension of 52-7493
100
AcDbText
  0
CIRCLE
  5
1726A
330
1F
100
AcDbEntity
  8
BAUTEIL
  6
Continuous
370
    15
100
AcDbCircle
 10
284.5227304647163
 20
167.7505565442356
 30
0.0
 40
1.25
  0
CIRCLE
  5
1726B
330
1F
100
AcDbEntity
  8
BAUTEIL
  6
Continuous
370
    15
100
AcDbCircle
 10
80.52273046471619
 20
147.7505565442356
 30
0.0
 40
1.25
  0
LINE
  5
1726C
330
1F
100
AcDbEntity
  8
BAUTEIL
  6
Continuous
370
    15
100
AcDbLine
 10
290.0227304647162
 20
174.7505565442357
 30
0.0
 11
75.02273046471619
 21
174.7505565442357
 31
0.0
  0
LINE
  5
1726D
330
1F
100
AcDbEntity
  8
BAUTEIL
  6
Continuous
370
    15
100
AcDbLine
 10
290.0227304647162
 20
140.7505565442356
 30
0.0
 11
290.0227304647162
 21
174.7505565442357
 31
0.0
  0
LINE
  5
1726E
330
1F
100
AcDbEntity
  8
BAUTEIL
  6
Continuous
370
    15
100
AcDbLine
 10
75.02273046471619
 20
140.7505565442356
 30
0.0
 11
290.0227304647162
 21
140.7505565442356
 31
0.0
  0
LINE
  5
1726F
330
1F
100
AcDbEntity
  8
BAUTEIL
  6
Continuous
370
    15
100
AcDbLine
 10
75.02273046471619
 20
174.7505565442357
 30
0.0
 11
75.02273046471619
 21
140.7505565442356
 31
0.0
  0
CIRCLE
  5
17270
330
1F
100
AcDbEntity
  8
BAUTEIL
  6
Continuous
370
    15
100
AcDbCircle
 10
80.52273046471619
 20
167.7505565442356
 30
0.0
 40
1.25
  0
CIRCLE
  5
17271
330
1F
100
AcDbEntity
  8
BAUTEIL
  6
Continuous
370
    15
100
AcDbCircle
 10
284.5227304647163
 20
147.7505565442356
 30
0.0
 40
1.25
  0
DIMENSION
  5
1727A
330
1F
100
AcDbEntity
  8
BEMAßUNG
100
AcDbDimension
  2
*D1
 10
65.16362388588527
 20
174.7505565442357
 30
0.0
 11
61.91362388588523
 21
157.7505565442357
 31
0.0
 70
    32
 71
     2
 42
34.00000000000003
  3
ISO-25
100
AcDbAlignedDimension
 13
75.02273046471619
 23
140.7505565442356
 33
0.0
 14
75.02273046471619
 24
174.7505565442357
 34
0.0
 50
90.0
100
AcDbRotatedDimension
1001
ACAD
1000
DSTYLE
1002
{
1070
   176
1070
   256
1070
   177
1070
   256
1002
}
  0
DIMENSION
  5
1727B
330
1F
100
AcDbEntity
  8
BEMAßUNG
100
AcDbDimension
  2
*D2
 10
75.02273046471619
 20
182.6767916086458
 30
0.0
 11
182.5227304647162
 21
185.9267916086458
 31
0.0
 70
    32
 71
     2
 42
215.0000000000001
  3
ISO-25
100
AcDbAlignedDimension
 13
290.0227304647162
 23
174.7505565442357
 33
0.0
 14
75.02273046471619
 24
174.7505565442357
 34
0.0
100
AcDbRotatedDimension
1001
ACAD
1000
DSTYLE
1002
{
1070
   176
1070
   256
1070
   177
1070
   256
1002
}
  0
ARC
  5
17280
330
1F
100
AcDbEntity
  8
0
  6
Continuous
 62
     7
370
     0
100
AcDbCircle
 10
80.52273046471619
 20
167.7505565442356
 30
0.0
 40
1.500000000000011
100
AcDbArc
 50
74.99999999999961
 51
345.0000000000005
  0
ARC
  5
17281
330
1F
100
AcDbEntity
  8
0
  6
Continuous
 62
     7
370
     0
100
AcDbCircle
 10
80.52273046471619
 20
147.7505565442356
 30
0.0
 40
1.500000000000011
100
AcDbArc
 50
74.99999999999961
 51
345.0000000000005
  0
ARC
  5
17282
330
1F
100
AcDbEntity
  8
0
  6
Continuous
 62
     7
370
     0
100
AcDbCircle
 10
284.5227304647163
 20
147.7505565442356
 30
0.0
 40
1.500000000000018
100
AcDbArc
 50
74.99999999999961
 51
345.0000000000005
  0
ARC
  5
17283
330
1F
100
AcDbEntity
  8
0
  6
Continuous
 62
     7
370
     0
100
AcDbCircle
 10
284.5227304647163
 20
167.7505565442356
 30
0.0
 40
1.499999999999991
100
AcDbArc
 50
74.99999999999961
 51
345.0000000000005
  0
ARC
  5
17286
330
1F
100
AcDbEntity
  8
BAUTEIL
  6
Continuous
370
    15
100
AcDbCircle
 10
335.7136982066162
 20
170.0005565442357
 30
0.0
 40
0.5
100
AcDbArc
 50
270.0
 51
0.0
  0
ARC
  5
17287
330
1F
100
AcDbEntity
  8
BAUTEIL
  6
Continuous
370
    15
100
AcDbCircle
 10
335.7136982066162
 20
165.5005565442356
 30
0.0
 40
0.5
100
AcDbArc
 50
0.0
 51
90.0
  0
ARC
  5
17288
330
1F
100
AcDbEntity
  8
BAUTEIL
  6
Continuous
370
    15
100
AcDbCircle
 10
335.7136982066162
 20
150.0005565442356
 30
0.0
 40
0.5
100
AcDbArc
 50
270.0
 51
0.0
  0
ARC
  5
17289
330
1F
100
AcDbEntity
  8
BAUTEIL
  6
Continuous
370
    15
100
AcDbCircle
 10
335.7136982066162
 20
145.5005565442356
 30
0.0
 40
0.5
100
AcDbArc
 50
0.0
 51
90.0
  0
LINE
  5
1728A
330
1F
100
AcDbEntity
  8
BAUTEIL
  6
Continuous
370
    15
100
AcDbLine
 10
335.7136982066162
 20
169.5005565442357
 30
0.0
 11
335.2136982066162
 21
169.5005565442357
 31
0.0
  0
LINE
  5
1728B
330
1F
100
AcDbEntity
  8
BAUTEIL
  6
Continuous
370
    15
100
AcDbLine
 10
335.2136982066162
 20
166.0005565442357
 30
0.0
 11
335.7136982066162
 21
166.0005565442357
 31
0.0
  0
LINE
  5
1728C
330
1F
100
AcDbEntity
  8
BAUTEIL
  6
Continuous
370
    15
100
AcDbLine
 10
335.7136982066162
 20
149.5005565442357
 30
0.0
 11
335.2136982066162
 21
149.5005565442357
 31
0.0
  0
LINE
  5
1728D
330
1F
100
AcDbEntity
  8
BAUTEIL
  6
Continuous
370
    15
100
AcDbLine
 10
335.2136982066162
 20
146.0005565442356
 30
0.0
 11
335.7136982066162
 21
146.0005565442356
 31
0.0
  0
LINE
  5
1728E
330
1F
100
AcDbEntity
  8
BAUTEIL
  6
Continuous
370
    15
100
AcDbLine
 10
337.2136982066162
 20
174.7505565442357
 30
0.0
 11
336.2136982066162
 21
174.7505565442357
 31
0.0
  0
LINE
  5
1728F
330
1F
100
AcDbEntity
  8
BAUTEIL
  6
Continuous
370
    15
100
AcDbLine
 10
337.2136982066162
 20
140.7505565442356
 30
0.0
 11
336.2136982066162
 21
140.7505565442356
 31
0.0
  0
LINE
  5
17290
330
1F
100
AcDbEntity
  8
BAUTEIL
  6
Continuous
370
    15
100
AcDbLine
 10
336.2136982066162
 20
174.7505565442357
 30
0.0
 11
336.2136982066162
 21
140.7505565442356
 31
0.0
  0
LINE
  5
17291
330
1F
100
AcDbEntity
  8
BAUTEIL
  6
Continuous
370
    15
100
AcDbLine
 10
337.2136982066162
 20
174.7505565442357
 30
0.0
 11
337.2136982066162
 21
140.7505565442356
 31
0.0
  0
LINE
  5
17292
330
1F
100
AcDbEntity
  8
BAUTEIL
  6
Continuous
370
    15
100
AcDbLine
 10
335.2136982066162
 20
167.7505565442356
 30
0.0
 11
335.2136982066162
 21
169.5005565442357
 31
0.0
  0
LINE
  5
17293
330
1F
100
AcDbEntity
  8
BAUTEIL
  6
Continuous
370
    15
100
AcDbLine
 10
335.2136982066162
 20
166.0005565442357
 30
0.0
 11
335.2136982066162
 21
167.7505565442356
 31
0.0
  0
LINE
  5
17294
330
1F
100
AcDbEntity
  8
BAUTEIL
  6
Continuous
370
    15
100
AcDbLine
 10
335.2136982066162
 20
147.7505565442356
 30
0.0
 11
335.2136982066162
 21
149.5005565442357
 31
0.0
  0
LINE
  5
17295
330
1F
100
AcDbEntity
  8
BAUTEIL
  6
Continuous
370
    15
100
AcDbLine
 10
335.2136982066162
 20
146.0005565442356
 30
0.0
 11
335.2136982066162
 21
147.7505565442356
 31
0.0
  0
LINE
  5
17296
330
1F
100
AcDbEntity
  8
BAUTEIL
  6
Continuous
370
    15
100
AcDbLine
 10
335.7136982066162
 20
166.0005565442357
 30
0.0
 11
335.7136982066162
 21
169.5005565442357
 31
0.0
  0
LINE
  5
17297
330
1F
100
AcDbEntity
  8
BAUTEIL
  6
Continuous
370
    15
100
AcDbLine
 10
335.7136982066162
 20
146.0005565442356
 30
0.0
 11
335.7136982066162
 21
149.5005565442357
 31
0.0
  0
LINE
  5
17298
330
1F
100
AcDbEntity
  8
BAUTEIL
  6
HIDDEN
370
     0
100
AcDbLine
 10
335.7136982066162
 20
149.4956631892357
 30
0.0
 11
335.7136982066162
 21
146.0054498991356
 31
0.0
  0
LINE
  5
17299
330
1F
100
AcDbEntity
  8
BAUTEIL
  6
HIDDEN
370
     0
100
AcDbLine
 10
335.7136982066162
 20
169.4956631892357
 30
0.0
 11
335.7136982066162
 21
166.0054498991356
 31
0.0
  0
LINE
  5
1729E
330
1F
100
AcDbEntity
  8
BAUTEIL
  6
HIDDEN
370
     0
100
AcDbLine
 10
335.7136982066162
 20
167.7505565442356
 30
0.0
 11
335.7136982066162
 21
166.0005565442357
 31
0.0
  0
LINE
  5
1729F
330
1F
100
AcDbEntity
  8
BAUTEIL
  6
HIDDEN
370
     0
100
AcDbLine
 10
335.7136982066162
 20
169.5005565442357
 30
0.0
 11
335.7136982066162
 21
167.7505565442356
 31
0.0
  0
LINE
  5
172A0
330
1F
100
AcDbEntity
  8
BAUTEIL
  6
HIDDEN
370
     0
100
AcDbLine
 10
335.7136982066162
 20
147.7505565442356
 30
0.0
 11
335.7136982066162
 21
146.0005565442356
 31
0.0
  0
LINE
  5
172A1
330
1F
100
AcDbEntity
  8
BAUTEIL
  6
HIDDEN
370
     0
100
AcDbLine
 10
335.7136982066162
 20
149.5005565442357
 30
0.0
 11
335.7136982066162
 21
147.7505565442356
 31
0.0
  0
DIMENSION
  5
172A2
330
1F
100
AcDbEntity
  8
BEMAßUNG
100
AcDbDimension
  2
*D3
 10
336.2136982066162
 20
182.7505565442357
 30
0.0
 11
324.9857815399495
 21
182.7505565442357
 31
0.0
 70
   160
 71
     2
  3
ISO-25
100
AcDbAlignedDimension
 13
337.2136982066162
 23
174.7505565442357
 33
0.0
 14
336.2136982066162
 24
174.7505565442357
 34
0.0
100
AcDbRotatedDimension
1001
ACAD
1000
DSTYLE
1002
{
1070
   176
1070
   256
1070
   177
1070
   256
1002
}
  0
ENDSEC
  0
SECTION
  2
OBJECTS
  0
DICTIONARY
  5
C
330
0
100
AcDbDictionary
281
     1
  3
ACAD_COLOR
350
1C10
  3
ACAD_GROUP
350
D
  3
ACAD_LAYOUT
350
1A
  3
ACAD_MATERIAL
350
1C0F
  3
ACAD_MLEADERSTYLE
350
1C0A
  3
ACAD_MLINESTYLE
350
17
  3
ACAD_PLOTSETTINGS
350
19
  3
ACAD_PLOTSTYLENAME
350
E
  3
ACAD_TABLESTYLE
350
1C09
  3
ACAD_VISUALSTYLE
350
2A
  3
ACDBHEADERROUNDTRIPXREC
350
173B9
  3
AcDbVariableDictionary
350
1C0B
  0
DICTIONARY
  5
1C1E
330
2
100
AcDbDictionary
280
     1
281
     1
  3
ACAD_LAYERFILTERS
360
1C20
  3
ACAD_LAYERSTATES
360
33F0
  3
ACLYDICTIONARY
360
1C1F
  0
DICTIONARY
  5
2DFE
330
1F
100
AcDbDictionary
280
     1
281
     1
  3
ACAD_SORTENTS
360
2DFF
  0
DICTIONARY
  5
1C10
102
{ACAD_REACTORS
330
C
102
}
330
C
100
AcDbDictionary
281
     1
  0
DICTIONARY
  5
D
102
{ACAD_REACTORS
330
C
102
}
330
C
100
AcDbDictionary
281
     1
  3
*A1
350
1C14
  3
*A10
350
1D37
  3
*A100
350
1F50
  3
*A101
350
17099
  3
*A102
350
1C4D
  3
*A103
350
2E71
  3
*A104
350
1C4E
  3
*A105
350
1C91
  3
*A11
350
1DB7
  3
*A12
350
1DB8
  3
*A13
350
1CC0
  3
*A14
350
1DDB
  3
*A15
350
1D70
  3
*A16
350
1C18
  3
*A17
350
1C4C
  3
*A18
350
1C15
  3
*A19
350
1C63
  3
*A2
350
1CEE
  3
*A20
350
1D1C
  3
*A21
350
1DDC
  3
*A22
350
1DDD
  3
*A23
350
1DDE
  3
*A24
350
1E89
  3
*A25
350
D024
  3
*A26
350
1C7C
  3
*A27
350
107BB
  3
*A28
350
1D3A
  3
*A29
350
1D6F
  3
*A3
350
1D1B
  3
*A30
350
B05A
  3
*A31
350
1C92
  3
*A32
350
1E8A
  3
*A33
350
1C19
  3
*A34
350
1E8B
  3
*A35
350
1E8C
  3
*A36
350
1CBF
  3
*A37
350
1CC1
  3
*A38
350
1E8D
  3
*A39
350
1E8E
  3
*A4
350
1C7B
  3
*A40
350
1D06
  3
*A41
350
1D34
  3
*A42
350
D025
  3
*A43
350
D023
  3
*A44
350
107BC
  3
*A45
350
1C64
  3
*A46
350
1E8F
  3
*A47
350
1CEF
  3
*A48
350
1E90
  3
*A49
350
1E91
  3
*A5
350
1CAA
  3
*A50
350
1C93
  3
*A51
350
AA4F
  3
*A52
350
1E92
  3
*A53
350
AA53
  3
*A54
350
1D1D
  3
*A55
350
1E93
  3
*A56
350
1648C
  3
*A57
350
1E94
  3
*A58
350
141CE
  3
*A59
350
1D38
  3
*A6
350
47F2
  3
*A60
350
1CD6
  3
*A61
350
1EA7
  3
*A62
350
AA51
  3
*A63
350
1EB9
  3
*A64
350
1ECB
  3
*A65
350
ABEE
  3
*A66
350
1D04
  3
*A67
350
1EDD
  3
*A68
350
1C65
  3
*A69
350
1648D
  3
*A7
350
1CD8
  3
*A70
350
1EDE
  3
*A71
350
1D32
  3
*A72
350
141CF
  3
*A73
350
AA52
  3
*A74
350
1EDF
  3
*A75
350
1CED
  3
*A76
350
1CA8
  3
*A77
350
ABEF
  3
*A78
350
1EE0
  3
*A79
350
1EE1
  3
*A8
350
5B7E
  3
*A80
350
1CD7
  3
*A81
350
1EE2
  3
*A82
350
1EE3
  3
*A83
350
1D05
  3
*A84
350
171A5
  3
*A85
350
1EE4
  3
*A86
350
1D4C
  3
*A87
350
1F29
  3
*A88
350
1D33
  3
*A89
350
AC4F
  3
*A9
350
1D94
  3
*A90
350
1D39
  3
*A91
350
1F2A
  3
*A92
350
1F2B
  3
*A93
350
1C7A
  3
*A94
350
1F2C
  3
*A95
350
1D93
  3
*A96
350
1CA9
  3
*A97
350
1F3E
  3
*A98
350
1C16
  3
*A99
350
142AA
  0
DICTIONARY
  5
1A
102
{ACAD_REACTORS
330
C
102
}
330
C
100
AcDbDictionary
281
     1
  3
Layout1
350
1E
  3
Layout2
350
26
  3
Model
350
22
  0
DICTIONARY
  5
1C0F
102
{ACAD_REACTORS
330
C
102
}
330
C
100
AcDbDictionary
281
     1
  3
ByBlock
350
E5E1
  3
ByLayer
350
E5E4
  3
Global
350
D364
  0
DICTIONARY
  5
1C0A
102
{ACAD_REACTORS
330
C
102
}
330
C
100
AcDbDictionary
281
     1
  0
DICTIONARY
  5
17
102
{ACAD_REACTORS
330
C
102
}
330
C
100
AcDbDictionary
281
     1
  3
Standard
350
18
  0
DICTIONARY
  5
19
102
{ACAD_REACTORS
330
C
102
}
330
C
100
AcDbDictionary
281
     1
  0
ACDBDICTIONARYWDFLT
  5
E
102
{ACAD_REACTORS
330
C
102
}
330
C
100
AcDbDictionary
281
     1
  3
Normal
350
F
100
AcDbDictionaryWithDefault
340
F
  0
DICTIONARY
  5
1C09
102
{ACAD_REACTORS
330
C
102
}
330
C
100
AcDbDictionary
281
     1
  3
Standard
350
1C11
  0
DICTIONARY
  5
2A
102
{ACAD_REACTORS
330
C
102
}
330
C
100
AcDbDictionary
281
     1
  3
2dWireframe
350
2F
  3
3D Hidden
350
31
  3
3dWireframe
350
30
  3
Basic
350
32
  3
Brighten
350
36
  3
ColorChange
350
3A
  3
Conceptual
350
34
  3
Dim
350
35
  3
Facepattern
350
39
  3
Flat
350
2B
  3
FlatWithEdges
350
2C
  3
Gouraud
350
2D
  3
GouraudWithEdges
350
2E
  3
Linepattern
350
38
  3
Realistic
350
33
  3
Thicken
350
37
  0
DICTIONARY
  5
173B9
102
{ACAD_REACTORS
330
C
102
}
330
C
100
AcDbDictionary
281
     1
  0
DICTIONARY
  5
1C0B
102
{ACAD_REACTORS
330
C
102
}
330
C
100
AcDbDictionary
281
     1
  3
CTABLESTYLE
350
1D36
  3
DIMASSOC
350
39A7
  3
PROJECTNAME
350
39A8
  3
PSOLHEIGHT
350
1C0D
  3
PSOLWIDTH
350
1C0C
  0
DICTIONARY
  5
1C20
102
{ACAD_REACTORS
330
1C1E
102
}
330
1C1E
100
AcDbDictionary
281
     1
  0
DICTIONARY
  5
33F0
102
{ACAD_REACTORS
330
1C1E
102
}
330
1C1E
100
AcDbDictionary
281
     1
  0
DICTIONARY
  5
1C1F
102
{ACAD_REACTORS
330
1C1E
102
}
330
1C1E
100
AcDbDictionary
281
     1
1001
ACAD
1000
<All
  0
SORTENTSTABLE
  5
2DFF
102
{ACAD_REACTORS
330
2DFE
102
}
330
2DFE
100
AcDbSortentsTable
330
1F
331
343A
  5
3984
331
343C
  5
3986
331
343E
  5
3988
331
3426
  5
3971
331
3428
  5
3973
331
3440
  5
398A
331
3442
  5
398C
331
342A
  5
3975
331
3444
  5
398E
331
342C
  5
3977
331
342E
  5
3978
331
3850
  5
3992
331
3430
  5
397A
331
3432
  5
397C
331
3852
  5
3994
331
3434
  5
397E
331
3854
  5
3996
331
3856
  5
3998
331
3436
  5
3980
331
3439
  5
3983
331
343B
  5
3985
331
343D
  5
3987
331
3425
  5
3970
331
343F
  5
3989
331
3427
  5
3972
331
3429
  5
3974
331
3441
  5
398B
331
3443
  5
398D
331
342B
  5
3976
331
3445
  5
398F
331
384F
  5
3991
331
342F
  5
3979
331
3851
  5
3993
331
3431
  5
397B
331
3433
  5
397D
331
3853
  5
3995
331
3855
  5
3997
331
344D
  5
3990
331
3435
  5
397F
331
3437
  5
3981
331
5B8B
  5
5B8B
331
5B8D
  5
5B8D
331
3438
  5
3982
  0
GROUP
  5
1C14
102
{ACAD_REACTORS
330
D
102
}
330
D
100
AcDbGroup
300

 70
     1
 71
     1
  0
GROUP
  5
1D37
102
{ACAD_REACTORS
330
D
102
}
330
D
100
AcDbGroup
300

 70
     1
 71
     1
  0
GROUP
  5
1F50
102
{ACAD_REACTORS
330
D
102
}
330
D
100
AcDbGroup
300

 70
     1
 71
     1
  0
GROUP
  5
17099
102
{ACAD_REACTORS
330
D
102
}
330
D
100
AcDbGroup
300

 70
     1
 71
     1
  0
GROUP
  5
1C4D
102
{ACAD_REACTORS
330
D
102
}
330
D
100
AcDbGroup
300

 70
     1
 71
     1
  0
GROUP
  5
2E71
102
{ACAD_REACTORS
330
D
102
}
330
D
100
AcDbGroup
300

 70
     1
 71
     1
  0
GROUP
  5
1C4E
102
{ACAD_REACTORS
330
D
102
}
330
D
100
AcDbGroup
300

 70
     1
 71
     1
  0
GROUP
  5
1C91
102
{ACAD_REACTORS
330
D
102
}
330
D
100
AcDbGroup
300

 70
     1
 71
     1
  0
GROUP
  5
1DB7
102
{ACAD_REACTORS
330
D
102
}
330
D
100
AcDbGroup
300

 70
     1
 71
     1
  0
GROUP
  5
1DB8
102
{ACAD_REACTORS
330
D
102
}
330
D
100
AcDbGroup
300

 70
     1
 71
     1
  0
GROUP
  5
1CC0
102
{ACAD_REACTORS
330
D
102
}
330
D
100
AcDbGroup
300

 70
     1
 71
     1
  0
GROUP
  5
1DDB
102
{ACAD_REACTORS
330
D
102
}
330
D
100
AcDbGroup
300

 70
     1
 71
     1
  0
GROUP
  5
1D70
102
{ACAD_REACTORS
330
D
102
}
330
D
100
AcDbGroup
300

 70
     1
 71
     1
  0
GROUP
  5
1C18
102
{ACAD_REACTORS
330
D
102
}
330
D
100
AcDbGroup
300

 70
     1
 71
     1
  0
GROUP
  5
1C4C
102
{ACAD_REACTORS
330
D
102
}
330
D
100
AcDbGroup
300

 70
     1
 71
     1
  0
GROUP
  5
1C15
102
{ACAD_REACTORS
330
D
102
}
330
D
100
AcDbGroup
300

 70
     1
 71
     1
  0
GROUP
  5
1C63
102
{ACAD_REACTORS
330
D
102
}
330
D
100
AcDbGroup
300

 70
     1
 71
     1
  0
GROUP
  5
1CEE
102
{ACAD_REACTORS
330
D
102
}
330
D
100
AcDbGroup
300

 70
     1
 71
     1
  0
GROUP
  5
1D1C
102
{ACAD_REACTORS
330
D
102
}
330
D
100
AcDbGroup
300

 70
     1
 71
     1
  0
GROUP
  5
1DDC
102
{ACAD_REACTORS
330
D
102
}
330
D
100
AcDbGroup
300

 70
     1
 71
     1
  0
GROUP
  5
1DDD
102
{ACAD_REACTORS
330
D
102
}
330
D
100
AcDbGroup
300

 70
     1
 71
     1
  0
GROUP
  5
1DDE
102
{ACAD_REACTORS
330
D
102
}
330
D
100
AcDbGroup
300

 70
     1
 71
     1
  0
GROUP
  5
1E89
102
{ACAD_REACTORS
330
D
102
}
330
D
100
AcDbGroup
300

 70
     1
 71
     1
  0
GROUP
  5
D024
102
{ACAD_REACTORS
330
D
102
}
330
D
100
AcDbGroup
300

 70
     1
 71
     1
  0
GROUP
  5
1C7C
102
{ACAD_REACTORS
330
D
102
}
330
D
100
AcDbGroup
300

 70
     1
 71
     1
  0
GROUP
  5
107BB
102
{ACAD_REACTORS
330
D
102
}
330
D
100
AcDbGroup
300

 70
     1
 71
     1
  0
GROUP
  5
1D3A
102
{ACAD_REACTORS
330
D
102
}
330
D
100
AcDbGroup
300

 70
     1
 71
     1
  0
GROUP
  5
1D6F
102
{ACAD_REACTORS
330
D
102
}
330
D
100
AcDbGroup
300

 70
     1
 71
     1
  0
GROUP
  5
1D1B
102
{ACAD_REACTORS
330
D
102
}
330
D
100
AcDbGroup
300

 70
     1
 71
     1
  0
GROUP
  5
B05A
102
{ACAD_REACTORS
330
D
102
}
330
D
100
AcDbGroup
300

 70
     1
 71
     1
  0
GROUP
  5
1C92
102
{ACAD_REACTORS
330
D
102
}
330
D
100
AcDbGroup
300

 70
     1
 71
     1
  0
GROUP
  5
1E8A
102
{ACAD_REACTORS
330
D
102
}
330
D
100
AcDbGroup
300

 70
     1
 71
     1
  0
GROUP
  5
1C19
102
{ACAD_REACTORS
330
D
102
}
330
D
100
AcDbGroup
300

 70
     1
 71
     1
  0
GROUP
  5
1E8B
102
{ACAD_REACTORS
330
D
102
}
330
D
100
AcDbGroup
300

 70
     1
 71
     1
  0
GROUP
  5
1E8C
102
{ACAD_REACTORS
330
D
102
}
330
D
100
AcDbGroup
300

 70
     1
 71
     1
  0
GROUP
  5
1CBF
102
{ACAD_REACTORS
330
D
102
}
330
D
100
AcDbGroup
300

 70
     1
 71
     1
  0
GROUP
  5
1CC1
102
{ACAD_REACTORS
330
D
102
}
330
D
100
AcDbGroup
300

 70
     1
 71
     1
  0
GROUP
  5
1E8D
102
{ACAD_REACTORS
330
D
102
}
330
D
100
AcDbGroup
300

 70
     1
 71
     1
  0
GROUP
  5
1E8E
102
{ACAD_REACTORS
330
D
102
}
330
D
100
AcDbGroup
300

 70
     1
 71
     1
  0
GROUP
  5
1C7B
102
{ACAD_REACTORS
330
D
102
}
330
D
100
AcDbGroup
300

 70
     1
 71
     1
  0
GROUP
  5
1D06
102
{ACAD_REACTORS
330
D
102
}
330
D
100
AcDbGroup
300

 70
     1
 71
     1
  0
GROUP
  5
1D34
102
{ACAD_REACTORS
330
D
102
}
330
D
100
AcDbGroup
300

 70
     1
 71
     1
  0
GROUP
  5
D025
102
{ACAD_REACTORS
330
D
102
}
330
D
100
AcDbGroup
300

 70
     1
 71
     1
  0
GROUP
  5
D023
102
{ACAD_REACTORS
330
D
102
}
330
D
100
AcDbGroup
300

 70
     1
 71
     1
  0
GROUP
  5
107BC
102
{ACAD_REACTORS
330
D
102
}
330
D
100
AcDbGroup
300

 70
     1
 71
     1
  0
GROUP
  5
1C64
102
{ACAD_REACTORS
330
D
102
}
330
D
100
AcDbGroup
300

 70
     1
 71
     1
  0
GROUP
  5
1E8F
102
{ACAD_REACTORS
330
D
102
}
330
D
100
AcDbGroup
300

 70
     1
 71
     1
  0
GROUP
  5
1CEF
102
{ACAD_REACTORS
330
D
102
}
330
D
100
AcDbGroup
300

 70
     1
 71
     1
  0
GROUP
  5
1E90
102
{ACAD_REACTORS
330
D
102
}
330
D
100
AcDbGroup
300

 70
     1
 71
     1
  0
GROUP
  5
1E91
102
{ACAD_REACTORS
330
D
102
}
330
D
100
AcDbGroup
300

 70
     1
 71
     1
  0
GROUP
  5
1CAA
102
{ACAD_REACTORS
330
D
102
}
330
D
100
AcDbGroup
300

 70
     1
 71
     1
  0
GROUP
  5
1C93
102
{ACAD_REACTORS
330
D
102
}
330
D
100
AcDbGroup
300

 70
     1
 71
     1
  0
GROUP
  5
AA4F
102
{ACAD_REACTORS
330
D
102
}
330
D
100
AcDbGroup
300

 70
     1
 71
     1
  0
GROUP
  5
1E92
102
{ACAD_REACTORS
330
D
102
}
330
D
100
AcDbGroup
300

 70
     1
 71
     1
  0
GROUP
  5
AA53
102
{ACAD_REACTORS
330
D
102
}
330
D
100
AcDbGroup
300

 70
     1
 71
     1
  0
GROUP
  5
1D1D
102
{ACAD_REACTORS
330
D
102
}
330
D
100
AcDbGroup
300

 70
     1
 71
     1
  0
GROUP
  5
1E93
102
{ACAD_REACTORS
330
D
102
}
330
D
100
AcDbGroup
300

 70
     1
 71
     1
  0
GROUP
  5
1648C
102
{ACAD_REACTORS
330
D
102
}
330
D
100
AcDbGroup
300

 70
     1
 71
     1
  0
GROUP
  5
1E94
102
{ACAD_REACTORS
330
D
102
}
330
D
100
AcDbGroup
300

 70
     1
 71
     1
  0
GROUP
  5
141CE
102
{ACAD_REACTORS
330
D
102
}
330
D
100
AcDbGroup
300

 70
     1
 71
     1
  0
GROUP
  5
1D38
102
{ACAD_REACTORS
330
D
102
}
330
D
100
AcDbGroup
300

 70
     1
 71
     1
  0
GROUP
  5
47F2
102
{ACAD_REACTORS
330
D
102
}
330
D
100
AcDbGroup
300

 70
     1
 71
     1
  0
GROUP
  5
1CD6
102
{ACAD_REACTORS
330
D
102
}
330
D
100
AcDbGroup
300

 70
     1
 71
     1
  0
GROUP
  5
1EA7
102
{ACAD_REACTORS
330
D
102
}
330
D
100
AcDbGroup
300

 70
     1
 71
     1
  0
GROUP
  5
AA51
102
{ACAD_REACTORS
330
D
102
}
330
D
100
AcDbGroup
300

 70
     1
 71
     1
  0
GROUP
  5
1EB9
102
{ACAD_REACTORS
330
D
102
}
330
D
100
AcDbGroup
300

 70
     1
 71
     1
  0
GROUP
  5
1ECB
102
{ACAD_REACTORS
330
D
102
}
330
D
100
AcDbGroup
300

 70
     1
 71
     1
  0
GROUP
  5
ABEE
102
{ACAD_REACTORS
330
D
102
}
330
D
100
AcDbGroup
300

 70
     1
 71
     1
  0
GROUP
  5
1D04
102
{ACAD_REACTORS
330
D
102
}
330
D
100
AcDbGroup
300

 70
     1
 71
     1
  0
GROUP
  5
1EDD
102
{ACAD_REACTORS
330
D
102
}
330
D
100
AcDbGroup
300

 70
     1
 71
     1
  0
GROUP
  5
1C65
102
{ACAD_REACTORS
330
D
102
}
330
D
100
AcDbGroup
300

 70
     1
 71
     1
  0
GROUP
  5
1648D
102
{ACAD_REACTORS
330
D
102
}
330
D
100
AcDbGroup
300

 70
     1
 71
     1
  0
GROUP
  5
1CD8
102
{ACAD_REACTORS
330
D
102
}
330
D
100
AcDbGroup
300

 70
     1
 71
     1
  0
GROUP
  5
1EDE
102
{ACAD_REACTORS
330
D
102
}
330
D
100
AcDbGroup
300

 70
     1
 71
     1
  0
GROUP
  5
1D32
102
{ACAD_REACTORS
330
D
102
}
330
D
100
AcDbGroup
300

 70
     1
 71
     1
  0
GROUP
  5
141CF
102
{ACAD_REACTORS
330
D
102
}
330
D
100
AcDbGroup
300

 70
     1
 71
     1
  0
GROUP
  5
AA52
102
{ACAD_REACTORS
330
D
102
}
330
D
100
AcDbGroup
300

 70
     1
 71
     1
  0
GROUP
  5
1EDF
102
{ACAD_REACTORS
330
D
102
}
330
D
100
AcDbGroup
300

 70
     1
 71
     1
  0
GROUP
  5
1CED
102
{ACAD_REACTORS
330
D
102
}
330
D
100
AcDbGroup
300

 70
     1
 71
     1
  0
GROUP
  5
1CA8
102
{ACAD_REACTORS
330
D
102
}
330
D
100
AcDbGroup
300

 70
     1
 71
     1
  0
GROUP
  5
ABEF
102
{ACAD_REACTORS
330
D
102
}
330
D
100
AcDbGroup
300

 70
     1
 71
     1
  0
GROUP
  5
1EE0
102
{ACAD_REACTORS
330
D
102
}
330
D
100
AcDbGroup
300

 70
     1
 71
     1
  0
GROUP
  5
1EE1
102
{ACAD_REACTORS
330
D
102
}
330
D
100
AcDbGroup
300

 70
     1
 71
     1
  0
GROUP
  5
5B7E
102
{ACAD_REACTORS
330
D
102
}
330
D
100
AcDbGroup
300

 70
     1
 71
     1
  0
GROUP
  5
1CD7
102
{ACAD_REACTORS
330
D
102
}
330
D
100
AcDbGroup
300

 70
     1
 71
     1
  0
GROUP
  5
1EE2
102
{ACAD_REACTORS
330
D
102
}
330
D
100
AcDbGroup
300

 70
     1
 71
     1
  0
GROUP
  5
1EE3
102
{ACAD_REACTORS
330
D
102
}
330
D
100
AcDbGroup
300

 70
     1
 71
     1
  0
GROUP
  5
1D05
102
{ACAD_REACTORS
330
D
102
}
330
D
100
AcDbGroup
300

 70
     1
 71
     1
  0
GROUP
  5
171A5
102
{ACAD_REACTORS
330
D
102
}
330
D
100
AcDbGroup
300

 70
     1
 71
     1
  0
GROUP
  5
1EE4
102
{ACAD_REACTORS
330
D
102
}
330
D
100
AcDbGroup
300

 70
     1
 71
     1
  0
GROUP
  5
1D4C
102
{ACAD_REACTORS
330
D
102
}
330
D
100
AcDbGroup
300

 70
     1
 71
     1
  0
GROUP
  5
1F29
102
{ACAD_REACTORS
330
D
102
}
330
D
100
AcDbGroup
300

 70
     1
 71
     1
  0
GROUP
  5
1D33
102
{ACAD_REACTORS
330
D
102
}
330
D
100
AcDbGroup
300

 70
     1
 71
     1
  0
GROUP
  5
AC4F
102
{ACAD_REACTORS
330
D
102
}
330
D
100
AcDbGroup
300

 70
     1
 71
     1
  0
GROUP
  5
1D94
102
{ACAD_REACTORS
330
D
102
}
330
D
100
AcDbGroup
300

 70
     1
 71
     1
  0
GROUP
  5
1D39
102
{ACAD_REACTORS
330
D
102
}
330
D
100
AcDbGroup
300

 70
     1
 71
     1
  0
GROUP
  5
1F2A
102
{ACAD_REACTORS
330
D
102
}
330
D
100
AcDbGroup
300

 70
     1
 71
     1
  0
GROUP
  5
1F2B
102
{ACAD_REACTORS
330
D
102
}
330
D
100
AcDbGroup
300

 70
     1
 71
     1
  0
GROUP
  5
1C7A
102
{ACAD_REACTORS
330
D
102
}
330
D
100
AcDbGroup
300

 70
     1
 71
     1
  0
GROUP
  5
1F2C
102
{ACAD_REACTORS
330
D
102
}
330
D
100
AcDbGroup
300

 70
     1
 71
     1
  0
GROUP
  5
1D93
102
{ACAD_REACTORS
330
D
102
}
330
D
100
AcDbGroup
300

 70
     1
 71
     1
  0
GROUP
  5
1CA9
102
{ACAD_REACTORS
330
D
102
}
330
D
100
AcDbGroup
300

 70
     1
 71
     1
  0
GROUP
  5
1F3E
102
{ACAD_REACTORS
330
D
102
}
330
D
100
AcDbGroup
300

 70
     1
 71
     1
  0
GROUP
  5
1C16
102
{ACAD_REACTORS
330
D
102
}
330
D
100
AcDbGroup
300

 70
     1
 71
     1
  0
GROUP
  5
142AA
102
{ACAD_REACTORS
330
D
102
}
330
D
100
AcDbGroup
300

 70
     1
 71
     1
  0
LAYOUT
  5
1E
102
{ACAD_XDICTIONARY
360
173BA
102
}
102
{ACAD_REACTORS
330
1A
102
}
330
1A
100
AcDbPlotSettings
  1

  2
none_device
  4

  6

 40
0.0
 41
0.0
 42
0.0
 43
0.0
 44
0.0
 45
0.0
 46
0.0
 47
0.0
 48
0.0
 49
0.0
140
0.0
141
0.0
142
1.0
143
1.0
 70
   688
 72
     0
 73
     0
 74
     5
  7

 75
    16
147
1.0
148
0.0
149
0.0
100
AcDbLayout
  1
Layout1
 70
     1
 71
     1
 10
0.0
 20
0.0
 11
420.0
 21
297.0
 12
0.0
 22
0.0
 32
0.0
 14
1.000000000000000E+20
 24
1.000000000000000E+20
 34
1.000000000000000E+20
 15
-1.000000000000000E+20
 25
-1.000000000000000E+20
 35
-1.000000000000000E+20
146
0.0
 13
0.0
 23
0.0
 33
0.0
 16
1.0
 26
0.0
 36
0.0
 17
0.0
 27
1.0
 37
0.0
 76
     0
330
1B
  0
LAYOUT
  5
26
102
{ACAD_XDICTIONARY
360
173BE
102
}
102
{ACAD_REACTORS
330
1A
102
}
330
1A
100
AcDbPlotSettings
  1

  2
none_device
  4

  6

 40
0.0
 41
0.0
 42
0.0
 43
0.0
 44
0.0
 45
0.0
 46
0.0
 47
0.0
 48
0.0
 49
0.0
140
0.0
141
0.0
142
1.0
143
1.0
 70
   688
 72
     0
 73
     0
 74
     5
  7

 75
    16
147
1.0
148
0.0
149
0.0
100
AcDbLayout
  1
Layout2
 70
     1
 71
     2
 10
0.0
 20
0.0
 11
0.0
 21
0.0
 12
0.0
 22
0.0
 32
0.0
 14
0.0
 24
0.0
 34
0.0
 15
0.0
 25
0.0
 35
0.0
146
0.0
 13
0.0
 23
0.0
 33
0.0
 16
1.0
 26
0.0
 36
0.0
 17
0.0
 27
1.0
 37
0.0
 76
     0
330
23
  0
LAYOUT
  5
22
102
{ACAD_XDICTIONARY
360
173BC
102
}
102
{ACAD_REACTORS
330
1A
102
}
330
1A
100
AcDbPlotSettings
  1

  2
none_device
  4
ISO_A4_(210.00_x_297.00_MM)
  6

 40
7.5
 41
20.0
 42
7.5
 43
20.0
 44
210.0
 45
297.0
 46
0.0
 47
0.0
 48
0.0
 49
0.0
140
0.0
141
0.0
142
1.0
143
2.675783684477167
 70
 11952
 72
     1
 73
     1
 74
     0
  7

 75
     0
147
0.3737222877175119
148
47.37640633285258
149
3.7240743230941
100
AcDbLayout
  1
Model
 70
     1
 71
     0
 10
0.0
 20
0.0
 11
594.0
 21
420.0
 12
0.0
 22
0.0
 32
0.0
 14
0.0
 24
0.0
 34
0.0
 15
594.0
 25
420.0
 35
0.0
146
0.0
 13
0.0
 23
0.0
 33
0.0
 16
1.0
 26
0.0
 36
0.0
 17
0.0
 27
1.0
 37
0.0
 76
     0
330
1F
1001
ACAD_PSEXT
1000
Kein
1000
Kein
1000
Nicht anwendbar
1000
Das Layout wird erst geplottet, wenn ein neuer Plotter-Konfigurationsname ausgewählt wird.
1070
     0
  0
MATERIAL
  5
E5E1
102
{ACAD_XDICTIONARY
360
E5E2
102
}
102
{ACAD_REACTORS
330
1C0F
102
}
330
1C0F
100
AcDbMaterial
  1
ByBlock
  0
MATERIAL
  5
E5E4
102
{ACAD_XDICTIONARY
360
E5E5
102
}
102
{ACAD_REACTORS
330
1C0F
102
}
330
1C0F
100
AcDbMaterial
  1
ByLayer
  0
MATERIAL
  5
D364
102
{ACAD_XDICTIONARY
360
D365
102
}
102
{ACAD_REACTORS
330
1C0F
102
}
330
1C0F
100
AcDbMaterial
  1
Global
  0
MLINESTYLE
  5
18
102
{ACAD_REACTORS
330
17
102
}
330
17
100
AcDbMlineStyle
  2
STANDARD
 70
     0
  3

 62
   256
 51
90.0
 52
90.0
 71
     2
 49
0.5
 62
   256
  6
BYLAYER
 49
-0.5
 62
   256
  6
BYLAYER
  0
ACDBPLACEHOLDER
  5
F
102
{ACAD_REACTORS
330
E
102
}
330
E
  0
TABLESTYLE
  5
1C11
102
{ACAD_REACTORS
330
1C09
102
}
330
1C09
100
AcDbTableStyle
  3
Standard
 70
     0
 71
     0
 40
1.5
 41
1.5
280
     0
281
     0
  7
Standard
140
4.5
170
     2
 62
     0
 63
     7
283
     0
274
    -2
284
     1
 64
     0
275
    -2
285
     1
 65
     0
276
    -2
286
     1
 66
     0
277
    -2
287
     1
 67
     0
278
    -2
288
     1
 68
     0
279
    -2
289
     1
 69
     0
  7
Standard
140
6.0
170
     5
 62
     0
 63
     7
283
     0
274
    -2
284
     1
 64
     0
275
    -2
285
     1
 65
     0
276
    -2
286
     1
 66
     0
277
    -2
287
     1
 67
     0
278
    -2
288
     1
 68
     0
279
    -2
289
     1
 69
     0
  7
Standard
140
4.5
170
     5
 62
     0
 63
     7
283
     0
274
    -2
284
     1
 64
     0
275
    -2
285
     1
 65
     0
276
    -2
286
     1
 66
     0
277
    -2
287
     1
 67
     0
278
    -2
288
     1
 68
     0
279
    -2
289
     1
 69
     0
  0
ACAD_PROXY_OBJECT
  5
2F
102
{ACAD_REACTORS
330
2A
102
}
330
2A
100
AcDbProxyObject
 90
      499
 91
      501
 95
   983063
 70
     0
 93
      436
310
42CC9915DA5C99599C985B595049028333333333333E3BF0000000000000FB0107901411070040501600405405064090741402480A0346
 94
        0
1001
ACAD
1000
AcDbSavedByObjectVersion
1070
     0
1000
AcRTDxfName
1000
VISUALSTYLE
1000
AcRTDxfName
1000
VISUALSTYLE
1000
AcRTDxfName
1000
VISUALSTYLE
1000
AcRTDxfName
1000
VISUALSTYLE
1000
AcRTDxfName
1000
VISUALSTYLE
1000
AcRTDxfName
1000
VISUALSTYLE
1000
AcRTDxfName
1000
VISUALSTYLE
1000
AcRTDxfName
1000
VISUALSTYLE
  0
ACAD_PROXY_OBJECT
  5
31
102
{ACAD_REACTORS
330
2A
102
}
330
2A
100
AcDbProxyObject
 90
      499
 91
      501
 95
   983063
 70
     0
 93
      500
310
424CD108121A5919195B90640502408333333333333E3BF0000000000000FB01079024090700405020000000000001110200405405064090740C02480A0344
 94
        0
1001
ACAD
1000
AcDbSavedByObjectVersion
1070
     0
1000
AcRTDxfName
1000
VISUALSTYLE
1000
AcRTDxfName
1000
VISUALSTYLE
1000
AcRTDxfName
1000
VISUALSTYLE
1000
AcRTDxfName
1000
VISUALSTYLE
1000
AcRTDxfName
1000
VISUALSTYLE
1000
AcRTDxfName
1000
VISUALSTYLE
1000
AcRTDxfName
1000
VISUALSTYLE
1000
AcRTDxfName
1000
VISUALSTYLE
  0
ACAD_PROXY_OBJECT
  5
30
102
{ACAD_REACTORS
330
2A
102
}
330
2A
100
AcDbProxyObject
 90
      499
 91
      501
 95
   983063
 70
     0
 93
      436
310
42CCD915DA5C99599C985B595059028333333333333E3BF0000000000000FB0107901411070040501600405405064090741402480A0340
 94
        0
1001
ACAD
1000
AcDbSavedByObjectVersion
1070
     0
1000
AcRTDxfName
1000
VISUALSTYLE
1000
AcRTDxfName
1000
VISUALSTYLE
1000
AcRTDxfName
1000
VISUALSTYLE
1000
AcRTDxfName
1000
VISUALSTYLE
1000
AcRTDxfName
1000
VISUALSTYLE
1000
AcRTDxfName
1000
VISUALSTYLE
1000
AcRTDxfName
1000
VISUALSTYLE
1000
AcRTDxfName
1000
VISUALSTYLE
  0
ACAD_PROXY_OBJECT
  5
32
102
{ACAD_REACTORS
330
2A
102
}
330
2A
100
AcDbProxyObject
 90
      499
 91
      501
 95
   983063
 70
     0
 93
      388
310
4150985CDA58D07406404333333333333E3BF0000000000000FB0107A41107004050150841D405064090741402480A0354
 94
        0
1001
ACAD
1000
AcDbSavedByObjectVersion
1070
     0
1000
AcRTDxfName
1000
VISUALSTYLE
1000
AcRTDxfName
1000
VISUALSTYLE
1000
AcRTDxfName
1000
VISUALSTYLE
1000
AcRTDxfName
1000
VISUALSTYLE
1000
AcRTDxfName
1000
VISUALSTYLE
1000
AcRTDxfName
1000
VISUALSTYLE
1000
AcRTDxfName
1000
VISUALSTYLE
1000
AcRTDxfName
1000
VISUALSTYLE
  0
ACAD_PROXY_OBJECT
  5
36
102
{ACAD_REACTORS
330
2A
102
}
330
2A
100
AcDbProxyObject
 90
      499
 91
      501
 95
   983063
 70
     0
 93
      428
310
42109C9A59DA1D195B90C409028333333333333E3BF0000000000000FB010790141107004050150841D405064090741402480A029956
 94
        0
1001
ACAD
1000
AcDbSavedByObjectVersion
1070
     0
1000
AcRTDxfName
1000
VISUALSTYLE
1000
AcRTDxfName
1000
VISUALSTYLE
1000
AcRTDxfName
1000
VISUALSTYLE
1000
AcRTDxfName
1000
VISUALSTYLE
1000
AcRTDxfName
1000
VISUALSTYLE
1000
AcRTDxfName
1000
VISUALSTYLE
1000
AcRTDxfName
1000
VISUALSTYLE
1000
AcRTDxfName
1000
VISUALSTYLE
  0
ACAD_PROXY_OBJECT
  5
3A
102
{ACAD_REACTORS
330
2A
102
}
330
2A
100
AcDbProxyObject
 90
      499
 91
      501
 95
   983063
 70
     0
 93
      452
310
42D0DBDB1BDC90DA185B99D95104090240C333333333333E3BF0000000000000FB0108901411070040501508421405064090741402480A0354
 94
        0
1001
ACAD
1000
AcDbSavedByObjectVersion
1070
     0
1000
AcRTDxfName
1000
VISUALSTYLE
1000
AcRTDxfName
1000
VISUALSTYLE
1000
AcRTDxfName
1000
VISUALSTYLE
1000
AcRTDxfName
1000
VISUALSTYLE
1000
AcRTDxfName
1000
VISUALSTYLE
1000
AcRTDxfName
1000
VISUALSTYLE
1000
AcRTDxfName
1000
VISUALSTYLE
1000
AcRTDxfName
1000
VISUALSTYLE
  0
ACAD_PROXY_OBJECT
  5
34
102
{ACAD_REACTORS
330
2A
102
}
330
2A
100
AcDbProxyObject
 90
      499
 91
      501
 95
   983063
 70
     0
 93
      500
310
4290DBDB98D95C1D1D585B10940D028333333333333E3BF0000000000000FB0107902409070040501000000000000111010841D405064090740C02480A0340
 94
        0
1001
ACAD
1000
AcDbSavedByObjectVersion
1070
     0
1000
AcRTDxfName
1000
VISUALSTYLE
1000
AcRTDxfName
1000
VISUALSTYLE
1000
AcRTDxfName
1000
VISUALSTYLE
1000
AcRTDxfName
1000
VISUALSTYLE
1000
AcRTDxfName
1000
VISUALSTYLE
1000
AcRTDxfName
1000
VISUALSTYLE
1000
AcRTDxfName
1000
VISUALSTYLE
1000
AcRTDxfName
1000
VISUALSTYLE
  0
ACAD_PROXY_OBJECT
  5
35
102
{ACAD_REACTORS
330
2A
102
}
330
2A
100
AcDbProxyObject
 90
      499
 91
      501
 95
   983063
 70
     0
 93
      412
310
40D11A5B50B409028333333333333E3BF0000000000000FB010790141107004050150841D405064090741402480A02677FFFFFDB
 94
        0
1001
ACAD
1000
AcDbSavedByObjectVersion
1070
     0
1000
AcRTDxfName
1000
VISUALSTYLE
1000
AcRTDxfName
1000
VISUALSTYLE
1000
AcRTDxfName
1000
VISUALSTYLE
1000
AcRTDxfName
1000
VISUALSTYLE
1000
AcRTDxfName
1000
VISUALSTYLE
1000
AcRTDxfName
1000
VISUALSTYLE
1000
AcRTDxfName
1000
VISUALSTYLE
1000
AcRTDxfName
1000
VISUALSTYLE
  0
ACAD_PROXY_OBJECT
  5
39
102
{ACAD_REACTORS
330
2A
102
}
330
2A
100
AcDbProxyObject
 90
      499
 91
      501
 95
   983063
 70
     0
 93
      444
310
42D19858D95C185D1D195C9B90F409028333333333333E3BF0000000000000FB010790141107004050150841D405064090741402480A0350
 94
        0
1001
ACAD
1000
AcDbSavedByObjectVersion
1070
     0
1000
AcRTDxfName
1000
VISUALSTYLE
1000
AcRTDxfName
1000
VISUALSTYLE
1000
AcRTDxfName
1000
VISUALSTYLE
1000
AcRTDxfName
1000
VISUALSTYLE
1000
AcRTDxfName
1000
VISUALSTYLE
1000
AcRTDxfName
1000
VISUALSTYLE
1000
AcRTDxfName
1000
VISUALSTYLE
1000
AcRTDxfName
1000
VISUALSTYLE
  0
ACAD_PROXY_OBJECT
  5
2B
102
{ACAD_REACTORS
330
2A
102
}
330
2A
100
AcDbProxyObject
 90
      499
 91
      501
 95
   983063
 70
     0
 93
      388
310
41119B185D240901404333333333333E3BF0000000000000F9010740A41107004050150841D405064090741402480A1B50
 94
        0
1001
ACAD
1000
AcDbSavedByObjectVersion
1070
     0
1000
AcRTDxfName
1000
VISUALSTYLE
1000
AcRTDxfName
1000
VISUALSTYLE
1000
AcRTDxfName
1000
VISUALSTYLE
1000
AcRTDxfName
1000
VISUALSTYLE
1000
AcRTDxfName
1000
VISUALSTYLE
1000
AcRTDxfName
1000
VISUALSTYLE
1000
AcRTDxfName
1000
VISUALSTYLE
1000
AcRTDxfName
1000
VISUALSTYLE
  0
ACAD_PROXY_OBJECT
  5
2C
102
{ACAD_REACTORS
330
2A
102
}
330
2A
100
AcDbProxyObject
 90
      499
 91
      501
 95
   983063
 70
     0
 93
      476
310
43519B185D15DA5D1A115919D95CD0140901404333333333333E3BF0000000000000F9010740901411070040501600405405064090741402480A1B54
 94
        0
1001
ACAD
1000
AcDbSavedByObjectVersion
1070
     0
1000
AcRTDxfName
1000
VISUALSTYLE
1000
AcRTDxfName
1000
VISUALSTYLE
1000
AcRTDxfName
1000
VISUALSTYLE
1000
AcRTDxfName
1000
VISUALSTYLE
1000
AcRTDxfName
1000
VISUALSTYLE
1000
AcRTDxfName
1000
VISUALSTYLE
1000
AcRTDxfName
1000
VISUALSTYLE
1000
AcRTDxfName
1000
VISUALSTYLE
  0
ACAD_PROXY_OBJECT
  5
2D
102
{ACAD_REACTORS
330
2A
102
}
330
2A
100
AcDbProxyObject
 90
      499
 91
      501
 95
   983063
 70
     0
 93
      412
310
41D1DBDD5C985D5910240902404333333333333E3BF0000000000000F9010740A411070040501641D405064090741402480A1B57
 94
        0
1001
ACAD
1000
AcDbSavedByObjectVersion
1070
     0
1000
AcRTDxfName
1000
VISUALSTYLE
1000
AcRTDxfName
1000
VISUALSTYLE
1000
AcRTDxfName
1000
VISUALSTYLE
1000
AcRTDxfName
1000
VISUALSTYLE
1000
AcRTDxfName
1000
VISUALSTYLE
1000
AcRTDxfName
1000
VISUALSTYLE
1000
AcRTDxfName
1000
VISUALSTYLE
1000
AcRTDxfName
1000
VISUALSTYLE
  0
ACAD_PROXY_OBJECT
  5
2E
102
{ACAD_REACTORS
330
2A
102
}
330
2A
100
AcDbProxyObject
 90
      499
 91
      501
 95
   983063
 70
     0
 93
      500
310
4411DBDD5C985D5915DA5D1A115919D95CD0340902404333333333333E3BF0000000000000F9010740901411070040501600405405064090741402480A1B50
 94
        0
1001
ACAD
1000
AcDbSavedByObjectVersion
1070
     0
1000
AcRTDxfName
1000
VISUALSTYLE
1000
AcRTDxfName
1000
VISUALSTYLE
1000
AcRTDxfName
1000
VISUALSTYLE
1000
AcRTDxfName
1000
VISUALSTYLE
1000
AcRTDxfName
1000
VISUALSTYLE
1000
AcRTDxfName
1000
VISUALSTYLE
1000
AcRTDxfName
1000
VISUALSTYLE
1000
AcRTDxfName
1000
VISUALSTYLE
  0
ACAD_PROXY_OBJECT
  5
38
102
{ACAD_REACTORS
330
2A
102
}
330
2A
100
AcDbProxyObject
 90
      499
 91
      501
 95
   983063
 70
     0
 93
      444
310
42D31A5B995C185D1D195C9B90E409028333333333333E3BF0000000000000FB010790141107004050750841D405064090741402483A0350
 94
        0
1001
ACAD
1000
AcDbSavedByObjectVersion
1070
     0
1000
AcRTDxfName
1000
VISUALSTYLE
1000
AcRTDxfName
1000
VISUALSTYLE
1000
AcRTDxfName
1000
VISUALSTYLE
1000
AcRTDxfName
1000
VISUALSTYLE
1000
AcRTDxfName
1000
VISUALSTYLE
1000
AcRTDxfName
1000
VISUALSTYLE
1000
AcRTDxfName
1000
VISUALSTYLE
1000
AcRTDxfName
1000
VISUALSTYLE
  0
ACAD_PROXY_OBJECT
  5
33
102
{ACAD_REACTORS
330
2A
102
}
330
2A
100
AcDbProxyObject
 90
      499
 91
      501
 95
   983063
 70
     0
 93
      420
310
425499585B1A5CDD1A58D08409028333333333333E3BF0000000000000FB01079019070040501508421405064090741402480A1B45
 94
        0
1001
ACAD
1000
AcDbSavedByObjectVersion
1070
     0
1000
AcRTDxfName
1000
VISUALSTYLE
1000
AcRTDxfName
1000
VISUALSTYLE
1000
AcRTDxfName
1000
VISUALSTYLE
1000
AcRTDxfName
1000
VISUALSTYLE
1000
AcRTDxfName
1000
VISUALSTYLE
1000
AcRTDxfName
1000
VISUALSTYLE
1000
AcRTDxfName
1000
VISUALSTYLE
1000
AcRTDxfName
1000
VISUALSTYLE
  0
ACAD_PROXY_OBJECT
  5
37
102
{ACAD_REACTORS
330
2A
102
}
330
2A
100
AcDbProxyObject
 90
      499
 91
      501
 95
   983063
 70
     0
 93
      412
310
41D51A1A58DAD95B90D409028333333333333E3BF0000000000000FB010790141107004050150C41D405064090741402480A035B
 94
        0
1001
ACAD
1000
AcDbSavedByObjectVersion
1070
     0
1000
AcRTDxfName
1000
VISUALSTYLE
1000
AcRTDxfName
1000
VISUALSTYLE
1000
AcRTDxfName
1000
VISUALSTYLE
1000
AcRTDxfName
1000
VISUALSTYLE
1000
AcRTDxfName
1000
VISUALSTYLE
1000
AcRTDxfName
1000
VISUALSTYLE
1000
AcRTDxfName
1000
VISUALSTYLE
1000
AcRTDxfName
1000
VISUALSTYLE
  0
DICTIONARYVAR
  5
1D36
102
{ACAD_REACTORS
330
1C0B
102
}
330
1C0B
100
DictionaryVariables
280
     0
  1
STANDARD
  0
DICTIONARYVAR
  5
39A7
102
{ACAD_REACTORS
330
1C0B
102
}
330
1C0B
100
DictionaryVariables
280
     0
  1
1
  0
DICTIONARYVAR
  5
39A8
102
{ACAD_REACTORS
330
1C0B
102
}
330
1C0B
100
DictionaryVariables
280
     0
  1

  0
DICTIONARYVAR
  5
1C0D
102
{ACAD_REACTORS
330
1C0B
102
}
330
1C0B
100
DictionaryVariables
280
     0
  1
80.000000
  0
DICTIONARYVAR
  5
1C0C
102
{ACAD_REACTORS
330
1C0B
102
}
330
1C0B
100
DictionaryVariables
280
     0
  1
5.000000
  0
DICTIONARY
  5
173BA
330
1E
100
AcDbDictionary
280
     1
281
     1
  3
ACAD_XREC_ROUNDTRIP
360
173BB
  0
DICTIONARY
  5
173BE
330
26
100
AcDbDictionary
280
     1
281
     1
  3
ACAD_XREC_ROUNDTRIP
360
173BF
  0
DICTIONARY
  5
173BC
330
22
100
AcDbDictionary
280
     1
281
     1
  3
ACAD_XREC_ROUNDTRIP
360
173BD
  0
DICTIONARY
  5
E5E2
330
E5E1
100
AcDbDictionary
280
     1
281
     1
  3
ACAD_XREC_ROUNDTRIP
360
E5E3
  0
DICTIONARY
  5
E5E5
330
E5E4
100
AcDbDictionary
280
     1
281
     1
  3
ACAD_XREC_ROUNDTRIP
360
E5E6
  0
DICTIONARY
  5
D365
330
D364
100
AcDbDictionary
280
     1
281
     1
  3
ACAD_XREC_ROUNDTRIP
360
D366
  0
XRECORD
  5
173BB
102
{ACAD_REACTORS
330
173BA
102
}
330
173BA
100
AcDbXrecord
280
     1
102
SHADEPLOT
 70
     0
102
SHADEPLOTRESLEVEL
 70
     2
102
SHADEPLOTCUSTOMDPI
 70
   300
  0
XRECORD
  5
173BF
102
{ACAD_REACTORS
330
173BE
102
}
330
173BE
100
AcDbXrecord
280
     1
102
SHADEPLOT
 70
     0
102
SHADEPLOTRESLEVEL
 70
     2
102
SHADEPLOTCUSTOMDPI
 70
   300
  0
XRECORD
  5
173BD
102
{ACAD_REACTORS
330
173BC
102
}
330
173BC
100
AcDbXrecord
280
     1
102
SHADEPLOT
 70
     0
102
SHADEPLOTRESLEVEL
 70
     2
102
SHADEPLOTCUSTOMDPI
 70
   300
  0
XRECORD
  5
E5E3
102
{ACAD_REACTORS
330
E5E2
102
}
330
E5E2
100
AcDbXrecord
280
     1
102
MATERIAL
148
0.0
149
0.0
149
0.0
 93
        0
 94
      127
282
     0
 72
     1
 77
     1
171
     1
175
     1
179
     1
273
     0
  0
XRECORD
  5
E5E6
102
{ACAD_REACTORS
330
E5E5
102
}
330
E5E5
100
AcDbXrecord
280
     1
102
MATERIAL
148
0.0
149
0.0
149
0.0
 93
        0
 94
      127
282
     0
 72
     1
 77
     1
171
     1
175
     1
179
     1
273
     0
  0
XRECORD
  5
D366
102
{ACAD_REACTORS
330
D365
102
}
330
D365
100
AcDbXrecord
280
     1
102
MATERIAL
148
0.0
149
0.0
149
0.0
 93
        0
 94
      127
282
     0
 72
     1
 77
     1
171
     1
175
     1
179
     1
273
     0
  0
ENDSEC
  0
EOF
