  0
SECTION
  2
HEADER
  9
$ACADVER
  1
AC1015
  9
$ACADMAINTVER
 70
    20
  9
$DWGCODEPAGE
  3
ANSI_1252
  9
$INSBASE
 10
0.0
 20
0.0
 30
0.0
  9
$EXTMIN
 10
-0.0077353028100333
 20
-0.0084687760305542
 30
-0.0000000000000053
  9
$EXTMAX
 10
594.0124323767808
 20
420.0243088845439
 30
0.0000000000000099
  9
$LIMMIN
 10
0.0
 20
0.0
  9
$LIMMAX
 10
594.0
 20
420.0
  9
$ORTHOMODE
 70
     1
  9
$REGENMODE
 70
     1
  9
$FILLMODE
 70
     1
  9
$QTEXTMODE
 70
     0
  9
$MIRRTEXT
 70
     1
  9
$LTSCALE
 40
1.0
  9
$ATTMODE
 70
     1
  9
$TEXTSIZE
 40
2.5
  9
$TRACEWID
 40
1.0
  9
$TEXTSTYLE
  7
OLED
  9
$CLAYER
  8
abmessung
  9
$CELTYPE
  6
ByLayer
  9
$CECOLOR
 62
   256
  9
$CELTSCALE
 40
1.0
  9
$DISPSILH
 70
     0
  9
$DIMSCALE
 40
1.0
  9
$DIMASZ
 40
3.5
  9
$DIMEXO
 40
0.625
  9
$DIMDLI
 40
3.75
  9
$DIMRND
 40
0.0
  9
$DIMDLE
 40
0.0
  9
$DIMEXE
 40
1.25
  9
$DIMTP
 40
0.0
  9
$DIMTM
 40
0.0
  9
$DIMTXT
 40
3.5
  9
$DIMCEN
 40
3.5
  9
$DIMTSZ
 40
0.0
  9
$DIMTOL
 70
     0
  9
$DIMLIM
 70
     0
  9
$DIMTIH
 70
     0
  9
$DIMTOH
 70
     0
  9
$DIMSE1
 70
     0
  9
$DIMSE2
 70
     0
  9
$DIMTAD
 70
     1
  9
$DIMZIN
 70
     8
  9
$DIMBLK
  1

  9
$DIMASO
 70
     1
  9
$DIMSHO
 70
     1
  9
$DIMPOST
  1

  9
$DIMAPOST
  1

  9
$DIMALT
 70
     0
  9
$DIMALTD
 70
     3
  9
$DIMALTF
 40
0.03937007874016
  9
$DIMLFAC
 40
1.0
  9
$DIMTOFL
 70
     1
  9
$DIMTVP
 40
0.0
  9
$DIMTIX
 70
     0
  9
$DIMSOXD
 70
     0
  9
$DIMSAH
 70
     0
  9
$DIMBLK1
  1

  9
$DIMBLK2
  1

  9
$DIMSTYLE
  2
ISO-25
  9
$DIMCLRD
 70
     0
  9
$DIMCLRE
 70
     0
  9
$DIMCLRT
 70
     0
  9
$DIMTFAC
 40
1.0
  9
$DIMGAP
 40
1.5
  9
$DIMJUST
 70
     0
  9
$DIMSD1
 70
     0
  9
$DIMSD2
 70
     0
  9
$DIMTOLJ
 70
     0
  9
$DIMTZIN
 70
     8
  9
$DIMALTZ
 70
     0
  9
$DIMALTTZ
 70
     0
  9
$DIMUPT
 70
     0
  9
$DIMDEC
 70
     2
  9
$DIMTDEC
 70
     2
  9
$DIMALTU
 70
     2
  9
$DIMALTTD
 70
     3
  9
$DIMTXSTY
  7
Standard
  9
$DIMAUNIT
 70
     0
  9
$DIMADEC
 70
     0
  9
$DIMALTRND
 40
0.0
  9
$DIMAZIN
 70
     0
  9
$DIMDSEP
 70
    44
  9
$DIMATFIT
 70
     3
  9
$DIMFRAC
 70
     0
  9
$DIMLDRBLK
  1

  9
$DIMLUNIT
 70
     2
  9
$DIMLWD
 70
    -2
  9
$DIMLWE
 70
    -2
  9
$DIMTMOVE
 70
     0
  9
$LUNITS
 70
     2
  9
$LUPREC
 70
     2
  9
$SKETCHINC
 40
1.0
  9
$FILLETRAD
 40
10.0
  9
$AUNITS
 70
     0
  9
$AUPREC
 70
     0
  9
$MENU
  1
.
  9
$ELEVATION
 40
0.0
  9
$PELEVATION
 40
0.0
  9
$THICKNESS
 40
0.0
  9
$LIMCHECK
 70
     0
  9
$CHAMFERA
 40
10.0
  9
$CHAMFERB
 40
10.0
  9
$CHAMFERC
 40
20.0
  9
$CHAMFERD
 40
0.0
  9
$SKPOLY
 70
     0
  9
$TDCREATE
 40
2455069.349989144
  9
$TDUCREATE
 40
2455069.308322477
  9
$TDUPDATE
 40
2455593.608819803
  9
$TDUUPDATE
 40
2455593.567153137
  9
$TDINDWG
 40
0.6520835069
  9
$TDUSRTIMER
 40
0.6520835069
  9
$USRTIMER
 70
     1
  9
$ANGBASE
 50
0.0
  9
$ANGDIR
 70
     0
  9
$PDMODE
 70
     0
  9
$PDSIZE
 40
-1.0
  9
$PLINEWID
 40
0.0
  9
$SPLFRAME
 70
     0
  9
$SPLINETYPE
 70
     6
  9
$SPLINESEGS
 70
     8
  9
$HANDSEED
  5
E556
  9
$SURFTAB1
 70
     6
  9
$SURFTAB2
 70
     6
  9
$SURFTYPE
 70
     6
  9
$SURFU
 70
     6
  9
$SURFV
 70
     6
  9
$UCSBASE
  2

  9
$UCSNAME
  2

  9
$UCSORG
 10
0.0
 20
0.0
 30
0.0
  9
$UCSXDIR
 10
1.0
 20
0.0
 30
0.0
  9
$UCSYDIR
 10
0.0
 20
1.0
 30
0.0
  9
$UCSORTHOREF
  2

  9
$UCSORTHOVIEW
 70
     0
  9
$UCSORGTOP
 10
0.0
 20
0.0
 30
0.0
  9
$UCSORGBOTTOM
 10
0.0
 20
0.0
 30
0.0
  9
$UCSORGLEFT
 10
0.0
 20
0.0
 30
0.0
  9
$UCSORGRIGHT
 10
0.0
 20
0.0
 30
0.0
  9
$UCSORGFRONT
 10
0.0
 20
0.0
 30
0.0
  9
$UCSORGBACK
 10
0.0
 20
0.0
 30
0.0
  9
$PUCSBASE
  2

  9
$PUCSNAME
  2

  9
$PUCSORG
 10
0.0
 20
0.0
 30
0.0
  9
$PUCSXDIR
 10
1.0
 20
0.0
 30
0.0
  9
$PUCSYDIR
 10
0.0
 20
1.0
 30
0.0
  9
$PUCSORTHOREF
  2

  9
$PUCSORTHOVIEW
 70
     0
  9
$PUCSORGTOP
 10
0.0
 20
0.0
 30
0.0
  9
$PUCSORGBOTTOM
 10
0.0
 20
0.0
 30
0.0
  9
$PUCSORGLEFT
 10
0.0
 20
0.0
 30
0.0
  9
$PUCSORGRIGHT
 10
0.0
 20
0.0
 30
0.0
  9
$PUCSORGFRONT
 10
0.0
 20
0.0
 30
0.0
  9
$PUCSORGBACK
 10
0.0
 20
0.0
 30
0.0
  9
$USERI1
 70
     0
  9
$USERI2
 70
     0
  9
$USERI3
 70
     0
  9
$USERI4
 70
     0
  9
$USERI5
 70
     0
  9
$USERR1
 40
0.0
  9
$USERR2
 40
0.0
  9
$USERR3
 40
0.0
  9
$USERR4
 40
0.0
  9
$USERR5
 40
0.0
  9
$WORLDVIEW
 70
     1
  9
$SHADEDGE
 70
     3
  9
$SHADEDIF
 70
    70
  9
$TILEMODE
 70
     1
  9
$MAXACTVP
 70
    64
  9
$PINSBASE
 10
0.0
 20
0.0
 30
0.0
  9
$PLIMCHECK
 70
     0
  9
$PEXTMIN
 10
1.000000000000000E+20
 20
1.000000000000000E+20
 30
1.000000000000000E+20
  9
$PEXTMAX
 10
-1.000000000000000E+20
 20
-1.000000000000000E+20
 30
-1.000000000000000E+20
  9
$PLIMMIN
 10
0.0
 20
0.0
  9
$PLIMMAX
 10
420.0
 20
297.0
  9
$UNITMODE
 70
     0
  9
$VISRETAIN
 70
     1
  9
$PLINEGEN
 70
     0
  9
$PSLTSCALE
 70
     1
  9
$TREEDEPTH
 70
  3020
  9
$CMLSTYLE
  2
Standard
  9
$CMLJUST
 70
     0
  9
$CMLSCALE
 40
20.0
  9
$PROXYGRAPHICS
 70
     1
  9
$MEASUREMENT
 70
     1
  9
$CELWEIGHT
370
    -1
  9
$ENDCAPS
280
     0
  9
$JOINSTYLE
280
     0
  9
$LWDISPLAY
290
     1
  9
$INSUNITS
 70
     4
  9
$HYPERLINKBASE
  1

  9
$STYLESHEET
  1
aclt.ctb
  9
$XEDIT
290
     1
  9
$CEPSNTYPE
380
     0
  9
$PSTYLEMODE
290
     1
  9
$FINGERPRINTGUID
  2
{DB7250D2-6D98-4010-90BA-56ECE810444C}
  9
$VERSIONGUID
  2
{52B166E0-E544-4B3E-83FF-8ECCF4DC0A2F}
  9
$EXTNAMES
290
     1
  9
$PSVPSCALE
 40
0.0
  9
$OLESTARTUP
290
     0
  0
ENDSEC
  0
SECTION
  2
CLASSES
  0
CLASS
  1
ACDBDICTIONARYWDFLT
  2
AcDbDictionaryWithDefault
  3
ObjectDBX Classes
 90
        0
280
     0
281
     0
  0
CLASS
  1
VISUALSTYLE
  2
AcDbVisualStyle
  3
ObjectDBX Classes
 90
     4095
280
     0
281
     0
  0
CLASS
  1
DICTIONARYVAR
  2
AcDbDictionaryVar
  3
ObjectDBX Classes
 90
        0
280
     0
281
     0
  0
CLASS
  1
ACDBPLACEHOLDER
  2
AcDbPlaceHolder
  3
ObjectDBX Classes
 90
        0
280
     0
281
     0
  0
CLASS
  1
LAYOUT
  2
AcDbLayout
  3
ObjectDBX Classes
 90
        0
280
     0
281
     0
  0
CLASS
  1
TABLESTYLE
  2
AcDbTableStyle
  3
ObjectDBX Classes
 90
     2047
280
     0
281
     0
  0
CLASS
  1
SORTENTSTABLE
  2
AcDbSortentsTable
  3
ObjectDBX Classes
 90
        0
280
     0
281
     0
  0
CLASS
  1
MATERIAL
  2
AcDbMaterial
  3
ObjectDBX Classes
 90
        0
280
     0
281
     0
  0
ENDSEC
  0
SECTION
  2
TABLES
  0
TABLE
  2
VPORT
  5
8
330
0
100
AcDbSymbolTable
 70
     2
  0
VPORT
  5
E54E
330
8
100
AcDbSymbolTableRecord
100
AcDbViewportTableRecord
  2
*Active
 70
     0
 10
0.0
 20
0.0
 11
1.0
 21
1.0
 12
297.0023485369853
 22
210.0079200542567
 13
0.0
 23
0.0
 14
10.0
 24
10.0
 15
10.0
 25
10.0
 16
0.0
 26
0.0
 36
1.0
 17
0.0
 27
0.0
 37
0.0
 40
422.6800430659983
 41
1.616193480546792
 42
50.0
 43
0.0
 44
0.0
 50
0.0
 51
0.0
 71
     0
 72
  2000
 73
     1
 74
     3
 75
     0
 76
     0
 77
     0
 78
     0
281
     0
 65
     1
110
0.0
120
0.0
130
0.0
111
1.0
121
0.0
131
0.0
112
0.0
122
1.0
132
0.0
 79
     0
146
0.0
  0
ENDTAB
  0
TABLE
  2
LTYPE
  5
5
330
0
100
AcDbSymbolTable
 70
     4
  0
LTYPE
  5
14
330
5
100
AcDbSymbolTableRecord
100
AcDbLinetypeTableRecord
  2
ByBlock
 70
     0
  3

 72
    65
 73
     0
 40
0.0
  0
LTYPE
  5
15
330
5
100
AcDbSymbolTableRecord
100
AcDbLinetypeTableRecord
  2
ByLayer
 70
     0
  3

 72
    65
 73
     0
 40
0.0
  0
LTYPE
  5
16
330
5
100
AcDbSymbolTableRecord
100
AcDbLinetypeTableRecord
  2
Continuous
 70
     0
  3
Solid line
 72
    65
 73
     0
 40
0.0
  0
LTYPE
  5
D355
330
5
100
AcDbSymbolTableRecord
100
AcDbLinetypeTableRecord
  2
HIDDEN
 70
     0
  3
Hidden __ __ __ __ __ __ __ __ __ __ __ __ __ __
 72
    65
 73
     2
 40
1.905
 49
1.27
 74
     0
 49
-0.635
 74
     0
  0
LTYPE
  5
D356
330
5
100
AcDbSymbolTableRecord
100
AcDbLinetypeTableRecord
  2
CENTER
 70
     0
  3
Center ____ _ ____ _ ____ _ ____ _ ____ _ ____
 72
    65
 73
     4
 40
10.16
 49
6.349999999999999
 74
     0
 49
-1.27
 74
     0
 49
1.27
 74
     0
 49
-1.27
 74
     0
  0
LTYPE
  5
D357
330
5
100
AcDbSymbolTableRecord
100
AcDbLinetypeTableRecord
  2
CENTERX2
 70
     0
  3
Center (2x) ________  __  ________  __  _____
 72
    65
 73
     4
 40
20.32
 49
12.7
 74
     0
 49
-2.54
 74
     0
 49
2.54
 74
     0
 49
-2.54
 74
     0
  0
ENDTAB
  0
TABLE
  2
LAYER
  5
2
102
{ACAD_XDICTIONARY
360
1C1E
102
}
330
0
100
AcDbSymbolTable
 70
     9
  0
LAYER
  5
10
330
2
100
AcDbSymbolTableRecord
100
AcDbLayerTableRecord
  2
0
 70
     0
 62
     7
  6
Continuous
370
    -3
390
F
  0
LAYER
  5
1C1D
330
2
100
AcDbSymbolTableRecord
100
AcDbLayerTableRecord
  2
abmessung
 70
     0
 62
     3
  6
Continuous
370
    -3
390
F
1001
AcAecLayerStandard
1000

1000

  0
LAYER
  5
2107
330
2
100
AcDbSymbolTableRecord
100
AcDbLayerTableRecord
  2
Defpoints
 70
     0
 62
     7
  6
Continuous
290
     0
370
    -3
390
F
  0
LAYER
  5
33EC
330
2
100
AcDbSymbolTableRecord
100
AcDbLayerTableRecord
  2
RAHMEN025
 70
     0
 62
     7
  6
Continuous
370
    -3
390
F
  0
LAYER
  5
33ED
330
2
100
AcDbSymbolTableRecord
100
AcDbLayerTableRecord
  2
RAHMEN07
 70
     0
 62
     5
  6
Continuous
370
    -3
390
F
  0
LAYER
  5
33EE
330
2
100
AcDbSymbolTableRecord
100
AcDbLayerTableRecord
  2
TEXTFELD
 70
     0
 62
     7
  6
Continuous
370
    -3
390
F
  0
LAYER
  5
D358
102
{ACAD_XDICTIONARY
360
D359
102
}
330
2
100
AcDbSymbolTableRecord
100
AcDbLayerTableRecord
  2
BEMAßUNG
 70
     0
 62
     3
  6
Continuous
370
    15
390
F
  0
LAYER
  5
D35B
102
{ACAD_XDICTIONARY
360
D35C
102
}
330
2
100
AcDbSymbolTableRecord
100
AcDbLayerTableRecord
  2
MITTELLINIE
 70
     0
 62
     4
  6
CENTER
370
    15
390
F
  0
LAYER
  5
D35E
102
{ACAD_XDICTIONARY
360
D35F
102
}
330
2
100
AcDbSymbolTableRecord
100
AcDbLayerTableRecord
  2
BAUTEIL
 70
     0
 62
     7
  6
Continuous
370
    30
390
F
  0
ENDTAB
  0
TABLE
  2
STYLE
  5
3
330
0
100
AcDbSymbolTable
 70
     2
  0
STYLE
  5
11
330
3
100
AcDbSymbolTableRecord
100
AcDbTextStyleTableRecord
  2
Standard
 70
     0
 40
0.0
 41
1.0
 50
0.0
 71
     0
 42
2.5
  3
txt
  4

  0
STYLE
  5
338A
330
3
100
AcDbSymbolTableRecord
100
AcDbTextStyleTableRecord
  2
OLED
 70
     0
 40
0.0
 41
1.0
 50
0.0
 71
     0
 42
2.5
  3
ericssonga628.TTF
  4

1001
ACAD
1000
Ericsson GA628
1071
        1
  0
ENDTAB
  0
TABLE
  2
VIEW
  5
6
330
0
100
AcDbSymbolTable
 70
     0
  0
ENDTAB
  0
TABLE
  2
UCS
  5
7
330
0
100
AcDbSymbolTable
 70
     0
  0
ENDTAB
  0
TABLE
  2
APPID
  5
9
330
0
100
AcDbSymbolTable
 70
    12
  0
APPID
  5
12
330
9
100
AcDbSymbolTableRecord
100
AcDbRegAppTableRecord
  2
ACAD
 70
     0
  0
APPID
  5
1C1B
330
9
100
AcDbSymbolTableRecord
100
AcDbRegAppTableRecord
  2
AcAecLayerStandard
 70
     0
  0
APPID
  5
2122
330
9
100
AcDbSymbolTableRecord
100
AcDbRegAppTableRecord
  2
ACAD_DSTYLE_DIMTEXT_FILL
 70
     0
  0
APPID
  5
2123
330
9
100
AcDbSymbolTableRecord
100
AcDbRegAppTableRecord
  2
ACAD_DSTYLE_DIMEXT_LENGTH
 70
     0
  0
APPID
  5
2124
330
9
100
AcDbSymbolTableRecord
100
AcDbRegAppTableRecord
  2
ACAD_DSTYLE_DIMEXT_ENABLED
 70
     0
  0
APPID
  5
2125
330
9
100
AcDbSymbolTableRecord
100
AcDbRegAppTableRecord
  2
ACAD_DSTYLE_DIM_LINETYPE
 70
     0
  0
APPID
  5
2126
330
9
100
AcDbSymbolTableRecord
100
AcDbRegAppTableRecord
  2
ACAD_DSTYLE_DIM_EXT1_LINETYPE
 70
     0
  0
APPID
  5
2127
330
9
100
AcDbSymbolTableRecord
100
AcDbRegAppTableRecord
  2
ACAD_DSTYLE_DIM_EXT2_LINETYPE
 70
     0
  0
APPID
  5
21E3
330
9
100
AcDbSymbolTableRecord
100
AcDbRegAppTableRecord
  2
ACAD_DSTYLE_DIMJOGGED_JOGANGLE_SYMBOL
 70
     0
  0
APPID
  5
2A57
330
9
100
AcDbSymbolTableRecord
100
AcDbRegAppTableRecord
  2
ACAD_DSTYLE_DIMARC_LENGTH_SYMBOL
 70
     0
  0
APPID
  5
2DEE
330
9
100
AcDbSymbolTableRecord
100
AcDbRegAppTableRecord
  2
ACAD_EXEMPT_FROM_CAD_STANDARDS
 70
     0
  0
APPID
  5
33EF
330
9
100
AcDbSymbolTableRecord
100
AcDbRegAppTableRecord
  2
ACAD_PSEXT
 70
     0
  0
ENDTAB
  0
TABLE
  2
DIMSTYLE
  5
A
330
0
100
AcDbSymbolTable
 70
     2
100
AcDbDimStyleTable
 71
     1
340
27
  0
DIMSTYLE
105
27
102
{ACAD_REACTORS
330
D434
330
D42B
330
D42A
330
D431
330
D468
330
D42F
330
D42E
330
D430
330
D42D
330
DCA8
102
}
330
A
100
AcDbSymbolTableRecord
100
AcDbDimStyleTableRecord
  2
ISO-25
 70
     0
 41
3.5
 42
0.625
 43
3.75
 44
1.25
 73
     0
 74
     0
 77
     1
 78
     8
140
3.5
141
2.5
143
0.03937007874016
147
1.5
171
     3
172
     1
271
     2
272
     2
274
     3
278
    44
283
     0
284
     8
340
11
1001
ACAD_DSTYLE_DIMEXT_LENGTH
1070
   378
1040
1.25
1001
ACAD_DSTYLE_DIMEXT_ENABLED
1070
   383
1070
     0
1001
ACAD_DSTYLE_DIMARC_LENGTH_SYMBOL
1070
   379
1070
     0
1001
ACAD_DSTYLE_DIMJOGGED_JOGANGLE_SYMBOL
1070
   384
1040
1.570796326794896
  0
DIMSTYLE
105
2AD4
330
A
100
AcDbSymbolTableRecord
100
AcDbDimStyleTableRecord
  2
Standard
 70
     0
289
     0
340
11
  0
ENDTAB
  0
TABLE
  2
BLOCK_RECORD
  5
1
330
0
100
AcDbSymbolTable
 70
    19
  0
BLOCK_RECORD
  5
1F
102
{ACAD_XDICTIONARY
360
2DFE
102
}
330
1
100
AcDbSymbolTableRecord
100
AcDbBlockTableRecord
  2
*Model_Space
340
22
  0
BLOCK_RECORD
  5
1B
330
1
100
AcDbSymbolTableRecord
100
AcDbBlockTableRecord
  2
*Paper_Space
340
1E
  0
BLOCK_RECORD
  5
23
330
1
100
AcDbSymbolTableRecord
100
AcDbBlockTableRecord
  2
*Paper_Space0
340
26
  0
BLOCK_RECORD
  5
D2E8
330
1
100
AcDbSymbolTableRecord
100
AcDbBlockTableRecord
  2
SW_CENTERMARKSYMBOL_0
340
0
102
{BLKREFS
331
D435
102
}
  0
BLOCK_RECORD
  5
D2F3
330
1
100
AcDbSymbolTableRecord
100
AcDbBlockTableRecord
  2
SW_CENTERMARKSYMBOL_1
340
0
102
{BLKREFS
331
D436
102
}
  0
BLOCK_RECORD
  5
D2FE
330
1
100
AcDbSymbolTableRecord
100
AcDbBlockTableRecord
  2
SW_CENTERMARKSYMBOL_2
340
0
102
{BLKREFS
331
D437
102
}
  0
BLOCK_RECORD
  5
D309
330
1
100
AcDbSymbolTableRecord
100
AcDbBlockTableRecord
  2
SW_CENTERMARKSYMBOL_3
340
0
102
{BLKREFS
331
D438
102
}
  0
BLOCK_RECORD
  5
D314
330
1
100
AcDbSymbolTableRecord
100
AcDbBlockTableRecord
  2
SW_CENTERMARKSYMBOL_4
340
0
102
{BLKREFS
331
D439
102
}
  0
BLOCK_RECORD
  5
D31F
330
1
100
AcDbSymbolTableRecord
100
AcDbBlockTableRecord
  2
SW_CENTERMARKSYMBOL_5
340
0
102
{BLKREFS
331
D43A
102
}
  0
BLOCK_RECORD
  5
D32A
330
1
100
AcDbSymbolTableRecord
100
AcDbBlockTableRecord
  2
SW_CENTERMARKSYMBOL_6
340
0
102
{BLKREFS
331
D43B
102
}
  0
BLOCK_RECORD
  5
D335
330
1
100
AcDbSymbolTableRecord
100
AcDbBlockTableRecord
  2
SW_CENTERMARKSYMBOL_7
340
0
102
{BLKREFS
331
D43C
102
}
  0
BLOCK_RECORD
  5
D478
330
1
100
AcDbSymbolTableRecord
100
AcDbBlockTableRecord
  2
*D9
340
0
  0
BLOCK_RECORD
  5
D484
330
1
100
AcDbSymbolTableRecord
100
AcDbBlockTableRecord
  2
*D10
340
0
  0
BLOCK_RECORD
  5
D49D
330
1
100
AcDbSymbolTableRecord
100
AcDbBlockTableRecord
  2
*D11
340
0
  0
BLOCK_RECORD
  5
D4A9
330
1
100
AcDbSymbolTableRecord
100
AcDbBlockTableRecord
  2
*D12
340
0
  0
BLOCK_RECORD
  5
D4C2
330
1
100
AcDbSymbolTableRecord
100
AcDbBlockTableRecord
  2
*D13
340
0
  0
BLOCK_RECORD
  5
D4CE
330
1
100
AcDbSymbolTableRecord
100
AcDbBlockTableRecord
  2
*D14
340
0
  0
BLOCK_RECORD
  5
D4DA
330
1
100
AcDbSymbolTableRecord
100
AcDbBlockTableRecord
  2
*D15
340
0
  0
BLOCK_RECORD
  5
D4E6
330
1
100
AcDbSymbolTableRecord
100
AcDbBlockTableRecord
  2
*D16
340
0
  0
BLOCK_RECORD
  5
D4F2
330
1
100
AcDbSymbolTableRecord
100
AcDbBlockTableRecord
  2
*D17
340
0
  0
BLOCK_RECORD
  5
DCA9
330
1
100
AcDbSymbolTableRecord
100
AcDbBlockTableRecord
  2
*D18
340
0
  0
ENDTAB
  0
ENDSEC
  0
SECTION
  2
BLOCKS
  0
BLOCK
  5
20
330
1F
100
AcDbEntity
  8
0
100
AcDbBlockBegin
  2
*Model_Space
 70
     0
 10
0.0
 20
0.0
 30
0.0
  3
*Model_Space
  1

  0
ENDBLK
  5
21
330
1F
100
AcDbEntity
  8
0
100
AcDbBlockEnd
  0
BLOCK
  5
1C
330
1B
100
AcDbEntity
 67
     1
  8
0
100
AcDbBlockBegin
  2
*Paper_Space
 70
     0
 10
0.0
 20
0.0
 30
0.0
  3
*Paper_Space
  1

  0
ENDBLK
  5
1D
330
1B
100
AcDbEntity
 67
     1
  8
0
100
AcDbBlockEnd
  0
BLOCK
  5
24
330
23
100
AcDbEntity
 67
     1
  8
0
100
AcDbBlockBegin
  2
*Paper_Space0
 70
     0
 10
0.0
 20
0.0
 30
0.0
  3
*Paper_Space0
  1

  0
ENDBLK
  5
25
330
23
100
AcDbEntity
 67
     1
  8
0
100
AcDbBlockEnd
  0
BLOCK
  5
D2E9
330
D2E8
100
AcDbEntity
  8
0
100
AcDbBlockBegin
  2
SW_CENTERMARKSYMBOL_0
 70
     0
 10
0.0
 20
0.0
 30
0.0
  3
SW_CENTERMARKSYMBOL_0
  1

  0
LINE
  5
D2EA
330
D2E8
100
AcDbEntity
  8
MITTELLINIE
 62
     0
100
AcDbLine
 10
0.0
 20
0.0
 30
0.0
 11
0.0
 21
2.500000000000002
 31
0.0
  0
LINE
  5
D2EB
330
D2E8
100
AcDbEntity
  8
MITTELLINIE
 62
     0
100
AcDbLine
 10
0.0
 20
0.0
 30
0.0
 11
-2.500000000000002
 21
0.0
 31
0.0
  0
LINE
  5
D2EC
330
D2E8
100
AcDbEntity
  8
MITTELLINIE
 62
     0
100
AcDbLine
 10
0.0
 20
0.0
 30
0.0
 11
0.0
 21
-2.500000000000002
 31
0.0
  0
LINE
  5
D2ED
330
D2E8
100
AcDbEntity
  8
MITTELLINIE
 62
     0
100
AcDbLine
 10
0.0
 20
0.0
 30
0.0
 11
2.500000000000002
 21
0.0
 31
0.0
  0
LINE
  5
D2EE
330
D2E8
100
AcDbEntity
  8
MITTELLINIE
 62
     0
100
AcDbLine
 10
0.0
 20
2.500000000000002
 30
0.0
 11
0.0
 21
4.249999999999976
 31
0.0
  0
LINE
  5
D2EF
330
D2E8
100
AcDbEntity
  8
MITTELLINIE
 62
     0
100
AcDbLine
 10
-2.500000000000002
 20
0.0
 30
0.0
 11
-4.250000000000003
 21
0.0
 31
0.0
  0
LINE
  5
D2F0
330
D2E8
100
AcDbEntity
  8
MITTELLINIE
 62
     0
100
AcDbLine
 10
0.0
 20
-2.500000000000002
 30
0.0
 11
0.0
 21
-4.250000000000031
 31
0.0
  0
LINE
  5
D2F1
330
D2E8
100
AcDbEntity
  8
MITTELLINIE
 62
     0
100
AcDbLine
 10
2.500000000000002
 20
0.0
 30
0.0
 11
4.250000000000003
 21
0.0
 31
0.0
  0
ENDBLK
  5
D2F2
330
D2E8
100
AcDbEntity
  8
0
100
AcDbBlockEnd
  0
BLOCK
  5
D2F4
330
D2F3
100
AcDbEntity
  8
0
100
AcDbBlockBegin
  2
SW_CENTERMARKSYMBOL_1
 70
     0
 10
0.0
 20
0.0
 30
0.0
  3
SW_CENTERMARKSYMBOL_1
  1

  0
LINE
  5
D2F5
330
D2F3
100
AcDbEntity
  8
MITTELLINIE
 62
     0
100
AcDbLine
 10
0.0
 20
0.0
 30
0.0
 11
0.0
 21
2.500000000000002
 31
0.0
  0
LINE
  5
D2F6
330
D2F3
100
AcDbEntity
  8
MITTELLINIE
 62
     0
100
AcDbLine
 10
0.0
 20
0.0
 30
0.0
 11
-2.500000000000002
 21
0.0
 31
0.0
  0
LINE
  5
D2F7
330
D2F3
100
AcDbEntity
  8
MITTELLINIE
 62
     0
100
AcDbLine
 10
0.0
 20
0.0
 30
0.0
 11
0.0
 21
-2.500000000000002
 31
0.0
  0
LINE
  5
D2F8
330
D2F3
100
AcDbEntity
  8
MITTELLINIE
 62
     0
100
AcDbLine
 10
0.0
 20
0.0
 30
0.0
 11
2.500000000000002
 21
0.0
 31
0.0
  0
LINE
  5
D2F9
330
D2F3
100
AcDbEntity
  8
MITTELLINIE
 62
     0
100
AcDbLine
 10
0.0
 20
2.500000000000002
 30
0.0
 11
0.0
 21
4.250000000000031
 31
0.0
  0
LINE
  5
D2FA
330
D2F3
100
AcDbEntity
  8
MITTELLINIE
 62
     0
100
AcDbLine
 10
-2.500000000000002
 20
0.0
 30
0.0
 11
-4.250000000000003
 21
0.0
 31
0.0
  0
LINE
  5
D2FB
330
D2F3
100
AcDbEntity
  8
MITTELLINIE
 62
     0
100
AcDbLine
 10
0.0
 20
-2.500000000000002
 30
0.0
 11
0.0
 21
-4.249999999999976
 31
0.0
  0
LINE
  5
D2FC
330
D2F3
100
AcDbEntity
  8
MITTELLINIE
 62
     0
100
AcDbLine
 10
2.500000000000002
 20
0.0
 30
0.0
 11
4.250000000000003
 21
0.0
 31
0.0
  0
ENDBLK
  5
D2FD
330
D2F3
100
AcDbEntity
  8
0
100
AcDbBlockEnd
  0
BLOCK
  5
D2FF
330
D2FE
100
AcDbEntity
  8
0
100
AcDbBlockBegin
  2
SW_CENTERMARKSYMBOL_2
 70
     0
 10
0.0
 20
0.0
 30
0.0
  3
SW_CENTERMARKSYMBOL_2
  1

  0
LINE
  5
D300
330
D2FE
100
AcDbEntity
  8
MITTELLINIE
 62
     0
100
AcDbLine
 10
0.0
 20
0.0
 30
0.0
 11
0.0
 21
2.500000000000002
 31
0.0
  0
LINE
  5
D301
330
D2FE
100
AcDbEntity
  8
MITTELLINIE
 62
     0
100
AcDbLine
 10
0.0
 20
0.0
 30
0.0
 11
-2.500000000000002
 21
0.0
 31
0.0
  0
LINE
  5
D302
330
D2FE
100
AcDbEntity
  8
MITTELLINIE
 62
     0
100
AcDbLine
 10
0.0
 20
0.0
 30
0.0
 11
0.0
 21
-2.500000000000002
 31
0.0
  0
LINE
  5
D303
330
D2FE
100
AcDbEntity
  8
MITTELLINIE
 62
     0
100
AcDbLine
 10
0.0
 20
0.0
 30
0.0
 11
2.500000000000002
 21
0.0
 31
0.0
  0
LINE
  5
D304
330
D2FE
100
AcDbEntity
  8
MITTELLINIE
 62
     0
100
AcDbLine
 10
0.0
 20
2.500000000000002
 30
0.0
 11
0.0
 21
4.250000000000031
 31
0.0
  0
LINE
  5
D305
330
D2FE
100
AcDbEntity
  8
MITTELLINIE
 62
     0
100
AcDbLine
 10
-2.500000000000002
 20
0.0
 30
0.0
 11
-4.250000000000031
 21
0.0
 31
0.0
  0
LINE
  5
D306
330
D2FE
100
AcDbEntity
  8
MITTELLINIE
 62
     0
100
AcDbLine
 10
0.0
 20
-2.500000000000002
 30
0.0
 11
0.0
 21
-4.249999999999976
 31
0.0
  0
LINE
  5
D307
330
D2FE
100
AcDbEntity
  8
MITTELLINIE
 62
     0
100
AcDbLine
 10
2.500000000000002
 20
0.0
 30
0.0
 11
4.249999999999976
 21
0.0
 31
0.0
  0
ENDBLK
  5
D308
330
D2FE
100
AcDbEntity
  8
0
100
AcDbBlockEnd
  0
BLOCK
  5
D30A
330
D309
100
AcDbEntity
  8
0
100
AcDbBlockBegin
  2
SW_CENTERMARKSYMBOL_3
 70
     0
 10
0.0
 20
0.0
 30
0.0
  3
SW_CENTERMARKSYMBOL_3
  1

  0
LINE
  5
D30B
330
D309
100
AcDbEntity
  8
MITTELLINIE
 62
     0
100
AcDbLine
 10
0.0
 20
0.0
 30
0.0
 11
0.0
 21
2.500000000000002
 31
0.0
  0
LINE
  5
D30C
330
D309
100
AcDbEntity
  8
MITTELLINIE
 62
     0
100
AcDbLine
 10
0.0
 20
0.0
 30
0.0
 11
-2.500000000000002
 21
0.0
 31
0.0
  0
LINE
  5
D30D
330
D309
100
AcDbEntity
  8
MITTELLINIE
 62
     0
100
AcDbLine
 10
0.0
 20
0.0
 30
0.0
 11
0.0
 21
-2.500000000000002
 31
0.0
  0
LINE
  5
D30E
330
D309
100
AcDbEntity
  8
MITTELLINIE
 62
     0
100
AcDbLine
 10
0.0
 20
0.0
 30
0.0
 11
2.500000000000002
 21
0.0
 31
0.0
  0
LINE
  5
D30F
330
D309
100
AcDbEntity
  8
MITTELLINIE
 62
     0
100
AcDbLine
 10
0.0
 20
2.500000000000002
 30
0.0
 11
0.0
 21
4.250000000000031
 31
0.0
  0
LINE
  5
D310
330
D309
100
AcDbEntity
  8
MITTELLINIE
 62
     0
100
AcDbLine
 10
-2.500000000000002
 20
0.0
 30
0.0
 11
-4.250000000000031
 21
0.0
 31
0.0
  0
LINE
  5
D311
330
D309
100
AcDbEntity
  8
MITTELLINIE
 62
     0
100
AcDbLine
 10
0.0
 20
-2.500000000000002
 30
0.0
 11
0.0
 21
-4.249999999999976
 31
0.0
  0
LINE
  5
D312
330
D309
100
AcDbEntity
  8
MITTELLINIE
 62
     0
100
AcDbLine
 10
2.500000000000002
 20
0.0
 30
0.0
 11
4.249999999999976
 21
0.0
 31
0.0
  0
ENDBLK
  5
D313
330
D309
100
AcDbEntity
  8
0
100
AcDbBlockEnd
  0
BLOCK
  5
D315
330
D314
100
AcDbEntity
  8
0
100
AcDbBlockBegin
  2
SW_CENTERMARKSYMBOL_4
 70
     0
 10
0.0
 20
0.0
 30
0.0
  3
SW_CENTERMARKSYMBOL_4
  1

  0
LINE
  5
D316
330
D314
100
AcDbEntity
  8
MITTELLINIE
 62
     0
100
AcDbLine
 10
0.0
 20
0.0
 30
0.0
 11
0.0
 21
2.500000000000002
 31
0.0
  0
LINE
  5
D317
330
D314
100
AcDbEntity
  8
MITTELLINIE
 62
     0
100
AcDbLine
 10
0.0
 20
0.0
 30
0.0
 11
-2.500000000000002
 21
0.0
 31
0.0
  0
LINE
  5
D318
330
D314
100
AcDbEntity
  8
MITTELLINIE
 62
     0
100
AcDbLine
 10
0.0
 20
0.0
 30
0.0
 11
0.0
 21
-2.500000000000002
 31
0.0
  0
LINE
  5
D319
330
D314
100
AcDbEntity
  8
MITTELLINIE
 62
     0
100
AcDbLine
 10
0.0
 20
0.0
 30
0.0
 11
2.500000000000002
 21
0.0
 31
0.0
  0
LINE
  5
D31A
330
D314
100
AcDbEntity
  8
MITTELLINIE
 62
     0
100
AcDbLine
 10
0.0
 20
2.500000000000002
 30
0.0
 11
0.0
 21
4.250000000000031
 31
0.0
  0
LINE
  5
D31B
330
D314
100
AcDbEntity
  8
MITTELLINIE
 62
     0
100
AcDbLine
 10
-2.500000000000002
 20
0.0
 30
0.0
 11
-4.249999999999976
 21
0.0
 31
0.0
  0
LINE
  5
D31C
330
D314
100
AcDbEntity
  8
MITTELLINIE
 62
     0
100
AcDbLine
 10
0.0
 20
-2.500000000000002
 30
0.0
 11
0.0
 21
-4.249999999999976
 31
0.0
  0
LINE
  5
D31D
330
D314
100
AcDbEntity
  8
MITTELLINIE
 62
     0
100
AcDbLine
 10
2.500000000000002
 20
0.0
 30
0.0
 11
4.249999999999976
 21
0.0
 31
0.0
  0
ENDBLK
  5
D31E
330
D314
100
AcDbEntity
  8
0
100
AcDbBlockEnd
  0
BLOCK
  5
D320
330
D31F
100
AcDbEntity
  8
0
100
AcDbBlockBegin
  2
SW_CENTERMARKSYMBOL_5
 70
     0
 10
0.0
 20
0.0
 30
0.0
  3
SW_CENTERMARKSYMBOL_5
  1

  0
LINE
  5
D321
330
D31F
100
AcDbEntity
  8
MITTELLINIE
 62
     0
100
AcDbLine
 10
0.0
 20
0.0
 30
0.0
 11
0.0
 21
2.500000000000002
 31
0.0
  0
LINE
  5
D322
330
D31F
100
AcDbEntity
  8
MITTELLINIE
 62
     0
100
AcDbLine
 10
0.0
 20
0.0
 30
0.0
 11
-2.500000000000002
 21
0.0
 31
0.0
  0
LINE
  5
D323
330
D31F
100
AcDbEntity
  8
MITTELLINIE
 62
     0
100
AcDbLine
 10
0.0
 20
0.0
 30
0.0
 11
0.0
 21
-2.500000000000002
 31
0.0
  0
LINE
  5
D324
330
D31F
100
AcDbEntity
  8
MITTELLINIE
 62
     0
100
AcDbLine
 10
0.0
 20
0.0
 30
0.0
 11
2.500000000000002
 21
0.0
 31
0.0
  0
LINE
  5
D325
330
D31F
100
AcDbEntity
  8
MITTELLINIE
 62
     0
100
AcDbLine
 10
0.0
 20
2.500000000000002
 30
0.0
 11
0.0
 21
4.250000000000031
 31
0.0
  0
LINE
  5
D326
330
D31F
100
AcDbEntity
  8
MITTELLINIE
 62
     0
100
AcDbLine
 10
-2.500000000000002
 20
0.0
 30
0.0
 11
-4.249999999999976
 21
0.0
 31
0.0
  0
LINE
  5
D327
330
D31F
100
AcDbEntity
  8
MITTELLINIE
 62
     0
100
AcDbLine
 10
0.0
 20
-2.500000000000002
 30
0.0
 11
0.0
 21
-4.249999999999976
 31
0.0
  0
LINE
  5
D328
330
D31F
100
AcDbEntity
  8
MITTELLINIE
 62
     0
100
AcDbLine
 10
2.500000000000002
 20
0.0
 30
0.0
 11
4.249999999999976
 21
0.0
 31
0.0
  0
ENDBLK
  5
D329
330
D31F
100
AcDbEntity
  8
0
100
AcDbBlockEnd
  0
BLOCK
  5
D32B
330
D32A
100
AcDbEntity
  8
0
100
AcDbBlockBegin
  2
SW_CENTERMARKSYMBOL_6
 70
     0
 10
0.0
 20
0.0
 30
0.0
  3
SW_CENTERMARKSYMBOL_6
  1

  0
LINE
  5
D32C
330
D32A
100
AcDbEntity
  8
MITTELLINIE
 62
     0
100
AcDbLine
 10
0.0
 20
0.0
 30
0.0
 11
0.0
 21
2.500000000000002
 31
0.0
  0
LINE
  5
D32D
330
D32A
100
AcDbEntity
  8
MITTELLINIE
 62
     0
100
AcDbLine
 10
0.0
 20
0.0
 30
0.0
 11
-2.500000000000057
 21
0.0
 31
0.0
  0
LINE
  5
D32E
330
D32A
100
AcDbEntity
  8
MITTELLINIE
 62
     0
100
AcDbLine
 10
0.0
 20
0.0
 30
0.0
 11
0.0
 21
-2.500000000000002
 31
0.0
  0
LINE
  5
D32F
330
D32A
100
AcDbEntity
  8
MITTELLINIE
 62
     0
100
AcDbLine
 10
0.0
 20
0.0
 30
0.0
 11
2.499999999999946
 21
0.0
 31
0.0
  0
LINE
  5
D330
330
D32A
100
AcDbEntity
  8
MITTELLINIE
 62
     0
100
AcDbLine
 10
0.0
 20
2.500000000000002
 30
0.0
 11
0.0
 21
4.249999999999976
 31
0.0
  0
LINE
  5
D331
330
D32A
100
AcDbEntity
  8
MITTELLINIE
 62
     0
100
AcDbLine
 10
-2.500000000000057
 20
0.0
 30
0.0
 11
-4.250000000000087
 21
0.0
 31
0.0
  0
LINE
  5
D332
330
D32A
100
AcDbEntity
  8
MITTELLINIE
 62
     0
100
AcDbLine
 10
0.0
 20
-2.500000000000002
 30
0.0
 11
0.0
 21
-4.250000000000031
 31
0.0
  0
LINE
  5
D333
330
D32A
100
AcDbEntity
  8
MITTELLINIE
 62
     0
100
AcDbLine
 10
2.499999999999946
 20
0.0
 30
0.0
 11
4.249999999999976
 21
0.0
 31
0.0
  0
ENDBLK
  5
D334
330
D32A
100
AcDbEntity
  8
0
100
AcDbBlockEnd
  0
BLOCK
  5
D336
330
D335
100
AcDbEntity
  8
0
100
AcDbBlockBegin
  2
SW_CENTERMARKSYMBOL_7
 70
     0
 10
0.0
 20
0.0
 30
0.0
  3
SW_CENTERMARKSYMBOL_7
  1

  0
LINE
  5
D337
330
D335
100
AcDbEntity
  8
MITTELLINIE
 62
     0
100
AcDbLine
 10
0.0
 20
0.0
 30
0.0
 11
0.0
 21
2.500000000000002
 31
0.0
  0
LINE
  5
D338
330
D335
100
AcDbEntity
  8
MITTELLINIE
 62
     0
100
AcDbLine
 10
0.0
 20
0.0
 30
0.0
 11
-2.500000000000057
 21
0.0
 31
0.0
  0
LINE
  5
D339
330
D335
100
AcDbEntity
  8
MITTELLINIE
 62
     0
100
AcDbLine
 10
0.0
 20
0.0
 30
0.0
 11
0.0
 21
-2.500000000000002
 31
0.0
  0
LINE
  5
D33A
330
D335
100
AcDbEntity
  8
MITTELLINIE
 62
     0
100
AcDbLine
 10
0.0
 20
0.0
 30
0.0
 11
2.499999999999946
 21
0.0
 31
0.0
  0
LINE
  5
D33B
330
D335
100
AcDbEntity
  8
MITTELLINIE
 62
     0
100
AcDbLine
 10
0.0
 20
2.500000000000002
 30
0.0
 11
0.0
 21
4.249999999999976
 31
0.0
  0
LINE
  5
D33C
330
D335
100
AcDbEntity
  8
MITTELLINIE
 62
     0
100
AcDbLine
 10
-2.500000000000057
 20
0.0
 30
0.0
 11
-4.250000000000087
 21
0.0
 31
0.0
  0
LINE
  5
D33D
330
D335
100
AcDbEntity
  8
MITTELLINIE
 62
     0
100
AcDbLine
 10
0.0
 20
-2.500000000000002
 30
0.0
 11
0.0
 21
-4.250000000000031
 31
0.0
  0
LINE
  5
D33E
330
D335
100
AcDbEntity
  8
MITTELLINIE
 62
     0
100
AcDbLine
 10
2.499999999999946
 20
0.0
 30
0.0
 11
4.249999999999976
 21
0.0
 31
0.0
  0
ENDBLK
  5
D33F
330
D335
100
AcDbEntity
  8
0
100
AcDbBlockEnd
  0
BLOCK
  5
D482
330
D478
100
AcDbEntity
  8
0
100
AcDbBlockBegin
  2
*D9
 70
     1
 10
0.0
 20
0.0
 30
0.0
  3
*D9
  1

  0
LINE
  5
E4D6
330
D478
100
AcDbEntity
  8
BEMAßUNG
 62
     0
370
    -2
100
AcDbLine
 10
171.221728994755
 20
214.7699088016716
 30
0.0
 11
171.221728994755
 21
192.8509576041528
 31
0.0
  0
LINE
  5
E4D7
330
D478
100
AcDbEntity
  8
BEMAßUNG
 62
     0
370
    -2
100
AcDbLine
 10
390.2217289947551
 20
214.7699088016716
 30
0.0
 11
390.2217289947551
 21
192.8509576041528
 31
0.0
  0
LINE
  5
E4D8
330
D478
100
AcDbEntity
  8
BEMAßUNG
 62
     0
370
    -2
100
AcDbLine
 10
174.7217289947549
 20
194.1009576041528
 30
0.0
 11
386.721728994755
 21
194.1009576041528
 31
0.0
  0
SOLID
  5
E4D9
330
D478
100
AcDbEntity
  8
BEMAßUNG
 62
     0
100
AcDbTrace
 10
174.7217289947549
 20
194.6842909374861
 30
0.0
 11
174.7217289947549
 21
193.5176242708194
 31
0.0
 12
171.221728994755
 22
194.1009576041528
 32
0.0
 13
171.221728994755
 23
194.1009576041528
 33
0.0
  0
SOLID
  5
E4DA
330
D478
100
AcDbEntity
  8
BEMAßUNG
 62
     0
100
AcDbTrace
 10
386.721728994755
 20
194.6842909374861
 30
0.0
 11
386.721728994755
 21
193.5176242708194
 31
0.0
 12
390.2217289947551
 22
194.1009576041528
 32
0.0
 13
390.2217289947551
 23
194.1009576041528
 33
0.0
  0
MTEXT
  5
E4DB
330
D478
100
AcDbEntity
  8
BEMAßUNG
 62
     0
100
AcDbMText
 10
283.0758877994591
 20
199.1009576041528
 30
0.0
 40
3.5
 41
0.0
 71
     2
 72
     1
  1
219
 73
     1
 44
1.0
1001
ACAD
1000
MTEXTBEGIN
1070
    73
1070
     1
1070
    44
1040
1.0
1070
    74
1070
     0
1000
MTEXTEND
  0
POINT
  5
E4DC
330
D478
100
AcDbEntity
  8
Defpoints
 62
     0
100
AcDbPoint
 10
171.221728994755
 20
215.3949088016716
 30
0.0
  0
POINT
  5
E4DD
330
D478
100
AcDbEntity
  8
Defpoints
 62
     0
100
AcDbPoint
 10
390.2217289947551
 20
215.3949088016716
 30
0.0
  0
POINT
  5
E4DE
330
D478
100
AcDbEntity
  8
Defpoints
 62
     0
100
AcDbPoint
 10
390.2217289947551
 20
194.1009576041528
 30
0.0
  0
ENDBLK
  5
D483
330
D478
100
AcDbEntity
  8
0
100
AcDbBlockEnd
  0
BLOCK
  5
D48F
330
D484
100
AcDbEntity
  8
0
100
AcDbBlockBegin
  2
*D10
 70
     1
 10
0.0
 20
0.0
 30
0.0
  3
*D10
  1

  0
LINE
  5
E4E8
330
D484
100
AcDbEntity
  8
BEMAßUNG
 62
     0
370
    -2
100
AcDbLine
 10
555.4600502517067
 20
213.3699088016715
 30
0.0
 11
555.4600502517067
 21
196.7449088016715
 31
0.0
  0
LINE
  5
E4E9
330
D484
100
AcDbEntity
  8
BEMAßUNG
 62
     0
370
    -2
100
AcDbLine
 10
565.4600502517069
 20
213.3699088016716
 30
0.0
 11
565.4600502517069
 21
196.7449088016715
 31
0.0
  0
LINE
  5
E4EA
330
D484
100
AcDbEntity
  8
BEMAßUNG
 62
     0
370
    -2
100
AcDbLine
 10
561.9600502517068
 20
197.9949088016715
 30
0.0
 11
558.9600502517067
 21
197.9949088016715
 31
0.0
  0
SOLID
  5
E4EB
330
D484
100
AcDbEntity
  8
BEMAßUNG
 62
     0
100
AcDbTrace
 10
561.9600502517068
 20
198.5782421350048
 30
0.0
 11
561.9600502517068
 21
197.4115754683381
 31
0.0
 12
565.4600502517069
 22
197.9949088016715
 32
0.0
 13
565.4600502517069
 23
197.9949088016715
 33
0.0
  0
SOLID
  5
E4EC
330
D484
100
AcDbEntity
  8
BEMAßUNG
 62
     0
100
AcDbTrace
 10
558.9600502517067
 20
198.5782421350048
 30
0.0
 11
558.9600502517067
 21
197.4115754683381
 31
0.0
 12
555.4600502517067
 22
197.9949088016715
 32
0.0
 13
555.4600502517067
 23
197.9949088016715
 33
0.0
  0
MTEXT
  5
E4ED
330
D484
100
AcDbEntity
  8
BEMAßUNG
 62
     0
100
AcDbMText
 10
560.4600502517069
 20
202.9949088016715
 30
0.0
 40
3.5
 41
0.0
 71
     2
 72
     1
  1
10
 73
     1
 44
1.0
1001
ACAD
1000
MTEXTBEGIN
1070
    73
1070
     1
1070
    44
1040
1.0
1070
    74
1070
     0
1000
MTEXTEND
  0
POINT
  5
E4EE
330
D484
100
AcDbEntity
  8
Defpoints
 62
     0
100
AcDbPoint
 10
555.4600502517067
 20
213.9949088016715
 30
0.0
  0
POINT
  5
E4EF
330
D484
100
AcDbEntity
  8
Defpoints
 62
     0
100
AcDbPoint
 10
565.4600502517069
 20
213.9949088016716
 30
0.0
  0
POINT
  5
E4F0
330
D484
100
AcDbEntity
  8
Defpoints
 62
     0
100
AcDbPoint
 10
565.4600502517069
 20
197.9949088016715
 30
0.0
  0
ENDBLK
  5
D490
330
D484
100
AcDbEntity
  8
0
100
AcDbBlockEnd
  0
BLOCK
  5
D4A7
330
D49D
100
AcDbEntity
  8
0
100
AcDbBlockBegin
  2
*D11
 70
     1
 10
0.0
 20
0.0
 30
0.0
  3
*D11
  1

  0
LINE
  5
E48E
330
D49D
100
AcDbEntity
  8
BEMAßUNG
 62
     0
370
    -2
100
AcDbLine
 10
39.47172899475507
 20
259.0199088016716
 30
0.0
 11
39.47172899475507
 21
286.4163466788984
 31
0.0
  0
LINE
  5
E48F
330
D49D
100
AcDbEntity
  8
BEMAßUNG
 62
     0
370
    -2
100
AcDbLine
 10
521.971728994755
 20
259.0199088016716
 30
0.0
 11
521.971728994755
 21
286.4163466788984
 31
0.0
  0
LINE
  5
E490
330
D49D
100
AcDbEntity
  8
BEMAßUNG
 62
     0
370
    -2
100
AcDbLine
 10
42.97172899475507
 20
285.1663466788984
 30
0.0
 11
518.471728994755
 21
285.1663466788984
 31
0.0
  0
SOLID
  5
E491
330
D49D
100
AcDbEntity
  8
BEMAßUNG
 62
     0
100
AcDbTrace
 10
42.97172899475507
 20
285.7496800122317
 30
0.0
 11
42.97172899475507
 21
284.5830133455651
 31
0.0
 12
39.47172899475507
 22
285.1663466788984
 32
0.0
 13
39.47172899475507
 23
285.1663466788984
 33
0.0
  0
SOLID
  5
E492
330
D49D
100
AcDbEntity
  8
BEMAßUNG
 62
     0
100
AcDbTrace
 10
518.471728994755
 20
285.7496800122317
 30
0.0
 11
518.471728994755
 21
284.5830133455651
 31
0.0
 12
521.971728994755
 22
285.1663466788984
 32
0.0
 13
521.971728994755
 23
285.1663466788984
 33
0.0
  0
MTEXT
  5
E493
330
D49D
100
AcDbEntity
  8
BEMAßUNG
 62
     0
100
AcDbMText
 10
283.0758877994591
 20
290.7496800122318
 30
0.0
 40
3.5
 41
0.0
 71
     2
 72
     1
  1
482,5
 73
     1
 44
1.0
1001
ACAD
1000
MTEXTBEGIN
1070
    73
1070
     1
1070
    44
1040
1.0
1070
    74
1070
     0
1000
MTEXTEND
  0
POINT
  5
E494
330
D49D
100
AcDbEntity
  8
Defpoints
 62
     0
100
AcDbPoint
 10
39.47172899475507
 20
258.3949088016716
 30
0.0
  0
POINT
  5
E495
330
D49D
100
AcDbEntity
  8
Defpoints
 62
     0
100
AcDbPoint
 10
521.971728994755
 20
258.3949088016716
 30
0.0
  0
POINT
  5
E496
330
D49D
100
AcDbEntity
  8
Defpoints
 62
     0
100
AcDbPoint
 10
521.971728994755
 20
285.1663466788984
 30
0.0
  0
ENDBLK
  5
D4A8
330
D49D
100
AcDbEntity
  8
0
100
AcDbBlockEnd
  0
BLOCK
  5
D4B3
330
D4A9
100
AcDbEntity
  8
0
100
AcDbBlockBegin
  2
*D12
 70
     1
 10
0.0
 20
0.0
 30
0.0
  3
*D12
  1

  0
LINE
  5
E497
330
D4A9
100
AcDbEntity
  8
BEMAßUNG
 62
     0
370
    -2
100
AcDbLine
 10
47.77172899475504
 20
249.2199088016716
 30
0.0
 11
47.77172899475504
 21
277.7566608439349
 31
0.0
  0
LINE
  5
E498
330
D4A9
100
AcDbEntity
  8
BEMAßUNG
 62
     0
370
    -2
100
AcDbLine
 10
513.6717289947551
 20
249.2199088016715
 30
0.0
 11
513.6717289947551
 21
277.7566608439349
 31
0.0
  0
LINE
  5
E499
330
D4A9
100
AcDbEntity
  8
BEMAßUNG
 62
     0
370
    -2
100
AcDbLine
 10
51.27172899475505
 20
276.5066608439349
 30
0.0
 11
510.1717289947551
 21
276.5066608439349
 31
0.0
  0
SOLID
  5
E49A
330
D4A9
100
AcDbEntity
  8
BEMAßUNG
 62
     0
100
AcDbTrace
 10
51.27172899475505
 20
277.0899941772682
 30
0.0
 11
51.27172899475505
 21
275.9233275106016
 31
0.0
 12
47.77172899475504
 22
276.5066608439349
 32
0.0
 13
47.77172899475504
 23
276.5066608439349
 33
0.0
  0
SOLID
  5
E49B
330
D4A9
100
AcDbEntity
  8
BEMAßUNG
 62
     0
100
AcDbTrace
 10
510.1717289947551
 20
277.0899941772682
 30
0.0
 11
510.1717289947551
 21
275.9233275106016
 31
0.0
 12
513.6717289947551
 22
276.5066608439349
 32
0.0
 13
513.6717289947551
 23
276.5066608439349
 33
0.0
  0
MTEXT
  5
E49C
330
D4A9
100
AcDbEntity
  8
BEMAßUNG
 62
     0
100
AcDbMText
 10
283.0758877994591
 20
282.0899941772683
 30
0.0
 40
3.5
 41
0.0
 71
     2
 72
     1
  1
465,9
 73
     1
 44
1.0
1001
ACAD
1000
MTEXTBEGIN
1070
    73
1070
     1
1070
    44
1040
1.0
1070
    74
1070
     0
1000
MTEXTEND
  0
POINT
  5
E49D
330
D4A9
100
AcDbEntity
  8
Defpoints
 62
     0
100
AcDbPoint
 10
47.77172899475504
 20
248.5949088016716
 30
0.0
  0
POINT
  5
E49E
330
D4A9
100
AcDbEntity
  8
Defpoints
 62
     0
100
AcDbPoint
 10
513.6717289947551
 20
248.5949088016715
 30
0.0
  0
POINT
  5
E49F
330
D4A9
100
AcDbEntity
  8
Defpoints
 62
     0
100
AcDbPoint
 10
513.6717289947551
 20
276.5066608439349
 30
0.0
  0
ENDBLK
  5
D4B4
330
D4A9
100
AcDbEntity
  8
0
100
AcDbBlockEnd
  0
BLOCK
  5
D4CC
330
D4C2
100
AcDbEntity
  8
0
100
AcDbBlockBegin
  2
*D13
 70
     1
 10
0.0
 20
0.0
 30
0.0
  3
*D13
  1

  0
LINE
  5
E4A9
330
D4C2
100
AcDbEntity
  8
BEMAßUNG
 62
     0
370
    -2
100
AcDbLine
 10
74.09672899475504
 20
248.1949088016716
 30
0.0
 11
86.61559820408443
 21
248.1949088016716
 31
0.0
  0
LINE
  5
E4AA
330
D4C2
100
AcDbEntity
  8
BEMAßUNG
 62
     0
370
    -2
100
AcDbLine
 10
74.09672899475504
 20
220.3949088016716
 30
0.0
 11
86.61559820408442
 21
220.3949088016716
 31
0.0
  0
LINE
  5
E4AB
330
D4C2
100
AcDbEntity
  8
BEMAßUNG
 62
     0
370
    -2
100
AcDbLine
 10
85.36559820408443
 20
244.6949088016716
 30
0.0
 11
85.36559820408442
 21
223.8949088016716
 31
0.0
  0
SOLID
  5
E4AC
330
D4C2
100
AcDbEntity
  8
BEMAßUNG
 62
     0
100
AcDbTrace
 10
84.7822648707511
 20
244.6949088016716
 30
0.0
 11
85.94893153741777
 21
244.6949088016716
 31
0.0
 12
85.36559820408443
 22
248.1949088016716
 32
0.0
 13
85.36559820408443
 23
248.1949088016716
 33
0.0
  0
SOLID
  5
E4AD
330
D4C2
100
AcDbEntity
  8
BEMAßUNG
 62
     0
100
AcDbTrace
 10
84.7822648707511
 20
223.8949088016716
 30
0.0
 11
85.94893153741775
 21
223.8949088016716
 31
0.0
 12
85.36559820408442
 22
220.3949088016716
 32
0.0
 13
85.36559820408442
 23
220.3949088016716
 33
0.0
  0
MTEXT
  5
E4AE
330
D4C2
100
AcDbEntity
  8
BEMAßUNG
 62
     0
100
AcDbMText
 10
79.78226487075104
 20
236.3250015064722
 30
0.0
 40
3.5
 41
0.0
 71
     2
 72
     1
  1
27,8
 11
0.0000000000000001
 21
1.0
 31
0.0
 73
     1
 44
1.0
1001
ACAD
1000
MTEXTBEGIN
1070
    73
1070
     1
1070
    44
1040
1.0
1070
    74
1070
     0
1000
MTEXTEND
  0
POINT
  5
E4AF
330
D4C2
100
AcDbEntity
  8
Defpoints
 62
     0
100
AcDbPoint
 10
73.47172899475504
 20
248.1949088016716
 30
0.0
  0
POINT
  5
E4B0
330
D4C2
100
AcDbEntity
  8
Defpoints
 62
     0
100
AcDbPoint
 10
73.47172899475504
 20
220.3949088016716
 30
0.0
  0
POINT
  5
E4B1
330
D4C2
100
AcDbEntity
  8
Defpoints
 62
     0
100
AcDbPoint
 10
85.36559820408442
 20
220.3949088016716
 30
0.0
  0
ENDBLK
  5
D4CD
330
D4C2
100
AcDbEntity
  8
0
100
AcDbBlockEnd
  0
BLOCK
  5
D4D8
330
D4CE
100
AcDbEntity
  8
0
100
AcDbBlockBegin
  2
*D14
 70
     1
 10
0.0
 20
0.0
 30
0.0
  3
*D14
  1

  0
LINE
  5
E4B2
330
D4CE
100
AcDbEntity
  8
BEMAßUNG
 62
     0
370
    -2
100
AcDbLine
 10
73.47172899475504
 20
248.8199088016716
 30
0.0
 11
73.47172899475504
 21
270.3652535926951
 31
0.0
  0
LINE
  5
E4B3
330
D4CE
100
AcDbEntity
  8
BEMAßUNG
 62
     0
370
    -2
100
AcDbLine
 10
268.971728994755
 20
248.8199088016716
 30
0.0
 11
268.971728994755
 21
270.3652535926951
 31
0.0
  0
LINE
  5
E4B4
330
D4CE
100
AcDbEntity
  8
BEMAßUNG
 62
     0
370
    -2
100
AcDbLine
 10
76.97172899475503
 20
269.1152535926951
 30
0.0
 11
265.4717289947551
 21
269.1152535926951
 31
0.0
  0
SOLID
  5
E4B5
330
D4CE
100
AcDbEntity
  8
BEMAßUNG
 62
     0
100
AcDbTrace
 10
76.97172899475503
 20
269.6985869260284
 30
0.0
 11
76.97172899475503
 21
268.5319202593618
 31
0.0
 12
73.47172899475504
 22
269.1152535926951
 32
0.0
 13
73.47172899475504
 23
269.1152535926951
 33
0.0
  0
SOLID
  5
E4B6
330
D4CE
100
AcDbEntity
  8
BEMAßUNG
 62
     0
100
AcDbTrace
 10
265.4717289947551
 20
269.6985869260284
 30
0.0
 11
265.4717289947551
 21
268.5319202593618
 31
0.0
 12
268.971728994755
 22
269.1152535926951
 32
0.0
 13
268.971728994755
 23
269.1152535926951
 33
0.0
  0
MTEXT
  5
E4B7
330
D4CE
100
AcDbEntity
  8
BEMAßUNG
 62
     0
100
AcDbMText
 10
172.5372329424667
 20
274.6985869260285
 30
0.0
 40
3.5
 41
0.0
 71
     2
 72
     1
  1
195,5
 73
     1
 44
1.0
1001
ACAD
1000
MTEXTBEGIN
1070
    73
1070
     1
1070
    44
1040
1.0
1070
    74
1070
     0
1000
MTEXTEND
  0
POINT
  5
E4B8
330
D4CE
100
AcDbEntity
  8
Defpoints
 62
     0
100
AcDbPoint
 10
73.47172899475504
 20
248.1949088016716
 30
0.0
  0
POINT
  5
E4B9
330
D4CE
100
AcDbEntity
  8
Defpoints
 62
     0
100
AcDbPoint
 10
268.971728994755
 20
248.1949088016716
 30
0.0
  0
POINT
  5
E4BA
330
D4CE
100
AcDbEntity
  8
Defpoints
 62
     0
100
AcDbPoint
 10
268.971728994755
 20
269.1152535926951
 30
0.0
  0
ENDBLK
  5
D4D9
330
D4CE
100
AcDbEntity
  8
0
100
AcDbBlockEnd
  0
BLOCK
  5
D4E4
330
D4DA
100
AcDbEntity
  8
0
100
AcDbBlockBegin
  2
*D15
 70
     1
 10
0.0
 20
0.0
 30
0.0
  3
*D15
  1

  0
LINE
  5
E4BB
330
D4DA
100
AcDbEntity
  8
BEMAßUNG
 62
     0
370
    -2
100
AcDbLine
 10
487.971728994755
 20
248.8199088016716
 30
0.0
 11
487.971728994755
 21
270.3652535926951
 31
0.0
  0
LINE
  5
E4BC
330
D4DA
100
AcDbEntity
  8
BEMAßUNG
 62
     0
370
    -2
100
AcDbLine
 10
292.4717289947551
 20
248.8199088016716
 30
0.0
 11
292.4717289947551
 21
270.3652535926951
 31
0.0
  0
LINE
  5
E4BD
330
D4DA
100
AcDbEntity
  8
BEMAßUNG
 62
     0
370
    -2
100
AcDbLine
 10
484.471728994755
 20
269.1152535926951
 30
0.0
 11
295.971728994755
 21
269.1152535926951
 31
0.0
  0
SOLID
  5
E4BE
330
D4DA
100
AcDbEntity
  8
BEMAßUNG
 62
     0
100
AcDbTrace
 10
484.471728994755
 20
269.6985869260284
 30
0.0
 11
484.471728994755
 21
268.5319202593618
 31
0.0
 12
487.971728994755
 22
269.1152535926951
 32
0.0
 13
487.971728994755
 23
269.1152535926951
 33
0.0
  0
SOLID
  5
E4BF
330
D4DA
100
AcDbEntity
  8
BEMAßUNG
 62
     0
100
AcDbTrace
 10
295.971728994755
 20
269.6985869260284
 30
0.0
 11
295.971728994755
 21
268.5319202593618
 31
0.0
 12
292.4717289947551
 22
269.1152535926951
 32
0.0
 13
292.4717289947551
 23
269.1152535926951
 33
0.0
  0
MTEXT
  5
E4C0
330
D4DA
100
AcDbEntity
  8
BEMAßUNG
 62
     0
100
AcDbMText
 10
389.6053026149854
 20
274.6985869260285
 30
0.0
 40
3.5
 41
0.0
 71
     2
 72
     1
  1
195,5
 73
     1
 44
1.0
1001
ACAD
1000
MTEXTBEGIN
1070
    73
1070
     1
1070
    44
1040
1.0
1070
    74
1070
     0
1000
MTEXTEND
  0
POINT
  5
E4C1
330
D4DA
100
AcDbEntity
  8
Defpoints
 62
     0
100
AcDbPoint
 10
487.971728994755
 20
248.1949088016716
 30
0.0
  0
POINT
  5
E4C2
330
D4DA
100
AcDbEntity
  8
Defpoints
 62
     0
100
AcDbPoint
 10
292.4717289947551
 20
248.1949088016716
 30
0.0
  0
POINT
  5
E4C3
330
D4DA
100
AcDbEntity
  8
Defpoints
 62
     0
100
AcDbPoint
 10
292.4717289947551
 20
269.1152535926951
 30
0.0
  0
ENDBLK
  5
D4E5
330
D4DA
100
AcDbEntity
  8
0
100
AcDbBlockEnd
  0
BLOCK
  5
D4F0
330
D4E6
100
AcDbEntity
  8
0
100
AcDbBlockBegin
  2
*D16
 70
     1
 10
0.0
 20
0.0
 30
0.0
  3
*D16
  1

  0
LINE
  5
E4C4
330
D4E6
100
AcDbEntity
  8
BEMAßUNG
 62
     0
370
    -2
100
AcDbLine
 10
293.096728994755
 20
220.3949088016716
 30
0.0
 11
307.4238727340131
 21
220.3949088016716
 31
0.0
  0
LINE
  5
E4C5
330
D4E6
100
AcDbEntity
  8
BEMAßUNG
 62
     0
370
    -2
100
AcDbLine
 10
293.096728994755
 20
248.1949088016716
 30
0.0
 11
307.4238727340131
 21
248.1949088016716
 31
0.0
  0
LINE
  5
E4C6
330
D4E6
100
AcDbEntity
  8
BEMAßUNG
 62
     0
370
    -2
100
AcDbLine
 10
306.1738727340131
 20
223.8949088016716
 30
0.0
 11
306.1738727340131
 21
244.6949088016716
 31
0.0
  0
SOLID
  5
E4C7
330
D4E6
100
AcDbEntity
  8
BEMAßUNG
 62
     0
100
AcDbTrace
 10
305.5905394006797
 20
223.8949088016716
 30
0.0
 11
306.7572060673464
 21
223.8949088016716
 31
0.0
 12
306.1738727340131
 22
220.3949088016716
 32
0.0
 13
306.1738727340131
 23
220.3949088016716
 33
0.0
  0
SOLID
  5
E4C8
330
D4E6
100
AcDbEntity
  8
BEMAßUNG
 62
     0
100
AcDbTrace
 10
305.5905394006797
 20
244.6949088016716
 30
0.0
 11
306.7572060673464
 21
244.6949088016716
 31
0.0
 12
306.1738727340131
 22
248.1949088016716
 32
0.0
 13
306.1738727340131
 23
248.1949088016716
 33
0.0
  0
MTEXT
  5
E4C9
330
D4E6
100
AcDbEntity
  8
BEMAßUNG
 62
     0
100
AcDbMText
 10
300.5905394006796
 20
233.726165000851
 30
0.0
 40
3.5
 41
0.0
 71
     2
 72
     1
  1
27,8
 11
0.0000000000000001
 21
1.0
 31
0.0
 73
     1
 44
1.0
1001
ACAD
1000
MTEXTBEGIN
1070
    73
1070
     1
1070
    44
1040
1.0
1070
    74
1070
     0
1000
MTEXTEND
  0
POINT
  5
E4CA
330
D4E6
100
AcDbEntity
  8
Defpoints
 62
     0
100
AcDbPoint
 10
292.4717289947551
 20
220.3949088016716
 30
0.0
  0
POINT
  5
E4CB
330
D4E6
100
AcDbEntity
  8
Defpoints
 62
     0
100
AcDbPoint
 10
292.4717289947551
 20
248.1949088016716
 30
0.0
  0
POINT
  5
E4CC
330
D4E6
100
AcDbEntity
  8
Defpoints
 62
     0
100
AcDbPoint
 10
306.1738727340131
 20
248.1949088016716
 30
0.0
  0
ENDBLK
  5
D4F1
330
D4E6
100
AcDbEntity
  8
0
100
AcDbBlockEnd
  0
BLOCK
  5
D4FC
330
D4F2
100
AcDbEntity
  8
0
100
AcDbBlockBegin
  2
*D17
 70
     1
 10
0.0
 20
0.0
 30
0.0
  3
*D17
  1

  0
LINE
  5
E4CD
330
D4F2
100
AcDbEntity
  8
BEMAßUNG
 62
     0
370
    -2
100
AcDbLine
 10
522.596728994755
 20
213.9949088016716
 30
0.0
 11
543.3538125601167
 21
213.9949088016716
 31
0.0
  0
LINE
  5
E4CE
330
D4F2
100
AcDbEntity
  8
BEMAßUNG
 62
     0
370
    -2
100
AcDbLine
 10
522.596728994755
 20
258.3949088016716
 30
0.0
 11
543.3538125601168
 21
258.3949088016716
 31
0.0
  0
LINE
  5
E4CF
330
D4F2
100
AcDbEntity
  8
BEMAßUNG
 62
     0
370
    -2
100
AcDbLine
 10
542.1038125601167
 20
217.4949088016715
 30
0.0
 11
542.1038125601167
 21
254.8949088016716
 31
0.0
  0
SOLID
  5
E4D0
330
D4F2
100
AcDbEntity
  8
BEMAßUNG
 62
     0
100
AcDbTrace
 10
541.5204792267833
 20
217.4949088016715
 30
0.0
 11
542.68714589345
 21
217.4949088016715
 31
0.0
 12
542.1038125601167
 22
213.9949088016716
 32
0.0
 13
542.1038125601167
 23
213.9949088016716
 33
0.0
  0
SOLID
  5
E4D1
330
D4F2
100
AcDbEntity
  8
BEMAßUNG
 62
     0
100
AcDbTrace
 10
541.5204792267833
 20
254.8949088016716
 30
0.0
 11
542.68714589345
 21
254.8949088016716
 31
0.0
 12
542.1038125601167
 22
258.3949088016716
 32
0.0
 13
542.1038125601167
 23
258.3949088016716
 33
0.0
  0
MTEXT
  5
E4D2
330
D4F2
100
AcDbEntity
  8
BEMAßUNG
 62
     0
100
AcDbMText
 10
536.5204792267834
 20
234.331229319873
 30
0.0
 40
3.5
 41
0.0
 71
     2
 72
     1
  1
44,4
 11
0.0000000000000001
 21
1.0
 31
0.0
 73
     1
 44
1.0
1001
ACAD
1000
MTEXTBEGIN
1070
    73
1070
     1
1070
    44
1040
1.0
1070
    74
1070
     0
1000
MTEXTEND
  0
POINT
  5
E4D3
330
D4F2
100
AcDbEntity
  8
Defpoints
 62
     0
100
AcDbPoint
 10
521.971728994755
 20
213.9949088016716
 30
0.0
  0
POINT
  5
E4D4
330
D4F2
100
AcDbEntity
  8
Defpoints
 62
     0
100
AcDbPoint
 10
521.971728994755
 20
258.3949088016716
 30
0.0
  0
POINT
  5
E4D5
330
D4F2
100
AcDbEntity
  8
Defpoints
 62
     0
100
AcDbPoint
 10
542.1038125601167
 20
258.3949088016716
 30
0.0
  0
ENDBLK
  5
D4FD
330
D4F2
100
AcDbEntity
  8
0
100
AcDbBlockEnd
  0
BLOCK
  5
DCB3
330
DCA9
100
AcDbEntity
  8
0
100
AcDbBlockBegin
  2
*D18
 70
     1
 10
0.0
 20
0.0
 30
0.0
  3
*D18
  1

  0
LINE
  5
E4DF
330
DCA9
100
AcDbEntity
  8
abmessung
 62
     0
370
    -2
100
AcDbLine
 10
521.0495838090507
 20
252.0949088016716
 30
0.0
 11
536.1613007573514
 21
252.0949088016716
 31
0.0
  0
LINE
  5
E4E0
330
DCA9
100
AcDbEntity
  8
abmessung
 62
     0
370
    -2
100
AcDbLine
 10
521.0495838090507
 20
220.2949088016715
 30
0.0
 11
536.1613007573514
 21
220.2949088016715
 31
0.0
  0
LINE
  5
E4E1
330
DCA9
100
AcDbEntity
  8
abmessung
 62
     0
370
    -2
100
AcDbLine
 10
534.9113007573514
 20
248.5949088016716
 30
0.0
 11
534.9113007573514
 21
223.7949088016716
 31
0.0
  0
SOLID
  5
E4E2
330
DCA9
100
AcDbEntity
  8
abmessung
 62
     0
100
AcDbTrace
 10
534.327967424018
 20
248.5949088016716
 30
0.0
 11
535.4946340906848
 21
248.5949088016716
 31
0.0
 12
534.9113007573514
 22
252.0949088016716
 32
0.0
 13
534.9113007573514
 23
252.0949088016716
 33
0.0
  0
SOLID
  5
E4E3
330
DCA9
100
AcDbEntity
  8
abmessung
 62
     0
100
AcDbTrace
 10
534.327967424018
 20
223.7949088016716
 30
0.0
 11
535.4946340906848
 21
223.7949088016716
 31
0.0
 12
534.9113007573514
 22
220.2949088016715
 32
0.0
 13
534.9113007573514
 23
220.2949088016715
 33
0.0
  0
MTEXT
  5
E4E4
330
DCA9
100
AcDbEntity
  8
abmessung
 62
     0
100
AcDbMText
 10
531.3696340906848
 20
236.1949088016717
 30
0.0
 40
3.5
 41
0.0
 71
     5
 72
     1
  1
31,8
 11
0.0000000000000001
 21
1.0
 31
0.0
 73
     1
 44
1.0
1001
ACAD
1000
MTEXTBEGIN
1070
    73
1070
     1
1070
    44
1040
1.0
1070
    74
1070
     0
1000
MTEXTEND
  0
POINT
  5
E4E5
330
DCA9
100
AcDbEntity
  8
Defpoints
 62
     0
100
AcDbPoint
 10
520.4245838090506
 20
252.0949088016716
 30
0.0
  0
POINT
  5
E4E6
330
DCA9
100
AcDbEntity
  8
Defpoints
 62
     0
100
AcDbPoint
 10
520.4245838090506
 20
220.2949088016715
 30
0.0
  0
POINT
  5
E4E7
330
DCA9
100
AcDbEntity
  8
Defpoints
 62
     0
100
AcDbPoint
 10
534.9113007573514
 20
220.2949088016715
 30
0.0
  0
ENDBLK
  5
DCB4
330
DCA9
100
AcDbEntity
  8
0
100
AcDbBlockEnd
  0
ENDSEC
  0
SECTION
  2
ENTITIES
  0
LINE
  5
3425
330
1F
100
AcDbEntity
  8
TEXTFELD
100
AcDbLine
 10
588.9999993094325
 20
13.399999858901
 30
0.0
 11
484.4529448909185
 21
13.399999858901
 31
0.0
  0
LINE
  5
3426
330
1F
100
AcDbEntity
  8
TEXTFELD
100
AcDbLine
 10
528.9999993094329
 20
9.199999858901179
 30
0.0
 11
488.9999993094325
 21
9.199999858901179
 31
0.0
  0
LINE
  5
3427
330
1F
100
AcDbEntity
  8
TEXTFELD
100
AcDbLine
 10
588.9999993094325
 20
21.69999985890118
 30
0.0
 11
528.9999993094329
 21
21.69999985890118
 31
0.0
  0
LINE
  5
3428
330
1F
100
AcDbEntity
  8
TEXTFELD
100
AcDbLine
 10
578.4808743544299
 20
4.999999858900906
 30
0.0
 11
578.4808743544304
 21
13.399999858901
 31
0.0
  0
LINE
  5
3429
330
1F
100
AcDbEntity
  8
TEXTFELD
100
AcDbLine
 10
588.9999993094325
 20
9.199999858901179
 30
0.0
 11
578.4808743544299
 21
9.199999858901179
 31
0.0
  0
TEXT
  5
342A
330
1F
100
AcDbEntity
  8
TEXTFELD
100
AcDbText
 10
579.5778827215447
 20
10.2968869260516
 30
0.0
 40
1.738212755828499
  1
Page:
100
AcDbText
  0
TEXT
  5
342B
330
1F
100
AcDbEntity
  8
TEXTFELD
100
AcDbText
 10
579.5778827215447
 20
6.128347441165175
 30
0.0
 40
1.738212755828499
  1
1 / 1
100
AcDbText
  0
LINE
  5
342C
330
1F
100
AcDbEntity
  8
TEXTFELD
100
AcDbLine
 10
528.9999993094324
 20
4.999999858901361
 30
0.0
 11
528.9999993094324
 21
29.99999985890136
 31
0.0
  0
LINE
  5
342E
330
1F
100
AcDbEntity
  8
TEXTFELD
100
AcDbLine
 10
506.7264721001762
 20
13.399999858901
 30
0.0
 11
506.7264721001757
 21
9.199999858901179
 31
0.0
  0
TEXT
  5
342F
330
1F
100
AcDbEntity
  8
TEXTFELD
100
AcDbText
 10
484.7600843012686
 20
10.2968869260516
 30
0.0
 40
1.738212755828499
  1
Name:
100
AcDbText
  0
TEXT
  5
3430
330
1F
100
AcDbEntity
  8
TEXTFELD
100
AcDbText
 10
484.7600843012686
 20
6.128347441165175
 30
0.0
 40
1.738212755828499
  1
File: 
100
AcDbText
  0
TEXT
  5
3431
330
1F
100
AcDbEntity
  8
TEXTFELD
100
AcDbText
 10
529.829795792559
 20
24.83281084208071
 30
0.0
 40
1.738212755828499
  1
Scale 1:1 (DIN A2)
100
AcDbText
  0
LINE
  5
3432
330
1F
100
AcDbEntity
  8
TEXTFELD
100
AcDbLine
 10
578.48087435443
 20
21.69999985890118
 30
0.0
 11
578.4808743544305
 21
29.99999985890097
 31
0.0
  0
LINE
  5
3433
330
1F
100
AcDbEntity
  8
TEXTFELD
100
AcDbLine
 10
588.9999993094325
 20
4.999999858900906
 30
0.0
 11
484.4529448909185
 21
4.999999858901389
 31
0.0
  0
LINE
  5
3434
330
1F
100
AcDbEntity
  8
TEXTFELD
100
AcDbLine
 10
484.4529448909185
 20
4.999999858901361
 30
0.0
 11
484.4529448909185
 21
29.99999985890136
 31
0.0
  0
LINE
  5
3435
330
1F
100
AcDbEntity
  8
TEXTFELD
100
AcDbLine
 10
484.4529448909185
 20
29.99999985890139
 30
0.0
 11
588.9999993094325
 21
29.99999985890091
 31
0.0
  0
LINE
  5
3436
330
1F
100
AcDbEntity
  8
TEXTFELD
100
AcDbLine
 10
588.9999993094325
 20
29.99999985890091
 30
0.0
 11
588.9999993094325
 21
4.999999858900906
 31
0.0
  0
LINE
  5
3437
330
1F
100
AcDbEntity
  8
TEXTFELD
100
AcDbLine
 10
528.9999993094324
 20
4.99999985890119
 30
0.0
 11
528.9999993094324
 21
29.99999985890119
 31
0.0
  0
TEXT
  5
3438
330
1F
100
AcDbEntity
  8
TEXTFELD
100
AcDbText
 10
493.2748596103285
 20
10.31526679560667
 30
0.0
 40
1.738212755828499
  1
Miethling
100
AcDbText
  0
TEXT
  5
3439
330
1F
100
AcDbEntity
  8
TEXTFELD
100
AcDbText
 10
485.4147388350845
 20
14.86348631136727
 30
0.0
 40
1.738212755828499
  1
Fax:
100
AcDbText
  0
TEXT
  5
343A
330
1F
100
AcDbEntity
  8
TEXTFELD
100
AcDbText
 10
485.4147388350845
 20
26.05193481824469
 30
0.0
 40
1.738212755828499
  1
DHD GmbH
100
AcDbText
  0
TEXT
  5
343B
330
1F
100
AcDbEntity
  8
TEXTFELD
100
AcDbText
 10
485.4147388350845
 20
23.37740292250814
 30
0.0
 40
1.738212755828499
  1
Haferkornstraße 5
100
AcDbText
  0
TEXT
  5
343C
330
1F
100
AcDbEntity
  8
TEXTFELD
100
AcDbText
 10
485.4147388350845
 20
20.64738744522455
 30
0.0
 40
1.738212755828499
  1
04129 Leipzig / Germany
100
AcDbText
  0
TEXT
  5
343D
330
1F
100
AcDbEntity
  8
TEXTFELD
100
AcDbText
 10
493.7402756747139
 20
14.76608519818248
 30
0.0
 40
1.738212755828499
  1
+ 49  341  5897022
100
AcDbText
  0
TEXT
  5
343E
330
1F
100
AcDbEntity
  8
TEXTFELD
100
AcDbText
 10
507.1977818513358
 20
10.29688692605143
 30
0.0
 40
1.738212755828499
  1
Date:
100
AcDbText
  0
TEXT
  5
343F
330
1F
100
AcDbEntity
  8
TEXTFELD
100
AcDbText
 10
484.7600843012686
 20
10.29688692605143
 30
0.0
 40
1.738212755828499
  1
Name:
100
AcDbText
  0
TEXT
  5
3440
330
1F
100
AcDbEntity
  8
TEXTFELD
100
AcDbText
 10
484.7600843012686
 20
6.128347441165004
 30
0.0
 40
1.738212755828499
  1
File: 
100
AcDbText
  0
LINE
  5
3441
330
1F
100
AcDbEntity
  8
TEXTFELD
100
AcDbLine
 10
528.9999993094329
 20
9.199999858901009
 30
0.0
 11
484.4529448909185
 21
9.199999858901009
 31
0.0
  0
TEXT
  5
3442
330
1F
100
AcDbEntity
  8
TEXTFELD
100
AcDbText
 10
485.4147388350845
 20
17.29284373999516
 30
0.0
 40
1.738212755828499
  1
Phone: + 49  341  5897020
100
AcDbText
  0
TEXT
  5
3443
330
1F
100
AcDbEntity
  8
TEXTFELD
100
AcDbText
 10
490.8403061298218
 20
6.234549152978075
 30
0.0
 40
1.738212755828499
  1
52-7492_dimension.dwg
100
AcDbText
  0
TEXT
  5
3444
330
1F
100
AcDbEntity
  8
TEXTFELD
100
AcDbText
 10
514.8424729428998
 20
10.4073814923655
 30
0.0
 40
1.738212755828499
  1
31.01.2011
100
AcDbText
  0
TEXT
  5
3445
330
1F
100
AcDbEntity
  8
TEXTFELD
100
AcDbText
 10
545.5716297704375
 20
7.497173059517052
 30
0.0
 40
2.629907217668009
  1
52-7492
100
AcDbText
  0
TEXT
  5
344D
330
1F
100
AcDbEntity
  8
TEXTFELD
100
AcDbText
 10
530.6679740752437
 20
17.97702603586364
 30
0.0
 40
2.2
  1
52/XC 19" Adapterpanel, flat
100
AcDbText
  0
LINE
  5
384F
330
1F
100
AcDbEntity
  8
RAHMEN07
100
AcDbLine
 10
588.9999993094325
 20
414.9999998589009
 30
0.0
 11
19.99999930943257
 21
414.9999998589009
 31
0.0
  0
LINE
  5
3850
330
1F
100
AcDbEntity
  8
RAHMEN07
100
AcDbLine
 10
19.99999930943257
 20
4.999999858900899
 30
0.0
 11
588.9999993094325
 21
4.999999858900899
 31
0.0
  0
LINE
  5
3851
330
1F
100
AcDbEntity
  8
RAHMEN025
100
AcDbLine
 10
593.9999993094325
 20
419.9999998589008
 30
0.0
 11
-0.000000690567426
 21
419.9999998589008
 31
0.0
  0
LINE
  5
3852
330
1F
100
AcDbEntity
  8
RAHMEN025
100
AcDbLine
 10
-0.000000690567426
 20
-0.0000001410991004
 30
0.0
 11
593.9999993094325
 21
-0.0000001410991004
 31
0.0
  0
LINE
  5
3853
330
1F
100
AcDbEntity
  8
RAHMEN07
100
AcDbLine
 10
19.99999930943257
 20
414.9999998589009
 30
0.0
 11
19.99999930943257
 21
4.999999858900899
 31
0.0
  0
LINE
  5
3854
330
1F
100
AcDbEntity
  8
RAHMEN025
100
AcDbLine
 10
-0.000000690567426
 20
419.9999998589008
 30
0.0
 11
-0.000000690567426
 21
-0.0000001410991004
 31
0.0
  0
LINE
  5
3855
330
1F
100
AcDbEntity
  8
RAHMEN07
100
AcDbLine
 10
588.9999993094325
 20
4.999999858900899
 30
0.0
 11
588.9999993094325
 21
414.9999998589009
 31
0.0
  0
LINE
  5
3856
330
1F
100
AcDbEntity
  8
RAHMEN025
100
AcDbLine
 10
593.9999993094325
 20
-0.0000001410991004
 30
0.0
 11
593.9999993094325
 21
419.9999998589008
 31
0.0
  0
MTEXT
  5
5B8B
330
1F
100
AcDbEntity
  8
RAHMEN025
100
AcDbMText
 10
26.46204805812886
 20
24.90908629273149
 30
0.0
 40
2.5
 41
351.632274128031
 71
     1
 72
     5
  3
Specifications and design are subject to change without notice. \PThe content of this document is for information only. The information presented in this document does not form part of any quotation or contract, is believed to be accurate and reliabl
  1
e and may be changed without notice. No liability will be accepted by the publisher for any consequence of its use. Publication thereof does neither convey nor imply any license under patent- or other industrial or intellectual property rights.
 73
     1
 44
1.0
1001
ACAD
1000
ACAD_MTEXT_DEFINED_HEIGHT_BEGIN
1070
    46
1040
0.0
1000
ACAD_MTEXT_DEFINED_HEIGHT_END
1000
MTEXTBEGIN
1070
    73
1070
     1
1070
    44
1040
1.0
1070
    74
1070
     0
1000
MTEXTEND
  0
TEXT
  5
5B8D
330
1F
100
AcDbEntity
  8
TEXTFELD
100
AcDbText
 10
537.4043431509876
 20
14.45163577035234
 30
0.0
 40
2.2
  1
Dimension of 52-7492
100
AcDbText
  0
LINE
  5
D3EB
330
1F
100
AcDbEntity
  8
BAUTEIL
  6
Continuous
370
    15
100
AcDbLine
 10
62.22172577610422
 20
213.9949092606274
 30
0.0
 11
499.2217322134059
 21
213.9949092606274
 31
0.0
  0
LINE
  5
D3EC
330
1F
100
AcDbEntity
  8
BAUTEIL
  6
Continuous
370
    15
100
AcDbLine
 10
62.22172577610422
 20
213.9949092606274
 30
0.0
 11
62.22172577610422
 21
216.4949087390867
 31
0.0
  0
LINE
  5
D3EE
330
1F
100
AcDbEntity
  8
BAUTEIL
  6
Continuous
370
    15
100
AcDbLine
 10
499.2217322134059
 20
216.4949087390867
 30
0.0
 11
499.2217322134059
 21
213.9949092606274
 31
0.0
  0
LINE
  5
D3EF
330
1F
100
AcDbEntity
  8
BAUTEIL
  6
Continuous
370
    15
100
AcDbLine
 10
39.47173555126596
 20
213.9949092606274
 30
0.0
 11
61.47173543205667
 21
213.9949092606274
 31
0.0
  0
LINE
  5
D3F0
330
1F
100
AcDbEntity
  8
BAUTEIL
  6
Continuous
370
    15
100
AcDbLine
 10
39.47173555126596
 20
258.3949083427159
 30
0.0
 11
39.47173555126596
 21
213.9949092606274
 31
0.0
  0
LINE
  5
D3F1
330
1F
100
AcDbEntity
  8
BAUTEIL
  6
Continuous
370
    15
100
AcDbLine
 10
61.47173543205667
 20
258.3949083427159
 30
0.0
 11
39.47173555126596
 21
258.3949083427159
 31
0.0
  0
LINE
  5
D3F2
330
1F
100
AcDbEntity
  8
BAUTEIL
  6
Continuous
370
    15
100
AcDbLine
 10
61.47173543205667
 20
258.3949083427159
 30
0.0
 11
61.47173543205667
 21
255.1449092069832
 31
0.0
  0
LINE
  5
D3F3
330
1F
100
AcDbEntity
  8
BAUTEIL
  6
Continuous
370
    15
100
AcDbLine
 10
61.47173543205667
 20
255.1449092069832
 30
0.0
 11
62.22172577610422
 21
255.1449092069832
 31
0.0
  0
LINE
  5
D3F4
330
1F
100
AcDbEntity
  8
BAUTEIL
  6
Continuous
370
    15
100
AcDbLine
 10
62.22172577610422
 20
255.1449092069832
 30
0.0
 11
62.22172577610422
 21
255.8949088642565
 31
0.0
  0
LINE
  5
D3F6
330
1F
100
AcDbEntity
  8
BAUTEIL
  6
Continuous
370
    15
100
AcDbLine
 10
499.2217322134059
 20
255.8949088642565
 30
0.0
 11
499.2217322134059
 21
255.1449092069832
 31
0.0
  0
LINE
  5
D3F7
330
1F
100
AcDbEntity
  8
BAUTEIL
  6
Continuous
370
    15
100
AcDbLine
 10
499.2217322134059
 20
255.1449092069832
 30
0.0
 11
499.9717225574534
 21
255.1449092069832
 31
0.0
  0
LINE
  5
D3F8
330
1F
100
AcDbEntity
  8
BAUTEIL
  6
Continuous
370
    15
100
AcDbLine
 10
499.9717225574534
 20
255.1449092069832
 30
0.0
 11
499.9717225574534
 21
258.3949083427159
 31
0.0
  0
LINE
  5
D3F9
330
1F
100
AcDbEntity
  8
BAUTEIL
  6
Continuous
370
    15
100
AcDbLine
 10
521.9717224382441
 20
258.3949083427159
 30
0.0
 11
499.9717225574534
 21
258.3949083427159
 31
0.0
  0
LINE
  5
D3FA
330
1F
100
AcDbEntity
  8
BAUTEIL
  6
Continuous
370
    15
100
AcDbLine
 10
521.9717224382441
 20
213.9949092606274
 30
0.0
 11
521.9717224382441
 21
258.3949083427159
 31
0.0
  0
LINE
  5
D3FB
330
1F
100
AcDbEntity
  8
BAUTEIL
  6
Continuous
370
    15
100
AcDbLine
 10
499.9717225574534
 20
213.9949092606274
 30
0.0
 11
521.9717224382441
 21
213.9949092606274
 31
0.0
  0
LINE
  5
D3FC
330
1F
100
AcDbEntity
  8
BAUTEIL
  6
Continuous
370
    15
100
AcDbLine
 10
499.9717225574534
 20
213.9949092606274
 30
0.0
 11
499.9717225574534
 21
217.24490839636
 31
0.0
  0
LINE
  5
D3FD
330
1F
100
AcDbEntity
  8
BAUTEIL
  6
Continuous
370
    15
100
AcDbLine
 10
499.9717225574534
 20
217.24490839636
 30
0.0
 11
499.2217322134059
 21
217.24490839636
 31
0.0
  0
LINE
  5
D3FE
330
1F
100
AcDbEntity
  8
BAUTEIL
  6
Continuous
370
    15
100
AcDbLine
 10
499.2217322134059
 20
217.24490839636
 30
0.0
 11
499.2217322134059
 21
216.4949087390867
 31
0.0
  0
LINE
  5
D3FF
330
1F
100
AcDbEntity
  8
BAUTEIL
  6
Continuous
370
    15
100
AcDbLine
 10
62.22172577610422
 20
216.4949087390867
 30
0.0
 11
62.22172577610422
 21
217.24490839636
 31
0.0
  0
LINE
  5
D400
330
1F
100
AcDbEntity
  8
BAUTEIL
  6
Continuous
370
    15
100
AcDbLine
 10
62.22172577610422
 20
217.24490839636
 30
0.0
 11
61.47173543205667
 21
217.24490839636
 31
0.0
  0
LINE
  5
D401
330
1F
100
AcDbEntity
  8
BAUTEIL
  6
Continuous
370
    15
100
AcDbLine
 10
61.47173543205667
 20
217.24490839636
 30
0.0
 11
61.47173543205667
 21
213.9949092606274
 31
0.0
  0
ARC
  5
D402
330
1F
100
AcDbEntity
  8
BAUTEIL
  6
Continuous
370
    15
100
AcDbCircle
 10
49.52458380905074
 20
252.0949088016716
 30
0.0
 40
3.5
100
AcDbArc
 50
270.0000000000017
 51
90.0
  0
LINE
  5
D403
330
1F
100
AcDbEntity
  8
BAUTEIL
  6
Continuous
370
    15
100
AcDbLine
 10
49.52458043327737
 20
255.5949093738762
 30
0.0
 11
46.018873646168
 21
255.5949093738762
 31
0.0
  0
ARC
  5
D404
330
1F
100
AcDbEntity
  8
BAUTEIL
  6
Continuous
370
    15
100
AcDbCircle
 10
46.01887418045933
 20
252.0949088016716
 30
0.0
 40
3.5
100
AcDbArc
 50
90.0
 51
270.0
  0
LINE
  5
D405
330
1F
100
AcDbEntity
  8
BAUTEIL
  6
Continuous
370
    15
100
AcDbLine
 10
46.018873646168
 20
248.5949091578094
 30
0.0
 11
49.52458043327737
 21
248.5949091578094
 31
0.0
  0
ARC
  5
D406
330
1F
100
AcDbEntity
  8
BAUTEIL
  6
Continuous
370
    15
100
AcDbCircle
 10
46.01887418045933
 20
220.2949088016715
 30
0.0
 40
3.5
100
AcDbArc
 50
90.0
 51
270.0
  0
LINE
  5
D407
330
1F
100
AcDbEntity
  8
BAUTEIL
  6
Continuous
370
    15
100
AcDbLine
 10
46.018873646168
 20
216.794908229467
 30
0.0
 11
49.52458043327737
 21
216.794908229467
 31
0.0
  0
ARC
  5
D408
330
1F
100
AcDbEntity
  8
BAUTEIL
  6
Continuous
370
    15
100
AcDbCircle
 10
49.52458380905074
 20
220.2949088016715
 30
0.0
 40
3.5
100
AcDbArc
 50
270.0000000000017
 51
89.99999999999836
  0
LINE
  5
D409
330
1F
100
AcDbEntity
  8
BAUTEIL
  6
Continuous
370
    15
100
AcDbLine
 10
49.52458043327737
 20
223.7949084455339
 30
0.0
 11
46.018873646168
 21
223.7949084455339
 31
0.0
  0
ARC
  5
D40A
330
1F
100
AcDbEntity
  8
BAUTEIL
  6
Continuous
370
    15
100
AcDbCircle
 10
511.9188741804594
 20
220.2949088016715
 30
0.0
 40
3.500000000000056
100
AcDbArc
 50
90.00000000000161
 51
269.9999999999984
  0
LINE
  5
D40B
330
1F
100
AcDbEntity
  8
BAUTEIL
  6
Continuous
370
    15
100
AcDbLine
 10
511.9188775562327
 20
216.794908229467
 30
0.0
 11
515.4245843433421
 21
216.794908229467
 31
0.0
  0
ARC
  5
D40C
330
1F
100
AcDbEntity
  8
BAUTEIL
  6
Continuous
370
    15
100
AcDbCircle
 10
515.4245838090507
 20
220.2949088016715
 30
0.0
 40
3.500000000000056
100
AcDbArc
 50
270.0
 51
90.0
  0
LINE
  5
D40D
330
1F
100
AcDbEntity
  8
BAUTEIL
  6
Continuous
370
    15
100
AcDbLine
 10
515.4245843433421
 20
223.7949084455339
 30
0.0
 11
511.9188775562327
 21
223.7949084455339
 31
0.0
  0
ARC
  5
D40E
330
1F
100
AcDbEntity
  8
BAUTEIL
  6
Continuous
370
    15
100
AcDbCircle
 10
515.4245838090507
 20
252.0949088016716
 30
0.0
 40
3.5
100
AcDbArc
 50
270.0
 51
90.0
  0
LINE
  5
D40F
330
1F
100
AcDbEntity
  8
BAUTEIL
  6
Continuous
370
    15
100
AcDbLine
 10
515.4245843433421
 20
255.5949093738762
 30
0.0
 11
511.9188775562327
 21
255.5949093738762
 31
0.0
  0
ARC
  5
D410
330
1F
100
AcDbEntity
  8
BAUTEIL
  6
Continuous
370
    15
100
AcDbCircle
 10
511.9188741804593
 20
252.0949088016716
 30
0.0
 40
3.5
100
AcDbArc
 50
90.0
 51
270.0
  0
LINE
  5
D411
330
1F
100
AcDbEntity
  8
BAUTEIL
  6
Continuous
370
    15
100
AcDbLine
 10
511.9188775562327
 20
248.5949091578094
 30
0.0
 11
515.4245843433421
 21
248.5949091578094
 31
0.0
  0
CIRCLE
  5
D412
330
1F
100
AcDbEntity
  8
BAUTEIL
  6
Continuous
370
    15
100
AcDbCircle
 10
69.22172899475509
 20
244.6949088016716
 30
0.0
 40
1.75
  0
CIRCLE
  5
D413
330
1F
100
AcDbEntity
  8
BAUTEIL
  6
Continuous
370
    15
100
AcDbCircle
 10
69.22172899475507
 20
224.6949088016716
 30
0.0
 40
1.75
  0
CIRCLE
  5
D414
330
1F
100
AcDbEntity
  8
BAUTEIL
  6
Continuous
370
    15
100
AcDbCircle
 10
273.221728994755
 20
244.6949088016716
 30
0.0
 40
1.75
  0
CIRCLE
  5
D415
330
1F
100
AcDbEntity
  8
BAUTEIL
  6
Continuous
370
    15
100
AcDbCircle
 10
273.221728994755
 20
224.6949088016716
 30
0.0
 40
1.75
  0
CIRCLE
  5
D416
330
1F
100
AcDbEntity
  8
BAUTEIL
  6
Continuous
370
    15
100
AcDbCircle
 10
288.2217289947551
 20
244.6949088016716
 30
0.0
 40
1.75
  0
CIRCLE
  5
D417
330
1F
100
AcDbEntity
  8
BAUTEIL
  6
Continuous
370
    15
100
AcDbCircle
 10
288.2217289947551
 20
224.6949088016716
 30
0.0
 40
1.75
  0
CIRCLE
  5
D418
330
1F
100
AcDbEntity
  8
BAUTEIL
  6
Continuous
370
    15
100
AcDbCircle
 10
492.221728994755
 20
244.6949088016717
 30
0.0
 40
1.75
  0
CIRCLE
  5
D419
330
1F
100
AcDbEntity
  8
BAUTEIL
  6
Continuous
370
    15
100
AcDbCircle
 10
492.221728994755
 20
224.6949088016716
 30
0.0
 40
1.75
  0
LINE
  5
D41A
330
1F
100
AcDbEntity
  8
BAUTEIL
  6
Continuous
370
    15
100
AcDbLine
 10
268.9717293970864
 20
220.3949095646111
 30
0.0
 11
268.9717293970864
 21
248.1949089059797
 31
0.0
  0
LINE
  5
D41B
330
1F
100
AcDbEntity
  8
BAUTEIL
  6
Continuous
370
    15
100
AcDbLine
 10
268.9717293970864
 20
248.1949089059797
 30
0.0
 11
73.47172994842935
 21
248.1949089059797
 31
0.0
  0
LINE
  5
D41C
330
1F
100
AcDbEntity
  8
BAUTEIL
  6
Continuous
370
    15
100
AcDbLine
 10
73.47172994842935
 20
248.1949089059797
 30
0.0
 11
73.47172994842935
 21
220.3949095646111
 31
0.0
  0
LINE
  5
D41D
330
1F
100
AcDbEntity
  8
BAUTEIL
  6
Continuous
370
    15
100
AcDbLine
 10
73.47172994842935
 20
220.3949095646111
 30
0.0
 11
268.9717293970864
 21
220.3949095646111
 31
0.0
  0
LINE
  5
D41E
330
1F
100
AcDbEntity
  8
BAUTEIL
  6
Continuous
370
    15
100
AcDbLine
 10
487.9717280410807
 20
220.3949095646111
 30
0.0
 11
487.9717280410807
 21
248.1949089059797
 31
0.0
  0
LINE
  5
D41F
330
1F
100
AcDbEntity
  8
BAUTEIL
  6
Continuous
370
    15
100
AcDbLine
 10
487.9717280410807
 20
248.1949089059797
 30
0.0
 11
292.4717285924237
 21
248.1949089059797
 31
0.0
  0
LINE
  5
D420
330
1F
100
AcDbEntity
  8
BAUTEIL
  6
Continuous
370
    15
100
AcDbLine
 10
292.4717285924237
 20
248.1949089059797
 30
0.0
 11
292.4717285924237
 21
220.3949095646111
 31
0.0
  0
LINE
  5
D421
330
1F
100
AcDbEntity
  8
BAUTEIL
  6
Continuous
370
    15
100
AcDbLine
 10
292.4717285924237
 20
220.3949095646111
 30
0.0
 11
487.9717280410807
 21
220.3949095646111
 31
0.0
  0
LINE
  5
D422
330
1F
100
AcDbEntity
  8
BAUTEIL
  6
Continuous
370
    15
100
AcDbLine
 10
499.2217322134059
 20
258.3949083427159
 30
0.0
 11
62.22172577610422
 21
258.3949083427159
 31
0.0
  0
LINE
  5
D423
330
1F
100
AcDbEntity
  8
BAUTEIL
  6
Continuous
370
    15
100
AcDbLine
 10
499.2217322134059
 20
258.3949083427159
 30
0.0
 11
499.2217322134059
 21
255.8949088642565
 31
0.0
  0
LINE
  5
D424
330
1F
100
AcDbEntity
  8
BAUTEIL
  6
Continuous
370
    15
100
AcDbLine
 10
62.22172577610422
 20
255.8949088642565
 30
0.0
 11
62.22172577610422
 21
258.3949083427159
 31
0.0
  0
LINE
  5
D425
330
1F
100
AcDbEntity
  8
BAUTEIL
  6
HIDDEN
370
     0
100
AcDbLine
 10
499.2217322134059
 20
215.494908575174
 30
0.0
 11
62.22172577610422
 21
215.494908575174
 31
0.0
  0
LINE
  5
D426
330
1F
100
AcDbEntity
  8
BAUTEIL
  6
HIDDEN
370
     0
100
AcDbLine
 10
62.22172577610422
 20
256.8949090281693
 30
0.0
 11
499.2217322134059
 21
256.8949090281693
 31
0.0
  0
LINE
  5
D427
330
1F
100
AcDbEntity
  8
MITTELLINIE
100
AcDbLine
 10
513.6717289947551
 20
216.7949088016716
 30
0.0
 11
513.6717289947551
 21
223.7949088016716
 31
0.0
  0
LINE
  5
D428
330
1F
100
AcDbEntity
  8
MITTELLINIE
100
AcDbLine
 10
47.77172899475504
 20
216.7949088016716
 30
0.0
 11
47.77172899475504
 21
223.7949088016716
 31
0.0
  0
LINE
  5
D429
330
1F
100
AcDbEntity
  8
MITTELLINIE
100
AcDbLine
 10
47.77172899475504
 20
248.5949088016716
 30
0.0
 11
47.77172899475504
 21
255.5949088016715
 31
0.0
  0
DIMENSION
  5
D42A
330
1F
100
AcDbEntity
  8
BEMAßUNG
100
AcDbDimension
  2
*D11
 10
521.971728994755
 20
285.1663466788984
 30
0.0
 11
283.0758877994591
 21
285.1663466788984
 31
0.0
 70
   160
 71
     2
 42
482.5
  3
ISO-25
100
AcDbAlignedDimension
 13
39.47172899475507
 23
258.3949088016716
 33
0.0
 14
521.971728994755
 24
258.3949088016716
 34
0.0
100
AcDbRotatedDimension
  0
DIMENSION
  5
D42B
330
1F
100
AcDbEntity
  8
BEMAßUNG
100
AcDbDimension
  2
*D12
 10
513.6717289947551
 20
276.5066608439349
 30
0.0
 11
283.0758877994591
 21
276.5066608439349
 31
0.0
 70
   160
 71
     2
 42
465.9
  3
ISO-25
100
AcDbAlignedDimension
 13
47.77172899475504
 23
248.5949088016716
 33
0.0
 14
513.6717289947551
 24
248.5949088016715
 34
0.0
100
AcDbRotatedDimension
  0
DIMENSION
  5
D42D
330
1F
100
AcDbEntity
  8
BEMAßUNG
100
AcDbDimension
  2
*D13
 10
85.36559820408442
 20
220.3949088016716
 30
0.0
 11
85.3655982040844
 21
236.3250015064722
 31
0.0
 70
   160
 71
     2
 42
27.80000000000001
  3
ISO-25
100
AcDbAlignedDimension
 13
73.47172899475504
 23
248.1949088016716
 33
0.0
 14
73.47172899475504
 24
220.3949088016716
 34
0.0
 50
90.0
100
AcDbRotatedDimension
  0
DIMENSION
  5
D42E
330
1F
100
AcDbEntity
  8
BEMAßUNG
100
AcDbDimension
  2
*D14
 10
268.971728994755
 20
269.1152535926951
 30
0.0
 11
172.5372329424667
 21
269.1152535926951
 31
0.0
 70
   160
 71
     2
 42
195.5
  3
ISO-25
100
AcDbAlignedDimension
 13
73.47172899475504
 23
248.1949088016716
 33
0.0
 14
268.971728994755
 24
248.1949088016716
 34
0.0
100
AcDbRotatedDimension
  0
DIMENSION
  5
D42F
330
1F
100
AcDbEntity
  8
BEMAßUNG
100
AcDbDimension
  2
*D15
 10
292.4717289947551
 20
269.1152535926951
 30
0.0
 11
389.6053026149854
 21
269.1152535926951
 31
0.0
 70
   160
 71
     2
 42
195.5
  3
ISO-25
100
AcDbAlignedDimension
 13
487.971728994755
 23
248.1949088016716
 33
0.0
 14
292.4717289947551
 24
248.1949088016716
 34
0.0
100
AcDbRotatedDimension
  0
DIMENSION
  5
D430
330
1F
100
AcDbEntity
  8
BEMAßUNG
100
AcDbDimension
  2
*D16
 10
306.1738727340131
 20
248.1949088016716
 30
0.0
 11
306.173872734013
 21
233.726165000851
 31
0.0
 70
   160
 71
     2
 42
27.80000000000001
  3
ISO-25
100
AcDbAlignedDimension
 13
292.4717289947551
 23
220.3949088016716
 33
0.0
 14
292.4717289947551
 24
248.1949088016716
 34
0.0
 50
90.0
100
AcDbRotatedDimension
  0
DIMENSION
  5
D431
330
1F
100
AcDbEntity
  8
BEMAßUNG
100
AcDbDimension
  2
*D17
 10
542.1038125601167
 20
258.3949088016716
 30
0.0
 11
542.1038125601167
 21
234.331229319873
 31
0.0
 70
   160
 71
     2
 42
44.40000000000003
  3
ISO-25
100
AcDbAlignedDimension
 13
521.971728994755
 23
213.9949088016716
 33
0.0
 14
521.971728994755
 24
258.3949088016716
 34
0.0
 50
90.0
100
AcDbRotatedDimension
  0
DIMENSION
  5
D434
330
1F
100
AcDbEntity
  8
BEMAßUNG
100
AcDbDimension
  2
*D9
 10
390.2217289947551
 20
194.1009576041528
 30
0.0
 11
283.0758877994591
 21
194.1009576041528
 31
0.0
 70
   160
 71
     2
 42
219.0000000000001
  3
ISO-25
100
AcDbAlignedDimension
 13
171.221728994755
 23
215.3949088016716
 33
0.0
 14
390.2217289947551
 24
215.3949088016716
 34
0.0
100
AcDbRotatedDimension
  0
INSERT
  5
D435
330
1F
100
AcDbEntity
  8
MITTELLINIE
100
AcDbBlockReference
  2
SW_CENTERMARKSYMBOL_0
 10
69.22172899475509
 20
244.6949088016716
 30
0.0
  0
INSERT
  5
D436
330
1F
100
AcDbEntity
  8
MITTELLINIE
100
AcDbBlockReference
  2
SW_CENTERMARKSYMBOL_1
 10
69.22172899475507
 20
224.6949088016716
 30
0.0
  0
INSERT
  5
D437
330
1F
100
AcDbEntity
  8
MITTELLINIE
100
AcDbBlockReference
  2
SW_CENTERMARKSYMBOL_2
 10
273.221728994755
 20
244.6949088016716
 30
0.0
  0
INSERT
  5
D438
330
1F
100
AcDbEntity
  8
MITTELLINIE
100
AcDbBlockReference
  2
SW_CENTERMARKSYMBOL_3
 10
273.221728994755
 20
224.6949088016716
 30
0.0
  0
INSERT
  5
D439
330
1F
100
AcDbEntity
  8
MITTELLINIE
100
AcDbBlockReference
  2
SW_CENTERMARKSYMBOL_4
 10
288.2217289947551
 20
244.6949088016716
 30
0.0
  0
INSERT
  5
D43A
330
1F
100
AcDbEntity
  8
MITTELLINIE
100
AcDbBlockReference
  2
SW_CENTERMARKSYMBOL_5
 10
288.2217289947551
 20
224.6949088016716
 30
0.0
  0
INSERT
  5
D43B
330
1F
100
AcDbEntity
  8
MITTELLINIE
100
AcDbBlockReference
  2
SW_CENTERMARKSYMBOL_6
 10
492.221728994755
 20
244.6949088016717
 30
0.0
  0
INSERT
  5
D43C
330
1F
100
AcDbEntity
  8
MITTELLINIE
100
AcDbBlockReference
  2
SW_CENTERMARKSYMBOL_7
 10
492.221728994755
 20
224.6949088016716
 30
0.0
  0
LINE
  5
D43D
330
1F
100
AcDbEntity
  8
MITTELLINIE
  6
CENTERX2
 48
2.0
370
     0
100
AcDbLine
 10
287.471728994755
 20
234.2949088016716
 30
0.0
 11
492.9717289947551
 21
234.2949088016716
 31
0.0
  0
LINE
  5
D43E
330
1F
100
AcDbEntity
  8
MITTELLINIE
  6
CENTERX2
 48
2.0
370
     0
100
AcDbLine
 10
390.2217289947551
 20
215.3949088016716
 30
0.0
 11
390.2217289947551
 21
253.1949088016716
 31
0.0
  0
LINE
  5
D43F
330
1F
100
AcDbEntity
  8
MITTELLINIE
  6
CENTERX2
 48
2.0
370
     0
100
AcDbLine
 10
273.9717289947551
 20
234.2949088016716
 30
0.0
 11
68.47172899475501
 21
234.2949088016716
 31
0.0
  0
LINE
  5
D440
330
1F
100
AcDbEntity
  8
MITTELLINIE
  6
CENTERX2
 48
2.0
370
     0
100
AcDbLine
 10
171.221728994755
 20
215.3949088016716
 30
0.0
 11
171.221728994755
 21
253.1949088016716
 31
0.0
  0
LINE
  5
D441
330
1F
100
AcDbEntity
  8
MITTELLINIE
  6
CENTERX2
 48
2.0
370
     0
100
AcDbLine
 10
506.9188741804594
 20
252.0949088016716
 30
0.0
 11
520.4245838090506
 21
252.0949088016716
 31
0.0
  0
LINE
  5
D442
330
1F
100
AcDbEntity
  8
MITTELLINIE
  6
CENTERX2
 48
2.0
370
     0
100
AcDbLine
 10
520.4245838090506
 20
220.2949088016715
 30
0.0
 11
506.9188741804594
 21
220.2949088016715
 31
0.0
  0
LINE
  5
D443
330
1F
100
AcDbEntity
  8
MITTELLINIE
  6
CENTERX2
 48
2.0
370
     0
100
AcDbLine
 10
41.01887418045933
 20
252.0949088016716
 30
0.0
 11
54.52458380905077
 21
252.0949088016716
 31
0.0
  0
LINE
  5
D444
330
1F
100
AcDbEntity
  8
MITTELLINIE
  6
CENTERX2
 48
2.0
370
     0
100
AcDbLine
 10
41.01887418045933
 20
220.2949088016715
 30
0.0
 11
54.52458380905077
 21
220.2949088016715
 31
0.0
  0
LINE
  5
D445
330
1F
100
AcDbEntity
  8
MITTELLINIE
  6
CENTERX2
 48
2.0
370
     0
100
AcDbLine
 10
280.721728994755
 20
263.3949088016716
 30
0.0
 11
280.721728994755
 21
208.9949088016716
 31
0.0
  0
LINE
  5
D446
330
1F
100
AcDbEntity
  8
BAUTEIL
  6
Continuous
370
    15
100
AcDbLine
 10
563.9600502386675
 20
258.3949083427159
 30
0.0
 11
565.460050251706
 21
258.3949083427159
 31
0.0
  0
LINE
  5
D447
330
1F
100
AcDbEntity
  8
BAUTEIL
  6
Continuous
370
    15
100
AcDbLine
 10
563.9600502386675
 20
213.9949092606274
 30
0.0
 11
565.460050251706
 21
213.9949092606274
 31
0.0
  0
LINE
  5
D448
330
1F
100
AcDbEntity
  8
BAUTEIL
  6
Continuous
370
    15
100
AcDbLine
 10
565.460050251706
 20
258.3949083427159
 30
0.0
 11
565.460050251706
 21
213.9949092606274
 31
0.0
  0
LINE
  5
D449
330
1F
100
AcDbEntity
  8
BAUTEIL
  6
Continuous
370
    15
100
AcDbLine
 10
563.9600502386675
 20
258.3949083427159
 30
0.0
 11
563.9600502386675
 21
213.9949092606274
 31
0.0
  0
LINE
  5
D44A
330
1F
100
AcDbEntity
  8
BAUTEIL
  6
Continuous
370
    15
100
AcDbLine
 10
562.9600503075853
 20
213.9949092606274
 30
0.0
 11
555.4600504752234
 21
213.9949092606274
 31
0.0
  0
LINE
  5
D44B
330
1F
100
AcDbEntity
  8
BAUTEIL
  6
Continuous
370
    15
100
AcDbLine
 10
555.4600504752234
 20
213.9949092606274
 30
0.0
 11
555.4600504752234
 21
215.494908575174
 31
0.0
  0
LINE
  5
D44D
330
1F
100
AcDbEntity
  8
BAUTEIL
  6
Continuous
370
    15
100
AcDbLine
 10
562.9600503075853
 20
215.494908575174
 30
0.0
 11
555.4600504752234
 21
215.494908575174
 31
0.0
  0
ARC
  5
D44E
330
1F
100
AcDbEntity
  8
BAUTEIL
  6
Continuous
370
    15
100
AcDbCircle
 10
562.9600502517059
 20
216.4949088016716
 30
0.0
 40
2.500000000000025
100
AcDbArc
 50
270.0
 51
293.5781784781684
  0
ARC
  5
D44F
330
1F
100
AcDbEntity
  8
BAUTEIL
  6
Continuous
370
    15
100
AcDbCircle
 10
562.9600502517059
 20
216.4949088016716
 30
0.0
 40
1.0
100
AcDbArc
 50
270.0
 51
0.0
  0
LINE
  5
D451
330
1F
100
AcDbEntity
  8
BAUTEIL
  6
Continuous
370
    15
100
AcDbLine
 10
555.4600504752234
 20
256.8949090281693
 30
0.0
 11
562.9600503075853
 21
256.8949090281693
 31
0.0
  0
LINE
  5
D452
330
1F
100
AcDbEntity
  8
BAUTEIL
  6
Continuous
370
    15
100
AcDbLine
 10
555.4600504752234
 20
258.3949083427159
 30
0.0
 11
562.9600503075853
 21
258.3949083427159
 31
0.0
  0
LINE
  5
D453
330
1F
100
AcDbEntity
  8
BAUTEIL
  6
Continuous
370
    15
100
AcDbLine
 10
555.4600504752234
 20
258.3949083427159
 30
0.0
 11
555.4600504752234
 21
256.8949090281693
 31
0.0
  0
ARC
  5
D454
330
1F
100
AcDbEntity
  8
BAUTEIL
  6
Continuous
370
    15
100
AcDbCircle
 10
562.9600502517059
 20
255.8949088016716
 30
0.0
 40
2.500000000000031
100
AcDbArc
 50
66.42182152183514
 51
90.0
  0
ARC
  5
D455
330
1F
100
AcDbEntity
  8
BAUTEIL
  6
Continuous
370
    15
100
AcDbCircle
 10
562.9600502517059
 20
255.8949088016716
 30
0.0
 40
1.0
100
AcDbArc
 50
0.0
 51
90.0
  0
ARC
  5
D45D
330
1F
100
AcDbEntity
  8
BAUTEIL
  6
HIDDEN
370
     0
100
AcDbCircle
 10
562.9600502517059
 20
216.4949088016716
 30
0.0
 40
2.500000000000113
100
AcDbArc
 50
293.5781784781684
 51
0.0
  0
ARC
  5
D45E
330
1F
100
AcDbEntity
  8
BAUTEIL
  6
HIDDEN
370
     0
100
AcDbCircle
 10
562.9600502517059
 20
255.8949088016716
 30
0.0
 40
2.500000000000031
100
AcDbArc
 50
0.0
 51
66.42182152183514
  0
DIMENSION
  5
D468
330
1F
100
AcDbEntity
  8
BEMAßUNG
100
AcDbDimension
  2
*D10
 10
565.4600502517069
 20
197.9949088016715
 30
0.0
 11
560.4600502517069
 21
201.2449088016715
 31
0.0
 70
    32
 71
     2
 42
10.00000000000011
  3
ISO-25
100
AcDbAlignedDimension
 13
555.4600502517067
 23
213.9949088016715
 33
0.0
 14
565.4600502517069
 24
213.9949088016716
 34
0.0
100
AcDbRotatedDimension
1001
ACAD
1000
DSTYLE
1002
{
1070
   280
1070
     1
1002
}
  0
LINE
  5
D46A
330
1F
100
AcDbEntity
  8
MITTELLINIE
100
AcDbLine
 10
513.6717289947551
 20
248.5949088016716
 30
0.0
 11
513.6717289947551
 21
255.5949088016716
 31
0.0
  0
DIMENSION
  5
DCA8
330
1F
100
AcDbEntity
  8
abmessung
100
AcDbDimension
  2
*D18
 10
534.9113007573514
 20
220.2949088016715
 30
0.0
 11
531.3696340906848
 21
236.1949088016717
 31
0.0
 70
    32
 71
     5
 42
31.80000000000007
  3
ISO-25
100
AcDbAlignedDimension
 13
520.4245838090506
 23
252.0949088016716
 33
0.0
 14
520.4245838090506
 24
220.2949088016715
 34
0.0
 50
90.0
100
AcDbRotatedDimension
1001
ACAD
1000
DSTYLE
1002
{
1070
   141
1040
3.5
1002
}
  0
ENDSEC
  0
SECTION
  2
OBJECTS
  0
DICTIONARY
  5
C
330
0
100
AcDbDictionary
281
     1
  3
ACAD_COLOR
350
1C10
  3
ACAD_GROUP
350
D
  3
ACAD_LAYOUT
350
1A
  3
ACAD_MATERIAL
350
1C0F
  3
ACAD_MLEADERSTYLE
350
1C0A
  3
ACAD_MLINESTYLE
350
17
  3
ACAD_PLOTSETTINGS
350
19
  3
ACAD_PLOTSTYLENAME
350
E
  3
ACAD_TABLESTYLE
350
1C09
  3
ACAD_VISUALSTYLE
350
2A
  3
ACDBHEADERROUNDTRIPXREC
350
E54F
  3
AcDbVariableDictionary
350
1C0B
  0
DICTIONARY
  5
1C1E
330
2
100
AcDbDictionary
280
     1
281
     1
  3
ACAD_LAYERFILTERS
360
1C20
  3
ACAD_LAYERSTATES
360
33F0
  3
ACLYDICTIONARY
360
1C1F
  0
DICTIONARY
  5
D359
330
D358
100
AcDbDictionary
280
     1
281
     1
  3
ACAD_XREC_ROUNDTRIP
360
D35A
  0
DICTIONARY
  5
D35C
330
D35B
100
AcDbDictionary
280
     1
281
     1
  3
ACAD_XREC_ROUNDTRIP
360
D35D
  0
DICTIONARY
  5
D35F
330
D35E
100
AcDbDictionary
280
     1
281
     1
  3
ACAD_XREC_ROUNDTRIP
360
D360
  0
DICTIONARY
  5
2DFE
330
1F
100
AcDbDictionary
280
     1
281
     1
  3
ACAD_SORTENTS
360
2DFF
  0
DICTIONARY
  5
1C10
102
{ACAD_REACTORS
330
C
102
}
330
C
100
AcDbDictionary
281
     1
  0
DICTIONARY
  5
D
102
{ACAD_REACTORS
330
C
102
}
330
C
100
AcDbDictionary
281
     1
  3
*A1
350
1C14
  3
*A10
350
1D1C
  3
*A11
350
1DDC
  3
*A12
350
1CC0
  3
*A13
350
1DDD
  3
*A14
350
1DDE
  3
*A15
350
1E89
  3
*A16
350
D024
  3
*A17
350
1C7C
  3
*A18
350
1C92
  3
*A19
350
1E8A
  3
*A2
350
1CEE
  3
*A20
350
1C19
  3
*A21
350
1E8B
  3
*A22
350
1E8C
  3
*A23
350
1D4C
  3
*A24
350
1CBF
  3
*A25
350
1CC1
  3
*A26
350
1E8D
  3
*A27
350
1E8E
  3
*A28
350
D025
  3
*A29
350
1C64
  3
*A3
350
1D94
  3
*A30
350
1E8F
  3
*A31
350
1CEF
  3
*A32
350
1E90
  3
*A33
350
1E91
  3
*A34
350
1D6F
  3
*A35
350
1C93
  3
*A36
350
1E92
  3
*A37
350
1D1D
  3
*A38
350
1E93
  3
*A39
350
1E94
  3
*A4
350
1D37
  3
*A40
350
1D38
  3
*A41
350
1CD6
  3
*A42
350
1EA7
  3
*A43
350
1EB9
  3
*A44
350
1ECB
  3
*A45
350
1D70
  3
*A46
350
1D04
  3
*A47
350
1EDD
  3
*A48
350
1C65
  3
*A49
350
1EDE
  3
*A5
350
1DB7
  3
*A50
350
1D32
  3
*A51
350
1EDF
  3
*A52
350
1CED
  3
*A53
350
1CA8
  3
*A54
350
1EE0
  3
*A55
350
1EE1
  3
*A56
350
1D1B
  3
*A57
350
1CD7
  3
*A58
350
1EE2
  3
*A59
350
1EE3
  3
*A6
350
1DB8
  3
*A60
350
1D05
  3
*A61
350
1EE4
  3
*A62
350
1F29
  3
*A63
350
1D33
  3
*A64
350
1D39
  3
*A65
350
1F2A
  3
*A66
350
1F2B
  3
*A67
350
1C18
  3
*A68
350
1C7A
  3
*A69
350
1F2C
  3
*A7
350
1DDB
  3
*A70
350
1CA9
  3
*A71
350
1F3E
  3
*A72
350
1C16
  3
*A73
350
1F50
  3
*A74
350
1C4D
  3
*A75
350
2E71
  3
*A76
350
1C4E
  3
*A77
350
1C91
  3
*A78
350
1C15
  3
*A79
350
1C7B
  3
*A8
350
1C4C
  3
*A80
350
1CAA
  3
*A81
350
47F2
  3
*A82
350
1CD8
  3
*A83
350
5B7E
  3
*A84
350
1D06
  3
*A85
350
AA4F
  3
*A86
350
AA51
  3
*A87
350
AA52
  3
*A88
350
1D3A
  3
*A89
350
1D93
  3
*A9
350
1C63
  3
*A90
350
1D34
  3
*A91
350
AA53
  3
*A92
350
ABEE
  3
*A93
350
ABEF
  3
*A94
350
AC4F
  3
*A95
350
B05A
  3
*A96
350
D023
  0
DICTIONARY
  5
1A
102
{ACAD_REACTORS
330
C
102
}
330
C
100
AcDbDictionary
281
     1
  3
Layout1
350
1E
  3
Layout2
350
26
  3
Model
350
22
  0
DICTIONARY
  5
1C0F
102
{ACAD_REACTORS
330
C
102
}
330
C
100
AcDbDictionary
281
     1
  3
Global
350
D364
  0
DICTIONARY
  5
1C0A
102
{ACAD_REACTORS
330
C
102
}
330
C
100
AcDbDictionary
281
     1
  0
DICTIONARY
  5
17
102
{ACAD_REACTORS
330
C
102
}
330
C
100
AcDbDictionary
281
     1
  3
Standard
350
18
  0
DICTIONARY
  5
19
102
{ACAD_REACTORS
330
C
102
}
330
C
100
AcDbDictionary
281
     1
  0
ACDBDICTIONARYWDFLT
  5
E
102
{ACAD_REACTORS
330
C
102
}
330
C
100
AcDbDictionary
281
     1
  3
Normal
350
F
100
AcDbDictionaryWithDefault
340
F
  0
DICTIONARY
  5
1C09
102
{ACAD_REACTORS
330
C
102
}
330
C
100
AcDbDictionary
281
     1
  3
Standard
350
1C11
  0
DICTIONARY
  5
2A
102
{ACAD_REACTORS
330
C
102
}
330
C
100
AcDbDictionary
281
     1
  3
2dWireframe
350
2F
  3
3D Hidden
350
31
  3
3dWireframe
350
30
  3
Basic
350
32
  3
Brighten
350
36
  3
ColorChange
350
3A
  3
Conceptual
350
34
  3
Dim
350
35
  3
Facepattern
350
39
  3
Flat
350
2B
  3
FlatWithEdges
350
2C
  3
Gouraud
350
2D
  3
GouraudWithEdges
350
2E
  3
Linepattern
350
38
  3
Realistic
350
33
  3
Thicken
350
37
  0
DICTIONARY
  5
E54F
102
{ACAD_REACTORS
330
C
102
}
330
C
100
AcDbDictionary
281
     1
  0
DICTIONARY
  5
1C0B
102
{ACAD_REACTORS
330
C
102
}
330
C
100
AcDbDictionary
281
     1
  3
CTABLESTYLE
350
1D36
  3
DIMASSOC
350
39A7
  3
PROJECTNAME
350
39A8
  3
PSOLHEIGHT
350
1C0D
  3
PSOLWIDTH
350
1C0C
  0
DICTIONARY
  5
1C20
102
{ACAD_REACTORS
330
1C1E
102
}
330
1C1E
100
AcDbDictionary
281
     1
  0
DICTIONARY
  5
33F0
102
{ACAD_REACTORS
330
1C1E
102
}
330
1C1E
100
AcDbDictionary
281
     1
  0
DICTIONARY
  5
1C1F
102
{ACAD_REACTORS
330
1C1E
102
}
330
1C1E
100
AcDbDictionary
281
     1
1001
ACAD
1000
<All
  0
XRECORD
  5
D35A
102
{ACAD_REACTORS
330
D359
102
}
330
D359
100
AcDbXrecord
280
     1
102
MATERIAL
340
D364
  0
XRECORD
  5
D35D
102
{ACAD_REACTORS
330
D35C
102
}
330
D35C
100
AcDbXrecord
280
     1
102
MATERIAL
340
D364
  0
XRECORD
  5
D360
102
{ACAD_REACTORS
330
D35F
102
}
330
D35F
100
AcDbXrecord
280
     1
102
MATERIAL
340
D364
  0
SORTENTSTABLE
  5
2DFF
102
{ACAD_REACTORS
330
2DFE
102
}
330
2DFE
100
AcDbSortentsTable
330
1F
331
343A
  5
3984
331
343C
  5
3986
331
3426
  5
3971
331
343E
  5
3988
331
3440
  5
398A
331
3428
  5
3973
331
3442
  5
398C
331
342A
  5
3975
331
3444
  5
398E
331
342C
  5
3977
331
342E
  5
3978
331
3850
  5
3992
331
3430
  5
397A
331
3852
  5
3994
331
3432
  5
397C
331
3854
  5
3996
331
3434
  5
397E
331
3856
  5
3998
331
3436
  5
3980
331
3439
  5
3983
331
343B
  5
3985
331
3425
  5
3970
331
343D
  5
3987
331
3427
  5
3972
331
343F
  5
3989
331
3441
  5
398B
331
3429
  5
3974
331
3443
  5
398D
331
342B
  5
3976
331
3445
  5
398F
331
384F
  5
3991
331
342F
  5
3979
331
3851
  5
3993
331
3431
  5
397B
331
3853
  5
3995
331
3433
  5
397D
331
3855
  5
3997
331
344D
  5
3990
331
3435
  5
397F
331
3437
  5
3981
331
5B8B
  5
5B8B
331
5B8D
  5
5B8D
331
3438
  5
3982
  0
GROUP
  5
1C14
102
{ACAD_REACTORS
330
D
102
}
330
D
100
AcDbGroup
300

 70
     1
 71
     1
  0
GROUP
  5
1D1C
102
{ACAD_REACTORS
330
D
102
}
330
D
100
AcDbGroup
300

 70
     1
 71
     1
  0
GROUP
  5
1DDC
102
{ACAD_REACTORS
330
D
102
}
330
D
100
AcDbGroup
300

 70
     1
 71
     1
  0
GROUP
  5
1CC0
102
{ACAD_REACTORS
330
D
102
}
330
D
100
AcDbGroup
300

 70
     1
 71
     1
  0
GROUP
  5
1DDD
102
{ACAD_REACTORS
330
D
102
}
330
D
100
AcDbGroup
300

 70
     1
 71
     1
  0
GROUP
  5
1DDE
102
{ACAD_REACTORS
330
D
102
}
330
D
100
AcDbGroup
300

 70
     1
 71
     1
  0
GROUP
  5
1E89
102
{ACAD_REACTORS
330
D
102
}
330
D
100
AcDbGroup
300

 70
     1
 71
     1
  0
GROUP
  5
D024
102
{ACAD_REACTORS
330
D
102
}
330
D
100
AcDbGroup
300

 70
     1
 71
     1
  0
GROUP
  5
1C7C
102
{ACAD_REACTORS
330
D
102
}
330
D
100
AcDbGroup
300

 70
     1
 71
     1
  0
GROUP
  5
1C92
102
{ACAD_REACTORS
330
D
102
}
330
D
100
AcDbGroup
300

 70
     1
 71
     1
  0
GROUP
  5
1E8A
102
{ACAD_REACTORS
330
D
102
}
330
D
100
AcDbGroup
300

 70
     1
 71
     1
  0
GROUP
  5
1CEE
102
{ACAD_REACTORS
330
D
102
}
330
D
100
AcDbGroup
300

 70
     1
 71
     1
  0
GROUP
  5
1C19
102
{ACAD_REACTORS
330
D
102
}
330
D
100
AcDbGroup
300

 70
     1
 71
     1
  0
GROUP
  5
1E8B
102
{ACAD_REACTORS
330
D
102
}
330
D
100
AcDbGroup
300

 70
     1
 71
     1
  0
GROUP
  5
1E8C
102
{ACAD_REACTORS
330
D
102
}
330
D
100
AcDbGroup
300

 70
     1
 71
     1
  0
GROUP
  5
1D4C
102
{ACAD_REACTORS
330
D
102
}
330
D
100
AcDbGroup
300

 70
     1
 71
     1
  0
GROUP
  5
1CBF
102
{ACAD_REACTORS
330
D
102
}
330
D
100
AcDbGroup
300

 70
     1
 71
     1
  0
GROUP
  5
1CC1
102
{ACAD_REACTORS
330
D
102
}
330
D
100
AcDbGroup
300

 70
     1
 71
     1
  0
GROUP
  5
1E8D
102
{ACAD_REACTORS
330
D
102
}
330
D
100
AcDbGroup
300

 70
     1
 71
     1
  0
GROUP
  5
1E8E
102
{ACAD_REACTORS
330
D
102
}
330
D
100
AcDbGroup
300

 70
     1
 71
     1
  0
GROUP
  5
D025
102
{ACAD_REACTORS
330
D
102
}
330
D
100
AcDbGroup
300

 70
     1
 71
     1
  0
GROUP
  5
1C64
102
{ACAD_REACTORS
330
D
102
}
330
D
100
AcDbGroup
300

 70
     1
 71
     1
  0
GROUP
  5
1D94
102
{ACAD_REACTORS
330
D
102
}
330
D
100
AcDbGroup
300

 70
     1
 71
     1
  0
GROUP
  5
1E8F
102
{ACAD_REACTORS
330
D
102
}
330
D
100
AcDbGroup
300

 70
     1
 71
     1
  0
GROUP
  5
1CEF
102
{ACAD_REACTORS
330
D
102
}
330
D
100
AcDbGroup
300

 70
     1
 71
     1
  0
GROUP
  5
1E90
102
{ACAD_REACTORS
330
D
102
}
330
D
100
AcDbGroup
300

 70
     1
 71
     1
  0
GROUP
  5
1E91
102
{ACAD_REACTORS
330
D
102
}
330
D
100
AcDbGroup
300

 70
     1
 71
     1
  0
GROUP
  5
1D6F
102
{ACAD_REACTORS
330
D
102
}
330
D
100
AcDbGroup
300

 70
     1
 71
     1
  0
GROUP
  5
1C93
102
{ACAD_REACTORS
330
D
102
}
330
D
100
AcDbGroup
300

 70
     1
 71
     1
  0
GROUP
  5
1E92
102
{ACAD_REACTORS
330
D
102
}
330
D
100
AcDbGroup
300

 70
     1
 71
     1
  0
GROUP
  5
1D1D
102
{ACAD_REACTORS
330
D
102
}
330
D
100
AcDbGroup
300

 70
     1
 71
     1
  0
GROUP
  5
1E93
102
{ACAD_REACTORS
330
D
102
}
330
D
100
AcDbGroup
300

 70
     1
 71
     1
  0
GROUP
  5
1E94
102
{ACAD_REACTORS
330
D
102
}
330
D
100
AcDbGroup
300

 70
     1
 71
     1
  0
GROUP
  5
1D37
102
{ACAD_REACTORS
330
D
102
}
330
D
100
AcDbGroup
300

 70
     1
 71
     1
  0
GROUP
  5
1D38
102
{ACAD_REACTORS
330
D
102
}
330
D
100
AcDbGroup
300

 70
     1
 71
     1
  0
GROUP
  5
1CD6
102
{ACAD_REACTORS
330
D
102
}
330
D
100
AcDbGroup
300

 70
     1
 71
     1
  0
GROUP
  5
1EA7
102
{ACAD_REACTORS
330
D
102
}
330
D
100
AcDbGroup
300

 70
     1
 71
     1
  0
GROUP
  5
1EB9
102
{ACAD_REACTORS
330
D
102
}
330
D
100
AcDbGroup
300

 70
     1
 71
     1
  0
GROUP
  5
1ECB
102
{ACAD_REACTORS
330
D
102
}
330
D
100
AcDbGroup
300

 70
     1
 71
     1
  0
GROUP
  5
1D70
102
{ACAD_REACTORS
330
D
102
}
330
D
100
AcDbGroup
300

 70
     1
 71
     1
  0
GROUP
  5
1D04
102
{ACAD_REACTORS
330
D
102
}
330
D
100
AcDbGroup
300

 70
     1
 71
     1
  0
GROUP
  5
1EDD
102
{ACAD_REACTORS
330
D
102
}
330
D
100
AcDbGroup
300

 70
     1
 71
     1
  0
GROUP
  5
1C65
102
{ACAD_REACTORS
330
D
102
}
330
D
100
AcDbGroup
300

 70
     1
 71
     1
  0
GROUP
  5
1EDE
102
{ACAD_REACTORS
330
D
102
}
330
D
100
AcDbGroup
300

 70
     1
 71
     1
  0
GROUP
  5
1DB7
102
{ACAD_REACTORS
330
D
102
}
330
D
100
AcDbGroup
300

 70
     1
 71
     1
  0
GROUP
  5
1D32
102
{ACAD_REACTORS
330
D
102
}
330
D
100
AcDbGroup
300

 70
     1
 71
     1
  0
GROUP
  5
1EDF
102
{ACAD_REACTORS
330
D
102
}
330
D
100
AcDbGroup
300

 70
     1
 71
     1
  0
GROUP
  5
1CED
102
{ACAD_REACTORS
330
D
102
}
330
D
100
AcDbGroup
300

 70
     1
 71
     1
  0
GROUP
  5
1CA8
102
{ACAD_REACTORS
330
D
102
}
330
D
100
AcDbGroup
300

 70
     1
 71
     1
  0
GROUP
  5
1EE0
102
{ACAD_REACTORS
330
D
102
}
330
D
100
AcDbGroup
300

 70
     1
 71
     1
  0
GROUP
  5
1EE1
102
{ACAD_REACTORS
330
D
102
}
330
D
100
AcDbGroup
300

 70
     1
 71
     1
  0
GROUP
  5
1D1B
102
{ACAD_REACTORS
330
D
102
}
330
D
100
AcDbGroup
300

 70
     1
 71
     1
  0
GROUP
  5
1CD7
102
{ACAD_REACTORS
330
D
102
}
330
D
100
AcDbGroup
300

 70
     1
 71
     1
  0
GROUP
  5
1EE2
102
{ACAD_REACTORS
330
D
102
}
330
D
100
AcDbGroup
300

 70
     1
 71
     1
  0
GROUP
  5
1EE3
102
{ACAD_REACTORS
330
D
102
}
330
D
100
AcDbGroup
300

 70
     1
 71
     1
  0
GROUP
  5
1DB8
102
{ACAD_REACTORS
330
D
102
}
330
D
100
AcDbGroup
300

 70
     1
 71
     1
  0
GROUP
  5
1D05
102
{ACAD_REACTORS
330
D
102
}
330
D
100
AcDbGroup
300

 70
     1
 71
     1
  0
GROUP
  5
1EE4
102
{ACAD_REACTORS
330
D
102
}
330
D
100
AcDbGroup
300

 70
     1
 71
     1
  0
GROUP
  5
1F29
102
{ACAD_REACTORS
330
D
102
}
330
D
100
AcDbGroup
300

 70
     1
 71
     1
  0
GROUP
  5
1D33
102
{ACAD_REACTORS
330
D
102
}
330
D
100
AcDbGroup
300

 70
     1
 71
     1
  0
GROUP
  5
1D39
102
{ACAD_REACTORS
330
D
102
}
330
D
100
AcDbGroup
300

 70
     1
 71
     1
  0
GROUP
  5
1F2A
102
{ACAD_REACTORS
330
D
102
}
330
D
100
AcDbGroup
300

 70
     1
 71
     1
  0
GROUP
  5
1F2B
102
{ACAD_REACTORS
330
D
102
}
330
D
100
AcDbGroup
300

 70
     1
 71
     1
  0
GROUP
  5
1C18
102
{ACAD_REACTORS
330
D
102
}
330
D
100
AcDbGroup
300

 70
     1
 71
     1
  0
GROUP
  5
1C7A
102
{ACAD_REACTORS
330
D
102
}
330
D
100
AcDbGroup
300

 70
     1
 71
     1
  0
GROUP
  5
1F2C
102
{ACAD_REACTORS
330
D
102
}
330
D
100
AcDbGroup
300

 70
     1
 71
     1
  0
GROUP
  5
1DDB
102
{ACAD_REACTORS
330
D
102
}
330
D
100
AcDbGroup
300

 70
     1
 71
     1
  0
GROUP
  5
1CA9
102
{ACAD_REACTORS
330
D
102
}
330
D
100
AcDbGroup
300

 70
     1
 71
     1
  0
GROUP
  5
1F3E
102
{ACAD_REACTORS
330
D
102
}
330
D
100
AcDbGroup
300

 70
     1
 71
     1
  0
GROUP
  5
1C16
102
{ACAD_REACTORS
330
D
102
}
330
D
100
AcDbGroup
300

 70
     1
 71
     1
  0
GROUP
  5
1F50
102
{ACAD_REACTORS
330
D
102
}
330
D
100
AcDbGroup
300

 70
     1
 71
     1
  0
GROUP
  5
1C4D
102
{ACAD_REACTORS
330
D
102
}
330
D
100
AcDbGroup
300

 70
     1
 71
     1
  0
GROUP
  5
2E71
102
{ACAD_REACTORS
330
D
102
}
330
D
100
AcDbGroup
300

 70
     1
 71
     1
  0
GROUP
  5
1C4E
102
{ACAD_REACTORS
330
D
102
}
330
D
100
AcDbGroup
300

 70
     1
 71
     1
  0
GROUP
  5
1C91
102
{ACAD_REACTORS
330
D
102
}
330
D
100
AcDbGroup
300

 70
     1
 71
     1
  0
GROUP
  5
1C15
102
{ACAD_REACTORS
330
D
102
}
330
D
100
AcDbGroup
300

 70
     1
 71
     1
  0
GROUP
  5
1C7B
102
{ACAD_REACTORS
330
D
102
}
330
D
100
AcDbGroup
300

 70
     1
 71
     1
  0
GROUP
  5
1C4C
102
{ACAD_REACTORS
330
D
102
}
330
D
100
AcDbGroup
300

 70
     1
 71
     1
  0
GROUP
  5
1CAA
102
{ACAD_REACTORS
330
D
102
}
330
D
100
AcDbGroup
300

 70
     1
 71
     1
  0
GROUP
  5
47F2
102
{ACAD_REACTORS
330
D
102
}
330
D
100
AcDbGroup
300

 70
     1
 71
     1
  0
GROUP
  5
1CD8
102
{ACAD_REACTORS
330
D
102
}
330
D
100
AcDbGroup
300

 70
     1
 71
     1
  0
GROUP
  5
5B7E
102
{ACAD_REACTORS
330
D
102
}
330
D
100
AcDbGroup
300

 70
     1
 71
     1
  0
GROUP
  5
1D06
102
{ACAD_REACTORS
330
D
102
}
330
D
100
AcDbGroup
300

 70
     1
 71
     1
  0
GROUP
  5
AA4F
102
{ACAD_REACTORS
330
D
102
}
330
D
100
AcDbGroup
300

 70
     1
 71
     1
  0
GROUP
  5
AA51
102
{ACAD_REACTORS
330
D
102
}
330
D
100
AcDbGroup
300

 70
     1
 71
     1
  0
GROUP
  5
AA52
102
{ACAD_REACTORS
330
D
102
}
330
D
100
AcDbGroup
300

 70
     1
 71
     1
  0
GROUP
  5
1D3A
102
{ACAD_REACTORS
330
D
102
}
330
D
100
AcDbGroup
300

 70
     1
 71
     1
  0
GROUP
  5
1D93
102
{ACAD_REACTORS
330
D
102
}
330
D
100
AcDbGroup
300

 70
     1
 71
     1
  0
GROUP
  5
1C63
102
{ACAD_REACTORS
330
D
102
}
330
D
100
AcDbGroup
300

 70
     1
 71
     1
  0
GROUP
  5
1D34
102
{ACAD_REACTORS
330
D
102
}
330
D
100
AcDbGroup
300

 70
     1
 71
     1
  0
GROUP
  5
AA53
102
{ACAD_REACTORS
330
D
102
}
330
D
100
AcDbGroup
300

 70
     1
 71
     1
  0
GROUP
  5
ABEE
102
{ACAD_REACTORS
330
D
102
}
330
D
100
AcDbGroup
300

 70
     1
 71
     1
  0
GROUP
  5
ABEF
102
{ACAD_REACTORS
330
D
102
}
330
D
100
AcDbGroup
300

 70
     1
 71
     1
  0
GROUP
  5
AC4F
102
{ACAD_REACTORS
330
D
102
}
330
D
100
AcDbGroup
300

 70
     1
 71
     1
  0
GROUP
  5
B05A
102
{ACAD_REACTORS
330
D
102
}
330
D
100
AcDbGroup
300

 70
     1
 71
     1
  0
GROUP
  5
D023
102
{ACAD_REACTORS
330
D
102
}
330
D
100
AcDbGroup
300

 70
     1
 71
     1
  0
LAYOUT
  5
1E
102
{ACAD_XDICTIONARY
360
E550
102
}
102
{ACAD_REACTORS
330
1A
102
}
330
1A
100
AcDbPlotSettings
  1

  2
none_device
  4

  6

 40
0.0
 41
0.0
 42
0.0
 43
0.0
 44
0.0
 45
0.0
 46
0.0
 47
0.0
 48
0.0
 49
0.0
140
0.0
141
0.0
142
1.0
143
1.0
 70
   688
 72
     0
 73
     0
 74
     5
  7

 75
    16
147
1.0
148
0.0
149
0.0
100
AcDbLayout
  1
Layout1
 70
     1
 71
     1
 10
0.0
 20
0.0
 11
420.0
 21
297.0
 12
0.0
 22
0.0
 32
0.0
 14
1.000000000000000E+20
 24
1.000000000000000E+20
 34
1.000000000000000E+20
 15
-1.000000000000000E+20
 25
-1.000000000000000E+20
 35
-1.000000000000000E+20
146
0.0
 13
0.0
 23
0.0
 33
0.0
 16
1.0
 26
0.0
 36
0.0
 17
0.0
 27
1.0
 37
0.0
 76
     0
330
1B
  0
LAYOUT
  5
26
102
{ACAD_XDICTIONARY
360
E554
102
}
102
{ACAD_REACTORS
330
1A
102
}
330
1A
100
AcDbPlotSettings
  1

  2
none_device
  4

  6

 40
0.0
 41
0.0
 42
0.0
 43
0.0
 44
0.0
 45
0.0
 46
0.0
 47
0.0
 48
0.0
 49
0.0
140
0.0
141
0.0
142
1.0
143
1.0
 70
   688
 72
     0
 73
     0
 74
     5
  7

 75
    16
147
1.0
148
0.0
149
0.0
100
AcDbLayout
  1
Layout2
 70
     1
 71
     2
 10
0.0
 20
0.0
 11
0.0
 21
0.0
 12
0.0
 22
0.0
 32
0.0
 14
0.0
 24
0.0
 34
0.0
 15
0.0
 25
0.0
 35
0.0
146
0.0
 13
0.0
 23
0.0
 33
0.0
 16
1.0
 26
0.0
 36
0.0
 17
0.0
 27
1.0
 37
0.0
 76
     0
330
23
  0
LAYOUT
  5
22
102
{ACAD_XDICTIONARY
360
E552
102
}
102
{ACAD_REACTORS
330
1A
102
}
330
1A
100
AcDbPlotSettings
  1

  2
none_device
  4
ISO_A4_(210.00_x_297.00_MM)
  6

 40
7.5
 41
20.0
 42
7.5
 43
20.0
 44
210.0
 45
297.0
 46
0.0
 47
0.0
 48
0.0
 49
0.0
140
0.0
141
0.0
142
1.0
143
2.675783684477167
 70
 11952
 72
     1
 73
     1
 74
     0
  7

 75
     0
147
0.3737222877175119
148
47.37640633285258
149
3.7240743230941
100
AcDbLayout
  1
Model
 70
     1
 71
     0
 10
0.0
 20
0.0
 11
594.0
 21
420.0
 12
0.0
 22
0.0
 32
0.0
 14
0.0
 24
0.0
 34
0.0
 15
594.0
 25
420.0
 35
0.0
146
0.0
 13
0.0
 23
0.0
 33
0.0
 16
1.0
 26
0.0
 36
0.0
 17
0.0
 27
1.0
 37
0.0
 76
     0
330
1F
1001
ACAD_PSEXT
1000
Kein
1000
Kein
1000
Nicht anwendbar
1000
Das Layout wird erst geplottet, wenn ein neuer Plotter-Konfigurationsname ausgewählt wird.
1070
     0
  0
MATERIAL
  5
D364
102
{ACAD_XDICTIONARY
360
D365
102
}
102
{ACAD_REACTORS
330
1C0F
102
}
330
1C0F
100
AcDbMaterial
  1
Global
  0
MLINESTYLE
  5
18
102
{ACAD_REACTORS
330
17
102
}
330
17
100
AcDbMlineStyle
  2
STANDARD
 70
     0
  3

 62
   256
 51
90.0
 52
90.0
 71
     2
 49
0.5
 62
   256
  6
BYLAYER
 49
-0.5
 62
   256
  6
BYLAYER
  0
ACDBPLACEHOLDER
  5
F
102
{ACAD_REACTORS
330
E
102
}
330
E
  0
TABLESTYLE
  5
1C11
102
{ACAD_REACTORS
330
1C09
102
}
330
1C09
100
AcDbTableStyle
  3
Standard
 70
     0
 71
     0
 40
1.5
 41
1.5
280
     0
281
     0
  7
Standard
140
4.5
170
     2
 62
     0
 63
     7
283
     0
274
    -2
284
     1
 64
     0
275
    -2
285
     1
 65
     0
276
    -2
286
     1
 66
     0
277
    -2
287
     1
 67
     0
278
    -2
288
     1
 68
     0
279
    -2
289
     1
 69
     0
  7
Standard
140
6.0
170
     5
 62
     0
 63
     7
283
     0
274
    -2
284
     1
 64
     0
275
    -2
285
     1
 65
     0
276
    -2
286
     1
 66
     0
277
    -2
287
     1
 67
     0
278
    -2
288
     1
 68
     0
279
    -2
289
     1
 69
     0
  7
Standard
140
4.5
170
     5
 62
     0
 63
     7
283
     0
274
    -2
284
     1
 64
     0
275
    -2
285
     1
 65
     0
276
    -2
286
     1
 66
     0
277
    -2
287
     1
 67
     0
278
    -2
288
     1
 68
     0
279
    -2
289
     1
 69
     0
  0
ACAD_PROXY_OBJECT
  5
2F
102
{ACAD_REACTORS
330
2A
102
}
330
2A
100
AcDbProxyObject
 90
      499
 91
      501
 95
   983063
 70
     0
 93
      436
310
42CC9915DA5C99599C985B595049028333333333333E3BF0000000000000FB0107901411070040501600405405064090741402480A0340
 94
        0
1001
ACAD
1000
AcDbSavedByObjectVersion
1070
     0
1000
AcRTDxfName
1000
VISUALSTYLE
1000
AcRTDxfName
1000
VISUALSTYLE
1000
AcRTDxfName
1000
VISUALSTYLE
1000
AcRTDxfName
1000
VISUALSTYLE
1000
AcRTDxfName
1000
VISUALSTYLE
1000
AcRTDxfName
1000
VISUALSTYLE
  0
ACAD_PROXY_OBJECT
  5
31
102
{ACAD_REACTORS
330
2A
102
}
330
2A
100
AcDbProxyObject
 90
      499
 91
      501
 95
   983063
 70
     0
 93
      500
310
424CD108121A5919195B90640502408333333333333E3BF0000000000000FB01079024090700405020000000000001110200405405064090740C02480A0340
 94
        0
1001
ACAD
1000
AcDbSavedByObjectVersion
1070
     0
1000
AcRTDxfName
1000
VISUALSTYLE
1000
AcRTDxfName
1000
VISUALSTYLE
1000
AcRTDxfName
1000
VISUALSTYLE
1000
AcRTDxfName
1000
VISUALSTYLE
1000
AcRTDxfName
1000
VISUALSTYLE
1000
AcRTDxfName
1000
VISUALSTYLE
  0
ACAD_PROXY_OBJECT
  5
30
102
{ACAD_REACTORS
330
2A
102
}
330
2A
100
AcDbProxyObject
 90
      499
 91
      501
 95
   983063
 70
     0
 93
      436
310
42CCD915DA5C99599C985B595059028333333333333E3BF0000000000000FB0107901411070040501600405405064090741402480A0340
 94
        0
1001
ACAD
1000
AcDbSavedByObjectVersion
1070
     0
1000
AcRTDxfName
1000
VISUALSTYLE
1000
AcRTDxfName
1000
VISUALSTYLE
1000
AcRTDxfName
1000
VISUALSTYLE
1000
AcRTDxfName
1000
VISUALSTYLE
1000
AcRTDxfName
1000
VISUALSTYLE
1000
AcRTDxfName
1000
VISUALSTYLE
  0
ACAD_PROXY_OBJECT
  5
32
102
{ACAD_REACTORS
330
2A
102
}
330
2A
100
AcDbProxyObject
 90
      499
 91
      501
 95
   983063
 70
     0
 93
      388
310
4150985CDA58D07406404333333333333E3BF0000000000000FB0107A41107004050150841D405064090741402480A0354
 94
        0
1001
ACAD
1000
AcDbSavedByObjectVersion
1070
     0
1000
AcRTDxfName
1000
VISUALSTYLE
1000
AcRTDxfName
1000
VISUALSTYLE
1000
AcRTDxfName
1000
VISUALSTYLE
1000
AcRTDxfName
1000
VISUALSTYLE
1000
AcRTDxfName
1000
VISUALSTYLE
1000
AcRTDxfName
1000
VISUALSTYLE
  0
ACAD_PROXY_OBJECT
  5
36
102
{ACAD_REACTORS
330
2A
102
}
330
2A
100
AcDbProxyObject
 90
      499
 91
      501
 95
   983063
 70
     0
 93
      428
310
42109C9A59DA1D195B90C409028333333333333E3BF0000000000000FB010790141107004050150841D405064090741402480A029956
 94
        0
1001
ACAD
1000
AcDbSavedByObjectVersion
1070
     0
1000
AcRTDxfName
1000
VISUALSTYLE
1000
AcRTDxfName
1000
VISUALSTYLE
1000
AcRTDxfName
1000
VISUALSTYLE
1000
AcRTDxfName
1000
VISUALSTYLE
1000
AcRTDxfName
1000
VISUALSTYLE
1000
AcRTDxfName
1000
VISUALSTYLE
  0
ACAD_PROXY_OBJECT
  5
3A
102
{ACAD_REACTORS
330
2A
102
}
330
2A
100
AcDbProxyObject
 90
      499
 91
      501
 95
   983063
 70
     0
 93
      452
310
42D0DBDB1BDC90DA185B99D95104090240C333333333333E3BF0000000000000FB0108901411070040501508421405064090741402480A0354
 94
        0
1001
ACAD
1000
AcDbSavedByObjectVersion
1070
     0
1000
AcRTDxfName
1000
VISUALSTYLE
1000
AcRTDxfName
1000
VISUALSTYLE
1000
AcRTDxfName
1000
VISUALSTYLE
1000
AcRTDxfName
1000
VISUALSTYLE
1000
AcRTDxfName
1000
VISUALSTYLE
1000
AcRTDxfName
1000
VISUALSTYLE
  0
ACAD_PROXY_OBJECT
  5
34
102
{ACAD_REACTORS
330
2A
102
}
330
2A
100
AcDbProxyObject
 90
      499
 91
      501
 95
   983063
 70
     0
 93
      500
310
4290DBDB98D95C1D1D585B10940D028333333333333E3BF0000000000000FB0107902409070040501000000000000111010841D405064090740C02480A0340
 94
        0
1001
ACAD
1000
AcDbSavedByObjectVersion
1070
     0
1000
AcRTDxfName
1000
VISUALSTYLE
1000
AcRTDxfName
1000
VISUALSTYLE
1000
AcRTDxfName
1000
VISUALSTYLE
1000
AcRTDxfName
1000
VISUALSTYLE
1000
AcRTDxfName
1000
VISUALSTYLE
1000
AcRTDxfName
1000
VISUALSTYLE
  0
ACAD_PROXY_OBJECT
  5
35
102
{ACAD_REACTORS
330
2A
102
}
330
2A
100
AcDbProxyObject
 90
      499
 91
      501
 95
   983063
 70
     0
 93
      412
310
40D11A5B50B409028333333333333E3BF0000000000000FB010790141107004050150841D405064090741402480A02677FFFFFDB
 94
        0
1001
ACAD
1000
AcDbSavedByObjectVersion
1070
     0
1000
AcRTDxfName
1000
VISUALSTYLE
1000
AcRTDxfName
1000
VISUALSTYLE
1000
AcRTDxfName
1000
VISUALSTYLE
1000
AcRTDxfName
1000
VISUALSTYLE
1000
AcRTDxfName
1000
VISUALSTYLE
1000
AcRTDxfName
1000
VISUALSTYLE
  0
ACAD_PROXY_OBJECT
  5
39
102
{ACAD_REACTORS
330
2A
102
}
330
2A
100
AcDbProxyObject
 90
      499
 91
      501
 95
   983063
 70
     0
 93
      444
310
42D19858D95C185D1D195C9B90F409028333333333333E3BF0000000000000FB010790141107004050150841D405064090741402480A0350
 94
        0
1001
ACAD
1000
AcDbSavedByObjectVersion
1070
     0
1000
AcRTDxfName
1000
VISUALSTYLE
1000
AcRTDxfName
1000
VISUALSTYLE
1000
AcRTDxfName
1000
VISUALSTYLE
1000
AcRTDxfName
1000
VISUALSTYLE
1000
AcRTDxfName
1000
VISUALSTYLE
1000
AcRTDxfName
1000
VISUALSTYLE
  0
ACAD_PROXY_OBJECT
  5
2B
102
{ACAD_REACTORS
330
2A
102
}
330
2A
100
AcDbProxyObject
 90
      499
 91
      501
 95
   983063
 70
     0
 93
      388
310
41119B185D240901404333333333333E3BF0000000000000F9010740A41107004050150841D405064090741402480A1B50
 94
        0
1001
ACAD
1000
AcDbSavedByObjectVersion
1070
     0
1000
AcRTDxfName
1000
VISUALSTYLE
1000
AcRTDxfName
1000
VISUALSTYLE
1000
AcRTDxfName
1000
VISUALSTYLE
1000
AcRTDxfName
1000
VISUALSTYLE
1000
AcRTDxfName
1000
VISUALSTYLE
1000
AcRTDxfName
1000
VISUALSTYLE
  0
ACAD_PROXY_OBJECT
  5
2C
102
{ACAD_REACTORS
330
2A
102
}
330
2A
100
AcDbProxyObject
 90
      499
 91
      501
 95
   983063
 70
     0
 93
      476
310
43519B185D15DA5D1A115919D95CD0140901404333333333333E3BF0000000000000F9010740901411070040501600405405064090741402480A1B50
 94
        0
1001
ACAD
1000
AcDbSavedByObjectVersion
1070
     0
1000
AcRTDxfName
1000
VISUALSTYLE
1000
AcRTDxfName
1000
VISUALSTYLE
1000
AcRTDxfName
1000
VISUALSTYLE
1000
AcRTDxfName
1000
VISUALSTYLE
1000
AcRTDxfName
1000
VISUALSTYLE
1000
AcRTDxfName
1000
VISUALSTYLE
  0
ACAD_PROXY_OBJECT
  5
2D
102
{ACAD_REACTORS
330
2A
102
}
330
2A
100
AcDbProxyObject
 90
      499
 91
      501
 95
   983063
 70
     0
 93
      412
310
41D1DBDD5C985D5910240902404333333333333E3BF0000000000000F9010740A411070040501641D405064090741402480A1B50
 94
        0
1001
ACAD
1000
AcDbSavedByObjectVersion
1070
     0
1000
AcRTDxfName
1000
VISUALSTYLE
1000
AcRTDxfName
1000
VISUALSTYLE
1000
AcRTDxfName
1000
VISUALSTYLE
1000
AcRTDxfName
1000
VISUALSTYLE
1000
AcRTDxfName
1000
VISUALSTYLE
1000
AcRTDxfName
1000
VISUALSTYLE
  0
ACAD_PROXY_OBJECT
  5
2E
102
{ACAD_REACTORS
330
2A
102
}
330
2A
100
AcDbProxyObject
 90
      499
 91
      501
 95
   983063
 70
     0
 93
      500
310
4411DBDD5C985D5915DA5D1A115919D95CD0340902404333333333333E3BF0000000000000F9010740901411070040501600405405064090741402480A1B50
 94
        0
1001
ACAD
1000
AcDbSavedByObjectVersion
1070
     0
1000
AcRTDxfName
1000
VISUALSTYLE
1000
AcRTDxfName
1000
VISUALSTYLE
1000
AcRTDxfName
1000
VISUALSTYLE
1000
AcRTDxfName
1000
VISUALSTYLE
1000
AcRTDxfName
1000
VISUALSTYLE
1000
AcRTDxfName
1000
VISUALSTYLE
  0
ACAD_PROXY_OBJECT
  5
38
102
{ACAD_REACTORS
330
2A
102
}
330
2A
100
AcDbProxyObject
 90
      499
 91
      501
 95
   983063
 70
     0
 93
      444
310
42D31A5B995C185D1D195C9B90E409028333333333333E3BF0000000000000FB010790141107004050750841D405064090741402483A0350
 94
        0
1001
ACAD
1000
AcDbSavedByObjectVersion
1070
     0
1000
AcRTDxfName
1000
VISUALSTYLE
1000
AcRTDxfName
1000
VISUALSTYLE
1000
AcRTDxfName
1000
VISUALSTYLE
1000
AcRTDxfName
1000
VISUALSTYLE
1000
AcRTDxfName
1000
VISUALSTYLE
1000
AcRTDxfName
1000
VISUALSTYLE
  0
ACAD_PROXY_OBJECT
  5
33
102
{ACAD_REACTORS
330
2A
102
}
330
2A
100
AcDbProxyObject
 90
      499
 91
      501
 95
   983063
 70
     0
 93
      420
310
425499585B1A5CDD1A58D08409028333333333333E3BF0000000000000FB01079019070040501508421405064090741402480A1B45
 94
        0
1001
ACAD
1000
AcDbSavedByObjectVersion
1070
     0
1000
AcRTDxfName
1000
VISUALSTYLE
1000
AcRTDxfName
1000
VISUALSTYLE
1000
AcRTDxfName
1000
VISUALSTYLE
1000
AcRTDxfName
1000
VISUALSTYLE
1000
AcRTDxfName
1000
VISUALSTYLE
1000
AcRTDxfName
1000
VISUALSTYLE
  0
ACAD_PROXY_OBJECT
  5
37
102
{ACAD_REACTORS
330
2A
102
}
330
2A
100
AcDbProxyObject
 90
      499
 91
      501
 95
   983063
 70
     0
 93
      412
310
41D51A1A58DAD95B90D409028333333333333E3BF0000000000000FB010790141107004050150C41D405064090741402480A035B
 94
        0
1001
ACAD
1000
AcDbSavedByObjectVersion
1070
     0
1000
AcRTDxfName
1000
VISUALSTYLE
1000
AcRTDxfName
1000
VISUALSTYLE
1000
AcRTDxfName
1000
VISUALSTYLE
1000
AcRTDxfName
1000
VISUALSTYLE
1000
AcRTDxfName
1000
VISUALSTYLE
1000
AcRTDxfName
1000
VISUALSTYLE
  0
DICTIONARYVAR
  5
1D36
102
{ACAD_REACTORS
330
1C0B
102
}
330
1C0B
100
DictionaryVariables
280
     0
  1
STANDARD
  0
DICTIONARYVAR
  5
39A7
102
{ACAD_REACTORS
330
1C0B
102
}
330
1C0B
100
DictionaryVariables
280
     0
  1
1
  0
DICTIONARYVAR
  5
39A8
102
{ACAD_REACTORS
330
1C0B
102
}
330
1C0B
100
DictionaryVariables
280
     0
  1

  0
DICTIONARYVAR
  5
1C0D
102
{ACAD_REACTORS
330
1C0B
102
}
330
1C0B
100
DictionaryVariables
280
     0
  1
80.000000
  0
DICTIONARYVAR
  5
1C0C
102
{ACAD_REACTORS
330
1C0B
102
}
330
1C0B
100
DictionaryVariables
280
     0
  1
5.000000
  0
DICTIONARY
  5
E550
330
1E
100
AcDbDictionary
280
     1
281
     1
  3
ACAD_XREC_ROUNDTRIP
360
E551
  0
DICTIONARY
  5
E554
330
26
100
AcDbDictionary
280
     1
281
     1
  3
ACAD_XREC_ROUNDTRIP
360
E555
  0
DICTIONARY
  5
E552
330
22
100
AcDbDictionary
280
     1
281
     1
  3
ACAD_XREC_ROUNDTRIP
360
E553
  0
DICTIONARY
  5
D365
330
D364
100
AcDbDictionary
280
     1
281
     1
  3
ACAD_XREC_ROUNDTRIP
360
D366
  0
XRECORD
  5
E551
102
{ACAD_REACTORS
330
E550
102
}
330
E550
100
AcDbXrecord
280
     1
102
SHADEPLOT
 70
     0
102
SHADEPLOTRESLEVEL
 70
     2
102
SHADEPLOTCUSTOMDPI
 70
   300
  0
XRECORD
  5
E555
102
{ACAD_REACTORS
330
E554
102
}
330
E554
100
AcDbXrecord
280
     1
102
SHADEPLOT
 70
     0
102
SHADEPLOTRESLEVEL
 70
     2
102
SHADEPLOTCUSTOMDPI
 70
   300
  0
XRECORD
  5
E553
102
{ACAD_REACTORS
330
E552
102
}
330
E552
100
AcDbXrecord
280
     1
102
SHADEPLOT
 70
     0
102
SHADEPLOTRESLEVEL
 70
     2
102
SHADEPLOTCUSTOMDPI
 70
   300
  0
XRECORD
  5
D366
102
{ACAD_REACTORS
330
D365
102
}
330
D365
100
AcDbXrecord
280
     1
102
MATERIAL
148
0.0
149
0.0
149
0.0
 93
        0
 94
      127
282
     0
 72
     1
 77
     1
171
     1
175
     1
179
     1
273
     0
  0
ENDSEC
  0
EOF
