  0
SECTION
  2
HEADER
  9
$ACADVER
  1
AC1015
  9
$ACADMAINTVER
 70
    20
  9
$DWGCODEPAGE
  3
ANSI_1252
  9
$INSBASE
 10
0.0
 20
0.0
 30
0.0
  9
$EXTMIN
 10
-0.0328727277506005
 20
-0.0151044364131394
 30
-0.000000000000013
  9
$EXTMAX
 10
840.0031149269317
 20
594.0026830599733
 30
0.0000000000000023
  9
$LIMMIN
 10
0.0
 20
0.0
  9
$LIMMAX
 10
594.0
 20
420.0
  9
$ORTHOMODE
 70
     1
  9
$REGENMODE
 70
     1
  9
$FILLMODE
 70
     1
  9
$QTEXTMODE
 70
     0
  9
$MIRRTEXT
 70
     1
  9
$LTSCALE
 40
1.0
  9
$ATTMODE
 70
     1
  9
$TEXTSIZE
 40
2.5
  9
$TRACEWID
 40
1.0
  9
$TEXTSTYLE
  7
OLED
  9
$CLAYER
  8
abmessung
  9
$CELTYPE
  6
ByLayer
  9
$CECOLOR
 62
   256
  9
$CELTSCALE
 40
1.0
  9
$DISPSILH
 70
     0
  9
$DIMSCALE
 40
1.0
  9
$DIMASZ
 40
3.5
  9
$DIMEXO
 40
0.625
  9
$DIMDLI
 40
3.75
  9
$DIMRND
 40
0.0
  9
$DIMDLE
 40
0.0
  9
$DIMEXE
 40
1.25
  9
$DIMTP
 40
0.0
  9
$DIMTM
 40
0.0
  9
$DIMTXT
 40
3.5
  9
$DIMCEN
 40
3.5
  9
$DIMTSZ
 40
0.0
  9
$DIMTOL
 70
     0
  9
$DIMLIM
 70
     0
  9
$DIMTIH
 70
     0
  9
$DIMTOH
 70
     0
  9
$DIMSE1
 70
     0
  9
$DIMSE2
 70
     0
  9
$DIMTAD
 70
     1
  9
$DIMZIN
 70
     8
  9
$DIMBLK
  1

  9
$DIMASO
 70
     1
  9
$DIMSHO
 70
     1
  9
$DIMPOST
  1

  9
$DIMAPOST
  1

  9
$DIMALT
 70
     0
  9
$DIMALTD
 70
     3
  9
$DIMALTF
 40
0.03937007874016
  9
$DIMLFAC
 40
1.0
  9
$DIMTOFL
 70
     1
  9
$DIMTVP
 40
0.0
  9
$DIMTIX
 70
     0
  9
$DIMSOXD
 70
     0
  9
$DIMSAH
 70
     0
  9
$DIMBLK1
  1

  9
$DIMBLK2
  1

  9
$DIMSTYLE
  2
ISO-25
  9
$DIMCLRD
 70
     0
  9
$DIMCLRE
 70
     0
  9
$DIMCLRT
 70
     0
  9
$DIMTFAC
 40
1.0
  9
$DIMGAP
 40
1.5
  9
$DIMJUST
 70
     0
  9
$DIMSD1
 70
     0
  9
$DIMSD2
 70
     0
  9
$DIMTOLJ
 70
     0
  9
$DIMTZIN
 70
     8
  9
$DIMALTZ
 70
     0
  9
$DIMALTTZ
 70
     0
  9
$DIMUPT
 70
     0
  9
$DIMDEC
 70
     2
  9
$DIMTDEC
 70
     2
  9
$DIMALTU
 70
     2
  9
$DIMALTTD
 70
     3
  9
$DIMTXSTY
  7
Standard
  9
$DIMAUNIT
 70
     0
  9
$DIMADEC
 70
     0
  9
$DIMALTRND
 40
0.0
  9
$DIMAZIN
 70
     0
  9
$DIMDSEP
 70
    44
  9
$DIMATFIT
 70
     3
  9
$DIMFRAC
 70
     0
  9
$DIMLDRBLK
  1

  9
$DIMLUNIT
 70
     2
  9
$DIMLWD
 70
    -2
  9
$DIMLWE
 70
    -2
  9
$DIMTMOVE
 70
     0
  9
$LUNITS
 70
     2
  9
$LUPREC
 70
     2
  9
$SKETCHINC
 40
1.0
  9
$FILLETRAD
 40
10.0
  9
$AUNITS
 70
     0
  9
$AUPREC
 70
     0
  9
$MENU
  1
.
  9
$ELEVATION
 40
0.0
  9
$PELEVATION
 40
0.0
  9
$THICKNESS
 40
0.0
  9
$LIMCHECK
 70
     0
  9
$CHAMFERA
 40
10.0
  9
$CHAMFERB
 40
10.0
  9
$CHAMFERC
 40
20.0
  9
$CHAMFERD
 40
0.0
  9
$SKPOLY
 70
     0
  9
$TDCREATE
 40
2455069.349989144
  9
$TDUCREATE
 40
2455069.308322477
  9
$TDUPDATE
 40
2455593.682219688
  9
$TDUUPDATE
 40
2455593.640553021
  9
$TDINDWG
 40
0.6609693403
  9
$TDUSRTIMER
 40
0.6609693403
  9
$USRTIMER
 70
     1
  9
$ANGBASE
 50
0.0
  9
$ANGDIR
 70
     0
  9
$PDMODE
 70
     0
  9
$PDSIZE
 40
-1.0
  9
$PLINEWID
 40
0.0
  9
$SPLFRAME
 70
     0
  9
$SPLINETYPE
 70
     6
  9
$SPLINESEGS
 70
     8
  9
$HANDSEED
  5
ED35
  9
$SURFTAB1
 70
     6
  9
$SURFTAB2
 70
     6
  9
$SURFTYPE
 70
     6
  9
$SURFU
 70
     6
  9
$SURFV
 70
     6
  9
$UCSBASE
  2

  9
$UCSNAME
  2

  9
$UCSORG
 10
0.0
 20
0.0
 30
0.0
  9
$UCSXDIR
 10
1.0
 20
0.0
 30
0.0
  9
$UCSYDIR
 10
0.0
 20
1.0
 30
0.0
  9
$UCSORTHOREF
  2

  9
$UCSORTHOVIEW
 70
     0
  9
$UCSORGTOP
 10
0.0
 20
0.0
 30
0.0
  9
$UCSORGBOTTOM
 10
0.0
 20
0.0
 30
0.0
  9
$UCSORGLEFT
 10
0.0
 20
0.0
 30
0.0
  9
$UCSORGRIGHT
 10
0.0
 20
0.0
 30
0.0
  9
$UCSORGFRONT
 10
0.0
 20
0.0
 30
0.0
  9
$UCSORGBACK
 10
0.0
 20
0.0
 30
0.0
  9
$PUCSBASE
  2

  9
$PUCSNAME
  2

  9
$PUCSORG
 10
0.0
 20
0.0
 30
0.0
  9
$PUCSXDIR
 10
1.0
 20
0.0
 30
0.0
  9
$PUCSYDIR
 10
0.0
 20
1.0
 30
0.0
  9
$PUCSORTHOREF
  2

  9
$PUCSORTHOVIEW
 70
     0
  9
$PUCSORGTOP
 10
0.0
 20
0.0
 30
0.0
  9
$PUCSORGBOTTOM
 10
0.0
 20
0.0
 30
0.0
  9
$PUCSORGLEFT
 10
0.0
 20
0.0
 30
0.0
  9
$PUCSORGRIGHT
 10
0.0
 20
0.0
 30
0.0
  9
$PUCSORGFRONT
 10
0.0
 20
0.0
 30
0.0
  9
$PUCSORGBACK
 10
0.0
 20
0.0
 30
0.0
  9
$USERI1
 70
     0
  9
$USERI2
 70
     0
  9
$USERI3
 70
     0
  9
$USERI4
 70
     0
  9
$USERI5
 70
     0
  9
$USERR1
 40
0.0
  9
$USERR2
 40
0.0
  9
$USERR3
 40
0.0
  9
$USERR4
 40
0.0
  9
$USERR5
 40
0.0
  9
$WORLDVIEW
 70
     1
  9
$SHADEDGE
 70
     3
  9
$SHADEDIF
 70
    70
  9
$TILEMODE
 70
     1
  9
$MAXACTVP
 70
    64
  9
$PINSBASE
 10
0.0
 20
0.0
 30
0.0
  9
$PLIMCHECK
 70
     0
  9
$PEXTMIN
 10
1.000000000000000E+20
 20
1.000000000000000E+20
 30
1.000000000000000E+20
  9
$PEXTMAX
 10
-1.000000000000000E+20
 20
-1.000000000000000E+20
 30
-1.000000000000000E+20
  9
$PLIMMIN
 10
0.0
 20
0.0
  9
$PLIMMAX
 10
420.0
 20
297.0
  9
$UNITMODE
 70
     0
  9
$VISRETAIN
 70
     1
  9
$PLINEGEN
 70
     0
  9
$PSLTSCALE
 70
     1
  9
$TREEDEPTH
 70
  3020
  9
$CMLSTYLE
  2
Standard
  9
$CMLJUST
 70
     0
  9
$CMLSCALE
 40
20.0
  9
$PROXYGRAPHICS
 70
     1
  9
$MEASUREMENT
 70
     1
  9
$CELWEIGHT
370
    -1
  9
$ENDCAPS
280
     0
  9
$JOINSTYLE
280
     0
  9
$LWDISPLAY
290
     1
  9
$INSUNITS
 70
     4
  9
$HYPERLINKBASE
  1

  9
$STYLESHEET
  1
aclt.ctb
  9
$XEDIT
290
     1
  9
$CEPSNTYPE
380
     0
  9
$PSTYLEMODE
290
     1
  9
$FINGERPRINTGUID
  2
{DB7250D2-6D98-4010-90BA-56ECE810444C}
  9
$VERSIONGUID
  2
{31D66D81-7CC8-41C3-A387-8F9B69DD69A3}
  9
$EXTNAMES
290
     1
  9
$PSVPSCALE
 40
0.0
  9
$OLESTARTUP
290
     0
  0
ENDSEC
  0
SECTION
  2
CLASSES
  0
CLASS
  1
ACDBDICTIONARYWDFLT
  2
AcDbDictionaryWithDefault
  3
ObjectDBX Classes
 90
        0
280
     0
281
     0
  0
CLASS
  1
VISUALSTYLE
  2
AcDbVisualStyle
  3
ObjectDBX Classes
 90
     4095
280
     0
281
     0
  0
CLASS
  1
DICTIONARYVAR
  2
AcDbDictionaryVar
  3
ObjectDBX Classes
 90
        0
280
     0
281
     0
  0
CLASS
  1
ACDBPLACEHOLDER
  2
AcDbPlaceHolder
  3
ObjectDBX Classes
 90
        0
280
     0
281
     0
  0
CLASS
  1
LAYOUT
  2
AcDbLayout
  3
ObjectDBX Classes
 90
        0
280
     0
281
     0
  0
CLASS
  1
TABLESTYLE
  2
AcDbTableStyle
  3
ObjectDBX Classes
 90
     2047
280
     0
281
     0
  0
CLASS
  1
SORTENTSTABLE
  2
AcDbSortentsTable
  3
ObjectDBX Classes
 90
        0
280
     0
281
     0
  0
CLASS
  1
MATERIAL
  2
AcDbMaterial
  3
ObjectDBX Classes
 90
        0
280
     0
281
     0
  0
ENDSEC
  0
SECTION
  2
TABLES
  0
TABLE
  2
VPORT
  5
8
330
0
100
AcDbSymbolTable
 70
     3
  0
VPORT
  5
ED2D
330
8
100
AcDbSymbolTableRecord
100
AcDbViewportTableRecord
  2
*Active
 70
     0
 10
0.0
 20
0.0
 11
1.0
 21
1.0
 12
419.9851210995904
 22
296.9937893117801
 13
0.0
 23
0.0
 14
10.0
 24
10.0
 15
10.0
 25
10.0
 16
0.0
 26
0.0
 36
1.0
 17
0.0
 27
0.0
 37
0.0
 40
597.8053610617194
 41
1.635106382978723
 42
50.0
 43
0.0
 44
0.0
 50
0.0
 51
0.0
 71
     0
 72
  2000
 73
     1
 74
     3
 75
     0
 76
     0
 77
     0
 78
     0
281
     0
 65
     1
110
0.0
120
0.0
130
0.0
111
1.0
121
0.0
131
0.0
112
0.0
122
1.0
132
0.0
 79
     0
146
0.0
  0
ENDTAB
  0
TABLE
  2
LTYPE
  5
5
330
0
100
AcDbSymbolTable
 70
     4
  0
LTYPE
  5
14
330
5
100
AcDbSymbolTableRecord
100
AcDbLinetypeTableRecord
  2
ByBlock
 70
     0
  3

 72
    65
 73
     0
 40
0.0
  0
LTYPE
  5
15
330
5
100
AcDbSymbolTableRecord
100
AcDbLinetypeTableRecord
  2
ByLayer
 70
     0
  3

 72
    65
 73
     0
 40
0.0
  0
LTYPE
  5
16
330
5
100
AcDbSymbolTableRecord
100
AcDbLinetypeTableRecord
  2
Continuous
 70
     0
  3
Solid line
 72
    65
 73
     0
 40
0.0
  0
LTYPE
  5
D355
330
5
100
AcDbSymbolTableRecord
100
AcDbLinetypeTableRecord
  2
HIDDEN
 70
     0
  3
Hidden __ __ __ __ __ __ __ __ __ __ __ __ __ __
 72
    65
 73
     2
 40
1.905
 49
1.27
 74
     0
 49
-0.635
 74
     0
  0
LTYPE
  5
D356
330
5
100
AcDbSymbolTableRecord
100
AcDbLinetypeTableRecord
  2
CENTER
 70
     0
  3
Center ____ _ ____ _ ____ _ ____ _ ____ _ ____
 72
    65
 73
     4
 40
10.16
 49
6.349999999999999
 74
     0
 49
-1.27
 74
     0
 49
1.27
 74
     0
 49
-1.27
 74
     0
  0
LTYPE
  5
D357
330
5
100
AcDbSymbolTableRecord
100
AcDbLinetypeTableRecord
  2
CENTERX2
 70
     0
  3
Center (2x) ________  __  ________  __  _____
 72
    65
 73
     4
 40
20.32
 49
12.7
 74
     0
 49
-2.54
 74
     0
 49
2.54
 74
     0
 49
-2.54
 74
     0
  0
ENDTAB
  0
TABLE
  2
LAYER
  5
2
102
{ACAD_XDICTIONARY
360
1C1E
102
}
330
0
100
AcDbSymbolTable
 70
     9
  0
LAYER
  5
10
330
2
100
AcDbSymbolTableRecord
100
AcDbLayerTableRecord
  2
0
 70
     0
 62
     7
  6
Continuous
370
    -3
390
F
  0
LAYER
  5
1C1D
330
2
100
AcDbSymbolTableRecord
100
AcDbLayerTableRecord
  2
abmessung
 70
     0
 62
     3
  6
Continuous
370
    -3
390
F
1001
AcAecLayerStandard
1000

1000

  0
LAYER
  5
2107
330
2
100
AcDbSymbolTableRecord
100
AcDbLayerTableRecord
  2
Defpoints
 70
     0
 62
     7
  6
Continuous
290
     0
370
    -3
390
F
  0
LAYER
  5
33EC
330
2
100
AcDbSymbolTableRecord
100
AcDbLayerTableRecord
  2
RAHMEN025
 70
     0
 62
     7
  6
Continuous
370
    -3
390
F
  0
LAYER
  5
33ED
330
2
100
AcDbSymbolTableRecord
100
AcDbLayerTableRecord
  2
RAHMEN07
 70
     0
 62
     5
  6
Continuous
370
    -3
390
F
  0
LAYER
  5
33EE
330
2
100
AcDbSymbolTableRecord
100
AcDbLayerTableRecord
  2
TEXTFELD
 70
     0
 62
     7
  6
Continuous
370
    -3
390
F
  0
LAYER
  5
D358
102
{ACAD_XDICTIONARY
360
D359
102
}
330
2
100
AcDbSymbolTableRecord
100
AcDbLayerTableRecord
  2
BEMAßUNG
 70
     0
 62
     3
  6
Continuous
370
    15
390
F
  0
LAYER
  5
D35B
102
{ACAD_XDICTIONARY
360
D35C
102
}
330
2
100
AcDbSymbolTableRecord
100
AcDbLayerTableRecord
  2
MITTELLINIE
 70
     0
 62
     4
  6
CENTER
370
    15
390
F
  0
LAYER
  5
D35E
102
{ACAD_XDICTIONARY
360
D35F
102
}
330
2
100
AcDbSymbolTableRecord
100
AcDbLayerTableRecord
  2
BAUTEIL
 70
     0
 62
     7
  6
Continuous
370
    30
390
F
  0
ENDTAB
  0
TABLE
  2
STYLE
  5
3
330
0
100
AcDbSymbolTable
 70
     2
  0
STYLE
  5
11
330
3
100
AcDbSymbolTableRecord
100
AcDbTextStyleTableRecord
  2
Standard
 70
     0
 40
0.0
 41
1.0
 50
0.0
 71
     0
 42
2.5
  3
txt
  4

  0
STYLE
  5
338A
330
3
100
AcDbSymbolTableRecord
100
AcDbTextStyleTableRecord
  2
OLED
 70
     0
 40
0.0
 41
1.0
 50
0.0
 71
     0
 42
2.5
  3
ericssonga628.TTF
  4

1001
ACAD
1000
Ericsson GA628
1071
        1
  0
ENDTAB
  0
TABLE
  2
VIEW
  5
6
330
0
100
AcDbSymbolTable
 70
     0
  0
ENDTAB
  0
TABLE
  2
UCS
  5
7
330
0
100
AcDbSymbolTable
 70
     0
  0
ENDTAB
  0
TABLE
  2
APPID
  5
9
330
0
100
AcDbSymbolTable
 70
    12
  0
APPID
  5
12
330
9
100
AcDbSymbolTableRecord
100
AcDbRegAppTableRecord
  2
ACAD
 70
     0
  0
APPID
  5
1C1B
330
9
100
AcDbSymbolTableRecord
100
AcDbRegAppTableRecord
  2
AcAecLayerStandard
 70
     0
  0
APPID
  5
2122
330
9
100
AcDbSymbolTableRecord
100
AcDbRegAppTableRecord
  2
ACAD_DSTYLE_DIMTEXT_FILL
 70
     0
  0
APPID
  5
2123
330
9
100
AcDbSymbolTableRecord
100
AcDbRegAppTableRecord
  2
ACAD_DSTYLE_DIMEXT_LENGTH
 70
     0
  0
APPID
  5
2124
330
9
100
AcDbSymbolTableRecord
100
AcDbRegAppTableRecord
  2
ACAD_DSTYLE_DIMEXT_ENABLED
 70
     0
  0
APPID
  5
2125
330
9
100
AcDbSymbolTableRecord
100
AcDbRegAppTableRecord
  2
ACAD_DSTYLE_DIM_LINETYPE
 70
     0
  0
APPID
  5
2126
330
9
100
AcDbSymbolTableRecord
100
AcDbRegAppTableRecord
  2
ACAD_DSTYLE_DIM_EXT1_LINETYPE
 70
     0
  0
APPID
  5
2127
330
9
100
AcDbSymbolTableRecord
100
AcDbRegAppTableRecord
  2
ACAD_DSTYLE_DIM_EXT2_LINETYPE
 70
     0
  0
APPID
  5
21E3
330
9
100
AcDbSymbolTableRecord
100
AcDbRegAppTableRecord
  2
ACAD_DSTYLE_DIMJOGGED_JOGANGLE_SYMBOL
 70
     0
  0
APPID
  5
2A57
330
9
100
AcDbSymbolTableRecord
100
AcDbRegAppTableRecord
  2
ACAD_DSTYLE_DIMARC_LENGTH_SYMBOL
 70
     0
  0
APPID
  5
2DEE
330
9
100
AcDbSymbolTableRecord
100
AcDbRegAppTableRecord
  2
ACAD_EXEMPT_FROM_CAD_STANDARDS
 70
     0
  0
APPID
  5
33EF
330
9
100
AcDbSymbolTableRecord
100
AcDbRegAppTableRecord
  2
ACAD_PSEXT
 70
     0
  0
ENDTAB
  0
TABLE
  2
DIMSTYLE
  5
A
330
0
100
AcDbSymbolTable
 70
     2
100
AcDbDimStyleTable
 71
     1
340
27
  0
DIMSTYLE
105
27
102
{ACAD_REACTORS
330
EA24
330
EA25
330
EA26
330
EA27
330
EA28
330
EA29
330
EA2A
330
EA2B
330
EA2C
330
EAF3
330
E7FB
330
E7FD
330
E7FE
330
ED1F
102
}
330
A
100
AcDbSymbolTableRecord
100
AcDbDimStyleTableRecord
  2
ISO-25
 70
     0
 41
3.5
 42
0.625
 43
3.75
 44
1.25
 73
     0
 74
     0
 77
     1
 78
     8
140
3.5
141
2.5
143
0.03937007874016
147
1.5
171
     3
172
     1
271
     2
272
     2
274
     3
278
    44
283
     0
284
     8
340
11
1001
ACAD_DSTYLE_DIMEXT_LENGTH
1070
   378
1040
1.25
1001
ACAD_DSTYLE_DIMEXT_ENABLED
1070
   383
1070
     0
1001
ACAD_DSTYLE_DIMARC_LENGTH_SYMBOL
1070
   379
1070
     0
1001
ACAD_DSTYLE_DIMJOGGED_JOGANGLE_SYMBOL
1070
   384
1040
1.570796326794896
  0
DIMSTYLE
105
2AD4
330
A
100
AcDbSymbolTableRecord
100
AcDbDimStyleTableRecord
  2
Standard
 70
     0
289
     0
340
11
  0
ENDTAB
  0
TABLE
  2
BLOCK_RECORD
  5
1
330
0
100
AcDbSymbolTable
 70
    24
  0
BLOCK_RECORD
  5
1F
102
{ACAD_XDICTIONARY
360
2DFE
102
}
330
1
100
AcDbSymbolTableRecord
100
AcDbBlockTableRecord
  2
*Model_Space
340
22
  0
BLOCK_RECORD
  5
1B
330
1
100
AcDbSymbolTableRecord
100
AcDbBlockTableRecord
  2
*Paper_Space
340
1E
  0
BLOCK_RECORD
  5
23
330
1
100
AcDbSymbolTableRecord
100
AcDbBlockTableRecord
  2
*Paper_Space0
340
26
  0
BLOCK_RECORD
  5
D2E8
330
1
100
AcDbSymbolTableRecord
100
AcDbBlockTableRecord
  2
SW_CENTERMARKSYMBOL_0
340
0
102
{BLKREFS
331
E7AE
102
}
  0
BLOCK_RECORD
  5
D2F3
330
1
100
AcDbSymbolTableRecord
100
AcDbBlockTableRecord
  2
SW_CENTERMARKSYMBOL_1
340
0
102
{BLKREFS
331
E7AF
102
}
  0
BLOCK_RECORD
  5
D2FE
330
1
100
AcDbSymbolTableRecord
100
AcDbBlockTableRecord
  2
SW_CENTERMARKSYMBOL_2
340
0
102
{BLKREFS
331
E7B0
102
}
  0
BLOCK_RECORD
  5
D309
330
1
100
AcDbSymbolTableRecord
100
AcDbBlockTableRecord
  2
SW_CENTERMARKSYMBOL_3
340
0
102
{BLKREFS
331
E7B1
102
}
  0
BLOCK_RECORD
  5
D314
330
1
100
AcDbSymbolTableRecord
100
AcDbBlockTableRecord
  2
SW_CENTERMARKSYMBOL_4
340
0
102
{BLKREFS
331
E7B2
102
}
  0
BLOCK_RECORD
  5
D31F
330
1
100
AcDbSymbolTableRecord
100
AcDbBlockTableRecord
  2
SW_CENTERMARKSYMBOL_5
340
0
102
{BLKREFS
331
E7B3
102
}
  0
BLOCK_RECORD
  5
D32A
330
1
100
AcDbSymbolTableRecord
100
AcDbBlockTableRecord
  2
SW_CENTERMARKSYMBOL_6
340
0
102
{BLKREFS
331
E7B4
102
}
  0
BLOCK_RECORD
  5
D335
330
1
100
AcDbSymbolTableRecord
100
AcDbBlockTableRecord
  2
SW_CENTERMARKSYMBOL_7
340
0
102
{BLKREFS
331
E7B5
102
}
  0
BLOCK_RECORD
  5
E678
330
1
100
AcDbSymbolTableRecord
100
AcDbBlockTableRecord
  2
*D9
340
0
  0
BLOCK_RECORD
  5
E690
330
1
100
AcDbSymbolTableRecord
100
AcDbBlockTableRecord
  2
*D10
340
0
  0
BLOCK_RECORD
  5
E69B
330
1
100
AcDbSymbolTableRecord
100
AcDbBlockTableRecord
  2
*D11
340
0
  0
BLOCK_RECORD
  5
E6BF
330
1
100
AcDbSymbolTableRecord
100
AcDbBlockTableRecord
  2
*D12
340
0
  0
BLOCK_RECORD
  5
EA2D
330
1
100
AcDbSymbolTableRecord
100
AcDbBlockTableRecord
  2
*D13
340
0
  0
BLOCK_RECORD
  5
EA39
330
1
100
AcDbSymbolTableRecord
100
AcDbBlockTableRecord
  2
*D14
340
0
  0
BLOCK_RECORD
  5
EA45
330
1
100
AcDbSymbolTableRecord
100
AcDbBlockTableRecord
  2
*D15
340
0
  0
BLOCK_RECORD
  5
EA51
330
1
100
AcDbSymbolTableRecord
100
AcDbBlockTableRecord
  2
*D16
340
0
  0
BLOCK_RECORD
  5
EA5D
330
1
100
AcDbSymbolTableRecord
100
AcDbBlockTableRecord
  2
*D17
340
0
  0
BLOCK_RECORD
  5
EA69
330
1
100
AcDbSymbolTableRecord
100
AcDbBlockTableRecord
  2
*D18
340
0
  0
BLOCK_RECORD
  5
EA75
330
1
100
AcDbSymbolTableRecord
100
AcDbBlockTableRecord
  2
*D19
340
0
  0
BLOCK_RECORD
  5
EA81
330
1
100
AcDbSymbolTableRecord
100
AcDbBlockTableRecord
  2
*D20
340
0
  0
BLOCK_RECORD
  5
EA8D
330
1
100
AcDbSymbolTableRecord
100
AcDbBlockTableRecord
  2
*D21
340
0
  0
BLOCK_RECORD
  5
EAF4
330
1
100
AcDbSymbolTableRecord
100
AcDbBlockTableRecord
  2
*D22
340
0
  0
BLOCK_RECORD
  5
ED20
330
1
100
AcDbSymbolTableRecord
100
AcDbBlockTableRecord
  2
*D23
340
0
  0
ENDTAB
  0
ENDSEC
  0
SECTION
  2
BLOCKS
  0
BLOCK
  5
20
330
1F
100
AcDbEntity
  8
0
100
AcDbBlockBegin
  2
*Model_Space
 70
     0
 10
0.0
 20
0.0
 30
0.0
  3
*Model_Space
  1

  0
ENDBLK
  5
21
330
1F
100
AcDbEntity
  8
0
100
AcDbBlockEnd
  0
BLOCK
  5
1C
330
1B
100
AcDbEntity
 67
     1
  8
0
100
AcDbBlockBegin
  2
*Paper_Space
 70
     0
 10
0.0
 20
0.0
 30
0.0
  3
*Paper_Space
  1

  0
ENDBLK
  5
1D
330
1B
100
AcDbEntity
 67
     1
  8
0
100
AcDbBlockEnd
  0
BLOCK
  5
24
330
23
100
AcDbEntity
 67
     1
  8
0
100
AcDbBlockBegin
  2
*Paper_Space0
 70
     0
 10
0.0
 20
0.0
 30
0.0
  3
*Paper_Space0
  1

  0
ENDBLK
  5
25
330
23
100
AcDbEntity
 67
     1
  8
0
100
AcDbBlockEnd
  0
BLOCK
  5
D2E9
330
D2E8
100
AcDbEntity
  8
0
100
AcDbBlockBegin
  2
SW_CENTERMARKSYMBOL_0
 70
     0
 10
0.0
 20
0.0
 30
0.0
  3
SW_CENTERMARKSYMBOL_0
  1

  0
LINE
  5
D2EA
330
D2E8
100
AcDbEntity
  8
MITTELLINIE
 62
     0
100
AcDbLine
 10
0.0
 20
0.0
 30
0.0
 11
0.0
 21
2.500000000000002
 31
0.0
  0
LINE
  5
D2EB
330
D2E8
100
AcDbEntity
  8
MITTELLINIE
 62
     0
100
AcDbLine
 10
0.0
 20
0.0
 30
0.0
 11
-2.500000000000002
 21
0.0
 31
0.0
  0
LINE
  5
D2EC
330
D2E8
100
AcDbEntity
  8
MITTELLINIE
 62
     0
100
AcDbLine
 10
0.0
 20
0.0
 30
0.0
 11
0.0
 21
-2.500000000000002
 31
0.0
  0
LINE
  5
D2ED
330
D2E8
100
AcDbEntity
  8
MITTELLINIE
 62
     0
100
AcDbLine
 10
0.0
 20
0.0
 30
0.0
 11
2.500000000000002
 21
0.0
 31
0.0
  0
LINE
  5
D2EE
330
D2E8
100
AcDbEntity
  8
MITTELLINIE
 62
     0
100
AcDbLine
 10
0.0
 20
2.500000000000002
 30
0.0
 11
0.0
 21
4.249999999999976
 31
0.0
  0
LINE
  5
D2EF
330
D2E8
100
AcDbEntity
  8
MITTELLINIE
 62
     0
100
AcDbLine
 10
-2.500000000000002
 20
0.0
 30
0.0
 11
-4.250000000000003
 21
0.0
 31
0.0
  0
LINE
  5
D2F0
330
D2E8
100
AcDbEntity
  8
MITTELLINIE
 62
     0
100
AcDbLine
 10
0.0
 20
-2.500000000000002
 30
0.0
 11
0.0
 21
-4.250000000000031
 31
0.0
  0
LINE
  5
D2F1
330
D2E8
100
AcDbEntity
  8
MITTELLINIE
 62
     0
100
AcDbLine
 10
2.500000000000002
 20
0.0
 30
0.0
 11
4.250000000000003
 21
0.0
 31
0.0
  0
ENDBLK
  5
D2F2
330
D2E8
100
AcDbEntity
  8
0
100
AcDbBlockEnd
  0
BLOCK
  5
D2F4
330
D2F3
100
AcDbEntity
  8
0
100
AcDbBlockBegin
  2
SW_CENTERMARKSYMBOL_1
 70
     0
 10
0.0
 20
0.0
 30
0.0
  3
SW_CENTERMARKSYMBOL_1
  1

  0
LINE
  5
D2F5
330
D2F3
100
AcDbEntity
  8
MITTELLINIE
 62
     0
100
AcDbLine
 10
0.0
 20
0.0
 30
0.0
 11
0.0
 21
2.500000000000002
 31
0.0
  0
LINE
  5
D2F6
330
D2F3
100
AcDbEntity
  8
MITTELLINIE
 62
     0
100
AcDbLine
 10
0.0
 20
0.0
 30
0.0
 11
-2.500000000000002
 21
0.0
 31
0.0
  0
LINE
  5
D2F7
330
D2F3
100
AcDbEntity
  8
MITTELLINIE
 62
     0
100
AcDbLine
 10
0.0
 20
0.0
 30
0.0
 11
0.0
 21
-2.500000000000002
 31
0.0
  0
LINE
  5
D2F8
330
D2F3
100
AcDbEntity
  8
MITTELLINIE
 62
     0
100
AcDbLine
 10
0.0
 20
0.0
 30
0.0
 11
2.500000000000002
 21
0.0
 31
0.0
  0
LINE
  5
D2F9
330
D2F3
100
AcDbEntity
  8
MITTELLINIE
 62
     0
100
AcDbLine
 10
0.0
 20
2.500000000000002
 30
0.0
 11
0.0
 21
4.250000000000031
 31
0.0
  0
LINE
  5
D2FA
330
D2F3
100
AcDbEntity
  8
MITTELLINIE
 62
     0
100
AcDbLine
 10
-2.500000000000002
 20
0.0
 30
0.0
 11
-4.250000000000003
 21
0.0
 31
0.0
  0
LINE
  5
D2FB
330
D2F3
100
AcDbEntity
  8
MITTELLINIE
 62
     0
100
AcDbLine
 10
0.0
 20
-2.500000000000002
 30
0.0
 11
0.0
 21
-4.249999999999976
 31
0.0
  0
LINE
  5
D2FC
330
D2F3
100
AcDbEntity
  8
MITTELLINIE
 62
     0
100
AcDbLine
 10
2.500000000000002
 20
0.0
 30
0.0
 11
4.250000000000003
 21
0.0
 31
0.0
  0
ENDBLK
  5
D2FD
330
D2F3
100
AcDbEntity
  8
0
100
AcDbBlockEnd
  0
BLOCK
  5
D2FF
330
D2FE
100
AcDbEntity
  8
0
100
AcDbBlockBegin
  2
SW_CENTERMARKSYMBOL_2
 70
     0
 10
0.0
 20
0.0
 30
0.0
  3
SW_CENTERMARKSYMBOL_2
  1

  0
LINE
  5
D300
330
D2FE
100
AcDbEntity
  8
MITTELLINIE
 62
     0
100
AcDbLine
 10
0.0
 20
0.0
 30
0.0
 11
0.0
 21
2.500000000000002
 31
0.0
  0
LINE
  5
D301
330
D2FE
100
AcDbEntity
  8
MITTELLINIE
 62
     0
100
AcDbLine
 10
0.0
 20
0.0
 30
0.0
 11
-2.500000000000002
 21
0.0
 31
0.0
  0
LINE
  5
D302
330
D2FE
100
AcDbEntity
  8
MITTELLINIE
 62
     0
100
AcDbLine
 10
0.0
 20
0.0
 30
0.0
 11
0.0
 21
-2.500000000000002
 31
0.0
  0
LINE
  5
D303
330
D2FE
100
AcDbEntity
  8
MITTELLINIE
 62
     0
100
AcDbLine
 10
0.0
 20
0.0
 30
0.0
 11
2.500000000000002
 21
0.0
 31
0.0
  0
LINE
  5
D304
330
D2FE
100
AcDbEntity
  8
MITTELLINIE
 62
     0
100
AcDbLine
 10
0.0
 20
2.500000000000002
 30
0.0
 11
0.0
 21
4.250000000000031
 31
0.0
  0
LINE
  5
D305
330
D2FE
100
AcDbEntity
  8
MITTELLINIE
 62
     0
100
AcDbLine
 10
-2.500000000000002
 20
0.0
 30
0.0
 11
-4.250000000000031
 21
0.0
 31
0.0
  0
LINE
  5
D306
330
D2FE
100
AcDbEntity
  8
MITTELLINIE
 62
     0
100
AcDbLine
 10
0.0
 20
-2.500000000000002
 30
0.0
 11
0.0
 21
-4.249999999999976
 31
0.0
  0
LINE
  5
D307
330
D2FE
100
AcDbEntity
  8
MITTELLINIE
 62
     0
100
AcDbLine
 10
2.500000000000002
 20
0.0
 30
0.0
 11
4.249999999999976
 21
0.0
 31
0.0
  0
ENDBLK
  5
D308
330
D2FE
100
AcDbEntity
  8
0
100
AcDbBlockEnd
  0
BLOCK
  5
D30A
330
D309
100
AcDbEntity
  8
0
100
AcDbBlockBegin
  2
SW_CENTERMARKSYMBOL_3
 70
     0
 10
0.0
 20
0.0
 30
0.0
  3
SW_CENTERMARKSYMBOL_3
  1

  0
LINE
  5
D30B
330
D309
100
AcDbEntity
  8
MITTELLINIE
 62
     0
100
AcDbLine
 10
0.0
 20
0.0
 30
0.0
 11
0.0
 21
2.500000000000002
 31
0.0
  0
LINE
  5
D30C
330
D309
100
AcDbEntity
  8
MITTELLINIE
 62
     0
100
AcDbLine
 10
0.0
 20
0.0
 30
0.0
 11
-2.500000000000002
 21
0.0
 31
0.0
  0
LINE
  5
D30D
330
D309
100
AcDbEntity
  8
MITTELLINIE
 62
     0
100
AcDbLine
 10
0.0
 20
0.0
 30
0.0
 11
0.0
 21
-2.500000000000002
 31
0.0
  0
LINE
  5
D30E
330
D309
100
AcDbEntity
  8
MITTELLINIE
 62
     0
100
AcDbLine
 10
0.0
 20
0.0
 30
0.0
 11
2.500000000000002
 21
0.0
 31
0.0
  0
LINE
  5
D30F
330
D309
100
AcDbEntity
  8
MITTELLINIE
 62
     0
100
AcDbLine
 10
0.0
 20
2.500000000000002
 30
0.0
 11
0.0
 21
4.250000000000031
 31
0.0
  0
LINE
  5
D310
330
D309
100
AcDbEntity
  8
MITTELLINIE
 62
     0
100
AcDbLine
 10
-2.500000000000002
 20
0.0
 30
0.0
 11
-4.250000000000031
 21
0.0
 31
0.0
  0
LINE
  5
D311
330
D309
100
AcDbEntity
  8
MITTELLINIE
 62
     0
100
AcDbLine
 10
0.0
 20
-2.500000000000002
 30
0.0
 11
0.0
 21
-4.249999999999976
 31
0.0
  0
LINE
  5
D312
330
D309
100
AcDbEntity
  8
MITTELLINIE
 62
     0
100
AcDbLine
 10
2.500000000000002
 20
0.0
 30
0.0
 11
4.249999999999976
 21
0.0
 31
0.0
  0
ENDBLK
  5
D313
330
D309
100
AcDbEntity
  8
0
100
AcDbBlockEnd
  0
BLOCK
  5
D315
330
D314
100
AcDbEntity
  8
0
100
AcDbBlockBegin
  2
SW_CENTERMARKSYMBOL_4
 70
     0
 10
0.0
 20
0.0
 30
0.0
  3
SW_CENTERMARKSYMBOL_4
  1

  0
LINE
  5
D316
330
D314
100
AcDbEntity
  8
MITTELLINIE
 62
     0
100
AcDbLine
 10
0.0
 20
0.0
 30
0.0
 11
0.0
 21
2.500000000000002
 31
0.0
  0
LINE
  5
D317
330
D314
100
AcDbEntity
  8
MITTELLINIE
 62
     0
100
AcDbLine
 10
0.0
 20
0.0
 30
0.0
 11
-2.500000000000002
 21
0.0
 31
0.0
  0
LINE
  5
D318
330
D314
100
AcDbEntity
  8
MITTELLINIE
 62
     0
100
AcDbLine
 10
0.0
 20
0.0
 30
0.0
 11
0.0
 21
-2.500000000000002
 31
0.0
  0
LINE
  5
D319
330
D314
100
AcDbEntity
  8
MITTELLINIE
 62
     0
100
AcDbLine
 10
0.0
 20
0.0
 30
0.0
 11
2.500000000000002
 21
0.0
 31
0.0
  0
LINE
  5
D31A
330
D314
100
AcDbEntity
  8
MITTELLINIE
 62
     0
100
AcDbLine
 10
0.0
 20
2.500000000000002
 30
0.0
 11
0.0
 21
4.250000000000031
 31
0.0
  0
LINE
  5
D31B
330
D314
100
AcDbEntity
  8
MITTELLINIE
 62
     0
100
AcDbLine
 10
-2.500000000000002
 20
0.0
 30
0.0
 11
-4.249999999999976
 21
0.0
 31
0.0
  0
LINE
  5
D31C
330
D314
100
AcDbEntity
  8
MITTELLINIE
 62
     0
100
AcDbLine
 10
0.0
 20
-2.500000000000002
 30
0.0
 11
0.0
 21
-4.249999999999976
 31
0.0
  0
LINE
  5
D31D
330
D314
100
AcDbEntity
  8
MITTELLINIE
 62
     0
100
AcDbLine
 10
2.500000000000002
 20
0.0
 30
0.0
 11
4.249999999999976
 21
0.0
 31
0.0
  0
ENDBLK
  5
D31E
330
D314
100
AcDbEntity
  8
0
100
AcDbBlockEnd
  0
BLOCK
  5
D320
330
D31F
100
AcDbEntity
  8
0
100
AcDbBlockBegin
  2
SW_CENTERMARKSYMBOL_5
 70
     0
 10
0.0
 20
0.0
 30
0.0
  3
SW_CENTERMARKSYMBOL_5
  1

  0
LINE
  5
D321
330
D31F
100
AcDbEntity
  8
MITTELLINIE
 62
     0
100
AcDbLine
 10
0.0
 20
0.0
 30
0.0
 11
0.0
 21
2.500000000000002
 31
0.0
  0
LINE
  5
D322
330
D31F
100
AcDbEntity
  8
MITTELLINIE
 62
     0
100
AcDbLine
 10
0.0
 20
0.0
 30
0.0
 11
-2.500000000000002
 21
0.0
 31
0.0
  0
LINE
  5
D323
330
D31F
100
AcDbEntity
  8
MITTELLINIE
 62
     0
100
AcDbLine
 10
0.0
 20
0.0
 30
0.0
 11
0.0
 21
-2.500000000000002
 31
0.0
  0
LINE
  5
D324
330
D31F
100
AcDbEntity
  8
MITTELLINIE
 62
     0
100
AcDbLine
 10
0.0
 20
0.0
 30
0.0
 11
2.500000000000002
 21
0.0
 31
0.0
  0
LINE
  5
D325
330
D31F
100
AcDbEntity
  8
MITTELLINIE
 62
     0
100
AcDbLine
 10
0.0
 20
2.500000000000002
 30
0.0
 11
0.0
 21
4.250000000000031
 31
0.0
  0
LINE
  5
D326
330
D31F
100
AcDbEntity
  8
MITTELLINIE
 62
     0
100
AcDbLine
 10
-2.500000000000002
 20
0.0
 30
0.0
 11
-4.249999999999976
 21
0.0
 31
0.0
  0
LINE
  5
D327
330
D31F
100
AcDbEntity
  8
MITTELLINIE
 62
     0
100
AcDbLine
 10
0.0
 20
-2.500000000000002
 30
0.0
 11
0.0
 21
-4.249999999999976
 31
0.0
  0
LINE
  5
D328
330
D31F
100
AcDbEntity
  8
MITTELLINIE
 62
     0
100
AcDbLine
 10
2.500000000000002
 20
0.0
 30
0.0
 11
4.249999999999976
 21
0.0
 31
0.0
  0
ENDBLK
  5
D329
330
D31F
100
AcDbEntity
  8
0
100
AcDbBlockEnd
  0
BLOCK
  5
D32B
330
D32A
100
AcDbEntity
  8
0
100
AcDbBlockBegin
  2
SW_CENTERMARKSYMBOL_6
 70
     0
 10
0.0
 20
0.0
 30
0.0
  3
SW_CENTERMARKSYMBOL_6
  1

  0
LINE
  5
D32C
330
D32A
100
AcDbEntity
  8
MITTELLINIE
 62
     0
100
AcDbLine
 10
0.0
 20
0.0
 30
0.0
 11
0.0
 21
2.500000000000002
 31
0.0
  0
LINE
  5
D32D
330
D32A
100
AcDbEntity
  8
MITTELLINIE
 62
     0
100
AcDbLine
 10
0.0
 20
0.0
 30
0.0
 11
-2.500000000000057
 21
0.0
 31
0.0
  0
LINE
  5
D32E
330
D32A
100
AcDbEntity
  8
MITTELLINIE
 62
     0
100
AcDbLine
 10
0.0
 20
0.0
 30
0.0
 11
0.0
 21
-2.500000000000002
 31
0.0
  0
LINE
  5
D32F
330
D32A
100
AcDbEntity
  8
MITTELLINIE
 62
     0
100
AcDbLine
 10
0.0
 20
0.0
 30
0.0
 11
2.499999999999946
 21
0.0
 31
0.0
  0
LINE
  5
D330
330
D32A
100
AcDbEntity
  8
MITTELLINIE
 62
     0
100
AcDbLine
 10
0.0
 20
2.500000000000002
 30
0.0
 11
0.0
 21
4.249999999999976
 31
0.0
  0
LINE
  5
D331
330
D32A
100
AcDbEntity
  8
MITTELLINIE
 62
     0
100
AcDbLine
 10
-2.500000000000057
 20
0.0
 30
0.0
 11
-4.250000000000087
 21
0.0
 31
0.0
  0
LINE
  5
D332
330
D32A
100
AcDbEntity
  8
MITTELLINIE
 62
     0
100
AcDbLine
 10
0.0
 20
-2.500000000000002
 30
0.0
 11
0.0
 21
-4.250000000000031
 31
0.0
  0
LINE
  5
D333
330
D32A
100
AcDbEntity
  8
MITTELLINIE
 62
     0
100
AcDbLine
 10
2.499999999999946
 20
0.0
 30
0.0
 11
4.249999999999976
 21
0.0
 31
0.0
  0
ENDBLK
  5
D334
330
D32A
100
AcDbEntity
  8
0
100
AcDbBlockEnd
  0
BLOCK
  5
D336
330
D335
100
AcDbEntity
  8
0
100
AcDbBlockBegin
  2
SW_CENTERMARKSYMBOL_7
 70
     0
 10
0.0
 20
0.0
 30
0.0
  3
SW_CENTERMARKSYMBOL_7
  1

  0
LINE
  5
D337
330
D335
100
AcDbEntity
  8
MITTELLINIE
 62
     0
100
AcDbLine
 10
0.0
 20
0.0
 30
0.0
 11
0.0
 21
2.500000000000002
 31
0.0
  0
LINE
  5
D338
330
D335
100
AcDbEntity
  8
MITTELLINIE
 62
     0
100
AcDbLine
 10
0.0
 20
0.0
 30
0.0
 11
-2.500000000000057
 21
0.0
 31
0.0
  0
LINE
  5
D339
330
D335
100
AcDbEntity
  8
MITTELLINIE
 62
     0
100
AcDbLine
 10
0.0
 20
0.0
 30
0.0
 11
0.0
 21
-2.500000000000002
 31
0.0
  0
LINE
  5
D33A
330
D335
100
AcDbEntity
  8
MITTELLINIE
 62
     0
100
AcDbLine
 10
0.0
 20
0.0
 30
0.0
 11
2.499999999999946
 21
0.0
 31
0.0
  0
LINE
  5
D33B
330
D335
100
AcDbEntity
  8
MITTELLINIE
 62
     0
100
AcDbLine
 10
0.0
 20
2.500000000000002
 30
0.0
 11
0.0
 21
4.249999999999976
 31
0.0
  0
LINE
  5
D33C
330
D335
100
AcDbEntity
  8
MITTELLINIE
 62
     0
100
AcDbLine
 10
-2.500000000000057
 20
0.0
 30
0.0
 11
-4.250000000000087
 21
0.0
 31
0.0
  0
LINE
  5
D33D
330
D335
100
AcDbEntity
  8
MITTELLINIE
 62
     0
100
AcDbLine
 10
0.0
 20
-2.500000000000002
 30
0.0
 11
0.0
 21
-4.250000000000031
 31
0.0
  0
LINE
  5
D33E
330
D335
100
AcDbEntity
  8
MITTELLINIE
 62
     0
100
AcDbLine
 10
2.499999999999946
 20
0.0
 30
0.0
 11
4.249999999999976
 21
0.0
 31
0.0
  0
ENDBLK
  5
D33F
330
D335
100
AcDbEntity
  8
0
100
AcDbBlockEnd
  0
BLOCK
  5
E679
330
E678
100
AcDbEntity
  8
0
100
AcDbBlockBegin
  2
*D9
 70
     1
 10
0.0
 20
0.0
 30
0.0
  3
*D9
  1

  0
LINE
  5
EB25
330
E678
100
AcDbEntity
  8
BEMAßUNG
 62
     0
370
    -2
100
AcDbLine
 10
583.8148874389325
 20
295.7079944566009
 30
0.0
 11
583.8148874389325
 21
312.3329944566009
 31
0.0
  0
LINE
  5
EB26
330
E678
100
AcDbEntity
  8
BEMAßUNG
 62
     0
370
    -2
100
AcDbLine
 10
146.8148874389326
 20
295.7079944566009
 30
0.0
 11
146.8148874389326
 21
312.3329944566009
 31
0.0
  0
LINE
  5
EB27
330
E678
100
AcDbEntity
  8
BEMAßUNG
 62
     0
370
    -2
100
AcDbLine
 10
580.3148874389326
 20
311.082994456601
 30
0.0
 11
150.3148874389326
 21
311.082994456601
 31
0.0
  0
SOLID
  5
EB28
330
E678
100
AcDbEntity
  8
BEMAßUNG
 62
     0
100
AcDbTrace
 10
580.3148874389326
 20
311.6663277899343
 30
0.0
 11
580.3148874389326
 21
310.4996611232676
 31
0.0
 12
583.8148874389325
 22
311.082994456601
 32
0.0
 13
583.8148874389325
 23
311.082994456601
 33
0.0
  0
SOLID
  5
EB29
330
E678
100
AcDbEntity
  8
BEMAßUNG
 62
     0
100
AcDbTrace
 10
150.3148874389326
 20
311.6663277899343
 30
0.0
 11
150.3148874389326
 21
310.4996611232676
 31
0.0
 12
146.8148874389326
 22
311.082994456601
 32
0.0
 13
146.8148874389326
 23
311.082994456601
 33
0.0
  0
MTEXT
  5
EB2A
330
E678
100
AcDbEntity
  8
BEMAßUNG
 62
     0
100
AcDbMText
 10
364.1416294741325
 20
316.0829944566009
 30
0.0
 40
3.5
 41
0.0
 71
     2
 72
     1
  1
437
 73
     1
 44
1.0
1001
ACAD
1000
MTEXTBEGIN
1070
    73
1070
     1
1070
    44
1040
1.0
1070
    74
1070
     0
1000
MTEXTEND
  0
POINT
  5
EB2B
330
E678
100
AcDbEntity
  8
Defpoints
 62
     0
100
AcDbPoint
 10
583.8148874389325
 20
295.0829944566009
 30
0.0
  0
POINT
  5
EB2C
330
E678
100
AcDbEntity
  8
Defpoints
 62
     0
100
AcDbPoint
 10
146.8148874389326
 20
295.0829944566009
 30
0.0
  0
POINT
  5
EB2D
330
E678
100
AcDbEntity
  8
Defpoints
 62
     0
100
AcDbPoint
 10
146.8148874389326
 20
311.082994456601
 30
0.0
  0
ENDBLK
  5
E683
330
E678
100
AcDbEntity
  8
0
100
AcDbBlockEnd
  0
BLOCK
  5
E691
330
E690
100
AcDbEntity
  8
0
100
AcDbBlockBegin
  2
*D10
 70
     1
 10
0.0
 20
0.0
 30
0.0
  3
*D10
  1

  0
LINE
  5
EB2E
330
E690
100
AcDbEntity
  8
BEMAßUNG
 62
     0
370
    -2
100
AcDbLine
 10
123.8148874389326
 20
210.9579944566009
 30
0.0
 11
123.8148874389326
 21
194.3329944566009
 31
0.0
  0
LINE
  5
EB2F
330
E690
100
AcDbEntity
  8
BEMAßUNG
 62
     0
370
    -2
100
AcDbLine
 10
145.8148874389326
 20
213.4579944566009
 30
0.0
 11
145.8148874389326
 21
194.3329944566009
 31
0.0
  0
LINE
  5
EB30
330
E690
100
AcDbEntity
  8
BEMAßUNG
 62
     0
370
    -2
100
AcDbLine
 10
127.3148874389326
 20
195.5829944566009
 30
0.0
 11
142.3148874389326
 21
195.5829944566009
 31
0.0
  0
SOLID
  5
EB31
330
E690
100
AcDbEntity
  8
BEMAßUNG
 62
     0
100
AcDbTrace
 10
127.3148874389326
 20
196.1663277899342
 30
0.0
 11
127.3148874389326
 21
194.9996611232676
 31
0.0
 12
123.8148874389326
 22
195.5829944566009
 32
0.0
 13
123.8148874389326
 23
195.5829944566009
 33
0.0
  0
SOLID
  5
EB32
330
E690
100
AcDbEntity
  8
BEMAßUNG
 62
     0
100
AcDbTrace
 10
142.3148874389326
 20
196.1663277899342
 30
0.0
 11
142.3148874389326
 21
194.9996611232676
 31
0.0
 12
145.8148874389326
 22
195.5829944566009
 32
0.0
 13
145.8148874389326
 23
195.5829944566009
 33
0.0
  0
MTEXT
  5
EB33
330
E690
100
AcDbEntity
  8
BEMAßUNG
 62
     0
100
AcDbMText
 10
134.8148874389326
 20
200.5829944566009
 30
0.0
 40
3.5
 41
0.0
 71
     2
 72
     1
  1
22
 73
     1
 44
1.0
1001
ACAD
1000
MTEXTBEGIN
1070
    73
1070
     1
1070
    44
1040
1.0
1070
    74
1070
     0
1000
MTEXTEND
  0
POINT
  5
EB34
330
E690
100
AcDbEntity
  8
Defpoints
 62
     0
100
AcDbPoint
 10
123.8148874389326
 20
211.5829944566009
 30
0.0
  0
POINT
  5
EB35
330
E690
100
AcDbEntity
  8
Defpoints
 62
     0
100
AcDbPoint
 10
145.8148874389326
 20
214.0829944566009
 30
0.0
  0
POINT
  5
EB36
330
E690
100
AcDbEntity
  8
Defpoints
 62
     0
100
AcDbPoint
 10
145.8148874389326
 20
195.5829944566009
 30
0.0
  0
ENDBLK
  5
E69A
330
E690
100
AcDbEntity
  8
0
100
AcDbBlockEnd
  0
BLOCK
  5
E69C
330
E69B
100
AcDbEntity
  8
0
100
AcDbBlockBegin
  2
*D11
 70
     1
 10
0.0
 20
0.0
 30
0.0
  3
*D11
  1

  0
LINE
  5
EB37
330
E69B
100
AcDbEntity
  8
BEMAßUNG
 62
     0
370
    -2
100
AcDbLine
 10
606.8148874389326
 20
210.9579944566009
 30
0.0
 11
606.8148874389326
 21
194.3329944566009
 31
0.0
  0
LINE
  5
EB38
330
E69B
100
AcDbEntity
  8
BEMAßUNG
 62
     0
370
    -2
100
AcDbLine
 10
584.8148874389326
 20
213.4579944566009
 30
0.0
 11
584.8148874389326
 21
194.3329944566009
 31
0.0
  0
LINE
  5
EB39
330
E69B
100
AcDbEntity
  8
BEMAßUNG
 62
     0
370
    -2
100
AcDbLine
 10
603.3148874389326
 20
195.5829944566009
 30
0.0
 11
588.3148874389326
 21
195.5829944566009
 31
0.0
  0
SOLID
  5
EB3A
330
E69B
100
AcDbEntity
  8
BEMAßUNG
 62
     0
100
AcDbTrace
 10
603.3148874389326
 20
196.1663277899342
 30
0.0
 11
603.3148874389326
 21
194.9996611232676
 31
0.0
 12
606.8148874389326
 22
195.5829944566009
 32
0.0
 13
606.8148874389326
 23
195.5829944566009
 33
0.0
  0
SOLID
  5
EB3B
330
E69B
100
AcDbEntity
  8
BEMAßUNG
 62
     0
100
AcDbTrace
 10
588.3148874389326
 20
196.1663277899342
 30
0.0
 11
588.3148874389326
 21
194.9996611232676
 31
0.0
 12
584.8148874389326
 22
195.5829944566009
 32
0.0
 13
584.8148874389326
 23
195.5829944566009
 33
0.0
  0
MTEXT
  5
EB3C
330
E69B
100
AcDbEntity
  8
BEMAßUNG
 62
     0
100
AcDbMText
 10
595.8148874389325
 20
200.5829944566009
 30
0.0
 40
3.5
 41
0.0
 71
     2
 72
     1
  1
22
 73
     1
 44
1.0
1001
ACAD
1000
MTEXTBEGIN
1070
    73
1070
     1
1070
    44
1040
1.0
1070
    74
1070
     0
1000
MTEXTEND
  0
POINT
  5
EB3D
330
E69B
100
AcDbEntity
  8
Defpoints
 62
     0
100
AcDbPoint
 10
606.8148874389326
 20
211.5829944566009
 30
0.0
  0
POINT
  5
EB3E
330
E69B
100
AcDbEntity
  8
Defpoints
 62
     0
100
AcDbPoint
 10
584.8148874389326
 20
214.0829944566009
 30
0.0
  0
POINT
  5
EB3F
330
E69B
100
AcDbEntity
  8
Defpoints
 62
     0
100
AcDbPoint
 10
584.8148874389326
 20
195.5829944566009
 30
0.0
  0
ENDBLK
  5
E6A5
330
E69B
100
AcDbEntity
  8
0
100
AcDbBlockEnd
  0
BLOCK
  5
E6C0
330
E6BF
100
AcDbEntity
  8
0
100
AcDbBlockBegin
  2
*D12
 70
     1
 10
0.0
 20
0.0
 30
0.0
  3
*D12
  1

  0
LINE
  5
EB40
330
E6BF
100
AcDbEntity
  8
BEMAßUNG
 62
     0
370
    -2
100
AcDbLine
 10
788.0888157813326
 20
508.2282844694009
 30
0.0
 11
788.0888157813326
 21
524.8453983200008
 31
0.0
  0
LINE
  5
EB41
330
E6BF
100
AcDbEntity
  8
BEMAßUNG
 62
     0
370
    -2
100
AcDbLine
 10
713.0888157813326
 20
508.2282844694009
 30
0.0
 11
713.0888157813326
 21
524.8453983200008
 31
0.0
  0
LINE
  5
EB42
330
E6BF
100
AcDbEntity
  8
BEMAßUNG
 62
     0
370
    -2
100
AcDbLine
 10
784.5888157813326
 20
523.5953983200008
 30
0.0
 11
716.5888157813326
 21
523.5953983200008
 31
0.0
  0
SOLID
  5
EB43
330
E6BF
100
AcDbEntity
  8
BEMAßUNG
 62
     0
100
AcDbTrace
 10
784.5888157813326
 20
524.1787316533342
 30
0.0
 11
784.5888157813326
 21
523.0120649866675
 31
0.0
 12
788.0888157813326
 22
523.5953983200008
 32
0.0
 13
788.0888157813326
 23
523.5953983200008
 33
0.0
  0
SOLID
  5
EB44
330
E6BF
100
AcDbEntity
  8
BEMAßUNG
 62
     0
100
AcDbTrace
 10
716.5888157813326
 20
524.1787316533342
 30
0.0
 11
716.5888157813326
 21
523.0120649866675
 31
0.0
 12
713.0888157813326
 22
523.5953983200008
 32
0.0
 13
713.0888157813326
 23
523.5953983200008
 33
0.0
  0
MTEXT
  5
EB45
330
E6BF
100
AcDbEntity
  8
BEMAßUNG
 62
     0
100
AcDbMText
 10
750.5230271460325
 20
528.5953983200008
 30
0.0
 40
3.5
 41
0.0
 71
     2
 72
     1
  1
75
 73
     1
 44
1.0
1001
ACAD
1000
MTEXTBEGIN
1070
    73
1070
     1
1070
    44
1040
1.0
1070
    74
1070
     0
1000
MTEXTEND
  0
POINT
  5
EB46
330
E6BF
100
AcDbEntity
  8
Defpoints
 62
     0
100
AcDbPoint
 10
788.0888157813326
 20
507.6032844694009
 30
0.0
  0
POINT
  5
EB47
330
E6BF
100
AcDbEntity
  8
Defpoints
 62
     0
100
AcDbPoint
 10
713.0888157813326
 20
507.6032844694009
 30
0.0
  0
POINT
  5
EB48
330
E6BF
100
AcDbEntity
  8
Defpoints
 62
     0
100
AcDbPoint
 10
713.0888157813326
 20
523.5953983200008
 30
0.0
  0
ENDBLK
  5
E6C7
330
E6BF
100
AcDbEntity
  8
0
100
AcDbBlockEnd
  0
BLOCK
  5
EA37
330
EA2D
100
AcDbEntity
  8
0
100
AcDbBlockBegin
  2
*D13
 70
     1
 10
0.0
 20
0.0
 30
0.0
  3
*D13
  1

  0
LINE
  5
EB49
330
EA2D
100
AcDbEntity
  8
BEMAßUNG
 62
     0
370
    -2
100
AcDbLine
 10
124.0648874389326
 20
510.7282837064614
 30
0.0
 11
124.0648874389326
 21
538.1247215836883
 31
0.0
  0
LINE
  5
EB4A
330
EA2D
100
AcDbEntity
  8
BEMAßUNG
 62
     0
370
    -2
100
AcDbLine
 10
606.5648874389325
 20
510.7282837064614
 30
0.0
 11
606.5648874389325
 21
538.1247215836883
 31
0.0
  0
LINE
  5
EB4B
330
EA2D
100
AcDbEntity
  8
BEMAßUNG
 62
     0
370
    -2
100
AcDbLine
 10
127.5648874389326
 20
536.8747215836883
 30
0.0
 11
603.0648874389326
 21
536.8747215836883
 31
0.0
  0
SOLID
  5
EB4C
330
EA2D
100
AcDbEntity
  8
BEMAßUNG
 62
     0
100
AcDbTrace
 10
127.5648874389326
 20
537.4580549170217
 30
0.0
 11
127.5648874389326
 21
536.291388250355
 31
0.0
 12
124.0648874389326
 22
536.8747215836883
 32
0.0
 13
124.0648874389326
 23
536.8747215836883
 33
0.0
  0
SOLID
  5
EB4D
330
EA2D
100
AcDbEntity
  8
BEMAßUNG
 62
     0
100
AcDbTrace
 10
603.0648874389326
 20
537.4580549170217
 30
0.0
 11
603.0648874389326
 21
536.291388250355
 31
0.0
 12
606.5648874389325
 22
536.8747215836883
 32
0.0
 13
606.5648874389325
 23
536.8747215836883
 33
0.0
  0
MTEXT
  5
EB4E
330
EA2D
100
AcDbEntity
  8
BEMAßUNG
 62
     0
100
AcDbMText
 10
367.6690462436365
 20
542.4580549170216
 30
0.0
 40
3.5
 41
0.0
 71
     2
 72
     1
  1
482,5
 73
     1
 44
1.0
1001
ACAD
1000
MTEXTBEGIN
1070
    73
1070
     1
1070
    44
1040
1.0
1070
    74
1070
     0
1000
MTEXTEND
  0
POINT
  5
EB4F
330
EA2D
100
AcDbEntity
  8
Defpoints
 62
     0
100
AcDbPoint
 10
124.0648874389326
 20
510.1032837064614
 30
0.0
  0
POINT
  5
EB50
330
EA2D
100
AcDbEntity
  8
Defpoints
 62
     0
100
AcDbPoint
 10
606.5648874389325
 20
510.1032837064614
 30
0.0
  0
POINT
  5
EB51
330
EA2D
100
AcDbEntity
  8
Defpoints
 62
     0
100
AcDbPoint
 10
606.5648874389325
 20
536.8747215836883
 30
0.0
  0
ENDBLK
  5
EA38
330
EA2D
100
AcDbEntity
  8
0
100
AcDbBlockEnd
  0
BLOCK
  5
EA43
330
EA39
100
AcDbEntity
  8
0
100
AcDbBlockBegin
  2
*D14
 70
     1
 10
0.0
 20
0.0
 30
0.0
  3
*D14
  1

  0
LINE
  5
EB52
330
EA39
100
AcDbEntity
  8
BEMAßUNG
 62
     0
370
    -2
100
AcDbLine
 10
132.3648874389325
 20
500.9282837064614
 30
0.0
 11
132.3648874389325
 21
529.4650357487248
 31
0.0
  0
LINE
  5
EB53
330
EA39
100
AcDbEntity
  8
BEMAßUNG
 62
     0
370
    -2
100
AcDbLine
 10
598.2648874389326
 20
500.9282837064613
 30
0.0
 11
598.2648874389326
 21
529.4650357487248
 31
0.0
  0
LINE
  5
EB54
330
EA39
100
AcDbEntity
  8
BEMAßUNG
 62
     0
370
    -2
100
AcDbLine
 10
135.8648874389325
 20
528.2150357487248
 30
0.0
 11
594.7648874389326
 21
528.2150357487248
 31
0.0
  0
SOLID
  5
EB55
330
EA39
100
AcDbEntity
  8
BEMAßUNG
 62
     0
100
AcDbTrace
 10
135.8648874389325
 20
528.7983690820582
 30
0.0
 11
135.8648874389325
 21
527.6317024153915
 31
0.0
 12
132.3648874389325
 22
528.2150357487248
 32
0.0
 13
132.3648874389325
 23
528.2150357487248
 33
0.0
  0
SOLID
  5
EB56
330
EA39
100
AcDbEntity
  8
BEMAßUNG
 62
     0
100
AcDbTrace
 10
594.7648874389326
 20
528.7983690820582
 30
0.0
 11
594.7648874389326
 21
527.6317024153915
 31
0.0
 12
598.2648874389326
 22
528.2150357487248
 32
0.0
 13
598.2648874389326
 23
528.2150357487248
 33
0.0
  0
MTEXT
  5
EB57
330
EA39
100
AcDbEntity
  8
BEMAßUNG
 62
     0
100
AcDbMText
 10
367.6690462436365
 20
533.7983690820581
 30
0.0
 40
3.5
 41
0.0
 71
     2
 72
     1
  1
465,9
 73
     1
 44
1.0
1001
ACAD
1000
MTEXTBEGIN
1070
    73
1070
     1
1070
    44
1040
1.0
1070
    74
1070
     0
1000
MTEXTEND
  0
POINT
  5
EB58
330
EA39
100
AcDbEntity
  8
Defpoints
 62
     0
100
AcDbPoint
 10
132.3648874389325
 20
500.3032837064615
 30
0.0
  0
POINT
  5
EB59
330
EA39
100
AcDbEntity
  8
Defpoints
 62
     0
100
AcDbPoint
 10
598.2648874389326
 20
500.3032837064614
 30
0.0
  0
POINT
  5
EB5A
330
EA39
100
AcDbEntity
  8
Defpoints
 62
     0
100
AcDbPoint
 10
598.2648874389326
 20
528.2150357487248
 30
0.0
  0
ENDBLK
  5
EA44
330
EA39
100
AcDbEntity
  8
0
100
AcDbBlockEnd
  0
BLOCK
  5
EA4F
330
EA45
100
AcDbEntity
  8
0
100
AcDbBlockBegin
  2
*D15
 70
     1
 10
0.0
 20
0.0
 30
0.0
  3
*D15
  1

  0
LINE
  5
EB5B
330
EA45
100
AcDbEntity
  8
BEMAßUNG
 62
     0
370
    -2
100
AcDbLine
 10
158.6898874389326
 20
499.9032837064614
 30
0.0
 11
171.208756648262
 21
499.9032837064614
 31
0.0
  0
LINE
  5
EB5C
330
EA45
100
AcDbEntity
  8
BEMAßUNG
 62
     0
370
    -2
100
AcDbLine
 10
158.6898874389326
 20
472.1032837064615
 30
0.0
 11
171.208756648262
 21
472.1032837064615
 31
0.0
  0
LINE
  5
EB5D
330
EA45
100
AcDbEntity
  8
BEMAßUNG
 62
     0
370
    -2
100
AcDbLine
 10
169.958756648262
 20
496.4032837064614
 30
0.0
 11
169.958756648262
 21
475.6032837064615
 31
0.0
  0
SOLID
  5
EB5E
330
EA45
100
AcDbEntity
  8
BEMAßUNG
 62
     0
100
AcDbTrace
 10
169.3754233149286
 20
496.4032837064614
 30
0.0
 11
170.5420899815953
 21
496.4032837064614
 31
0.0
 12
169.958756648262
 22
499.9032837064614
 32
0.0
 13
169.958756648262
 23
499.9032837064614
 33
0.0
  0
SOLID
  5
EB5F
330
EA45
100
AcDbEntity
  8
BEMAßUNG
 62
     0
100
AcDbTrace
 10
169.3754233149286
 20
475.6032837064615
 30
0.0
 11
170.5420899815953
 21
475.6032837064615
 31
0.0
 12
169.958756648262
 22
472.1032837064615
 32
0.0
 13
169.958756648262
 23
472.1032837064615
 33
0.0
  0
MTEXT
  5
EB60
330
EA45
100
AcDbEntity
  8
BEMAßUNG
 62
     0
100
AcDbMText
 10
164.3754233149286
 20
488.033376411262
 30
0.0
 40
3.5
 41
0.0
 71
     2
 72
     1
  1
27,8
 11
0.0000000000000001
 21
1.0
 31
0.0
 73
     1
 44
1.0
1001
ACAD
1000
MTEXTBEGIN
1070
    73
1070
     1
1070
    44
1040
1.0
1070
    74
1070
     0
1000
MTEXTEND
  0
POINT
  5
EB61
330
EA45
100
AcDbEntity
  8
Defpoints
 62
     0
100
AcDbPoint
 10
158.0648874389326
 20
499.9032837064614
 30
0.0
  0
POINT
  5
EB62
330
EA45
100
AcDbEntity
  8
Defpoints
 62
     0
100
AcDbPoint
 10
158.0648874389326
 20
472.1032837064615
 30
0.0
  0
POINT
  5
EB63
330
EA45
100
AcDbEntity
  8
Defpoints
 62
     0
100
AcDbPoint
 10
169.958756648262
 20
472.1032837064615
 30
0.0
  0
ENDBLK
  5
EA50
330
EA45
100
AcDbEntity
  8
0
100
AcDbBlockEnd
  0
BLOCK
  5
EA5B
330
EA51
100
AcDbEntity
  8
0
100
AcDbBlockBegin
  2
*D16
 70
     1
 10
0.0
 20
0.0
 30
0.0
  3
*D16
  1

  0
LINE
  5
EB64
330
EA51
100
AcDbEntity
  8
BEMAßUNG
 62
     0
370
    -2
100
AcDbLine
 10
158.0648874389326
 20
500.5282837064615
 30
0.0
 11
158.0648874389326
 21
522.0736284974849
 31
0.0
  0
LINE
  5
EB65
330
EA51
100
AcDbEntity
  8
BEMAßUNG
 62
     0
370
    -2
100
AcDbLine
 10
353.5648874389326
 20
500.5282837064615
 30
0.0
 11
353.5648874389326
 21
522.0736284974849
 31
0.0
  0
LINE
  5
EB66
330
EA51
100
AcDbEntity
  8
BEMAßUNG
 62
     0
370
    -2
100
AcDbLine
 10
161.5648874389326
 20
520.8236284974849
 30
0.0
 11
350.0648874389326
 21
520.8236284974849
 31
0.0
  0
SOLID
  5
EB67
330
EA51
100
AcDbEntity
  8
BEMAßUNG
 62
     0
100
AcDbTrace
 10
161.5648874389326
 20
521.4069618308183
 30
0.0
 11
161.5648874389326
 21
520.2402951641516
 31
0.0
 12
158.0648874389326
 22
520.8236284974849
 32
0.0
 13
158.0648874389326
 23
520.8236284974849
 33
0.0
  0
SOLID
  5
EB68
330
EA51
100
AcDbEntity
  8
BEMAßUNG
 62
     0
100
AcDbTrace
 10
350.0648874389326
 20
521.4069618308183
 30
0.0
 11
350.0648874389326
 21
520.2402951641516
 31
0.0
 12
353.5648874389326
 22
520.8236284974849
 32
0.0
 13
353.5648874389326
 23
520.8236284974849
 33
0.0
  0
MTEXT
  5
EB69
330
EA51
100
AcDbEntity
  8
BEMAßUNG
 62
     0
100
AcDbMText
 10
257.1303913866443
 20
526.4069618308182
 30
0.0
 40
3.5
 41
0.0
 71
     2
 72
     1
  1
195,5
 73
     1
 44
1.0
1001
ACAD
1000
MTEXTBEGIN
1070
    73
1070
     1
1070
    44
1040
1.0
1070
    74
1070
     0
1000
MTEXTEND
  0
POINT
  5
EB6A
330
EA51
100
AcDbEntity
  8
Defpoints
 62
     0
100
AcDbPoint
 10
158.0648874389326
 20
499.9032837064614
 30
0.0
  0
POINT
  5
EB6B
330
EA51
100
AcDbEntity
  8
Defpoints
 62
     0
100
AcDbPoint
 10
353.5648874389326
 20
499.9032837064614
 30
0.0
  0
POINT
  5
EB6C
330
EA51
100
AcDbEntity
  8
Defpoints
 62
     0
100
AcDbPoint
 10
353.5648874389326
 20
520.8236284974849
 30
0.0
  0
ENDBLK
  5
EA5C
330
EA51
100
AcDbEntity
  8
0
100
AcDbBlockEnd
  0
BLOCK
  5
EA67
330
EA5D
100
AcDbEntity
  8
0
100
AcDbBlockBegin
  2
*D17
 70
     1
 10
0.0
 20
0.0
 30
0.0
  3
*D17
  1

  0
LINE
  5
EB6D
330
EA5D
100
AcDbEntity
  8
BEMAßUNG
 62
     0
370
    -2
100
AcDbLine
 10
572.5648874389325
 20
500.5282837064615
 30
0.0
 11
572.5648874389325
 21
522.0736284974849
 31
0.0
  0
LINE
  5
EB6E
330
EA5D
100
AcDbEntity
  8
BEMAßUNG
 62
     0
370
    -2
100
AcDbLine
 10
377.0648874389326
 20
500.5282837064615
 30
0.0
 11
377.0648874389326
 21
522.0736284974849
 31
0.0
  0
LINE
  5
EB6F
330
EA5D
100
AcDbEntity
  8
BEMAßUNG
 62
     0
370
    -2
100
AcDbLine
 10
569.0648874389325
 20
520.8236284974849
 30
0.0
 11
380.5648874389326
 21
520.8236284974849
 31
0.0
  0
SOLID
  5
EB70
330
EA5D
100
AcDbEntity
  8
BEMAßUNG
 62
     0
100
AcDbTrace
 10
569.0648874389325
 20
521.4069618308183
 30
0.0
 11
569.0648874389325
 21
520.2402951641516
 31
0.0
 12
572.5648874389325
 22
520.8236284974849
 32
0.0
 13
572.5648874389325
 23
520.8236284974849
 33
0.0
  0
SOLID
  5
EB71
330
EA5D
100
AcDbEntity
  8
BEMAßUNG
 62
     0
100
AcDbTrace
 10
380.5648874389326
 20
521.4069618308183
 30
0.0
 11
380.5648874389326
 21
520.2402951641516
 31
0.0
 12
377.0648874389326
 22
520.8236284974849
 32
0.0
 13
377.0648874389326
 23
520.8236284974849
 33
0.0
  0
MTEXT
  5
EB72
330
EA5D
100
AcDbEntity
  8
BEMAßUNG
 62
     0
100
AcDbMText
 10
474.1984610591628
 20
526.4069618308182
 30
0.0
 40
3.5
 41
0.0
 71
     2
 72
     1
  1
195,5
 73
     1
 44
1.0
1001
ACAD
1000
MTEXTBEGIN
1070
    73
1070
     1
1070
    44
1040
1.0
1070
    74
1070
     0
1000
MTEXTEND
  0
POINT
  5
EB73
330
EA5D
100
AcDbEntity
  8
Defpoints
 62
     0
100
AcDbPoint
 10
572.5648874389325
 20
499.9032837064614
 30
0.0
  0
POINT
  5
EB74
330
EA5D
100
AcDbEntity
  8
Defpoints
 62
     0
100
AcDbPoint
 10
377.0648874389326
 20
499.9032837064614
 30
0.0
  0
POINT
  5
EB75
330
EA5D
100
AcDbEntity
  8
Defpoints
 62
     0
100
AcDbPoint
 10
377.0648874389326
 20
520.8236284974849
 30
0.0
  0
ENDBLK
  5
EA68
330
EA5D
100
AcDbEntity
  8
0
100
AcDbBlockEnd
  0
BLOCK
  5
EA73
330
EA69
100
AcDbEntity
  8
0
100
AcDbBlockBegin
  2
*D18
 70
     1
 10
0.0
 20
0.0
 30
0.0
  3
*D18
  1

  0
LINE
  5
EB76
330
EA69
100
AcDbEntity
  8
BEMAßUNG
 62
     0
370
    -2
100
AcDbLine
 10
377.6898874389326
 20
472.1032837064615
 30
0.0
 11
392.0170311781906
 21
472.1032837064614
 31
0.0
  0
LINE
  5
EB77
330
EA69
100
AcDbEntity
  8
BEMAßUNG
 62
     0
370
    -2
100
AcDbLine
 10
377.6898874389326
 20
499.9032837064614
 30
0.0
 11
392.0170311781906
 21
499.9032837064614
 31
0.0
  0
LINE
  5
EB78
330
EA69
100
AcDbEntity
  8
BEMAßUNG
 62
     0
370
    -2
100
AcDbLine
 10
390.7670311781906
 20
475.6032837064614
 30
0.0
 11
390.7670311781906
 21
496.4032837064614
 31
0.0
  0
SOLID
  5
EB79
330
EA69
100
AcDbEntity
  8
BEMAßUNG
 62
     0
100
AcDbTrace
 10
390.1836978448573
 20
475.6032837064614
 30
0.0
 11
391.3503645115239
 21
475.6032837064614
 31
0.0
 12
390.7670311781906
 22
472.1032837064614
 32
0.0
 13
390.7670311781906
 23
472.1032837064614
 33
0.0
  0
SOLID
  5
EB7A
330
EA69
100
AcDbEntity
  8
BEMAßUNG
 62
     0
100
AcDbTrace
 10
390.1836978448573
 20
496.4032837064614
 30
0.0
 11
391.3503645115239
 21
496.4032837064614
 31
0.0
 12
390.7670311781906
 22
499.9032837064614
 32
0.0
 13
390.7670311781906
 23
499.9032837064614
 33
0.0
  0
MTEXT
  5
EB7B
330
EA69
100
AcDbEntity
  8
BEMAßUNG
 62
     0
100
AcDbMText
 10
385.1836978448572
 20
485.4345399056409
 30
0.0
 40
3.5
 41
0.0
 71
     2
 72
     1
  1
27,8
 11
0.0000000000000001
 21
1.0
 31
0.0
 73
     1
 44
1.0
1001
ACAD
1000
MTEXTBEGIN
1070
    73
1070
     1
1070
    44
1040
1.0
1070
    74
1070
     0
1000
MTEXTEND
  0
POINT
  5
EB7C
330
EA69
100
AcDbEntity
  8
Defpoints
 62
     0
100
AcDbPoint
 10
377.0648874389326
 20
472.1032837064615
 30
0.0
  0
POINT
  5
EB7D
330
EA69
100
AcDbEntity
  8
Defpoints
 62
     0
100
AcDbPoint
 10
377.0648874389326
 20
499.9032837064614
 30
0.0
  0
POINT
  5
EB7E
330
EA69
100
AcDbEntity
  8
Defpoints
 62
     0
100
AcDbPoint
 10
390.7670311781906
 20
499.9032837064614
 30
0.0
  0
ENDBLK
  5
EA74
330
EA69
100
AcDbEntity
  8
0
100
AcDbBlockEnd
  0
BLOCK
  5
EA7F
330
EA75
100
AcDbEntity
  8
0
100
AcDbBlockBegin
  2
*D19
 70
     1
 10
0.0
 20
0.0
 30
0.0
  3
*D19
  1

  0
LINE
  5
EB7F
330
EA75
100
AcDbEntity
  8
BEMAßUNG
 62
     0
370
    -2
100
AcDbLine
 10
607.1898874389326
 20
465.7032837064614
 30
0.0
 11
627.9469710042944
 21
465.7032837064614
 31
0.0
  0
LINE
  5
EB80
330
EA75
100
AcDbEntity
  8
BEMAßUNG
 62
     0
370
    -2
100
AcDbLine
 10
607.1898874389326
 20
510.1032837064614
 30
0.0
 11
627.9469710042944
 21
510.1032837064614
 31
0.0
  0
LINE
  5
EB81
330
EA75
100
AcDbEntity
  8
BEMAßUNG
 62
     0
370
    -2
100
AcDbLine
 10
626.6969710042944
 20
469.2032837064614
 30
0.0
 11
626.6969710042944
 21
506.6032837064614
 31
0.0
  0
SOLID
  5
EB82
330
EA75
100
AcDbEntity
  8
BEMAßUNG
 62
     0
100
AcDbTrace
 10
626.1136376709609
 20
469.2032837064614
 30
0.0
 11
627.2803043376277
 21
469.2032837064614
 31
0.0
 12
626.6969710042944
 22
465.7032837064614
 32
0.0
 13
626.6969710042944
 23
465.7032837064614
 33
0.0
  0
SOLID
  5
EB83
330
EA75
100
AcDbEntity
  8
BEMAßUNG
 62
     0
100
AcDbTrace
 10
626.1136376709609
 20
506.6032837064614
 30
0.0
 11
627.2803043376277
 21
506.6032837064614
 31
0.0
 12
626.6969710042944
 22
510.1032837064614
 32
0.0
 13
626.6969710042944
 23
510.1032837064614
 33
0.0
  0
MTEXT
  5
EB84
330
EA75
100
AcDbEntity
  8
BEMAßUNG
 62
     0
100
AcDbMText
 10
621.1136376709609
 20
486.0396042246629
 30
0.0
 40
3.5
 41
0.0
 71
     2
 72
     1
  1
44,4
 11
0.0000000000000001
 21
1.0
 31
0.0
 73
     1
 44
1.0
1001
ACAD
1000
MTEXTBEGIN
1070
    73
1070
     1
1070
    44
1040
1.0
1070
    74
1070
     0
1000
MTEXTEND
  0
POINT
  5
EB85
330
EA75
100
AcDbEntity
  8
Defpoints
 62
     0
100
AcDbPoint
 10
606.5648874389325
 20
465.7032837064614
 30
0.0
  0
POINT
  5
EB86
330
EA75
100
AcDbEntity
  8
Defpoints
 62
     0
100
AcDbPoint
 10
606.5648874389325
 20
510.1032837064614
 30
0.0
  0
POINT
  5
EB87
330
EA75
100
AcDbEntity
  8
Defpoints
 62
     0
100
AcDbPoint
 10
626.6969710042944
 20
510.1032837064614
 30
0.0
  0
ENDBLK
  5
EA80
330
EA75
100
AcDbEntity
  8
0
100
AcDbBlockEnd
  0
BLOCK
  5
EA8B
330
EA81
100
AcDbEntity
  8
0
100
AcDbBlockBegin
  2
*D20
 70
     1
 10
0.0
 20
0.0
 30
0.0
  3
*D20
  1

  0
LINE
  5
EB88
330
EA81
100
AcDbEntity
  8
BEMAßUNG
 62
     0
370
    -2
100
AcDbLine
 10
255.8148874389326
 20
466.4782837064614
 30
0.0
 11
255.8148874389326
 21
444.5593325089427
 31
0.0
  0
LINE
  5
EB89
330
EA81
100
AcDbEntity
  8
BEMAßUNG
 62
     0
370
    -2
100
AcDbLine
 10
474.8148874389325
 20
466.4782837064614
 30
0.0
 11
474.8148874389325
 21
444.5593325089427
 31
0.0
  0
LINE
  5
EB8A
330
EA81
100
AcDbEntity
  8
BEMAßUNG
 62
     0
370
    -2
100
AcDbLine
 10
259.3148874389326
 20
445.8093325089427
 30
0.0
 11
471.3148874389325
 21
445.8093325089427
 31
0.0
  0
SOLID
  5
EB8B
330
EA81
100
AcDbEntity
  8
BEMAßUNG
 62
     0
100
AcDbTrace
 10
259.3148874389326
 20
446.392665842276
 30
0.0
 11
259.3148874389326
 21
445.2259991756093
 31
0.0
 12
255.8148874389326
 22
445.8093325089427
 32
0.0
 13
255.8148874389326
 23
445.8093325089427
 33
0.0
  0
SOLID
  5
EB8C
330
EA81
100
AcDbEntity
  8
BEMAßUNG
 62
     0
100
AcDbTrace
 10
471.3148874389325
 20
446.392665842276
 30
0.0
 11
471.3148874389325
 21
445.2259991756093
 31
0.0
 12
474.8148874389325
 22
445.8093325089427
 32
0.0
 13
474.8148874389325
 23
445.8093325089427
 33
0.0
  0
MTEXT
  5
EB8D
330
EA81
100
AcDbEntity
  8
BEMAßUNG
 62
     0
100
AcDbMText
 10
367.6690462436367
 20
450.8093325089427
 30
0.0
 40
3.5
 41
0.0
 71
     2
 72
     1
  1
219
 73
     1
 44
1.0
1001
ACAD
1000
MTEXTBEGIN
1070
    73
1070
     1
1070
    44
1040
1.0
1070
    74
1070
     0
1000
MTEXTEND
  0
POINT
  5
EB8E
330
EA81
100
AcDbEntity
  8
Defpoints
 62
     0
100
AcDbPoint
 10
255.8148874389326
 20
467.1032837064614
 30
0.0
  0
POINT
  5
EB8F
330
EA81
100
AcDbEntity
  8
Defpoints
 62
     0
100
AcDbPoint
 10
474.8148874389325
 20
467.1032837064614
 30
0.0
  0
POINT
  5
EB90
330
EA81
100
AcDbEntity
  8
Defpoints
 62
     0
100
AcDbPoint
 10
474.8148874389325
 20
445.8093325089427
 30
0.0
  0
ENDBLK
  5
EA8C
330
EA81
100
AcDbEntity
  8
0
100
AcDbBlockEnd
  0
BLOCK
  5
EA97
330
EA8D
100
AcDbEntity
  8
0
100
AcDbBlockBegin
  2
*D21
 70
     1
 10
0.0
 20
0.0
 30
0.0
  3
*D21
  1

  0
LINE
  5
EB91
330
EA8D
100
AcDbEntity
  8
abmessung
 62
     0
370
    -2
100
AcDbLine
 10
605.6427422532281
 20
503.8032837064615
 30
0.0
 11
620.754459201529
 21
503.8032837064615
 31
0.0
  0
LINE
  5
EB92
330
EA8D
100
AcDbEntity
  8
abmessung
 62
     0
370
    -2
100
AcDbLine
 10
605.6427422532281
 20
472.0032837064614
 30
0.0
 11
620.754459201529
 21
472.0032837064614
 31
0.0
  0
LINE
  5
EB93
330
EA8D
100
AcDbEntity
  8
abmessung
 62
     0
370
    -2
100
AcDbLine
 10
619.504459201529
 20
500.3032837064615
 30
0.0
 11
619.504459201529
 21
475.5032837064614
 31
0.0
  0
SOLID
  5
EB94
330
EA8D
100
AcDbEntity
  8
abmessung
 62
     0
100
AcDbTrace
 10
618.9211258681956
 20
500.3032837064615
 30
0.0
 11
620.0877925348623
 21
500.3032837064615
 31
0.0
 12
619.504459201529
 22
503.8032837064615
 32
0.0
 13
619.504459201529
 23
503.8032837064615
 33
0.0
  0
SOLID
  5
EB95
330
EA8D
100
AcDbEntity
  8
abmessung
 62
     0
100
AcDbTrace
 10
618.9211258681956
 20
475.5032837064614
 30
0.0
 11
620.0877925348623
 21
475.5032837064614
 31
0.0
 12
619.504459201529
 22
472.0032837064614
 32
0.0
 13
619.504459201529
 23
472.0032837064614
 33
0.0
  0
MTEXT
  5
EB96
330
EA8D
100
AcDbEntity
  8
abmessung
 62
     0
100
AcDbMText
 10
615.9627925348623
 20
487.9032837064615
 30
0.0
 40
3.5
 41
0.0
 71
     5
 72
     1
  1
31,8
 11
0.0000000000000001
 21
1.0
 31
0.0
 73
     1
 44
1.0
1001
ACAD
1000
MTEXTBEGIN
1070
    73
1070
     1
1070
    44
1040
1.0
1070
    74
1070
     0
1000
MTEXTEND
  0
POINT
  5
EB97
330
EA8D
100
AcDbEntity
  8
Defpoints
 62
     0
100
AcDbPoint
 10
605.017742253228
 20
503.8032837064615
 30
0.0
  0
POINT
  5
EB98
330
EA8D
100
AcDbEntity
  8
Defpoints
 62
     0
100
AcDbPoint
 10
605.017742253228
 20
472.0032837064614
 30
0.0
  0
POINT
  5
EB99
330
EA8D
100
AcDbEntity
  8
Defpoints
 62
     0
100
AcDbPoint
 10
619.504459201529
 20
472.0032837064614
 30
0.0
  0
ENDBLK
  5
EA98
330
EA8D
100
AcDbEntity
  8
0
100
AcDbBlockEnd
  0
BLOCK
  5
EAFE
330
EAF4
100
AcDbEntity
  8
0
100
AcDbBlockBegin
  2
*D22
 70
     1
 10
0.0
 20
0.0
 30
0.0
  3
*D22
  1

  0
LINE
  5
EB9A
330
EAF4
100
AcDbEntity
  8
abmessung
 62
     0
370
    -2
100
AcDbLine
 10
788.0888157813326
 20
510.7282844694009
 30
0.0
 11
788.0888157813326
 21
532.0661741856201
 31
0.0
  0
LINE
  5
EB9B
330
EAF4
100
AcDbEntity
  8
abmessung
 62
     0
370
    -2
100
AcDbLine
 10
704.5888157813326
 20
510.7282844694009
 30
0.0
 11
704.5888157813326
 21
532.0661741856201
 31
0.0
  0
LINE
  5
EB9C
330
EAF4
100
AcDbEntity
  8
abmessung
 62
     0
370
    -2
100
AcDbLine
 10
784.5888157813326
 20
530.8161741856202
 30
0.0
 11
708.0888157813326
 21
530.8161741856202
 31
0.0
  0
SOLID
  5
EB9D
330
EAF4
100
AcDbEntity
  8
abmessung
 62
     0
100
AcDbTrace
 10
784.5888157813326
 20
531.3995075189535
 30
0.0
 11
784.5888157813326
 21
530.2328408522868
 31
0.0
 12
788.0888157813326
 22
530.8161741856202
 32
0.0
 13
788.0888157813326
 23
530.8161741856202
 33
0.0
  0
SOLID
  5
EB9E
330
EAF4
100
AcDbEntity
  8
abmessung
 62
     0
100
AcDbTrace
 10
708.0888157813326
 20
531.3995075189535
 30
0.0
 11
708.0888157813326
 21
530.2328408522868
 31
0.0
 12
704.5888157813326
 22
530.8161741856202
 32
0.0
 13
704.5888157813326
 23
530.8161741856202
 33
0.0
  0
MTEXT
  5
EB9F
330
EAF4
100
AcDbEntity
  8
abmessung
 62
     0
100
AcDbMText
 10
746.3388157813326
 20
534.3578408522867
 30
0.0
 40
3.5
 41
0.0
 71
     5
 72
     1
  1
83,5
 73
     1
 44
1.0
1001
ACAD
1000
MTEXTBEGIN
1070
    73
1070
     1
1070
    44
1040
1.0
1070
    74
1070
     0
1000
MTEXTEND
  0
POINT
  5
EBA0
330
EAF4
100
AcDbEntity
  8
Defpoints
 62
     0
100
AcDbPoint
 10
788.0888157813326
 20
510.1032844694009
 30
0.0
  0
POINT
  5
EBA1
330
EAF4
100
AcDbEntity
  8
Defpoints
 62
     0
100
AcDbPoint
 10
704.5888157813326
 20
510.1032844694009
 30
0.0
  0
POINT
  5
EBA2
330
EAF4
100
AcDbEntity
  8
Defpoints
 62
     0
100
AcDbPoint
 10
704.5888157813326
 20
530.8161741856202
 30
0.0
  0
ENDBLK
  5
EAFF
330
EAF4
100
AcDbEntity
  8
0
100
AcDbBlockEnd
  0
BLOCK
  5
ED2A
330
ED20
100
AcDbEntity
  8
0
100
AcDbBlockBegin
  2
*D23
 70
     1
 10
0.0
 20
0.0
 30
0.0
  3
*D23
  1

  0
LINE
  5
ED21
330
ED20
100
AcDbEntity
  8
abmessung
 62
     0
370
    -2
100
AcDbLine
 10
147.4398874389326
 20
285.0829944566009
 30
0.0
 11
163.7875345255224
 21
285.0829944566009
 31
0.0
  0
LINE
  5
ED22
330
ED20
100
AcDbEntity
  8
abmessung
 62
     0
370
    -2
100
AcDbLine
 10
143.9398874389326
 20
211.5829944566009
 30
0.0
 11
163.7875345255224
 21
211.5829944566009
 31
0.0
  0
LINE
  5
ED23
330
ED20
100
AcDbEntity
  8
abmessung
 62
     0
370
    -2
100
AcDbLine
 10
162.5375345255224
 20
281.5829944566009
 30
0.0
 11
162.5375345255224
 21
215.0829944566009
 31
0.0
  0
SOLID
  5
ED24
330
ED20
100
AcDbEntity
  8
abmessung
 62
     0
100
AcDbTrace
 10
161.9542011921891
 20
281.5829944566009
 30
0.0
 11
163.1208678588558
 21
281.5829944566009
 31
0.0
 12
162.5375345255224
 22
285.0829944566009
 32
0.0
 13
162.5375345255224
 23
285.0829944566009
 33
0.0
  0
SOLID
  5
ED25
330
ED20
100
AcDbEntity
  8
abmessung
 62
     0
100
AcDbTrace
 10
161.9542011921891
 20
215.0829944566009
 30
0.0
 11
163.1208678588558
 21
215.0829944566009
 31
0.0
 12
162.5375345255224
 22
211.5829944566009
 32
0.0
 13
162.5375345255224
 23
211.5829944566009
 33
0.0
  0
MTEXT
  5
ED26
330
ED20
100
AcDbEntity
  8
abmessung
 62
     0
100
AcDbMText
 10
158.9958678588557
 20
248.332994456601
 30
0.0
 40
3.5
 41
0.0
 71
     5
 72
     1
  1
73,5
 11
0.0000000000000001
 21
1.0
 31
0.0
 73
     1
 44
1.0
1001
ACAD
1000
MTEXTBEGIN
1070
    73
1070
     1
1070
    44
1040
1.0
1070
    74
1070
     0
1000
MTEXTEND
  0
POINT
  5
ED27
330
ED20
100
AcDbEntity
  8
Defpoints
 62
     0
100
AcDbPoint
 10
146.8148874389326
 20
285.0829944566009
 30
0.0
  0
POINT
  5
ED28
330
ED20
100
AcDbEntity
  8
Defpoints
 62
     0
100
AcDbPoint
 10
143.3148874389326
 20
211.5829944566009
 30
0.0
  0
POINT
  5
ED29
330
ED20
100
AcDbEntity
  8
Defpoints
 62
     0
100
AcDbPoint
 10
162.5375345255224
 20
211.5829944566009
 30
0.0
  0
ENDBLK
  5
ED2B
330
ED20
100
AcDbEntity
  8
0
100
AcDbBlockEnd
  0
ENDSEC
  0
SECTION
  2
ENTITIES
  0
LINE
  5
E6FF
330
1F
100
AcDbEntity
  8
RAHMEN025
100
AcDbLine
 10
839.9999993094327
 20
593.9999998589009
 30
0.0
 11
-0.0000006905673899
 21
593.9999998589009
 31
0.0
  0
LINE
  5
E700
330
1F
100
AcDbEntity
  8
RAHMEN07
100
AcDbLine
 10
829.9999993094328
 20
583.9999998589008
 30
0.0
 11
35.59999930943263
 21
583.9999998589008
 31
0.0
  0
LINE
  5
E701
330
1F
100
AcDbEntity
  8
RAHMEN07
100
AcDbLine
 10
35.59999930943263
 20
9.99999985890092
 30
0.0
 11
829.9999993094328
 21
9.99999985890092
 31
0.0
  0
LINE
  5
E702
330
1F
100
AcDbEntity
  8
RAHMEN025
100
AcDbLine
 10
-0.0000006905673899
 20
-0.0000001410990791
 30
0.0
 11
839.9999993094327
 21
-0.0000001410990791
 31
0.0
  0
LINE
  5
E703
330
1F
100
AcDbEntity
  8
RAHMEN025
100
AcDbLine
 10
-0.0000006905673899
 20
593.9999998589009
 30
0.0
 11
-0.0000006905673899
 21
-0.0000001410990791
 31
0.0
  0
LINE
  5
E704
330
1F
100
AcDbEntity
  8
RAHMEN07
100
AcDbLine
 10
35.59999930943263
 20
9.99999985890092
 30
0.0
 11
35.59999930943263
 21
583.9999998589008
 31
0.0
  0
LINE
  5
E705
330
1F
100
AcDbEntity
  8
RAHMEN025
100
AcDbLine
 10
-0.0000006905673899
 20
-0.0000001410990791
 30
0.0
 11
419.9999993094327
 21
-0.0000001410990791
 31
0.0
  0
LINE
  5
E706
330
1F
100
AcDbEntity
  8
RAHMEN07
100
AcDbLine
 10
829.9999993094328
 20
9.99999985890092
 30
0.0
 11
829.9999993094328
 21
583.9999998589008
 31
0.0
  0
LINE
  5
E707
330
1F
100
AcDbEntity
  8
RAHMEN025
100
AcDbLine
 10
839.9999993094327
 20
-0.0000001410990791
 30
0.0
 11
839.9999993094327
 21
593.9999998589009
 31
0.0
  0
LINE
  5
E74C
330
1F
100
AcDbEntity
  8
BAUTEIL
  6
Continuous
370
    15
100
AcDbLine
 10
606.8148874389326
 20
510.1032844694009
 30
0.0
 11
587.3148874389325
 21
510.1032844694009
 31
0.0
  0
LINE
  5
E74D
330
1F
100
AcDbEntity
  8
BAUTEIL
  6
Continuous
370
    15
100
AcDbLine
 10
606.8148874389326
 20
465.7032844694009
 30
0.0
 11
606.8148874389326
 21
510.1032844694009
 31
0.0
  0
LINE
  5
E74E
330
1F
100
AcDbEntity
  8
BAUTEIL
  6
Continuous
370
    15
100
AcDbLine
 10
587.3148874389325
 20
465.7032844694009
 30
0.0
 11
606.8148874389326
 21
465.7032844694009
 31
0.0
  0
LINE
  5
E74F
330
1F
100
AcDbEntity
  8
BAUTEIL
  6
Continuous
370
    15
100
AcDbLine
 10
587.3148874389325
 20
465.7032844694009
 30
0.0
 11
587.3148874389325
 21
510.1032844694009
 31
0.0
  0
ARC
  5
E750
330
1F
100
AcDbEntity
  8
BAUTEIL
  6
Continuous
370
    15
100
AcDbCircle
 10
596.5120326246326
 20
472.0032844694009
 30
0.0
 40
3.500000000000056
100
AcDbArc
 50
90.0
 51
270.0
  0
LINE
  5
E751
330
1F
100
AcDbEntity
  8
BAUTEIL
  6
Continuous
370
    15
100
AcDbLine
 10
596.5120326246326
 20
468.5032844694009
 30
0.0
 11
600.0177422532326
 21
468.5032844694009
 31
0.0
  0
ARC
  5
E752
330
1F
100
AcDbEntity
  8
BAUTEIL
  6
Continuous
370
    15
100
AcDbCircle
 10
600.0177422532326
 20
472.0032844694009
 30
0.0
 40
3.500000000000056
100
AcDbArc
 50
270.0
 51
90.0
  0
LINE
  5
E753
330
1F
100
AcDbEntity
  8
BAUTEIL
  6
Continuous
370
    15
100
AcDbLine
 10
600.0177422532326
 20
475.5032844694008
 30
0.0
 11
596.5120326246326
 21
475.5032844694008
 31
0.0
  0
ARC
  5
E754
330
1F
100
AcDbEntity
  8
BAUTEIL
  6
Continuous
370
    15
100
AcDbCircle
 10
600.0177422532326
 20
503.8032844694009
 30
0.0
 40
3.5
100
AcDbArc
 50
270.0
 51
90.0
  0
LINE
  5
E755
330
1F
100
AcDbEntity
  8
BAUTEIL
  6
Continuous
370
    15
100
AcDbLine
 10
600.0177422532326
 20
507.3032844694009
 30
0.0
 11
596.5120326246326
 21
507.3032844694009
 31
0.0
  0
ARC
  5
E756
330
1F
100
AcDbEntity
  8
BAUTEIL
  6
Continuous
370
    15
100
AcDbCircle
 10
596.5120326246326
 20
503.8032844694009
 30
0.0
 40
3.5
100
AcDbArc
 50
90.0
 51
270.0
  0
LINE
  5
E757
330
1F
100
AcDbEntity
  8
BAUTEIL
  6
Continuous
370
    15
100
AcDbLine
 10
596.5120326246326
 20
500.3032844694009
 30
0.0
 11
600.0177422532326
 21
500.3032844694009
 31
0.0
  0
LINE
  5
E758
330
1F
100
AcDbEntity
  8
BAUTEIL
  6
Continuous
370
    15
100
AcDbLine
 10
584.8148874389326
 20
510.1032844694009
 30
0.0
 11
587.3148874389325
 21
510.1032844694009
 31
0.0
  0
LINE
  5
E759
330
1F
100
AcDbEntity
  8
BAUTEIL
  6
Continuous
370
    15
100
AcDbLine
 10
584.8148874389326
 20
465.7032844694009
 30
0.0
 11
584.8148874389326
 21
510.1032844694009
 31
0.0
  0
LINE
  5
E75A
330
1F
100
AcDbEntity
  8
BAUTEIL
  6
Continuous
370
    15
100
AcDbLine
 10
587.3148874389325
 20
465.7032844694009
 30
0.0
 11
584.8148874389326
 21
465.7032844694009
 31
0.0
  0
LINE
  5
E75B
330
1F
100
AcDbEntity
  8
BAUTEIL
  6
Continuous
370
    15
100
AcDbLine
 10
143.3148874389326
 20
510.1032844694009
 30
0.0
 11
143.3148874389326
 21
465.7032844694009
 31
0.0
  0
LINE
  5
E75C
330
1F
100
AcDbEntity
  8
BAUTEIL
  6
Continuous
370
    15
100
AcDbLine
 10
143.3148874389326
 20
510.1032844694009
 30
0.0
 11
145.8148874389326
 21
510.1032844694009
 31
0.0
  0
LINE
  5
E75D
330
1F
100
AcDbEntity
  8
BAUTEIL
  6
Continuous
370
    15
100
AcDbLine
 10
145.8148874389326
 20
510.1032844694009
 30
0.0
 11
145.8148874389326
 21
465.7032844694009
 31
0.0
  0
LINE
  5
E75E
330
1F
100
AcDbEntity
  8
BAUTEIL
  6
Continuous
370
    15
100
AcDbLine
 10
145.8148874389326
 20
465.7032844694009
 30
0.0
 11
143.3148874389326
 21
465.7032844694009
 31
0.0
  0
LINE
  5
E75F
330
1F
100
AcDbEntity
  8
BAUTEIL
  6
Continuous
370
    15
100
AcDbLine
 10
143.3148874389326
 20
510.1032844694009
 30
0.0
 11
123.8148874389326
 21
510.1032844694009
 31
0.0
  0
LINE
  5
E760
330
1F
100
AcDbEntity
  8
BAUTEIL
  6
Continuous
370
    15
100
AcDbLine
 10
134.1177422532325
 20
507.3032844694009
 30
0.0
 11
130.6120326246325
 21
507.3032844694009
 31
0.0
  0
ARC
  5
E761
330
1F
100
AcDbEntity
  8
BAUTEIL
  6
Continuous
370
    15
100
AcDbCircle
 10
130.6120326246325
 20
503.8032844694009
 30
0.0
 40
3.500000000000056
100
AcDbArc
 50
90.0
 51
270.0
  0
ARC
  5
E762
330
1F
100
AcDbEntity
  8
BAUTEIL
  6
Continuous
370
    15
100
AcDbCircle
 10
130.6120326246325
 20
472.0032844694009
 30
0.0
 40
3.5
100
AcDbArc
 50
90.0
 51
270.0
  0
LINE
  5
E763
330
1F
100
AcDbEntity
  8
BAUTEIL
  6
Continuous
370
    15
100
AcDbLine
 10
134.1177422532325
 20
475.5032844694008
 30
0.0
 11
130.6120326246325
 21
475.5032844694008
 31
0.0
  0
ARC
  5
E764
330
1F
100
AcDbEntity
  8
BAUTEIL
  6
Continuous
370
    15
100
AcDbCircle
 10
134.1177422532325
 20
503.8032844694009
 30
0.0
 40
3.500000000000056
100
AcDbArc
 50
270.0
 51
90.0
  0
LINE
  5
E765
330
1F
100
AcDbEntity
  8
BAUTEIL
  6
Continuous
370
    15
100
AcDbLine
 10
123.8148874389326
 20
465.7032844694009
 30
0.0
 11
143.3148874389326
 21
465.7032844694009
 31
0.0
  0
LINE
  5
E766
330
1F
100
AcDbEntity
  8
BAUTEIL
  6
Continuous
370
    15
100
AcDbLine
 10
123.8148874389326
 20
510.1032844694009
 30
0.0
 11
123.8148874389326
 21
465.7032844694009
 31
0.0
  0
ARC
  5
E767
330
1F
100
AcDbEntity
  8
BAUTEIL
  6
Continuous
370
    15
100
AcDbCircle
 10
134.1177422532325
 20
472.0032844694009
 30
0.0
 40
3.5
100
AcDbArc
 50
270.0
 51
90.0
  0
LINE
  5
E768
330
1F
100
AcDbEntity
  8
BAUTEIL
  6
Continuous
370
    15
100
AcDbLine
 10
130.6120326246325
 20
500.3032844694009
 30
0.0
 11
134.1177422532325
 21
500.3032844694009
 31
0.0
  0
LINE
  5
E769
330
1F
100
AcDbEntity
  8
BAUTEIL
  6
Continuous
370
    15
100
AcDbLine
 10
130.6120326246325
 20
468.5032844694009
 30
0.0
 11
134.1177422532325
 21
468.5032844694009
 31
0.0
  0
LINE
  5
E76A
330
1F
100
AcDbEntity
  8
BAUTEIL
  6
Continuous
370
    15
100
AcDbLine
 10
584.8148874389326
 20
507.6032844694009
 30
0.0
 11
583.8148874389325
 21
507.6032844694009
 31
0.0
  0
LINE
  5
E76B
330
1F
100
AcDbEntity
  8
BAUTEIL
  6
Continuous
370
    15
100
AcDbLine
 10
583.8148874389325
 20
468.2032844694009
 30
0.0
 11
584.8148874389326
 21
468.2032844694009
 31
0.0
  0
LINE
  5
E76C
330
1F
100
AcDbEntity
  8
BAUTEIL
  6
Continuous
370
    15
100
AcDbLine
 10
583.8148874389325
 20
507.6032844694009
 30
0.0
 11
583.8148874389325
 21
468.2032844694009
 31
0.0
  0
LINE
  5
E76D
330
1F
100
AcDbEntity
  8
BAUTEIL
  6
Continuous
370
    15
100
AcDbLine
 10
145.8148874389326
 20
468.2032844694009
 30
0.0
 11
146.8148874389326
 21
468.2032844694009
 31
0.0
  0
LINE
  5
E76E
330
1F
100
AcDbEntity
  8
BAUTEIL
  6
Continuous
370
    15
100
AcDbLine
 10
146.8148874389326
 20
507.6032844694009
 30
0.0
 11
145.8148874389326
 21
507.6032844694009
 31
0.0
  0
LINE
  5
E76F
330
1F
100
AcDbEntity
  8
BAUTEIL
  6
Continuous
370
    15
100
AcDbLine
 10
146.8148874389326
 20
468.2032844694009
 30
0.0
 11
146.8148874389326
 21
507.6032844694009
 31
0.0
  0
LINE
  5
E770
330
1F
100
AcDbEntity
  8
BAUTEIL
  6
Continuous
370
    15
100
AcDbLine
 10
583.8148874389325
 20
468.2032844694009
 30
0.0
 11
583.8148874389325
 21
465.7032844694009
 31
0.0
  0
LINE
  5
E771
330
1F
100
AcDbEntity
  8
BAUTEIL
  6
Continuous
370
    15
100
AcDbLine
 10
146.8148874389326
 20
465.7032844694009
 30
0.0
 11
583.8148874389325
 21
465.7032844694009
 31
0.0
  0
LINE
  5
E772
330
1F
100
AcDbEntity
  8
BAUTEIL
  6
Continuous
370
    15
100
AcDbLine
 10
146.8148874389326
 20
465.7032844694009
 30
0.0
 11
146.8148874389326
 21
468.2032844694009
 31
0.0
  0
LINE
  5
E773
330
1F
100
AcDbEntity
  8
BAUTEIL
  6
Continuous
370
    15
100
AcDbLine
 10
146.8148874389326
 20
468.2032844694009
 30
0.0
 11
583.8148874389325
 21
468.2032844694009
 31
0.0
  0
LINE
  5
E774
330
1F
100
AcDbEntity
  8
BAUTEIL
  6
Continuous
370
    15
100
AcDbLine
 10
583.8148874389325
 20
507.6032844694009
 30
0.0
 11
146.8148874389326
 21
507.6032844694009
 31
0.0
  0
CIRCLE
  5
E775
330
1F
100
AcDbEntity
  8
BAUTEIL
  6
Continuous
370
    15
100
AcDbCircle
 10
153.8148874389326
 20
496.4032844694009
 30
0.0
 40
1.75
  0
CIRCLE
  5
E776
330
1F
100
AcDbEntity
  8
BAUTEIL
  6
Continuous
370
    15
100
AcDbCircle
 10
153.8148874389326
 20
476.4032844694009
 30
0.0
 40
1.75
  0
CIRCLE
  5
E777
330
1F
100
AcDbEntity
  8
BAUTEIL
  6
Continuous
370
    15
100
AcDbCircle
 10
357.8148874389326
 20
496.4032844694009
 30
0.0
 40
1.75
  0
CIRCLE
  5
E778
330
1F
100
AcDbEntity
  8
BAUTEIL
  6
Continuous
370
    15
100
AcDbCircle
 10
357.8148874389326
 20
476.4032844694009
 30
0.0
 40
1.75
  0
CIRCLE
  5
E779
330
1F
100
AcDbEntity
  8
BAUTEIL
  6
Continuous
370
    15
100
AcDbCircle
 10
372.8148874389326
 20
496.4032844694009
 30
0.0
 40
1.749999999999943
  0
CIRCLE
  5
E77A
330
1F
100
AcDbEntity
  8
BAUTEIL
  6
Continuous
370
    15
100
AcDbCircle
 10
372.8148874389326
 20
476.4032844694009
 30
0.0
 40
1.749999999999943
  0
CIRCLE
  5
E77B
330
1F
100
AcDbEntity
  8
BAUTEIL
  6
Continuous
370
    15
100
AcDbCircle
 10
576.8148874389326
 20
496.4032844694009
 30
0.0
 40
1.750000000000114
  0
CIRCLE
  5
E77C
330
1F
100
AcDbEntity
  8
BAUTEIL
  6
Continuous
370
    15
100
AcDbCircle
 10
576.8148874389326
 20
476.4032844694009
 30
0.0
 40
1.750000000000114
  0
LINE
  5
E77D
330
1F
100
AcDbEntity
  8
BAUTEIL
  6
Continuous
370
    15
100
AcDbLine
 10
353.5648874389326
 20
472.1032844694009
 30
0.0
 11
353.5648874389326
 21
499.9032844694008
 31
0.0
  0
LINE
  5
E77E
330
1F
100
AcDbEntity
  8
BAUTEIL
  6
Continuous
370
    15
100
AcDbLine
 10
353.5648874389326
 20
499.9032844694008
 30
0.0
 11
158.0648874389326
 21
499.9032844694008
 31
0.0
  0
LINE
  5
E77F
330
1F
100
AcDbEntity
  8
BAUTEIL
  6
Continuous
370
    15
100
AcDbLine
 10
158.0648874389326
 20
499.9032844694008
 30
0.0
 11
158.0648874389326
 21
472.1032844694009
 31
0.0
  0
LINE
  5
E780
330
1F
100
AcDbEntity
  8
BAUTEIL
  6
Continuous
370
    15
100
AcDbLine
 10
158.0648874389326
 20
472.1032844694009
 30
0.0
 11
353.5648874389326
 21
472.1032844694009
 31
0.0
  0
LINE
  5
E781
330
1F
100
AcDbEntity
  8
BAUTEIL
  6
Continuous
370
    15
100
AcDbLine
 10
572.5648874389325
 20
472.1032844694009
 30
0.0
 11
572.5648874389325
 21
499.9032844694008
 31
0.0
  0
LINE
  5
E782
330
1F
100
AcDbEntity
  8
BAUTEIL
  6
Continuous
370
    15
100
AcDbLine
 10
572.5648874389325
 20
499.9032844694008
 30
0.0
 11
377.0648874389326
 21
499.9032844694008
 31
0.0
  0
LINE
  5
E783
330
1F
100
AcDbEntity
  8
BAUTEIL
  6
Continuous
370
    15
100
AcDbLine
 10
377.0648874389326
 20
499.9032844694008
 30
0.0
 11
377.0648874389326
 21
472.1032844694009
 31
0.0
  0
LINE
  5
E784
330
1F
100
AcDbEntity
  8
BAUTEIL
  6
Continuous
370
    15
100
AcDbLine
 10
377.0648874389326
 20
472.1032844694009
 30
0.0
 11
572.5648874389325
 21
472.1032844694009
 31
0.0
  0
LINE
  5
E785
330
1F
100
AcDbEntity
  8
BAUTEIL
  6
Continuous
370
    15
100
AcDbLine
 10
146.8148874389326
 20
507.6032844694009
 30
0.0
 11
146.8148874389326
 21
510.1032844694009
 31
0.0
  0
LINE
  5
E786
330
1F
100
AcDbEntity
  8
BAUTEIL
  6
Continuous
370
    15
100
AcDbLine
 10
583.8148874389325
 20
510.1032844694009
 30
0.0
 11
146.8148874389326
 21
510.1032844694009
 31
0.0
  0
LINE
  5
E787
330
1F
100
AcDbEntity
  8
BAUTEIL
  6
Continuous
370
    15
100
AcDbLine
 10
583.8148874389325
 20
510.1032844694009
 30
0.0
 11
583.8148874389325
 21
507.6032844694009
 31
0.0
  0
LINE
  5
E788
330
1F
100
AcDbEntity
  8
BAUTEIL
  6
HIDDEN
370
     0
100
AcDbLine
 10
586.3148874389326
 20
465.7032844694009
 30
0.0
 11
586.3148874389326
 21
510.1032844694009
 31
0.0
  0
LINE
  5
E789
330
1F
100
AcDbEntity
  8
BAUTEIL
  6
HIDDEN
370
     0
100
AcDbLine
 10
144.3148874389326
 20
510.1032844694009
 30
0.0
 11
144.3148874389326
 21
465.7032844694009
 31
0.0
  0
LINE
  5
E78A
330
1F
100
AcDbEntity
  8
BAUTEIL
  6
HIDDEN
370
     0
100
AcDbLine
 10
584.8148874389326
 20
509.1032844694009
 30
0.0
 11
586.3148874389326
 21
509.1032844694009
 31
0.0
  0
LINE
  5
E78B
330
1F
100
AcDbEntity
  8
BAUTEIL
  6
HIDDEN
370
     0
100
AcDbLine
 10
144.3148874389326
 20
509.1032844694009
 30
0.0
 11
145.8148874389326
 21
509.1032844694009
 31
0.0
  0
LINE
  5
E78C
330
1F
100
AcDbEntity
  8
BAUTEIL
  6
HIDDEN
370
     0
100
AcDbLine
 10
145.8148874389326
 20
466.7032844694008
 30
0.0
 11
144.3148874389326
 21
466.7032844694008
 31
0.0
  0
LINE
  5
E78D
330
1F
100
AcDbEntity
  8
BAUTEIL
  6
HIDDEN
370
     0
100
AcDbLine
 10
586.3148874389326
 20
466.7032844694008
 30
0.0
 11
584.8148874389326
 21
466.7032844694008
 31
0.0
  0
LINE
  5
E78E
330
1F
100
AcDbEntity
  8
BAUTEIL
  6
HIDDEN
370
     0
100
AcDbLine
 10
584.8148874389326
 20
507.6032844694009
 30
0.0
 11
586.3148874389326
 21
507.6032844694009
 31
0.0
  0
LINE
  5
E78F
330
1F
100
AcDbEntity
  8
BAUTEIL
  6
HIDDEN
370
     0
100
AcDbLine
 10
145.8148874389326
 20
468.2032844694009
 30
0.0
 11
144.3148874389326
 21
468.2032844694009
 31
0.0
  0
LINE
  5
E790
330
1F
100
AcDbEntity
  8
BAUTEIL
  6
HIDDEN
370
     0
100
AcDbLine
 10
145.8148874389326
 20
507.6032844694009
 30
0.0
 11
144.3148874389326
 21
507.6032844694009
 31
0.0
  0
LINE
  5
E791
330
1F
100
AcDbEntity
  8
BAUTEIL
  6
HIDDEN
370
     0
100
AcDbLine
 10
584.8148874389326
 20
468.2032844694009
 30
0.0
 11
586.3148874389326
 21
468.2032844694009
 31
0.0
  0
LINE
  5
E792
330
1F
100
AcDbEntity
  8
BAUTEIL
  6
HIDDEN
370
     0
100
AcDbLine
 10
583.8148874389325
 20
467.2032844694008
 30
0.0
 11
146.8148874389326
 21
467.2032844694008
 31
0.0
  0
LINE
  5
E793
330
1F
100
AcDbEntity
  8
BAUTEIL
  6
HIDDEN
370
     0
100
AcDbLine
 10
146.8148874389326
 20
508.6032844694009
 30
0.0
 11
583.8148874389325
 21
508.6032844694009
 31
0.0
  0
INSERT
  5
E7AE
330
1F
100
AcDbEntity
  8
MITTELLINIE
100
AcDbBlockReference
  2
SW_CENTERMARKSYMBOL_0
 10
153.8148874389326
 20
496.4032844694009
 30
0.0
  0
INSERT
  5
E7AF
330
1F
100
AcDbEntity
  8
MITTELLINIE
100
AcDbBlockReference
  2
SW_CENTERMARKSYMBOL_1
 10
153.8148874389326
 20
476.4032844694009
 30
0.0
  0
INSERT
  5
E7B0
330
1F
100
AcDbEntity
  8
MITTELLINIE
100
AcDbBlockReference
  2
SW_CENTERMARKSYMBOL_2
 10
357.8148874389326
 20
496.4032844694009
 30
0.0
  0
INSERT
  5
E7B1
330
1F
100
AcDbEntity
  8
MITTELLINIE
100
AcDbBlockReference
  2
SW_CENTERMARKSYMBOL_3
 10
357.8148874389326
 20
476.4032844694009
 30
0.0
  0
INSERT
  5
E7B2
330
1F
100
AcDbEntity
  8
MITTELLINIE
100
AcDbBlockReference
  2
SW_CENTERMARKSYMBOL_4
 10
372.8148874389326
 20
496.4032844694009
 30
0.0
  0
INSERT
  5
E7B3
330
1F
100
AcDbEntity
  8
MITTELLINIE
100
AcDbBlockReference
  2
SW_CENTERMARKSYMBOL_5
 10
372.8148874389326
 20
476.4032844694009
 30
0.0
  0
INSERT
  5
E7B4
330
1F
100
AcDbEntity
  8
MITTELLINIE
100
AcDbBlockReference
  2
SW_CENTERMARKSYMBOL_6
 10
576.8148874389326
 20
496.4032844694009
 30
0.0
  0
INSERT
  5
E7B5
330
1F
100
AcDbEntity
  8
MITTELLINIE
100
AcDbBlockReference
  2
SW_CENTERMARKSYMBOL_7
 10
576.8148874389326
 20
476.4032844694009
 30
0.0
  0
LINE
  5
E7B7
330
1F
100
AcDbEntity
  8
MITTELLINIE
  6
CENTERX2
370
     0
100
AcDbLine
 10
139.1177422532325
 20
503.8032844694009
 30
0.0
 11
125.6120326246325
 21
503.8032844694009
 31
0.0
  0
LINE
  5
E7B8
330
1F
100
AcDbEntity
  8
MITTELLINIE
  6
CENTERX2
370
     0
100
AcDbLine
 10
125.6120326246325
 20
472.0032844694009
 30
0.0
 11
139.1177422532325
 21
472.0032844694009
 31
0.0
  0
LINE
  5
E7B9
330
1F
100
AcDbEntity
  8
MITTELLINIE
  6
CENTERX2
370
     0
100
AcDbLine
 10
591.5120326246326
 20
503.8032844694009
 30
0.0
 11
605.0177422532327
 21
503.8032844694009
 31
0.0
  0
LINE
  5
E7BA
330
1F
100
AcDbEntity
  8
MITTELLINIE
  6
CENTERX2
370
     0
100
AcDbLine
 10
591.5120326246326
 20
472.0032844694009
 30
0.0
 11
605.0177422532327
 21
472.0032844694009
 31
0.0
  0
LINE
  5
E7BB
330
1F
100
AcDbEntity
  8
MITTELLINIE
  6
CENTERX2
370
     0
100
AcDbLine
 10
474.8148874389325
 20
467.1032844694009
 30
0.0
 11
474.8148874389325
 21
504.9032844694009
 31
0.0
  0
LINE
  5
E7BC
330
1F
100
AcDbEntity
  8
MITTELLINIE
  6
CENTERX2
370
     0
100
AcDbLine
 10
255.8148874389326
 20
467.1032844694009
 30
0.0
 11
255.8148874389326
 21
504.9032844694009
 31
0.0
  0
LINE
  5
E7BD
330
1F
100
AcDbEntity
  8
MITTELLINIE
  6
CENTERX2
370
     0
100
AcDbLine
 10
365.3148874389326
 20
460.7032844694009
 30
0.0
 11
365.3148874389326
 21
515.1032844694009
 31
0.0
  0
LINE
  5
E7BE
330
1F
100
AcDbEntity
  8
MITTELLINIE
  6
CENTERX2
370
     0
100
AcDbLine
 10
153.0648874389326
 20
486.0032844694009
 30
0.0
 11
358.5648874389326
 21
486.0032844694009
 31
0.0
  0
LINE
  5
E7BF
330
1F
100
AcDbEntity
  8
MITTELLINIE
  6
CENTERX2
370
     0
100
AcDbLine
 10
372.0648874389326
 20
486.0032844694009
 30
0.0
 11
577.5648874389325
 21
486.0032844694009
 31
0.0
  0
LINE
  5
E7C0
330
1F
100
AcDbEntity
  8
BAUTEIL
  6
Continuous
370
    15
100
AcDbLine
 10
146.8148874389326
 20
295.0829944566009
 30
0.0
 11
146.8148874389326
 21
287.5829944566009
 31
0.0
  0
LINE
  5
E7C1
330
1F
100
AcDbEntity
  8
BAUTEIL
  6
Continuous
370
    15
100
AcDbLine
 10
583.8148874389325
 20
295.0829944566009
 30
0.0
 11
146.8148874389326
 21
295.0829944566009
 31
0.0
  0
LINE
  5
E7C2
330
1F
100
AcDbEntity
  8
BAUTEIL
  6
Continuous
370
    15
100
AcDbLine
 10
583.8148874389325
 20
287.5829944566009
 30
0.0
 11
583.8148874389325
 21
295.0829944566009
 31
0.0
  0
LINE
  5
E7C3
330
1F
100
AcDbEntity
  8
BAUTEIL
  6
Continuous
370
    15
100
AcDbLine
 10
583.8148874389325
 20
287.5829944566009
 30
0.0
 11
146.8148874389326
 21
287.5829944566009
 31
0.0
  0
LINE
  5
E7C4
330
1F
100
AcDbEntity
  8
BAUTEIL
  6
Continuous
370
    15
100
AcDbLine
 10
145.8148874389326
 20
283.0829944566009
 30
0.0
 11
144.3148874389326
 21
283.0829944566009
 31
0.0
  0
LINE
  5
E7C5
330
1F
100
AcDbEntity
  8
BAUTEIL
  6
Continuous
370
    15
100
AcDbLine
 10
144.3148874389326
 20
284.082994456601
 30
0.0
 11
145.8148874389326
 21
284.082994456601
 31
0.0
  0
LINE
  5
E7C6
330
1F
100
AcDbEntity
  8
BAUTEIL
  6
Continuous
370
    15
100
AcDbLine
 10
144.3148874389326
 20
283.0829944566009
 30
0.0
 11
144.3148874389326
 21
284.082994456601
 31
0.0
  0
LINE
  5
E7C7
330
1F
100
AcDbEntity
  8
BAUTEIL
  6
Continuous
370
    15
100
AcDbLine
 10
145.8148874389326
 20
284.082994456601
 30
0.0
 11
145.8148874389326
 21
283.0829944566009
 31
0.0
  0
LINE
  5
E7C8
330
1F
100
AcDbEntity
  8
BAUTEIL
  6
Continuous
370
    15
100
AcDbLine
 10
144.3148874389326
 20
214.0829944566009
 30
0.0
 11
145.8148874389326
 21
214.0829944566009
 31
0.0
  0
LINE
  5
E7C9
330
1F
100
AcDbEntity
  8
BAUTEIL
  6
Continuous
370
    15
100
AcDbLine
 10
144.3148874389326
 20
214.0829944566009
 30
0.0
 11
144.3148874389326
 21
283.0829944566009
 31
0.0
  0
LINE
  5
E7CA
330
1F
100
AcDbEntity
  8
BAUTEIL
  6
Continuous
370
    15
100
AcDbLine
 10
145.8148874389326
 20
214.0829944566009
 30
0.0
 11
145.8148874389326
 21
283.0829944566009
 31
0.0
  0
LINE
  5
E7CB
330
1F
100
AcDbEntity
  8
BAUTEIL
  6
Continuous
370
    15
100
AcDbLine
 10
583.8148874389325
 20
285.0829944566009
 30
0.0
 11
146.8148874389326
 21
285.0829944566009
 31
0.0
  0
LINE
  5
E7CC
330
1F
100
AcDbEntity
  8
BAUTEIL
  6
Continuous
370
    15
100
AcDbLine
 10
146.8148874389326
 20
285.0829944566009
 30
0.0
 11
146.8148874389326
 21
287.5829944566009
 31
0.0
  0
LINE
  5
E7CD
330
1F
100
AcDbEntity
  8
BAUTEIL
  6
Continuous
370
    15
100
AcDbLine
 10
583.8148874389325
 20
287.5829944566009
 30
0.0
 11
583.8148874389325
 21
285.0829944566009
 31
0.0
  0
LINE
  5
E7CE
330
1F
100
AcDbEntity
  8
BAUTEIL
  6
Continuous
370
    15
100
AcDbLine
 10
584.8148874389326
 20
284.082994456601
 30
0.0
 11
586.3148874389326
 21
284.082994456601
 31
0.0
  0
LINE
  5
E7CF
330
1F
100
AcDbEntity
  8
BAUTEIL
  6
Continuous
370
    15
100
AcDbLine
 10
586.3148874389326
 20
283.0829944566009
 30
0.0
 11
584.8148874389326
 21
283.0829944566009
 31
0.0
  0
LINE
  5
E7D0
330
1F
100
AcDbEntity
  8
BAUTEIL
  6
Continuous
370
    15
100
AcDbLine
 10
584.8148874389326
 20
283.0829944566009
 30
0.0
 11
584.8148874389326
 21
284.082994456601
 31
0.0
  0
LINE
  5
E7D1
330
1F
100
AcDbEntity
  8
BAUTEIL
  6
Continuous
370
    15
100
AcDbLine
 10
586.3148874389326
 20
284.082994456601
 30
0.0
 11
586.3148874389326
 21
283.0829944566009
 31
0.0
  0
LINE
  5
E7D2
330
1F
100
AcDbEntity
  8
BAUTEIL
  6
Continuous
370
    15
100
AcDbLine
 10
586.3148874389326
 20
214.0829944566009
 30
0.0
 11
584.8148874389326
 21
214.0829944566009
 31
0.0
  0
LINE
  5
E7D3
330
1F
100
AcDbEntity
  8
BAUTEIL
  6
Continuous
370
    15
100
AcDbLine
 10
584.8148874389326
 20
283.0829944566009
 30
0.0
 11
584.8148874389326
 21
214.0829944566009
 31
0.0
  0
LINE
  5
E7D4
330
1F
100
AcDbEntity
  8
BAUTEIL
  6
Continuous
370
    15
100
AcDbLine
 10
586.3148874389326
 20
283.0829944566009
 30
0.0
 11
586.3148874389326
 21
214.0829944566009
 31
0.0
  0
ARC
  5
E7D5
330
1F
100
AcDbEntity
  8
BAUTEIL
  6
Continuous
370
    15
100
AcDbCircle
 10
143.3148874389326
 20
214.0829944566009
 30
0.0
 40
2.5
100
AcDbArc
 50
270.0
 51
0.0
  0
LINE
  5
E7D6
330
1F
100
AcDbEntity
  8
BAUTEIL
  6
Continuous
370
    15
100
AcDbLine
 10
143.3148874389326
 20
213.0829944566009
 30
0.0
 11
143.3148874389326
 21
211.5829944566009
 31
0.0
  0
ARC
  5
E7D7
330
1F
100
AcDbEntity
  8
BAUTEIL
  6
Continuous
370
    15
100
AcDbCircle
 10
143.3148874389326
 20
214.0829944566009
 30
0.0
 40
1.0
100
AcDbArc
 50
270.0
 51
0.0
  0
LINE
  5
E7D8
330
1F
100
AcDbEntity
  8
BAUTEIL
  6
Continuous
370
    15
100
AcDbLine
 10
143.3148874389326
 20
211.5829944566009
 30
0.0
 11
123.8148874389326
 21
211.5829944566009
 31
0.0
  0
LINE
  5
E7D9
330
1F
100
AcDbEntity
  8
BAUTEIL
  6
Continuous
370
    15
100
AcDbLine
 10
123.8148874389326
 20
211.5829944566009
 30
0.0
 11
123.8148874389326
 21
213.0829944566009
 31
0.0
  0
LINE
  5
E7DA
330
1F
100
AcDbEntity
  8
BAUTEIL
  6
Continuous
370
    15
100
AcDbLine
 10
143.3148874389326
 20
213.0829944566009
 30
0.0
 11
123.8148874389326
 21
213.0829944566009
 31
0.0
  0
LINE
  5
E7DB
330
1F
100
AcDbEntity
  8
BAUTEIL
  6
Continuous
370
    15
100
AcDbLine
 10
587.3148874389325
 20
213.0829944566009
 30
0.0
 11
587.3148874389325
 21
211.5829944566009
 31
0.0
  0
ARC
  5
E7DC
330
1F
100
AcDbEntity
  8
BAUTEIL
  6
Continuous
370
    15
100
AcDbCircle
 10
587.3148874389325
 20
214.0829944566009
 30
0.0
 40
1.0
100
AcDbArc
 50
180.0
 51
270.0
  0
ARC
  5
E7DD
330
1F
100
AcDbEntity
  8
BAUTEIL
  6
Continuous
370
    15
100
AcDbCircle
 10
587.3148874389325
 20
214.0829944566009
 30
0.0
 40
2.500000000000226
100
AcDbArc
 50
180.0
 51
270.0
  0
LINE
  5
E7DE
330
1F
100
AcDbEntity
  8
BAUTEIL
  6
Continuous
370
    15
100
AcDbLine
 10
606.8148874389326
 20
213.0829944566009
 30
0.0
 11
587.3148874389325
 21
213.0829944566009
 31
0.0
  0
LINE
  5
E7DF
330
1F
100
AcDbEntity
  8
BAUTEIL
  6
Continuous
370
    15
100
AcDbLine
 10
606.8148874389326
 20
211.5829944566009
 30
0.0
 11
606.8148874389326
 21
213.0829944566009
 31
0.0
  0
LINE
  5
E7E0
330
1F
100
AcDbEntity
  8
BAUTEIL
  6
Continuous
370
    15
100
AcDbLine
 10
606.8148874389326
 20
211.5829944566009
 30
0.0
 11
587.3148874389325
 21
211.5829944566009
 31
0.0
  0
ARC
  5
E7E1
330
1F
100
AcDbEntity
  8
BAUTEIL
  6
Continuous
370
    15
100
AcDbCircle
 10
146.8148874389326
 20
284.082994456601
 30
0.0
 40
0.9999999999999715
100
AcDbArc
 50
90.0
 51
180.0
  0
ARC
  5
E7E2
330
1F
100
AcDbEntity
  8
BAUTEIL
  6
Continuous
370
    15
100
AcDbCircle
 10
146.8148874389326
 20
284.082994456601
 30
0.0
 40
2.499999999999971
100
AcDbArc
 50
90.0
 51
180.0
  0
ARC
  5
E7E3
330
1F
100
AcDbEntity
  8
BAUTEIL
  6
Continuous
370
    15
100
AcDbCircle
 10
583.8148874389325
 20
284.082994456601
 30
0.0
 40
1.0
100
AcDbArc
 50
0.0
 51
90.0
  0
ARC
  5
E7E4
330
1F
100
AcDbEntity
  8
BAUTEIL
  6
Continuous
370
    15
100
AcDbCircle
 10
583.8148874389325
 20
284.082994456601
 30
0.0
 40
2.500000000000114
100
AcDbArc
 50
0.0
 51
90.0
  0
LINE
  5
E7E5
330
1F
100
AcDbEntity
  8
BAUTEIL
  6
HIDDEN
370
     0
100
AcDbLine
 10
583.8148874389325
 20
286.582994456601
 30
0.0
 11
146.8148874389326
 21
286.582994456601
 31
0.0
  0
LINE
  5
E7E6
330
1F
100
AcDbEntity
  8
BAUTEIL
  6
HIDDEN
370
     0
100
AcDbLine
 10
596.5120326246326
 20
213.0829944566009
 30
0.0
 11
596.5120326246326
 21
211.5829944566009
 31
0.0
  0
LINE
  5
E7E7
330
1F
100
AcDbEntity
  8
BAUTEIL
  6
HIDDEN
370
     0
100
AcDbLine
 10
600.0177422532326
 20
213.0829944566009
 30
0.0
 11
600.0177422532326
 21
211.5829944566009
 31
0.0
  0
LINE
  5
E7E8
330
1F
100
AcDbEntity
  8
BAUTEIL
  6
HIDDEN
370
     0
100
AcDbLine
 10
134.1177422532325
 20
213.0829944566009
 30
0.0
 11
134.1177422532325
 21
211.5829944566009
 31
0.0
  0
LINE
  5
E7E9
330
1F
100
AcDbEntity
  8
BAUTEIL
  6
HIDDEN
370
     0
100
AcDbLine
 10
130.6120326246325
 20
213.0829944566009
 30
0.0
 11
130.6120326246325
 21
211.5829944566009
 31
0.0
  0
LINE
  5
E7EA
330
1F
100
AcDbEntity
  8
BAUTEIL
  6
HIDDEN
370
     0
100
AcDbLine
 10
572.5648874389325
 20
286.582994456601
 30
0.0
 11
572.5648874389325
 21
285.0829944566009
 31
0.0
  0
LINE
  5
E7EB
330
1F
100
AcDbEntity
  8
BAUTEIL
  6
HIDDEN
370
     0
100
AcDbLine
 10
353.5648874389326
 20
286.582994456601
 30
0.0
 11
353.5648874389326
 21
285.0829944566009
 31
0.0
  0
LINE
  5
E7EC
330
1F
100
AcDbEntity
  8
BAUTEIL
  6
HIDDEN
370
     0
100
AcDbLine
 10
377.0648874389326
 20
286.582994456601
 30
0.0
 11
377.0648874389326
 21
285.0829944566009
 31
0.0
  0
LINE
  5
E7ED
330
1F
100
AcDbEntity
  8
BAUTEIL
  6
HIDDEN
370
     0
100
AcDbLine
 10
158.0648874389326
 20
286.582994456601
 30
0.0
 11
158.0648874389326
 21
285.0829944566009
 31
0.0
  0
LINE
  5
E7EE
330
1F
100
AcDbEntity
  8
BAUTEIL
  6
HIDDEN
370
     0
100
AcDbLine
 10
593.0120326246326
 20
213.0829944566009
 30
0.0
 11
593.0120326246326
 21
211.5829944566009
 31
0.0
  0
LINE
  5
E7EF
330
1F
100
AcDbEntity
  8
BAUTEIL
  6
HIDDEN
370
     0
100
AcDbLine
 10
603.5177422532326
 20
211.5829944566009
 30
0.0
 11
603.5177422532326
 21
213.0829944566009
 31
0.0
  0
LINE
  5
E7F0
330
1F
100
AcDbEntity
  8
BAUTEIL
  6
HIDDEN
370
     0
100
AcDbLine
 10
137.6177422532325
 20
211.5829944566009
 30
0.0
 11
137.6177422532325
 21
213.0829944566009
 31
0.0
  0
LINE
  5
E7F1
330
1F
100
AcDbEntity
  8
BAUTEIL
  6
HIDDEN
370
     0
100
AcDbLine
 10
127.1120326246325
 20
213.0829944566009
 30
0.0
 11
127.1120326246325
 21
211.5829944566009
 31
0.0
  0
LINE
  5
E7F2
330
1F
100
AcDbEntity
  8
BAUTEIL
  6
HIDDEN
370
     0
100
AcDbLine
 10
578.5648874389326
 20
285.0829944566009
 30
0.0
 11
578.5648874389326
 21
286.582994456601
 31
0.0
  0
LINE
  5
E7F3
330
1F
100
AcDbEntity
  8
BAUTEIL
  6
HIDDEN
370
     0
100
AcDbLine
 10
575.0648874389326
 20
286.582994456601
 30
0.0
 11
575.0648874389326
 21
285.0829944566009
 31
0.0
  0
LINE
  5
E7F4
330
1F
100
AcDbEntity
  8
BAUTEIL
  6
HIDDEN
370
     0
100
AcDbLine
 10
359.5648874389326
 20
285.0829944566009
 30
0.0
 11
359.5648874389326
 21
286.582994456601
 31
0.0
  0
LINE
  5
E7F5
330
1F
100
AcDbEntity
  8
BAUTEIL
  6
HIDDEN
370
     0
100
AcDbLine
 10
356.0648874389326
 20
286.582994456601
 30
0.0
 11
356.0648874389326
 21
285.0829944566009
 31
0.0
  0
LINE
  5
E7F6
330
1F
100
AcDbEntity
  8
BAUTEIL
  6
HIDDEN
370
     0
100
AcDbLine
 10
374.5648874389326
 20
285.0829944566009
 30
0.0
 11
374.5648874389326
 21
286.582994456601
 31
0.0
  0
LINE
  5
E7F7
330
1F
100
AcDbEntity
  8
BAUTEIL
  6
HIDDEN
370
     0
100
AcDbLine
 10
371.0648874389326
 20
286.582994456601
 30
0.0
 11
371.0648874389326
 21
285.0829944566009
 31
0.0
  0
LINE
  5
E7F8
330
1F
100
AcDbEntity
  8
BAUTEIL
  6
HIDDEN
370
     0
100
AcDbLine
 10
155.5648874389326
 20
285.0829944566009
 30
0.0
 11
155.5648874389326
 21
286.582994456601
 31
0.0
  0
LINE
  5
E7F9
330
1F
100
AcDbEntity
  8
BAUTEIL
  6
HIDDEN
370
     0
100
AcDbLine
 10
152.0648874389326
 20
286.582994456601
 30
0.0
 11
152.0648874389326
 21
285.0829944566009
 31
0.0
  0
DIMENSION
  5
E7FB
330
1F
100
AcDbEntity
  8
BEMAßUNG
100
AcDbDimension
  2
*D9
 10
146.8148874389326
 20
311.082994456601
 30
0.0
 11
364.1416294741325
 21
311.082994456601
 31
0.0
 70
   160
  1
<>
 71
     2
 42
437.0
  3
ISO-25
100
AcDbAlignedDimension
 13
583.8148874389325
 23
295.0829944566009
 33
0.0
 14
146.8148874389326
 24
295.0829944566009
 34
0.0
100
AcDbRotatedDimension
  0
DIMENSION
  5
E7FD
330
1F
100
AcDbEntity
  8
BEMAßUNG
100
AcDbDimension
  2
*D10
 10
145.8148874389326
 20
195.5829944566009
 30
0.0
 11
134.8148874389326
 21
195.5829944566009
 31
0.0
 70
   160
 71
     2
 42
22.0
  3
ISO-25
100
AcDbAlignedDimension
 13
123.8148874389326
 23
211.5829944566009
 33
0.0
 14
145.8148874389326
 24
214.0829944566009
 34
0.0
100
AcDbRotatedDimension
  0
DIMENSION
  5
E7FE
330
1F
100
AcDbEntity
  8
BEMAßUNG
100
AcDbDimension
  2
*D11
 10
584.8148874389326
 20
195.5829944566009
 30
0.0
 11
595.8148874389325
 21
195.5829944566009
 31
0.0
 70
   160
 71
     2
 42
22.0
  3
ISO-25
100
AcDbAlignedDimension
 13
606.8148874389326
 23
211.5829944566009
 33
0.0
 14
584.8148874389326
 24
214.0829944566009
 34
0.0
100
AcDbRotatedDimension
  0
LINE
  5
E800
330
1F
100
AcDbEntity
  8
MITTELLINIE
  6
CENTERX2
370
     0
100
AcDbLine
 10
365.3148874389326
 20
304.008497266601
 30
0.0
 11
365.3148874389326
 21
265.8426624787721
 31
0.0
  0
LINE
  5
E801
330
1F
100
AcDbEntity
  8
MITTELLINIE
  6
CENTERX2
370
     0
100
AcDbLine
 10
153.8148874389326
 20
291.5829944566009
 30
0.0
 11
153.8148874389326
 21
280.0829944566009
 31
0.0
  0
LINE
  5
E802
330
1F
100
AcDbEntity
  8
MITTELLINIE
  6
CENTERX2
370
     0
100
AcDbLine
 10
357.8148874389326
 20
291.5829944566009
 30
0.0
 11
357.8148874389326
 21
280.0829944566009
 31
0.0
  0
LINE
  5
E803
330
1F
100
AcDbEntity
  8
MITTELLINIE
  6
CENTERX2
370
     0
100
AcDbLine
 10
372.8148874389326
 20
291.5829944566009
 30
0.0
 11
372.8148874389326
 21
280.0829944566009
 31
0.0
  0
LINE
  5
E804
330
1F
100
AcDbEntity
  8
MITTELLINIE
  6
CENTERX2
370
     0
100
AcDbLine
 10
576.8148874389326
 20
291.5829944566009
 30
0.0
 11
576.8148874389326
 21
280.0829944566009
 31
0.0
  0
LINE
  5
E805
330
1F
100
AcDbEntity
  8
BAUTEIL
  6
Continuous
370
    15
100
AcDbLine
 10
788.0888157813326
 20
510.1032844694009
 30
0.0
 11
786.5888157813326
 21
510.1032844694009
 31
0.0
  0
LINE
  5
E806
330
1F
100
AcDbEntity
  8
BAUTEIL
  6
Continuous
370
    15
100
AcDbLine
 10
788.0888157813326
 20
510.1032844694009
 30
0.0
 11
788.0888157813326
 21
465.7032844694009
 31
0.0
  0
LINE
  5
E807
330
1F
100
AcDbEntity
  8
BAUTEIL
  6
Continuous
370
    15
100
AcDbLine
 10
788.0888157813326
 20
465.7032844694009
 30
0.0
 11
786.5888157813326
 21
465.7032844694009
 31
0.0
  0
LINE
  5
E808
330
1F
100
AcDbEntity
  8
BAUTEIL
  6
Continuous
370
    15
100
AcDbLine
 10
786.5888157813326
 20
510.1032844694009
 30
0.0
 11
786.5888157813326
 21
465.7032844694009
 31
0.0
  0
LINE
  5
E809
330
1F
100
AcDbEntity
  8
BAUTEIL
  6
Continuous
370
    15
100
AcDbLine
 10
786.5888157813326
 20
510.1032844694009
 30
0.0
 11
785.5888157813326
 21
510.1032844694009
 31
0.0
  0
LINE
  5
E80A
330
1F
100
AcDbEntity
  8
BAUTEIL
  6
Continuous
370
    15
100
AcDbLine
 10
785.5888157813326
 20
465.7032844694009
 30
0.0
 11
786.5888157813326
 21
465.7032844694009
 31
0.0
  0
LINE
  5
E80B
330
1F
100
AcDbEntity
  8
BAUTEIL
  6
Continuous
370
    15
100
AcDbLine
 10
785.5888157813326
 20
510.1032844694009
 30
0.0
 11
785.5888157813326
 21
465.7032844694009
 31
0.0
  0
LINE
  5
E80C
330
1F
100
AcDbEntity
  8
BAUTEIL
  6
Continuous
370
    15
100
AcDbLine
 10
715.5888157813326
 20
468.2032844694009
 30
0.0
 11
715.5888157813326
 21
507.6032844694009
 31
0.0
  0
LINE
  5
E80D
330
1F
100
AcDbEntity
  8
BAUTEIL
  6
Continuous
370
    15
100
AcDbLine
 10
715.5888157813326
 20
509.1032844694009
 30
0.0
 11
715.5888157813326
 21
507.6032844694009
 31
0.0
  0
ARC
  5
E80E
330
1F
100
AcDbEntity
  8
BAUTEIL
  6
Continuous
370
    15
100
AcDbCircle
 10
716.5888157813326
 20
509.1032844694009
 30
0.0
 40
1.0
100
AcDbArc
 50
90.0
 51
180.0
  0
LINE
  5
E80F
330
1F
100
AcDbEntity
  8
BAUTEIL
  6
Continuous
370
    15
100
AcDbLine
 10
785.5888157813326
 20
510.1032844694009
 30
0.0
 11
716.5888157813326
 21
510.1032844694009
 31
0.0
  0
ARC
  5
E810
330
1F
100
AcDbEntity
  8
BAUTEIL
  6
Continuous
370
    15
100
AcDbCircle
 10
716.5888157813326
 20
466.7032844694008
 30
0.0
 40
1.000000000000057
100
AcDbArc
 50
180.0
 51
270.0
  0
LINE
  5
E811
330
1F
100
AcDbEntity
  8
BAUTEIL
  6
Continuous
370
    15
100
AcDbLine
 10
715.5888157813326
 20
468.2032844694009
 30
0.0
 11
715.5888157813326
 21
466.7032844694008
 31
0.0
  0
LINE
  5
E812
330
1F
100
AcDbEntity
  8
BAUTEIL
  6
Continuous
370
    15
100
AcDbLine
 10
716.5888157813326
 20
465.7032844694009
 30
0.0
 11
785.5888157813326
 21
465.7032844694009
 31
0.0
  0
LINE
  5
E813
330
1F
100
AcDbEntity
  8
BAUTEIL
  6
Continuous
370
    15
100
AcDbLine
 10
713.0888157813326
 20
507.6032844694009
 30
0.0
 11
715.5888157813326
 21
507.6032844694009
 31
0.0
  0
LINE
  5
E814
330
1F
100
AcDbEntity
  8
BAUTEIL
  6
Continuous
370
    15
100
AcDbLine
 10
713.0888157813326
 20
507.6032844694009
 30
0.0
 11
713.0888157813326
 21
468.2032844694009
 31
0.0
  0
LINE
  5
E815
330
1F
100
AcDbEntity
  8
BAUTEIL
  6
Continuous
370
    15
100
AcDbLine
 10
715.5888157813326
 20
468.2032844694009
 30
0.0
 11
713.0888157813326
 21
468.2032844694009
 31
0.0
  0
LINE
  5
E816
330
1F
100
AcDbEntity
  8
BAUTEIL
  6
Continuous
370
    15
100
AcDbLine
 10
712.0888157813326
 20
465.7032844694009
 30
0.0
 11
704.5888157813326
 21
465.7032844694009
 31
0.0
  0
LINE
  5
E817
330
1F
100
AcDbEntity
  8
BAUTEIL
  6
Continuous
370
    15
100
AcDbLine
 10
704.5888157813326
 20
465.7032844694009
 30
0.0
 11
704.5888157813326
 21
467.2032844694008
 31
0.0
  0
LINE
  5
E818
330
1F
100
AcDbEntity
  8
BAUTEIL
  6
Continuous
370
    15
100
AcDbLine
 10
712.0888157813326
 20
467.2032844694008
 30
0.0
 11
704.5888157813326
 21
467.2032844694008
 31
0.0
  0
LINE
  5
E819
330
1F
100
AcDbEntity
  8
BAUTEIL
  6
Continuous
370
    15
100
AcDbLine
 10
712.0888157813326
 20
467.2032844694008
 30
0.0
 11
712.0888157813326
 21
465.7032844694009
 31
0.0
  0
ARC
  5
E81A
330
1F
100
AcDbEntity
  8
BAUTEIL
  6
Continuous
370
    15
100
AcDbCircle
 10
712.0888157813326
 20
468.2032844694009
 30
0.0
 40
1.0
100
AcDbArc
 50
270.0
 51
0.0
  0
ARC
  5
E81B
330
1F
100
AcDbEntity
  8
BAUTEIL
  6
Continuous
370
    15
100
AcDbCircle
 10
712.0888157813326
 20
468.2032844694009
 30
0.0
 40
2.500000000000114
100
AcDbArc
 50
270.0
 51
0.0
  0
LINE
  5
E81C
330
1F
100
AcDbEntity
  8
BAUTEIL
  6
Continuous
370
    15
100
AcDbLine
 10
704.5888157813326
 20
510.1032844694009
 30
0.0
 11
704.5888157813326
 21
508.6032844694009
 31
0.0
  0
LINE
  5
E81D
330
1F
100
AcDbEntity
  8
BAUTEIL
  6
Continuous
370
    15
100
AcDbLine
 10
704.5888157813326
 20
510.1032844694009
 30
0.0
 11
712.0888157813326
 21
510.1032844694009
 31
0.0
  0
LINE
  5
E81E
330
1F
100
AcDbEntity
  8
BAUTEIL
  6
Continuous
370
    15
100
AcDbLine
 10
712.0888157813326
 20
508.6032844694009
 30
0.0
 11
712.0888157813326
 21
510.1032844694009
 31
0.0
  0
LINE
  5
E81F
330
1F
100
AcDbEntity
  8
BAUTEIL
  6
Continuous
370
    15
100
AcDbLine
 10
704.5888157813326
 20
508.6032844694009
 30
0.0
 11
712.0888157813326
 21
508.6032844694009
 31
0.0
  0
ARC
  5
E820
330
1F
100
AcDbEntity
  8
BAUTEIL
  6
Continuous
370
    15
100
AcDbCircle
 10
712.0888157813326
 20
507.6032844694009
 30
0.0
 40
2.500000000000056
100
AcDbArc
 50
0.0
 51
90.0
  0
ARC
  5
E821
330
1F
100
AcDbEntity
  8
BAUTEIL
  6
Continuous
370
    15
100
AcDbCircle
 10
712.0888157813326
 20
507.6032844694009
 30
0.0
 40
1.0
100
AcDbArc
 50
0.0
 51
90.0
  0
LINE
  5
E822
330
1F
100
AcDbEntity
  8
BAUTEIL
  6
HIDDEN
370
     0
100
AcDbLine
 10
786.5888157813326
 20
507.3032844694009
 30
0.0
 11
788.0888157813326
 21
507.3032844694009
 31
0.0
  0
LINE
  5
E823
330
1F
100
AcDbEntity
  8
BAUTEIL
  6
HIDDEN
370
     0
100
AcDbLine
 10
786.5888157813326
 20
500.3032844694009
 30
0.0
 11
788.0888157813326
 21
500.3032844694009
 31
0.0
  0
LINE
  5
E824
330
1F
100
AcDbEntity
  8
BAUTEIL
  6
HIDDEN
370
     0
100
AcDbLine
 10
786.5888157813326
 20
475.5032844694008
 30
0.0
 11
788.0888157813326
 21
475.5032844694008
 31
0.0
  0
LINE
  5
E825
330
1F
100
AcDbEntity
  8
BAUTEIL
  6
HIDDEN
370
     0
100
AcDbLine
 10
786.5888157813326
 20
468.5032844694009
 30
0.0
 11
788.0888157813326
 21
468.5032844694009
 31
0.0
  0
LINE
  5
E826
330
1F
100
AcDbEntity
  8
BAUTEIL
  6
HIDDEN
370
     0
100
AcDbLine
 10
714.5888157813326
 20
468.2032844694009
 30
0.0
 11
714.5888157813326
 21
507.6032844694009
 31
0.0
  0
LINE
  5
E827
330
1F
100
AcDbEntity
  8
BAUTEIL
  6
HIDDEN
370
     0
100
AcDbLine
 10
713.0888157813326
 20
472.1032844694009
 30
0.0
 11
714.5888157813326
 21
472.1032844694009
 31
0.0
  0
LINE
  5
E828
330
1F
100
AcDbEntity
  8
BAUTEIL
  6
HIDDEN
370
     0
100
AcDbLine
 10
713.0888157813326
 20
499.9032844694008
 30
0.0
 11
714.5888157813326
 21
499.9032844694008
 31
0.0
  0
LINE
  5
E829
330
1F
100
AcDbEntity
  8
BAUTEIL
  6
HIDDEN
370
     0
100
AcDbLine
 10
714.5888157813326
 20
478.1532844694009
 30
0.0
 11
713.0888157813326
 21
478.1532844694009
 31
0.0
  0
LINE
  5
E82A
330
1F
100
AcDbEntity
  8
BAUTEIL
  6
HIDDEN
370
     0
100
AcDbLine
 10
713.0888157813326
 20
474.6532844694009
 30
0.0
 11
714.5888157813326
 21
474.6532844694009
 31
0.0
  0
LINE
  5
E82B
330
1F
100
AcDbEntity
  8
BAUTEIL
  6
HIDDEN
370
     0
100
AcDbLine
 10
714.5888157813326
 20
498.1532844694008
 30
0.0
 11
713.0888157813326
 21
498.1532844694008
 31
0.0
  0
LINE
  5
E82C
330
1F
100
AcDbEntity
  8
BAUTEIL
  6
HIDDEN
370
     0
100
AcDbLine
 10
713.0888157813326
 20
494.6532844694009
 30
0.0
 11
714.5888157813326
 21
494.6532844694009
 31
0.0
  0
LINE
  5
E833
330
1F
100
AcDbEntity
  8
MITTELLINIE
  6
CENTERX2
370
     0
100
AcDbLine
 10
793.0888157813326
 20
487.9032844694008
 30
0.0
 11
700.4567194876324
 21
487.9032844694008
 31
0.0
  0
LINE
  5
E834
330
1F
100
AcDbEntity
  8
MITTELLINIE
  6
CENTERX2
370
     0
100
AcDbLine
 10
781.5888157813327
 20
503.8032844694009
 30
0.0
 11
793.0888157813326
 21
503.8032844694009
 31
0.0
  0
LINE
  5
E835
330
1F
100
AcDbEntity
  8
MITTELLINIE
  6
CENTERX2
370
     0
100
AcDbLine
 10
781.5888157813327
 20
472.0032844694009
 30
0.0
 11
793.0888157813326
 21
472.0032844694009
 31
0.0
  0
LINE
  5
E836
330
1F
100
AcDbEntity
  8
MITTELLINIE
  6
CENTERX2
370
     0
100
AcDbLine
 10
708.0888157813326
 20
496.4032844694009
 30
0.0
 11
719.5888157813326
 21
496.4032844694009
 31
0.0
  0
LINE
  5
E837
330
1F
100
AcDbEntity
  8
MITTELLINIE
  6
CENTERX2
370
     0
100
AcDbLine
 10
708.0888157813326
 20
476.4032844694009
 30
0.0
 11
719.5888157813326
 21
476.4032844694009
 31
0.0
  0
LINE
  5
E9F5
330
1F
100
AcDbEntity
  8
TEXTFELD
100
AcDbLine
 10
829.9999993094328
 20
18.39999985890102
 30
0.0
 11
725.4529448909186
 21
18.39999985890102
 31
0.0
  0
LINE
  5
E9F6
330
1F
100
AcDbEntity
  8
TEXTFELD
100
AcDbLine
 10
769.9999993094332
 20
14.1999998589012
 30
0.0
 11
729.9999993094327
 21
14.1999998589012
 31
0.0
  0
LINE
  5
E9F7
330
1F
100
AcDbEntity
  8
TEXTFELD
100
AcDbLine
 10
829.9999993094328
 20
26.6999998589012
 30
0.0
 11
769.9999993094332
 21
26.6999998589012
 31
0.0
  0
LINE
  5
E9F8
330
1F
100
AcDbEntity
  8
TEXTFELD
100
AcDbLine
 10
819.4808743544301
 20
9.999999858900928
 30
0.0
 11
819.4808743544307
 21
18.39999985890102
 31
0.0
  0
LINE
  5
E9F9
330
1F
100
AcDbEntity
  8
TEXTFELD
100
AcDbLine
 10
829.9999993094328
 20
14.1999998589012
 30
0.0
 11
819.4808743544301
 21
14.1999998589012
 31
0.0
  0
TEXT
  5
E9FA
330
1F
100
AcDbEntity
  8
TEXTFELD
100
AcDbText
 10
820.577882721545
 20
15.29688692605162
 30
0.0
 40
1.738212755828499
  1
Page:
100
AcDbText
  0
TEXT
  5
E9FB
330
1F
100
AcDbEntity
  8
TEXTFELD
100
AcDbText
 10
820.577882721545
 20
11.12834744116519
 30
0.0
 40
1.738212755828499
  1
1 / 1
100
AcDbText
  0
LINE
  5
E9FC
330
1F
100
AcDbEntity
  8
TEXTFELD
100
AcDbLine
 10
769.9999993094327
 20
9.999999858901382
 30
0.0
 11
769.9999993094327
 21
34.99999985890138
 31
0.0
  0
LINE
  5
E9FD
330
1F
100
AcDbEntity
  8
TEXTFELD
100
AcDbLine
 10
747.7264721001763
 20
18.39999985890102
 30
0.0
 11
747.7264721001759
 21
14.1999998589012
 31
0.0
  0
TEXT
  5
E9FE
330
1F
100
AcDbEntity
  8
TEXTFELD
100
AcDbText
 10
725.7600843012689
 20
15.29688692605162
 30
0.0
 40
1.738212755828499
  1
Name:
100
AcDbText
  0
TEXT
  5
E9FF
330
1F
100
AcDbEntity
  8
TEXTFELD
100
AcDbText
 10
725.7600843012689
 20
11.12834744116519
 30
0.0
 40
1.738212755828499
  1
File: 
100
AcDbText
  0
TEXT
  5
EA00
330
1F
100
AcDbEntity
  8
TEXTFELD
100
AcDbText
 10
770.8297957925593
 20
29.83281084208073
 30
0.0
 40
1.738212755828499
  1
Scale 1:1 (DIN A1)
100
AcDbText
  0
LINE
  5
EA01
330
1F
100
AcDbEntity
  8
TEXTFELD
100
AcDbLine
 10
819.4808743544301
 20
26.6999998589012
 30
0.0
 11
819.4808743544307
 21
34.99999985890099
 31
0.0
  0
LINE
  5
EA02
330
1F
100
AcDbEntity
  8
TEXTFELD
100
AcDbLine
 10
829.9999993094328
 20
9.999999858900928
 30
0.0
 11
725.4529448909186
 21
9.999999858901411
 31
0.0
  0
LINE
  5
EA03
330
1F
100
AcDbEntity
  8
TEXTFELD
100
AcDbLine
 10
725.4529448909186
 20
9.999999858901382
 30
0.0
 11
725.4529448909186
 21
34.99999985890138
 31
0.0
  0
LINE
  5
EA04
330
1F
100
AcDbEntity
  8
TEXTFELD
100
AcDbLine
 10
725.4529448909186
 20
34.99999985890141
 30
0.0
 11
829.9999993094328
 21
34.99999985890093
 31
0.0
  0
LINE
  5
EA05
330
1F
100
AcDbEntity
  8
TEXTFELD
100
AcDbLine
 10
829.9999993094328
 20
34.99999985890093
 30
0.0
 11
829.9999993094328
 21
9.999999858900928
 31
0.0
  0
LINE
  5
EA06
330
1F
100
AcDbEntity
  8
TEXTFELD
100
AcDbLine
 10
769.9999993094327
 20
9.999999858901212
 30
0.0
 11
769.9999993094327
 21
34.99999985890121
 31
0.0
  0
TEXT
  5
EA07
330
1F
100
AcDbEntity
  8
TEXTFELD
100
AcDbText
 10
734.2748596103286
 20
15.31526679560669
 30
0.0
 40
1.738212755828499
  1
Miethling
100
AcDbText
  0
TEXT
  5
EA08
330
1F
100
AcDbEntity
  8
TEXTFELD
100
AcDbText
 10
726.4147388350846
 20
19.86348631136729
 30
0.0
 40
1.738212755828499
  1
Fax:
100
AcDbText
  0
TEXT
  5
EA09
330
1F
100
AcDbEntity
  8
TEXTFELD
100
AcDbText
 10
726.4147388350846
 20
31.05193481824471
 30
0.0
 40
1.738212755828499
  1
DHD GmbH
100
AcDbText
  0
TEXT
  5
EA0A
330
1F
100
AcDbEntity
  8
TEXTFELD
100
AcDbText
 10
726.4147388350846
 20
28.37740292250816
 30
0.0
 40
1.738212755828499
  1
Haferkornstraße 5
100
AcDbText
  0
TEXT
  5
EA0B
330
1F
100
AcDbEntity
  8
TEXTFELD
100
AcDbText
 10
726.4147388350846
 20
25.64738744522458
 30
0.0
 40
1.738212755828499
  1
04129 Leipzig / Germany
100
AcDbText
  0
TEXT
  5
EA0C
330
1F
100
AcDbEntity
  8
TEXTFELD
100
AcDbText
 10
734.740275674714
 20
19.7660851981825
 30
0.0
 40
1.738212755828499
  1
+ 49  341  5897022
100
AcDbText
  0
TEXT
  5
EA0D
330
1F
100
AcDbEntity
  8
TEXTFELD
100
AcDbText
 10
748.1977818513362
 20
15.29688692605145
 30
0.0
 40
1.738212755828499
  1
Date:
100
AcDbText
  0
TEXT
  5
EA0E
330
1F
100
AcDbEntity
  8
TEXTFELD
100
AcDbText
 10
725.7600843012689
 20
15.29688692605145
 30
0.0
 40
1.738212755828499
  1
Name:
100
AcDbText
  0
TEXT
  5
EA0F
330
1F
100
AcDbEntity
  8
TEXTFELD
100
AcDbText
 10
725.7600843012689
 20
11.12834744116502
 30
0.0
 40
1.738212755828499
  1
File: 
100
AcDbText
  0
LINE
  5
EA10
330
1F
100
AcDbEntity
  8
TEXTFELD
100
AcDbLine
 10
769.9999993094332
 20
14.19999985890103
 30
0.0
 11
725.4529448909188
 21
14.19999985890103
 31
0.0
  0
TEXT
  5
EA11
330
1F
100
AcDbEntity
  8
TEXTFELD
100
AcDbText
 10
726.4147388350846
 20
22.29284373999519
 30
0.0
 40
1.738212755828499
  1
Phone: + 49  341  5897020
100
AcDbText
  0
TEXT
  5
EA12
330
1F
100
AcDbEntity
  8
TEXTFELD
100
AcDbText
 10
731.8403061298219
 20
11.23454915297809
 30
0.0
 40
1.738212755828499
  1
52-7491_dimension.dwg
100
AcDbText
  0
TEXT
  5
EA13
330
1F
100
AcDbEntity
  8
TEXTFELD
100
AcDbText
 10
755.8424729429
 20
15.40738149236552
 30
0.0
 40
1.738212755828499
  1
31.01.2011
100
AcDbText
  0
TEXT
  5
EA14
330
1F
100
AcDbEntity
  8
TEXTFELD
100
AcDbText
 10
786.5716297704377
 20
12.49717305951707
 30
0.0
 40
2.629907217668009
  1
52-7491
100
AcDbText
  0
TEXT
  5
EA15
330
1F
100
AcDbEntity
  8
TEXTFELD
100
AcDbText
 10
771.667974075244
 20
22.97702603586367
 30
0.0
 40
2.2
  1
52/XC 19" Adapterpanel, XLR
100
AcDbText
  0
MTEXT
  5
EA16
330
1F
100
AcDbEntity
  8
RAHMEN025
100
AcDbMText
 10
42.77284124758921
 20
29.90908629273154
 30
0.0
 40
2.5
 41
351.632274128031
 71
     1
 72
     5
  3
Specifications and design are subject to change without notice. \PThe content of this document is for information only. The information presented in this document does not form part of any quotation or contract, is believed to be accurate and reliabl
  1
e and may be changed without notice. No liability will be accepted by the publisher for any consequence of its use. Publication thereof does neither convey nor imply any license under patent- or other industrial or intellectual property rights.
 73
     1
 44
1.0
1001
ACAD
1000
ACAD_MTEXT_DEFINED_HEIGHT_BEGIN
1070
    46
1040
0.0
1000
ACAD_MTEXT_DEFINED_HEIGHT_END
1000
MTEXTBEGIN
1070
    73
1070
     1
1070
    44
1040
1.0
1070
    74
1070
     0
1000
MTEXTEND
  0
TEXT
  5
EA17
330
1F
100
AcDbEntity
  8
TEXTFELD
100
AcDbText
 10
778.4043431509878
 20
19.45163577035236
 30
0.0
 40
2.2
  1
Dimension of 52-7491
100
AcDbText
  0
DIMENSION
  5
EA24
330
1F
100
AcDbEntity
  8
BEMAßUNG
100
AcDbDimension
  2
*D13
 10
606.5648874389325
 20
536.8747215836883
 30
0.0
 11
367.6690462436365
 21
536.8747215836883
 31
0.0
 70
   160
 71
     2
 42
482.5
  3
ISO-25
100
AcDbAlignedDimension
 13
124.0648874389326
 23
510.1032837064614
 33
0.0
 14
606.5648874389325
 24
510.1032837064614
 34
0.0
100
AcDbRotatedDimension
  0
DIMENSION
  5
EA25
330
1F
100
AcDbEntity
  8
BEMAßUNG
100
AcDbDimension
  2
*D14
 10
598.2648874389326
 20
528.2150357487248
 30
0.0
 11
367.6690462436365
 21
528.2150357487248
 31
0.0
 70
   160
 71
     2
 42
465.9
  3
ISO-25
100
AcDbAlignedDimension
 13
132.3648874389325
 23
500.3032837064615
 33
0.0
 14
598.2648874389326
 24
500.3032837064614
 34
0.0
100
AcDbRotatedDimension
  0
DIMENSION
  5
EA26
330
1F
100
AcDbEntity
  8
BEMAßUNG
100
AcDbDimension
  2
*D15
 10
169.958756648262
 20
472.1032837064615
 30
0.0
 11
169.9587566482619
 21
488.033376411262
 31
0.0
 70
   160
 71
     2
 42
27.80000000000001
  3
ISO-25
100
AcDbAlignedDimension
 13
158.0648874389326
 23
499.9032837064614
 33
0.0
 14
158.0648874389326
 24
472.1032837064615
 34
0.0
 50
90.0
100
AcDbRotatedDimension
  0
DIMENSION
  5
EA27
330
1F
100
AcDbEntity
  8
BEMAßUNG
100
AcDbDimension
  2
*D16
 10
353.5648874389326
 20
520.8236284974849
 30
0.0
 11
257.1303913866443
 21
520.8236284974849
 31
0.0
 70
   160
 71
     2
 42
195.5
  3
ISO-25
100
AcDbAlignedDimension
 13
158.0648874389326
 23
499.9032837064614
 33
0.0
 14
353.5648874389326
 24
499.9032837064614
 34
0.0
100
AcDbRotatedDimension
  0
DIMENSION
  5
EA28
330
1F
100
AcDbEntity
  8
BEMAßUNG
100
AcDbDimension
  2
*D17
 10
377.0648874389326
 20
520.8236284974849
 30
0.0
 11
474.1984610591628
 21
520.8236284974849
 31
0.0
 70
   160
 71
     2
 42
195.5
  3
ISO-25
100
AcDbAlignedDimension
 13
572.5648874389325
 23
499.9032837064614
 33
0.0
 14
377.0648874389326
 24
499.9032837064614
 34
0.0
100
AcDbRotatedDimension
  0
DIMENSION
  5
EA29
330
1F
100
AcDbEntity
  8
BEMAßUNG
100
AcDbDimension
  2
*D18
 10
390.7670311781906
 20
499.9032837064614
 30
0.0
 11
390.7670311781906
 21
485.4345399056409
 31
0.0
 70
   160
 71
     2
 42
27.80000000000001
  3
ISO-25
100
AcDbAlignedDimension
 13
377.0648874389326
 23
472.1032837064615
 33
0.0
 14
377.0648874389326
 24
499.9032837064614
 34
0.0
 50
90.0
100
AcDbRotatedDimension
  0
DIMENSION
  5
EA2A
330
1F
100
AcDbEntity
  8
BEMAßUNG
100
AcDbDimension
  2
*D19
 10
626.6969710042944
 20
510.1032837064614
 30
0.0
 11
626.6969710042943
 21
486.0396042246629
 31
0.0
 70
   160
 71
     2
 42
44.40000000000003
  3
ISO-25
100
AcDbAlignedDimension
 13
606.5648874389325
 23
465.7032837064614
 33
0.0
 14
606.5648874389325
 24
510.1032837064614
 34
0.0
 50
90.0
100
AcDbRotatedDimension
  0
DIMENSION
  5
EA2B
330
1F
100
AcDbEntity
  8
BEMAßUNG
100
AcDbDimension
  2
*D20
 10
474.8148874389325
 20
445.8093325089427
 30
0.0
 11
367.6690462436367
 21
445.8093325089427
 31
0.0
 70
   160
 71
     2
 42
219.0
  3
ISO-25
100
AcDbAlignedDimension
 13
255.8148874389326
 23
467.1032837064614
 33
0.0
 14
474.8148874389325
 24
467.1032837064614
 34
0.0
100
AcDbRotatedDimension
  0
DIMENSION
  5
EA2C
330
1F
100
AcDbEntity
  8
abmessung
100
AcDbDimension
  2
*D21
 10
619.504459201529
 20
472.0032837064614
 30
0.0
 11
615.9627925348623
 21
487.9032837064615
 31
0.0
 70
    32
 71
     5
 42
31.80000000000007
  3
ISO-25
100
AcDbAlignedDimension
 13
605.017742253228
 23
503.8032837064615
 33
0.0
 14
605.017742253228
 24
472.0032837064614
 34
0.0
 50
90.0
100
AcDbRotatedDimension
1001
ACAD
1000
DSTYLE
1002
{
1070
   141
1040
3.5
1002
}
  0
DIMENSION
  5
EAF3
330
1F
100
AcDbEntity
  8
abmessung
100
AcDbDimension
  2
*D22
 10
704.5888157813326
 20
530.8161741856202
 30
0.0
 11
746.3388157813326
 21
534.3578408522867
 31
0.0
 70
    32
 71
     5
 42
83.49999999999999
  3
ISO-25
100
AcDbAlignedDimension
 13
788.0888157813326
 23
510.1032844694009
 33
0.0
 14
704.5888157813326
 24
510.1032844694009
 34
0.0
100
AcDbRotatedDimension
1001
ACAD
1000
DSTYLE
1002
{
1070
   141
1040
3.5
1002
}
  0
DIMENSION
  5
ED1F
330
1F
100
AcDbEntity
  8
abmessung
100
AcDbDimension
  2
*D23
 10
162.5375345255224
 20
211.5829944566009
 30
0.0
 11
158.9958678588557
 21
248.332994456601
 31
0.0
 70
    32
 71
     5
 42
73.50000000000005
  3
ISO-25
100
AcDbAlignedDimension
 13
146.8148874389326
 23
285.0829944566009
 33
0.0
 14
143.3148874389326
 24
211.5829944566009
 34
0.0
 50
90.0
100
AcDbRotatedDimension
1001
ACAD
1000
DSTYLE
1002
{
1070
   141
1040
3.5
1002
}
  0
ENDSEC
  0
SECTION
  2
OBJECTS
  0
DICTIONARY
  5
C
330
0
100
AcDbDictionary
281
     1
  3
ACAD_COLOR
350
1C10
  3
ACAD_GROUP
350
D
  3
ACAD_LAYOUT
350
1A
  3
ACAD_MATERIAL
350
1C0F
  3
ACAD_MLEADERSTYLE
350
1C0A
  3
ACAD_MLINESTYLE
350
17
  3
ACAD_PLOTSETTINGS
350
19
  3
ACAD_PLOTSTYLENAME
350
E
  3
ACAD_TABLESTYLE
350
1C09
  3
ACAD_VISUALSTYLE
350
2A
  3
ACDBHEADERROUNDTRIPXREC
350
ED2E
  3
AcDbVariableDictionary
350
1C0B
  0
DICTIONARY
  5
1C1E
330
2
100
AcDbDictionary
280
     1
281
     1
  3
ACAD_LAYERFILTERS
360
1C20
  3
ACAD_LAYERSTATES
360
33F0
  3
ACLYDICTIONARY
360
1C1F
  0
DICTIONARY
  5
D359
330
D358
100
AcDbDictionary
280
     1
281
     1
  3
ACAD_XREC_ROUNDTRIP
360
D35A
  0
DICTIONARY
  5
D35C
330
D35B
100
AcDbDictionary
280
     1
281
     1
  3
ACAD_XREC_ROUNDTRIP
360
D35D
  0
DICTIONARY
  5
D35F
330
D35E
100
AcDbDictionary
280
     1
281
     1
  3
ACAD_XREC_ROUNDTRIP
360
D360
  0
DICTIONARY
  5
2DFE
330
1F
100
AcDbDictionary
280
     1
281
     1
  3
ACAD_SORTENTS
360
2DFF
  0
DICTIONARY
  5
1C10
102
{ACAD_REACTORS
330
C
102
}
330
C
100
AcDbDictionary
281
     1
  0
DICTIONARY
  5
D
102
{ACAD_REACTORS
330
C
102
}
330
C
100
AcDbDictionary
281
     1
  3
*A1
350
1C14
  3
*A10
350
1CEF
  3
*A11
350
1E90
  3
*A12
350
1C92
  3
*A13
350
1E91
  3
*A14
350
1D6F
  3
*A15
350
1C93
  3
*A16
350
1DDC
  3
*A17
350
1E92
  3
*A18
350
1D1D
  3
*A19
350
1E93
  3
*A2
350
1CC1
  3
*A20
350
1E94
  3
*A21
350
1D37
  3
*A22
350
1D38
  3
*A23
350
1E8A
  3
*A24
350
1CD6
  3
*A25
350
1EA7
  3
*A26
350
1EB9
  3
*A27
350
1ECB
  3
*A28
350
1CC0
  3
*A29
350
1D70
  3
*A3
350
1E8D
  3
*A30
350
1D04
  3
*A31
350
1EDD
  3
*A32
350
1C65
  3
*A33
350
1EDE
  3
*A34
350
1CEE
  3
*A35
350
1DB7
  3
*A36
350
1D32
  3
*A37
350
1EDF
  3
*A38
350
1CED
  3
*A39
350
1CA8
  3
*A4
350
1D1C
  3
*A40
350
1DDD
  3
*A41
350
1EE0
  3
*A42
350
1EE1
  3
*A43
350
1D1B
  3
*A44
350
1CD7
  3
*A45
350
1C19
  3
*A46
350
1EE2
  3
*A47
350
1EE3
  3
*A48
350
1DB8
  3
*A49
350
1D05
  3
*A5
350
1E8E
  3
*A50
350
1EE4
  3
*A51
350
1F29
  3
*A52
350
1DDE
  3
*A53
350
1D33
  3
*A54
350
1D39
  3
*A55
350
1F2A
  3
*A56
350
1E8B
  3
*A57
350
1F2B
  3
*A58
350
1C18
  3
*A59
350
1C7A
  3
*A6
350
D025
  3
*A60
350
1F2C
  3
*A61
350
1DDB
  3
*A62
350
1CA9
  3
*A63
350
1F3E
  3
*A64
350
1E89
  3
*A65
350
1C16
  3
*A66
350
1F50
  3
*A67
350
1E8C
  3
*A68
350
1C4D
  3
*A69
350
2E71
  3
*A7
350
1C64
  3
*A70
350
1C4E
  3
*A71
350
1C91
  3
*A72
350
1C15
  3
*A73
350
1C7B
  3
*A74
350
1C4C
  3
*A75
350
1CAA
  3
*A76
350
D024
  3
*A77
350
47F2
  3
*A78
350
1D4C
  3
*A79
350
1CD8
  3
*A8
350
1D94
  3
*A80
350
5B7E
  3
*A81
350
1D06
  3
*A82
350
AA4F
  3
*A83
350
AA51
  3
*A84
350
AA52
  3
*A85
350
1D3A
  3
*A86
350
1D93
  3
*A87
350
1C63
  3
*A88
350
1C7C
  3
*A89
350
1CBF
  3
*A9
350
1E8F
  3
*A90
350
1D34
  3
*A91
350
AA53
  3
*A92
350
ABEE
  3
*A93
350
ABEF
  3
*A94
350
AC4F
  3
*A95
350
B05A
  3
*A96
350
D023
  0
DICTIONARY
  5
1A
102
{ACAD_REACTORS
330
C
102
}
330
C
100
AcDbDictionary
281
     1
  3
Layout1
350
1E
  3
Layout2
350
26
  3
Model
350
22
  0
DICTIONARY
  5
1C0F
102
{ACAD_REACTORS
330
C
102
}
330
C
100
AcDbDictionary
281
     1
  3
Global
350
D364
  0
DICTIONARY
  5
1C0A
102
{ACAD_REACTORS
330
C
102
}
330
C
100
AcDbDictionary
281
     1
  0
DICTIONARY
  5
17
102
{ACAD_REACTORS
330
C
102
}
330
C
100
AcDbDictionary
281
     1
  3
Standard
350
18
  0
DICTIONARY
  5
19
102
{ACAD_REACTORS
330
C
102
}
330
C
100
AcDbDictionary
281
     1
  0
ACDBDICTIONARYWDFLT
  5
E
102
{ACAD_REACTORS
330
C
102
}
330
C
100
AcDbDictionary
281
     1
  3
Normal
350
F
100
AcDbDictionaryWithDefault
340
F
  0
DICTIONARY
  5
1C09
102
{ACAD_REACTORS
330
C
102
}
330
C
100
AcDbDictionary
281
     1
  3
Standard
350
1C11
  0
DICTIONARY
  5
2A
102
{ACAD_REACTORS
330
C
102
}
330
C
100
AcDbDictionary
281
     1
  3
2dWireframe
350
2F
  3
3D Hidden
350
31
  3
3dWireframe
350
30
  3
Basic
350
32
  3
Brighten
350
36
  3
ColorChange
350
3A
  3
Conceptual
350
34
  3
Dim
350
35
  3
Facepattern
350
39
  3
Flat
350
2B
  3
FlatWithEdges
350
2C
  3
Gouraud
350
2D
  3
GouraudWithEdges
350
2E
  3
Linepattern
350
38
  3
Realistic
350
33
  3
Thicken
350
37
  0
DICTIONARY
  5
ED2E
102
{ACAD_REACTORS
330
C
102
}
330
C
100
AcDbDictionary
281
     1
  0
DICTIONARY
  5
1C0B
102
{ACAD_REACTORS
330
C
102
}
330
C
100
AcDbDictionary
281
     1
  3
CTABLESTYLE
350
1D36
  3
DIMASSOC
350
39A7
  3
PROJECTNAME
350
39A8
  3
PSOLHEIGHT
350
1C0D
  3
PSOLWIDTH
350
1C0C
  0
DICTIONARY
  5
1C20
102
{ACAD_REACTORS
330
1C1E
102
}
330
1C1E
100
AcDbDictionary
281
     1
  0
DICTIONARY
  5
33F0
102
{ACAD_REACTORS
330
1C1E
102
}
330
1C1E
100
AcDbDictionary
281
     1
  0
DICTIONARY
  5
1C1F
102
{ACAD_REACTORS
330
1C1E
102
}
330
1C1E
100
AcDbDictionary
281
     1
1001
ACAD
1000
<All
  0
XRECORD
  5
D35A
102
{ACAD_REACTORS
330
D359
102
}
330
D359
100
AcDbXrecord
280
     1
102
MATERIAL
340
D364
  0
XRECORD
  5
D35D
102
{ACAD_REACTORS
330
D35C
102
}
330
D35C
100
AcDbXrecord
280
     1
102
MATERIAL
340
D364
  0
XRECORD
  5
D360
102
{ACAD_REACTORS
330
D35F
102
}
330
D35F
100
AcDbXrecord
280
     1
102
MATERIAL
340
D364
  0
SORTENTSTABLE
  5
2DFF
102
{ACAD_REACTORS
330
2DFE
102
}
330
2DFE
100
AcDbSortentsTable
330
1F
  0
GROUP
  5
1C14
102
{ACAD_REACTORS
330
D
102
}
330
D
100
AcDbGroup
300

 70
     1
 71
     1
  0
GROUP
  5
1CEF
102
{ACAD_REACTORS
330
D
102
}
330
D
100
AcDbGroup
300

 70
     1
 71
     1
  0
GROUP
  5
1E90
102
{ACAD_REACTORS
330
D
102
}
330
D
100
AcDbGroup
300

 70
     1
 71
     1
  0
GROUP
  5
1C92
102
{ACAD_REACTORS
330
D
102
}
330
D
100
AcDbGroup
300

 70
     1
 71
     1
  0
GROUP
  5
1E91
102
{ACAD_REACTORS
330
D
102
}
330
D
100
AcDbGroup
300

 70
     1
 71
     1
  0
GROUP
  5
1D6F
102
{ACAD_REACTORS
330
D
102
}
330
D
100
AcDbGroup
300

 70
     1
 71
     1
  0
GROUP
  5
1C93
102
{ACAD_REACTORS
330
D
102
}
330
D
100
AcDbGroup
300

 70
     1
 71
     1
  0
GROUP
  5
1DDC
102
{ACAD_REACTORS
330
D
102
}
330
D
100
AcDbGroup
300

 70
     1
 71
     1
  0
GROUP
  5
1E92
102
{ACAD_REACTORS
330
D
102
}
330
D
100
AcDbGroup
300

 70
     1
 71
     1
  0
GROUP
  5
1D1D
102
{ACAD_REACTORS
330
D
102
}
330
D
100
AcDbGroup
300

 70
     1
 71
     1
  0
GROUP
  5
1E93
102
{ACAD_REACTORS
330
D
102
}
330
D
100
AcDbGroup
300

 70
     1
 71
     1
  0
GROUP
  5
1CC1
102
{ACAD_REACTORS
330
D
102
}
330
D
100
AcDbGroup
300

 70
     1
 71
     1
  0
GROUP
  5
1E94
102
{ACAD_REACTORS
330
D
102
}
330
D
100
AcDbGroup
300

 70
     1
 71
     1
  0
GROUP
  5
1D37
102
{ACAD_REACTORS
330
D
102
}
330
D
100
AcDbGroup
300

 70
     1
 71
     1
  0
GROUP
  5
1D38
102
{ACAD_REACTORS
330
D
102
}
330
D
100
AcDbGroup
300

 70
     1
 71
     1
  0
GROUP
  5
1E8A
102
{ACAD_REACTORS
330
D
102
}
330
D
100
AcDbGroup
300

 70
     1
 71
     1
  0
GROUP
  5
1CD6
102
{ACAD_REACTORS
330
D
102
}
330
D
100
AcDbGroup
300

 70
     1
 71
     1
  0
GROUP
  5
1EA7
102
{ACAD_REACTORS
330
D
102
}
330
D
100
AcDbGroup
300

 70
     1
 71
     1
  0
GROUP
  5
1EB9
102
{ACAD_REACTORS
330
D
102
}
330
D
100
AcDbGroup
300

 70
     1
 71
     1
  0
GROUP
  5
1ECB
102
{ACAD_REACTORS
330
D
102
}
330
D
100
AcDbGroup
300

 70
     1
 71
     1
  0
GROUP
  5
1CC0
102
{ACAD_REACTORS
330
D
102
}
330
D
100
AcDbGroup
300

 70
     1
 71
     1
  0
GROUP
  5
1D70
102
{ACAD_REACTORS
330
D
102
}
330
D
100
AcDbGroup
300

 70
     1
 71
     1
  0
GROUP
  5
1E8D
102
{ACAD_REACTORS
330
D
102
}
330
D
100
AcDbGroup
300

 70
     1
 71
     1
  0
GROUP
  5
1D04
102
{ACAD_REACTORS
330
D
102
}
330
D
100
AcDbGroup
300

 70
     1
 71
     1
  0
GROUP
  5
1EDD
102
{ACAD_REACTORS
330
D
102
}
330
D
100
AcDbGroup
300

 70
     1
 71
     1
  0
GROUP
  5
1C65
102
{ACAD_REACTORS
330
D
102
}
330
D
100
AcDbGroup
300

 70
     1
 71
     1
  0
GROUP
  5
1EDE
102
{ACAD_REACTORS
330
D
102
}
330
D
100
AcDbGroup
300

 70
     1
 71
     1
  0
GROUP
  5
1CEE
102
{ACAD_REACTORS
330
D
102
}
330
D
100
AcDbGroup
300

 70
     1
 71
     1
  0
GROUP
  5
1DB7
102
{ACAD_REACTORS
330
D
102
}
330
D
100
AcDbGroup
300

 70
     1
 71
     1
  0
GROUP
  5
1D32
102
{ACAD_REACTORS
330
D
102
}
330
D
100
AcDbGroup
300

 70
     1
 71
     1
  0
GROUP
  5
1EDF
102
{ACAD_REACTORS
330
D
102
}
330
D
100
AcDbGroup
300

 70
     1
 71
     1
  0
GROUP
  5
1CED
102
{ACAD_REACTORS
330
D
102
}
330
D
100
AcDbGroup
300

 70
     1
 71
     1
  0
GROUP
  5
1CA8
102
{ACAD_REACTORS
330
D
102
}
330
D
100
AcDbGroup
300

 70
     1
 71
     1
  0
GROUP
  5
1D1C
102
{ACAD_REACTORS
330
D
102
}
330
D
100
AcDbGroup
300

 70
     1
 71
     1
  0
GROUP
  5
1DDD
102
{ACAD_REACTORS
330
D
102
}
330
D
100
AcDbGroup
300

 70
     1
 71
     1
  0
GROUP
  5
1EE0
102
{ACAD_REACTORS
330
D
102
}
330
D
100
AcDbGroup
300

 70
     1
 71
     1
  0
GROUP
  5
1EE1
102
{ACAD_REACTORS
330
D
102
}
330
D
100
AcDbGroup
300

 70
     1
 71
     1
  0
GROUP
  5
1D1B
102
{ACAD_REACTORS
330
D
102
}
330
D
100
AcDbGroup
300

 70
     1
 71
     1
  0
GROUP
  5
1CD7
102
{ACAD_REACTORS
330
D
102
}
330
D
100
AcDbGroup
300

 70
     1
 71
     1
  0
GROUP
  5
1C19
102
{ACAD_REACTORS
330
D
102
}
330
D
100
AcDbGroup
300

 70
     1
 71
     1
  0
GROUP
  5
1EE2
102
{ACAD_REACTORS
330
D
102
}
330
D
100
AcDbGroup
300

 70
     1
 71
     1
  0
GROUP
  5
1EE3
102
{ACAD_REACTORS
330
D
102
}
330
D
100
AcDbGroup
300

 70
     1
 71
     1
  0
GROUP
  5
1DB8
102
{ACAD_REACTORS
330
D
102
}
330
D
100
AcDbGroup
300

 70
     1
 71
     1
  0
GROUP
  5
1D05
102
{ACAD_REACTORS
330
D
102
}
330
D
100
AcDbGroup
300

 70
     1
 71
     1
  0
GROUP
  5
1E8E
102
{ACAD_REACTORS
330
D
102
}
330
D
100
AcDbGroup
300

 70
     1
 71
     1
  0
GROUP
  5
1EE4
102
{ACAD_REACTORS
330
D
102
}
330
D
100
AcDbGroup
300

 70
     1
 71
     1
  0
GROUP
  5
1F29
102
{ACAD_REACTORS
330
D
102
}
330
D
100
AcDbGroup
300

 70
     1
 71
     1
  0
GROUP
  5
1DDE
102
{ACAD_REACTORS
330
D
102
}
330
D
100
AcDbGroup
300

 70
     1
 71
     1
  0
GROUP
  5
1D33
102
{ACAD_REACTORS
330
D
102
}
330
D
100
AcDbGroup
300

 70
     1
 71
     1
  0
GROUP
  5
1D39
102
{ACAD_REACTORS
330
D
102
}
330
D
100
AcDbGroup
300

 70
     1
 71
     1
  0
GROUP
  5
1F2A
102
{ACAD_REACTORS
330
D
102
}
330
D
100
AcDbGroup
300

 70
     1
 71
     1
  0
GROUP
  5
1E8B
102
{ACAD_REACTORS
330
D
102
}
330
D
100
AcDbGroup
300

 70
     1
 71
     1
  0
GROUP
  5
1F2B
102
{ACAD_REACTORS
330
D
102
}
330
D
100
AcDbGroup
300

 70
     1
 71
     1
  0
GROUP
  5
1C18
102
{ACAD_REACTORS
330
D
102
}
330
D
100
AcDbGroup
300

 70
     1
 71
     1
  0
GROUP
  5
1C7A
102
{ACAD_REACTORS
330
D
102
}
330
D
100
AcDbGroup
300

 70
     1
 71
     1
  0
GROUP
  5
D025
102
{ACAD_REACTORS
330
D
102
}
330
D
100
AcDbGroup
300

 70
     1
 71
     1
  0
GROUP
  5
1F2C
102
{ACAD_REACTORS
330
D
102
}
330
D
100
AcDbGroup
300

 70
     1
 71
     1
  0
GROUP
  5
1DDB
102
{ACAD_REACTORS
330
D
102
}
330
D
100
AcDbGroup
300

 70
     1
 71
     1
  0
GROUP
  5
1CA9
102
{ACAD_REACTORS
330
D
102
}
330
D
100
AcDbGroup
300

 70
     1
 71
     1
  0
GROUP
  5
1F3E
102
{ACAD_REACTORS
330
D
102
}
330
D
100
AcDbGroup
300

 70
     1
 71
     1
  0
GROUP
  5
1E89
102
{ACAD_REACTORS
330
D
102
}
330
D
100
AcDbGroup
300

 70
     1
 71
     1
  0
GROUP
  5
1C16
102
{ACAD_REACTORS
330
D
102
}
330
D
100
AcDbGroup
300

 70
     1
 71
     1
  0
GROUP
  5
1F50
102
{ACAD_REACTORS
330
D
102
}
330
D
100
AcDbGroup
300

 70
     1
 71
     1
  0
GROUP
  5
1E8C
102
{ACAD_REACTORS
330
D
102
}
330
D
100
AcDbGroup
300

 70
     1
 71
     1
  0
GROUP
  5
1C4D
102
{ACAD_REACTORS
330
D
102
}
330
D
100
AcDbGroup
300

 70
     1
 71
     1
  0
GROUP
  5
2E71
102
{ACAD_REACTORS
330
D
102
}
330
D
100
AcDbGroup
300

 70
     1
 71
     1
  0
GROUP
  5
1C64
102
{ACAD_REACTORS
330
D
102
}
330
D
100
AcDbGroup
300

 70
     1
 71
     1
  0
GROUP
  5
1C4E
102
{ACAD_REACTORS
330
D
102
}
330
D
100
AcDbGroup
300

 70
     1
 71
     1
  0
GROUP
  5
1C91
102
{ACAD_REACTORS
330
D
102
}
330
D
100
AcDbGroup
300

 70
     1
 71
     1
  0
GROUP
  5
1C15
102
{ACAD_REACTORS
330
D
102
}
330
D
100
AcDbGroup
300

 70
     1
 71
     1
  0
GROUP
  5
1C7B
102
{ACAD_REACTORS
330
D
102
}
330
D
100
AcDbGroup
300

 70
     1
 71
     1
  0
GROUP
  5
1C4C
102
{ACAD_REACTORS
330
D
102
}
330
D
100
AcDbGroup
300

 70
     1
 71
     1
  0
GROUP
  5
1CAA
102
{ACAD_REACTORS
330
D
102
}
330
D
100
AcDbGroup
300

 70
     1
 71
     1
  0
GROUP
  5
D024
102
{ACAD_REACTORS
330
D
102
}
330
D
100
AcDbGroup
300

 70
     1
 71
     1
  0
GROUP
  5
47F2
102
{ACAD_REACTORS
330
D
102
}
330
D
100
AcDbGroup
300

 70
     1
 71
     1
  0
GROUP
  5
1D4C
102
{ACAD_REACTORS
330
D
102
}
330
D
100
AcDbGroup
300

 70
     1
 71
     1
  0
GROUP
  5
1CD8
102
{ACAD_REACTORS
330
D
102
}
330
D
100
AcDbGroup
300

 70
     1
 71
     1
  0
GROUP
  5
1D94
102
{ACAD_REACTORS
330
D
102
}
330
D
100
AcDbGroup
300

 70
     1
 71
     1
  0
GROUP
  5
5B7E
102
{ACAD_REACTORS
330
D
102
}
330
D
100
AcDbGroup
300

 70
     1
 71
     1
  0
GROUP
  5
1D06
102
{ACAD_REACTORS
330
D
102
}
330
D
100
AcDbGroup
300

 70
     1
 71
     1
  0
GROUP
  5
AA4F
102
{ACAD_REACTORS
330
D
102
}
330
D
100
AcDbGroup
300

 70
     1
 71
     1
  0
GROUP
  5
AA51
102
{ACAD_REACTORS
330
D
102
}
330
D
100
AcDbGroup
300

 70
     1
 71
     1
  0
GROUP
  5
AA52
102
{ACAD_REACTORS
330
D
102
}
330
D
100
AcDbGroup
300

 70
     1
 71
     1
  0
GROUP
  5
1D3A
102
{ACAD_REACTORS
330
D
102
}
330
D
100
AcDbGroup
300

 70
     1
 71
     1
  0
GROUP
  5
1D93
102
{ACAD_REACTORS
330
D
102
}
330
D
100
AcDbGroup
300

 70
     1
 71
     1
  0
GROUP
  5
1C63
102
{ACAD_REACTORS
330
D
102
}
330
D
100
AcDbGroup
300

 70
     1
 71
     1
  0
GROUP
  5
1C7C
102
{ACAD_REACTORS
330
D
102
}
330
D
100
AcDbGroup
300

 70
     1
 71
     1
  0
GROUP
  5
1CBF
102
{ACAD_REACTORS
330
D
102
}
330
D
100
AcDbGroup
300

 70
     1
 71
     1
  0
GROUP
  5
1E8F
102
{ACAD_REACTORS
330
D
102
}
330
D
100
AcDbGroup
300

 70
     1
 71
     1
  0
GROUP
  5
1D34
102
{ACAD_REACTORS
330
D
102
}
330
D
100
AcDbGroup
300

 70
     1
 71
     1
  0
GROUP
  5
AA53
102
{ACAD_REACTORS
330
D
102
}
330
D
100
AcDbGroup
300

 70
     1
 71
     1
  0
GROUP
  5
ABEE
102
{ACAD_REACTORS
330
D
102
}
330
D
100
AcDbGroup
300

 70
     1
 71
     1
  0
GROUP
  5
ABEF
102
{ACAD_REACTORS
330
D
102
}
330
D
100
AcDbGroup
300

 70
     1
 71
     1
  0
GROUP
  5
AC4F
102
{ACAD_REACTORS
330
D
102
}
330
D
100
AcDbGroup
300

 70
     1
 71
     1
  0
GROUP
  5
B05A
102
{ACAD_REACTORS
330
D
102
}
330
D
100
AcDbGroup
300

 70
     1
 71
     1
  0
GROUP
  5
D023
102
{ACAD_REACTORS
330
D
102
}
330
D
100
AcDbGroup
300

 70
     1
 71
     1
  0
LAYOUT
  5
1E
102
{ACAD_XDICTIONARY
360
ED2F
102
}
102
{ACAD_REACTORS
330
1A
102
}
330
1A
100
AcDbPlotSettings
  1

  2
none_device
  4

  6

 40
0.0
 41
0.0
 42
0.0
 43
0.0
 44
0.0
 45
0.0
 46
0.0
 47
0.0
 48
0.0
 49
0.0
140
0.0
141
0.0
142
1.0
143
1.0
 70
   688
 72
     0
 73
     0
 74
     5
  7

 75
    16
147
1.0
148
0.0
149
0.0
100
AcDbLayout
  1
Layout1
 70
     1
 71
     1
 10
0.0
 20
0.0
 11
420.0
 21
297.0
 12
0.0
 22
0.0
 32
0.0
 14
1.000000000000000E+20
 24
1.000000000000000E+20
 34
1.000000000000000E+20
 15
-1.000000000000000E+20
 25
-1.000000000000000E+20
 35
-1.000000000000000E+20
146
0.0
 13
0.0
 23
0.0
 33
0.0
 16
1.0
 26
0.0
 36
0.0
 17
0.0
 27
1.0
 37
0.0
 76
     0
330
1B
  0
LAYOUT
  5
26
102
{ACAD_XDICTIONARY
360
ED33
102
}
102
{ACAD_REACTORS
330
1A
102
}
330
1A
100
AcDbPlotSettings
  1

  2
none_device
  4

  6

 40
0.0
 41
0.0
 42
0.0
 43
0.0
 44
0.0
 45
0.0
 46
0.0
 47
0.0
 48
0.0
 49
0.0
140
0.0
141
0.0
142
1.0
143
1.0
 70
   688
 72
     0
 73
     0
 74
     5
  7

 75
    16
147
1.0
148
0.0
149
0.0
100
AcDbLayout
  1
Layout2
 70
     1
 71
     2
 10
0.0
 20
0.0
 11
0.0
 21
0.0
 12
0.0
 22
0.0
 32
0.0
 14
0.0
 24
0.0
 34
0.0
 15
0.0
 25
0.0
 35
0.0
146
0.0
 13
0.0
 23
0.0
 33
0.0
 16
1.0
 26
0.0
 36
0.0
 17
0.0
 27
1.0
 37
0.0
 76
     0
330
23
  0
LAYOUT
  5
22
102
{ACAD_XDICTIONARY
360
ED31
102
}
102
{ACAD_REACTORS
330
1A
102
}
330
1A
100
AcDbPlotSettings
  1

  2
none_device
  4
ISO_A4_(210.00_x_297.00_MM)
  6

 40
7.5
 41
20.0
 42
7.5
 43
20.0
 44
210.0
 45
297.0
 46
0.0
 47
0.0
 48
0.0
 49
0.0
140
0.0
141
0.0
142
1.0
143
2.675783684477167
 70
 11952
 72
     1
 73
     1
 74
     0
  7

 75
     0
147
0.3737222877175119
148
47.37640633285258
149
3.7240743230941
100
AcDbLayout
  1
Model
 70
     1
 71
     0
 10
0.0
 20
0.0
 11
594.0
 21
420.0
 12
0.0
 22
0.0
 32
0.0
 14
0.0
 24
0.0
 34
0.0
 15
594.0
 25
420.0
 35
0.0
146
0.0
 13
0.0
 23
0.0
 33
0.0
 16
1.0
 26
0.0
 36
0.0
 17
0.0
 27
1.0
 37
0.0
 76
     0
330
1F
1001
ACAD_PSEXT
1000
Kein
1000
Kein
1000
Nicht anwendbar
1000
Das Layout wird erst geplottet, wenn ein neuer Plotter-Konfigurationsname ausgewählt wird.
1070
     0
  0
MATERIAL
  5
D364
102
{ACAD_XDICTIONARY
360
D365
102
}
102
{ACAD_REACTORS
330
1C0F
102
}
330
1C0F
100
AcDbMaterial
  1
Global
  0
MLINESTYLE
  5
18
102
{ACAD_REACTORS
330
17
102
}
330
17
100
AcDbMlineStyle
  2
STANDARD
 70
     0
  3

 62
   256
 51
90.0
 52
90.0
 71
     2
 49
0.5
 62
   256
  6
BYLAYER
 49
-0.5
 62
   256
  6
BYLAYER
  0
ACDBPLACEHOLDER
  5
F
102
{ACAD_REACTORS
330
E
102
}
330
E
  0
TABLESTYLE
  5
1C11
102
{ACAD_REACTORS
330
1C09
102
}
330
1C09
100
AcDbTableStyle
  3
Standard
 70
     0
 71
     0
 40
1.5
 41
1.5
280
     0
281
     0
  7
Standard
140
4.5
170
     2
 62
     0
 63
     7
283
     0
274
    -2
284
     1
 64
     0
275
    -2
285
     1
 65
     0
276
    -2
286
     1
 66
     0
277
    -2
287
     1
 67
     0
278
    -2
288
     1
 68
     0
279
    -2
289
     1
 69
     0
  7
Standard
140
6.0
170
     5
 62
     0
 63
     7
283
     0
274
    -2
284
     1
 64
     0
275
    -2
285
     1
 65
     0
276
    -2
286
     1
 66
     0
277
    -2
287
     1
 67
     0
278
    -2
288
     1
 68
     0
279
    -2
289
     1
 69
     0
  7
Standard
140
4.5
170
     5
 62
     0
 63
     7
283
     0
274
    -2
284
     1
 64
     0
275
    -2
285
     1
 65
     0
276
    -2
286
     1
 66
     0
277
    -2
287
     1
 67
     0
278
    -2
288
     1
 68
     0
279
    -2
289
     1
 69
     0
  0
ACAD_PROXY_OBJECT
  5
2F
102
{ACAD_REACTORS
330
2A
102
}
330
2A
100
AcDbProxyObject
 90
      499
 91
      501
 95
   983063
 70
     0
 93
      436
310
42CC9915DA5C99599C985B595049028333333333333E3BF0000000000000FB0107901411070040501600405405064090741402480A0340
 94
        0
1001
ACAD
1000
AcDbSavedByObjectVersion
1070
     0
1000
AcRTDxfName
1000
VISUALSTYLE
1000
AcRTDxfName
1000
VISUALSTYLE
1000
AcRTDxfName
1000
VISUALSTYLE
1000
AcRTDxfName
1000
VISUALSTYLE
1000
AcRTDxfName
1000
VISUALSTYLE
1000
AcRTDxfName
1000
VISUALSTYLE
1000
AcRTDxfName
1000
VISUALSTYLE
1000
AcRTDxfName
1000
VISUALSTYLE
1000
AcRTDxfName
1000
VISUALSTYLE
  0
ACAD_PROXY_OBJECT
  5
31
102
{ACAD_REACTORS
330
2A
102
}
330
2A
100
AcDbProxyObject
 90
      499
 91
      501
 95
   983063
 70
     0
 93
      500
310
424CD108121A5919195B90640502408333333333333E3BF0000000000000FB01079024090700405020000000000001110200405405064090740C02480A0340
 94
        0
1001
ACAD
1000
AcDbSavedByObjectVersion
1070
     0
1000
AcRTDxfName
1000
VISUALSTYLE
1000
AcRTDxfName
1000
VISUALSTYLE
1000
AcRTDxfName
1000
VISUALSTYLE
1000
AcRTDxfName
1000
VISUALSTYLE
1000
AcRTDxfName
1000
VISUALSTYLE
1000
AcRTDxfName
1000
VISUALSTYLE
1000
AcRTDxfName
1000
VISUALSTYLE
1000
AcRTDxfName
1000
VISUALSTYLE
1000
AcRTDxfName
1000
VISUALSTYLE
  0
ACAD_PROXY_OBJECT
  5
30
102
{ACAD_REACTORS
330
2A
102
}
330
2A
100
AcDbProxyObject
 90
      499
 91
      501
 95
   983063
 70
     0
 93
      436
310
42CCD915DA5C99599C985B595059028333333333333E3BF0000000000000FB0107901411070040501600405405064090741402480A0340
 94
        0
1001
ACAD
1000
AcDbSavedByObjectVersion
1070
     0
1000
AcRTDxfName
1000
VISUALSTYLE
1000
AcRTDxfName
1000
VISUALSTYLE
1000
AcRTDxfName
1000
VISUALSTYLE
1000
AcRTDxfName
1000
VISUALSTYLE
1000
AcRTDxfName
1000
VISUALSTYLE
1000
AcRTDxfName
1000
VISUALSTYLE
1000
AcRTDxfName
1000
VISUALSTYLE
1000
AcRTDxfName
1000
VISUALSTYLE
1000
AcRTDxfName
1000
VISUALSTYLE
  0
ACAD_PROXY_OBJECT
  5
32
102
{ACAD_REACTORS
330
2A
102
}
330
2A
100
AcDbProxyObject
 90
      499
 91
      501
 95
   983063
 70
     0
 93
      388
310
4150985CDA58D07406404333333333333E3BF0000000000000FB0107A41107004050150841D405064090741402480A0354
 94
        0
1001
ACAD
1000
AcDbSavedByObjectVersion
1070
     0
1000
AcRTDxfName
1000
VISUALSTYLE
1000
AcRTDxfName
1000
VISUALSTYLE
1000
AcRTDxfName
1000
VISUALSTYLE
1000
AcRTDxfName
1000
VISUALSTYLE
1000
AcRTDxfName
1000
VISUALSTYLE
1000
AcRTDxfName
1000
VISUALSTYLE
1000
AcRTDxfName
1000
VISUALSTYLE
1000
AcRTDxfName
1000
VISUALSTYLE
1000
AcRTDxfName
1000
VISUALSTYLE
  0
ACAD_PROXY_OBJECT
  5
36
102
{ACAD_REACTORS
330
2A
102
}
330
2A
100
AcDbProxyObject
 90
      499
 91
      501
 95
   983063
 70
     0
 93
      428
310
42109C9A59DA1D195B90C409028333333333333E3BF0000000000000FB010790141107004050150841D405064090741402480A029956
 94
        0
1001
ACAD
1000
AcDbSavedByObjectVersion
1070
     0
1000
AcRTDxfName
1000
VISUALSTYLE
1000
AcRTDxfName
1000
VISUALSTYLE
1000
AcRTDxfName
1000
VISUALSTYLE
1000
AcRTDxfName
1000
VISUALSTYLE
1000
AcRTDxfName
1000
VISUALSTYLE
1000
AcRTDxfName
1000
VISUALSTYLE
1000
AcRTDxfName
1000
VISUALSTYLE
1000
AcRTDxfName
1000
VISUALSTYLE
1000
AcRTDxfName
1000
VISUALSTYLE
  0
ACAD_PROXY_OBJECT
  5
3A
102
{ACAD_REACTORS
330
2A
102
}
330
2A
100
AcDbProxyObject
 90
      499
 91
      501
 95
   983063
 70
     0
 93
      452
310
42D0DBDB1BDC90DA185B99D95104090240C333333333333E3BF0000000000000FB0108901411070040501508421405064090741402480A0354
 94
        0
1001
ACAD
1000
AcDbSavedByObjectVersion
1070
     0
1000
AcRTDxfName
1000
VISUALSTYLE
1000
AcRTDxfName
1000
VISUALSTYLE
1000
AcRTDxfName
1000
VISUALSTYLE
1000
AcRTDxfName
1000
VISUALSTYLE
1000
AcRTDxfName
1000
VISUALSTYLE
1000
AcRTDxfName
1000
VISUALSTYLE
1000
AcRTDxfName
1000
VISUALSTYLE
1000
AcRTDxfName
1000
VISUALSTYLE
1000
AcRTDxfName
1000
VISUALSTYLE
  0
ACAD_PROXY_OBJECT
  5
34
102
{ACAD_REACTORS
330
2A
102
}
330
2A
100
AcDbProxyObject
 90
      499
 91
      501
 95
   983063
 70
     0
 93
      500
310
4290DBDB98D95C1D1D585B10940D028333333333333E3BF0000000000000FB0107902409070040501000000000000111010841D405064090740C02480A0340
 94
        0
1001
ACAD
1000
AcDbSavedByObjectVersion
1070
     0
1000
AcRTDxfName
1000
VISUALSTYLE
1000
AcRTDxfName
1000
VISUALSTYLE
1000
AcRTDxfName
1000
VISUALSTYLE
1000
AcRTDxfName
1000
VISUALSTYLE
1000
AcRTDxfName
1000
VISUALSTYLE
1000
AcRTDxfName
1000
VISUALSTYLE
1000
AcRTDxfName
1000
VISUALSTYLE
1000
AcRTDxfName
1000
VISUALSTYLE
1000
AcRTDxfName
1000
VISUALSTYLE
  0
ACAD_PROXY_OBJECT
  5
35
102
{ACAD_REACTORS
330
2A
102
}
330
2A
100
AcDbProxyObject
 90
      499
 91
      501
 95
   983063
 70
     0
 93
      412
310
40D11A5B50B409028333333333333E3BF0000000000000FB010790141107004050150841D405064090741402480A02677FFFFFDB
 94
        0
1001
ACAD
1000
AcDbSavedByObjectVersion
1070
     0
1000
AcRTDxfName
1000
VISUALSTYLE
1000
AcRTDxfName
1000
VISUALSTYLE
1000
AcRTDxfName
1000
VISUALSTYLE
1000
AcRTDxfName
1000
VISUALSTYLE
1000
AcRTDxfName
1000
VISUALSTYLE
1000
AcRTDxfName
1000
VISUALSTYLE
1000
AcRTDxfName
1000
VISUALSTYLE
1000
AcRTDxfName
1000
VISUALSTYLE
1000
AcRTDxfName
1000
VISUALSTYLE
  0
ACAD_PROXY_OBJECT
  5
39
102
{ACAD_REACTORS
330
2A
102
}
330
2A
100
AcDbProxyObject
 90
      499
 91
      501
 95
   983063
 70
     0
 93
      444
310
42D19858D95C185D1D195C9B90F409028333333333333E3BF0000000000000FB010790141107004050150841D405064090741402480A0350
 94
        0
1001
ACAD
1000
AcDbSavedByObjectVersion
1070
     0
1000
AcRTDxfName
1000
VISUALSTYLE
1000
AcRTDxfName
1000
VISUALSTYLE
1000
AcRTDxfName
1000
VISUALSTYLE
1000
AcRTDxfName
1000
VISUALSTYLE
1000
AcRTDxfName
1000
VISUALSTYLE
1000
AcRTDxfName
1000
VISUALSTYLE
1000
AcRTDxfName
1000
VISUALSTYLE
1000
AcRTDxfName
1000
VISUALSTYLE
1000
AcRTDxfName
1000
VISUALSTYLE
  0
ACAD_PROXY_OBJECT
  5
2B
102
{ACAD_REACTORS
330
2A
102
}
330
2A
100
AcDbProxyObject
 90
      499
 91
      501
 95
   983063
 70
     0
 93
      388
310
41119B185D240901404333333333333E3BF0000000000000F9010740A41107004050150841D405064090741402480A1B50
 94
        0
1001
ACAD
1000
AcDbSavedByObjectVersion
1070
     0
1000
AcRTDxfName
1000
VISUALSTYLE
1000
AcRTDxfName
1000
VISUALSTYLE
1000
AcRTDxfName
1000
VISUALSTYLE
1000
AcRTDxfName
1000
VISUALSTYLE
1000
AcRTDxfName
1000
VISUALSTYLE
1000
AcRTDxfName
1000
VISUALSTYLE
1000
AcRTDxfName
1000
VISUALSTYLE
1000
AcRTDxfName
1000
VISUALSTYLE
1000
AcRTDxfName
1000
VISUALSTYLE
  0
ACAD_PROXY_OBJECT
  5
2C
102
{ACAD_REACTORS
330
2A
102
}
330
2A
100
AcDbProxyObject
 90
      499
 91
      501
 95
   983063
 70
     0
 93
      476
310
43519B185D15DA5D1A115919D95CD0140901404333333333333E3BF0000000000000F9010740901411070040501600405405064090741402480A1B50
 94
        0
1001
ACAD
1000
AcDbSavedByObjectVersion
1070
     0
1000
AcRTDxfName
1000
VISUALSTYLE
1000
AcRTDxfName
1000
VISUALSTYLE
1000
AcRTDxfName
1000
VISUALSTYLE
1000
AcRTDxfName
1000
VISUALSTYLE
1000
AcRTDxfName
1000
VISUALSTYLE
1000
AcRTDxfName
1000
VISUALSTYLE
1000
AcRTDxfName
1000
VISUALSTYLE
1000
AcRTDxfName
1000
VISUALSTYLE
1000
AcRTDxfName
1000
VISUALSTYLE
  0
ACAD_PROXY_OBJECT
  5
2D
102
{ACAD_REACTORS
330
2A
102
}
330
2A
100
AcDbProxyObject
 90
      499
 91
      501
 95
   983063
 70
     0
 93
      412
310
41D1DBDD5C985D5910240902404333333333333E3BF0000000000000F9010740A411070040501641D405064090741402480A1B50
 94
        0
1001
ACAD
1000
AcDbSavedByObjectVersion
1070
     0
1000
AcRTDxfName
1000
VISUALSTYLE
1000
AcRTDxfName
1000
VISUALSTYLE
1000
AcRTDxfName
1000
VISUALSTYLE
1000
AcRTDxfName
1000
VISUALSTYLE
1000
AcRTDxfName
1000
VISUALSTYLE
1000
AcRTDxfName
1000
VISUALSTYLE
1000
AcRTDxfName
1000
VISUALSTYLE
1000
AcRTDxfName
1000
VISUALSTYLE
1000
AcRTDxfName
1000
VISUALSTYLE
  0
ACAD_PROXY_OBJECT
  5
2E
102
{ACAD_REACTORS
330
2A
102
}
330
2A
100
AcDbProxyObject
 90
      499
 91
      501
 95
   983063
 70
     0
 93
      500
310
4411DBDD5C985D5915DA5D1A115919D95CD0340902404333333333333E3BF0000000000000F9010740901411070040501600405405064090741402480A1B50
 94
        0
1001
ACAD
1000
AcDbSavedByObjectVersion
1070
     0
1000
AcRTDxfName
1000
VISUALSTYLE
1000
AcRTDxfName
1000
VISUALSTYLE
1000
AcRTDxfName
1000
VISUALSTYLE
1000
AcRTDxfName
1000
VISUALSTYLE
1000
AcRTDxfName
1000
VISUALSTYLE
1000
AcRTDxfName
1000
VISUALSTYLE
1000
AcRTDxfName
1000
VISUALSTYLE
1000
AcRTDxfName
1000
VISUALSTYLE
1000
AcRTDxfName
1000
VISUALSTYLE
  0
ACAD_PROXY_OBJECT
  5
38
102
{ACAD_REACTORS
330
2A
102
}
330
2A
100
AcDbProxyObject
 90
      499
 91
      501
 95
   983063
 70
     0
 93
      444
310
42D31A5B995C185D1D195C9B90E409028333333333333E3BF0000000000000FB010790141107004050750841D405064090741402483A0350
 94
        0
1001
ACAD
1000
AcDbSavedByObjectVersion
1070
     0
1000
AcRTDxfName
1000
VISUALSTYLE
1000
AcRTDxfName
1000
VISUALSTYLE
1000
AcRTDxfName
1000
VISUALSTYLE
1000
AcRTDxfName
1000
VISUALSTYLE
1000
AcRTDxfName
1000
VISUALSTYLE
1000
AcRTDxfName
1000
VISUALSTYLE
1000
AcRTDxfName
1000
VISUALSTYLE
1000
AcRTDxfName
1000
VISUALSTYLE
1000
AcRTDxfName
1000
VISUALSTYLE
  0
ACAD_PROXY_OBJECT
  5
33
102
{ACAD_REACTORS
330
2A
102
}
330
2A
100
AcDbProxyObject
 90
      499
 91
      501
 95
   983063
 70
     0
 93
      420
310
425499585B1A5CDD1A58D08409028333333333333E3BF0000000000000FB01079019070040501508421405064090741402480A1B45
 94
        0
1001
ACAD
1000
AcDbSavedByObjectVersion
1070
     0
1000
AcRTDxfName
1000
VISUALSTYLE
1000
AcRTDxfName
1000
VISUALSTYLE
1000
AcRTDxfName
1000
VISUALSTYLE
1000
AcRTDxfName
1000
VISUALSTYLE
1000
AcRTDxfName
1000
VISUALSTYLE
1000
AcRTDxfName
1000
VISUALSTYLE
1000
AcRTDxfName
1000
VISUALSTYLE
1000
AcRTDxfName
1000
VISUALSTYLE
1000
AcRTDxfName
1000
VISUALSTYLE
  0
ACAD_PROXY_OBJECT
  5
37
102
{ACAD_REACTORS
330
2A
102
}
330
2A
100
AcDbProxyObject
 90
      499
 91
      501
 95
   983063
 70
     0
 93
      412
310
41D51A1A58DAD95B90D409028333333333333E3BF0000000000000FB010790141107004050150C41D405064090741402480A035B
 94
        0
1001
ACAD
1000
AcDbSavedByObjectVersion
1070
     0
1000
AcRTDxfName
1000
VISUALSTYLE
1000
AcRTDxfName
1000
VISUALSTYLE
1000
AcRTDxfName
1000
VISUALSTYLE
1000
AcRTDxfName
1000
VISUALSTYLE
1000
AcRTDxfName
1000
VISUALSTYLE
1000
AcRTDxfName
1000
VISUALSTYLE
1000
AcRTDxfName
1000
VISUALSTYLE
1000
AcRTDxfName
1000
VISUALSTYLE
1000
AcRTDxfName
1000
VISUALSTYLE
  0
DICTIONARYVAR
  5
1D36
102
{ACAD_REACTORS
330
1C0B
102
}
330
1C0B
100
DictionaryVariables
280
     0
  1
STANDARD
  0
DICTIONARYVAR
  5
39A7
102
{ACAD_REACTORS
330
1C0B
102
}
330
1C0B
100
DictionaryVariables
280
     0
  1
1
  0
DICTIONARYVAR
  5
39A8
102
{ACAD_REACTORS
330
1C0B
102
}
330
1C0B
100
DictionaryVariables
280
     0
  1

  0
DICTIONARYVAR
  5
1C0D
102
{ACAD_REACTORS
330
1C0B
102
}
330
1C0B
100
DictionaryVariables
280
     0
  1
80.000000
  0
DICTIONARYVAR
  5
1C0C
102
{ACAD_REACTORS
330
1C0B
102
}
330
1C0B
100
DictionaryVariables
280
     0
  1
5.000000
  0
DICTIONARY
  5
ED2F
330
1E
100
AcDbDictionary
280
     1
281
     1
  3
ACAD_XREC_ROUNDTRIP
360
ED30
  0
DICTIONARY
  5
ED33
330
26
100
AcDbDictionary
280
     1
281
     1
  3
ACAD_XREC_ROUNDTRIP
360
ED34
  0
DICTIONARY
  5
ED31
330
22
100
AcDbDictionary
280
     1
281
     1
  3
ACAD_XREC_ROUNDTRIP
360
ED32
  0
DICTIONARY
  5
D365
330
D364
100
AcDbDictionary
280
     1
281
     1
  3
ACAD_XREC_ROUNDTRIP
360
D366
  0
XRECORD
  5
ED30
102
{ACAD_REACTORS
330
ED2F
102
}
330
ED2F
100
AcDbXrecord
280
     1
102
SHADEPLOT
 70
     0
102
SHADEPLOTRESLEVEL
 70
     2
102
SHADEPLOTCUSTOMDPI
 70
   300
  0
XRECORD
  5
ED34
102
{ACAD_REACTORS
330
ED33
102
}
330
ED33
100
AcDbXrecord
280
     1
102
SHADEPLOT
 70
     0
102
SHADEPLOTRESLEVEL
 70
     2
102
SHADEPLOTCUSTOMDPI
 70
   300
  0
XRECORD
  5
ED32
102
{ACAD_REACTORS
330
ED31
102
}
330
ED31
100
AcDbXrecord
280
     1
102
SHADEPLOT
 70
     0
102
SHADEPLOTRESLEVEL
 70
     2
102
SHADEPLOTCUSTOMDPI
 70
   300
  0
XRECORD
  5
D366
102
{ACAD_REACTORS
330
D365
102
}
330
D365
100
AcDbXrecord
280
     1
102
MATERIAL
148
0.0
149
0.0
149
0.0
 93
        0
 94
      127
282
     0
 72
     1
 77
     1
171
     1
175
     1
179
     1
273
     0
  0
ENDSEC
  0
EOF
