  0
SECTION
  2
HEADER
  9
$ACADVER
  1
AC1015
  9
$ACADMAINTVER
 70
    20
  9
$DWGCODEPAGE
  3
ANSI_1252
  9
$INSBASE
 10
0.0
 20
0.0
 30
0.0
  9
$EXTMIN
 10
-0.045311687738149
 20
-0.0320385670875112
 30
-0.000000000000013
  9
$EXTMAX
 10
594.0000027663659
 20
420.0000019560165
 30
0.0000000000000023
  9
$LIMMIN
 10
0.0
 20
0.0
  9
$LIMMAX
 10
420.0
 20
297.0
  9
$ORTHOMODE
 70
     1
  9
$REGENMODE
 70
     1
  9
$FILLMODE
 70
     1
  9
$QTEXTMODE
 70
     0
  9
$MIRRTEXT
 70
     1
  9
$LTSCALE
 40
1.0
  9
$ATTMODE
 70
     1
  9
$TEXTSIZE
 40
2.0
  9
$TRACEWID
 40
1.0
  9
$TEXTSTYLE
  7
TASTENTEXT
  9
$CLAYER
  8
Modules
  9
$CELTYPE
  6
BYLAYER
  9
$CECOLOR
 62
   256
  9
$CELTSCALE
 40
1.0
  9
$DISPSILH
 70
     0
  9
$DIMSCALE
 40
1.0
  9
$DIMASZ
 40
2.5
  9
$DIMEXO
 40
0.625
  9
$DIMDLI
 40
3.75
  9
$DIMRND
 40
0.0
  9
$DIMDLE
 40
0.0
  9
$DIMEXE
 40
1.25
  9
$DIMTP
 40
0.0
  9
$DIMTM
 40
0.0
  9
$DIMTXT
 40
2.5
  9
$DIMCEN
 40
2.5
  9
$DIMTSZ
 40
0.0
  9
$DIMTOL
 70
     0
  9
$DIMLIM
 70
     0
  9
$DIMTIH
 70
     0
  9
$DIMTOH
 70
     0
  9
$DIMSE1
 70
     0
  9
$DIMSE2
 70
     0
  9
$DIMTAD
 70
     1
  9
$DIMZIN
 70
     8
  9
$DIMBLK
  1

  9
$DIMASO
 70
     1
  9
$DIMSHO
 70
     1
  9
$DIMPOST
  1

  9
$DIMAPOST
  1

  9
$DIMALT
 70
     0
  9
$DIMALTD
 70
     4
  9
$DIMALTF
 40
0.0394
  9
$DIMLFAC
 40
1.0
  9
$DIMTOFL
 70
     1
  9
$DIMTVP
 40
0.0
  9
$DIMTIX
 70
     0
  9
$DIMSOXD
 70
     0
  9
$DIMSAH
 70
     0
  9
$DIMBLK1
  1

  9
$DIMBLK2
  1

  9
$DIMSTYLE
  2
STANDARD
  9
$DIMCLRD
 70
     0
  9
$DIMCLRE
 70
     0
  9
$DIMCLRT
 70
     0
  9
$DIMTFAC
 40
1.0
  9
$DIMGAP
 40
0.625
  9
$DIMJUST
 70
     0
  9
$DIMSD1
 70
     0
  9
$DIMSD2
 70
     0
  9
$DIMTOLJ
 70
     1
  9
$DIMTZIN
 70
     0
  9
$DIMALTZ
 70
     0
  9
$DIMALTTZ
 70
     0
  9
$DIMUPT
 70
     0
  9
$DIMDEC
 70
     4
  9
$DIMTDEC
 70
     4
  9
$DIMALTU
 70
     8
  9
$DIMALTTD
 70
     4
  9
$DIMTXSTY
  7
STANDARD
  9
$DIMAUNIT
 70
     0
  9
$DIMADEC
 70
     0
  9
$DIMALTRND
 40
0.0
  9
$DIMAZIN
 70
     0
  9
$DIMDSEP
 70
    46
  9
$DIMATFIT
 70
     3
  9
$DIMFRAC
 70
     0
  9
$DIMLDRBLK
  1

  9
$DIMLUNIT
 70
     6
  9
$DIMLWD
 70
    -2
  9
$DIMLWE
 70
    -2
  9
$DIMTMOVE
 70
     0
  9
$LUNITS
 70
     2
  9
$LUPREC
 70
     4
  9
$SKETCHINC
 40
1.0
  9
$FILLETRAD
 40
1.0
  9
$AUNITS
 70
     0
  9
$AUPREC
 70
     0
  9
$MENU
  1
acad
  9
$ELEVATION
 40
0.0
  9
$PELEVATION
 40
0.0
  9
$THICKNESS
 40
0.0
  9
$LIMCHECK
 70
     0
  9
$CHAMFERA
 40
0.0
  9
$CHAMFERB
 40
0.0
  9
$CHAMFERC
 40
20.0
  9
$CHAMFERD
 40
0.0
  9
$SKPOLY
 70
     0
  9
$TDCREATE
 40
2451774.314132176
  9
$TDUCREATE
 40
2451774.272465510
  9
$TDUPDATE
 40
2454162.513795568
  9
$TDUUPDATE
 40
2454162.472128900
  9
$TDINDWG
 40
0.5181346065
  9
$TDUSRTIMER
 40
0.5181346065
  9
$USRTIMER
 70
     1
  9
$ANGBASE
 50
0.0
  9
$ANGDIR
 70
     0
  9
$PDMODE
 70
     0
  9
$PDSIZE
 40
0.0
  9
$PLINEWID
 40
0.0
  9
$SPLFRAME
 70
     0
  9
$SPLINETYPE
 70
     6
  9
$SPLINESEGS
 70
     8
  9
$HANDSEED
  5
2A404
  9
$SURFTAB1
 70
     6
  9
$SURFTAB2
 70
     6
  9
$SURFTYPE
 70
     6
  9
$SURFU
 70
     6
  9
$SURFV
 70
     6
  9
$UCSBASE
  2

  9
$UCSNAME
  2

  9
$UCSORG
 10
0.0
 20
0.0
 30
0.0
  9
$UCSXDIR
 10
1.0
 20
0.0
 30
0.0
  9
$UCSYDIR
 10
0.0
 20
1.0
 30
0.0
  9
$UCSORTHOREF
  2

  9
$UCSORTHOVIEW
 70
     0
  9
$UCSORGTOP
 10
0.0
 20
0.0
 30
0.0
  9
$UCSORGBOTTOM
 10
0.0
 20
0.0
 30
0.0
  9
$UCSORGLEFT
 10
0.0
 20
0.0
 30
0.0
  9
$UCSORGRIGHT
 10
0.0
 20
0.0
 30
0.0
  9
$UCSORGFRONT
 10
0.0
 20
0.0
 30
0.0
  9
$UCSORGBACK
 10
0.0
 20
0.0
 30
0.0
  9
$PUCSBASE
  2

  9
$PUCSNAME
  2

  9
$PUCSORG
 10
0.0
 20
0.0
 30
0.0
  9
$PUCSXDIR
 10
1.0
 20
0.0
 30
0.0
  9
$PUCSYDIR
 10
0.0
 20
1.0
 30
0.0
  9
$PUCSORTHOREF
  2

  9
$PUCSORTHOVIEW
 70
     0
  9
$PUCSORGTOP
 10
0.0
 20
0.0
 30
0.0
  9
$PUCSORGBOTTOM
 10
0.0
 20
0.0
 30
0.0
  9
$PUCSORGLEFT
 10
0.0
 20
0.0
 30
0.0
  9
$PUCSORGRIGHT
 10
0.0
 20
0.0
 30
0.0
  9
$PUCSORGFRONT
 10
0.0
 20
0.0
 30
0.0
  9
$PUCSORGBACK
 10
0.0
 20
0.0
 30
0.0
  9
$USERI1
 70
     0
  9
$USERI2
 70
     0
  9
$USERI3
 70
     0
  9
$USERI4
 70
     0
  9
$USERI5
 70
     0
  9
$USERR1
 40
0.0
  9
$USERR2
 40
0.0
  9
$USERR3
 40
0.0
  9
$USERR4
 40
0.0
  9
$USERR5
 40
0.0
  9
$WORLDVIEW
 70
     1
  9
$SHADEDGE
 70
     3
  9
$SHADEDIF
 70
    70
  9
$TILEMODE
 70
     1
  9
$MAXACTVP
 70
    48
  9
$PINSBASE
 10
0.0
 20
0.0
 30
0.0
  9
$PLIMCHECK
 70
     0
  9
$PEXTMIN
 10
1.000000000000000E+20
 20
1.000000000000000E+20
 30
1.000000000000000E+20
  9
$PEXTMAX
 10
-1.000000000000000E+20
 20
-1.000000000000000E+20
 30
-1.000000000000000E+20
  9
$PLIMMIN
 10
0.0
 20
0.0
  9
$PLIMMAX
 10
420.0
 20
297.0
  9
$UNITMODE
 70
     0
  9
$VISRETAIN
 70
     1
  9
$PLINEGEN
 70
     0
  9
$PSLTSCALE
 70
     1
  9
$TREEDEPTH
 70
  3020
  9
$CMLSTYLE
  2
STANDARD
  9
$CMLJUST
 70
     0
  9
$CMLSCALE
 40
20.0
  9
$PROXYGRAPHICS
 70
     1
  9
$MEASUREMENT
 70
     1
  9
$CELWEIGHT
370
    -1
  9
$ENDCAPS
280
     0
  9
$JOINSTYLE
280
     0
  9
$LWDISPLAY
290
     0
  9
$INSUNITS
 70
     0
  9
$HYPERLINKBASE
  1

  9
$STYLESHEET
  1

  9
$XEDIT
290
     1
  9
$CEPSNTYPE
380
     0
  9
$PSTYLEMODE
290
     1
  9
$FINGERPRINTGUID
  2
{E7552BDC-5169-4F54-A499-2C82C71F1FBB}
  9
$VERSIONGUID
  2
{66D733B0-870E-47A4-BB0F-B17205D18DD7}
  9
$EXTNAMES
290
     1
  9
$PSVPSCALE
 40
0.0
  9
$OLESTARTUP
290
     0
  0
ENDSEC
  0
SECTION
  2
CLASSES
  0
CLASS
  1
DICTIONARYVAR
  2
AcDbDictionaryVar
  3
ObjectDBX Classes
 90
        0
280
     0
281
     0
  0
CLASS
  1
SORTENTSTABLE
  2
AcDbSortentsTable
  3
ObjectDBX Classes
 90
        0
280
     0
281
     0
  0
CLASS
  1
ACDBDICTIONARYWDFLT
  2
AcDbDictionaryWithDefault
  3
ObjectDBX Classes
 90
        0
280
     0
281
     0
  0
CLASS
  1
ACDBPLACEHOLDER
  2
AcDbPlaceHolder
  3
ObjectDBX Classes
 90
        0
280
     0
281
     0
  0
CLASS
  1
LAYOUT
  2
AcDbLayout
  3
ObjectDBX Classes
 90
        0
280
     0
281
     0
  0
CLASS
  1
TABLESTYLE
  2
AcDbTableStyle
  3
ObjectDBX Classes
 90
     2047
280
     0
281
     0
  0
ENDSEC
  0
SECTION
  2
TABLES
  0
TABLE
  2
VPORT
  5
8
330
0
100
AcDbSymbolTable
 70
     5
  0
VPORT
  5
2A3FE
330
8
100
AcDbSymbolTableRecord
100
AcDbViewportTableRecord
  2
*Active
 70
     0
 10
0.0
 20
0.0
 11
1.0
 21
1.0
 12
296.9773455393139
 22
209.9839816944645
 13
0.0
 23
0.0
 14
10.0
 24
10.0
 15
10.0
 25
10.0
 16
0.0
 26
0.0
 36
1.0
 17
0.0
 27
0.0
 37
0.0
 40
462.0828691199792
 41
1.293715846994535
 42
50.0
 43
0.0
 44
0.0
 50
0.0
 51
0.0
 71
     0
 72
   100
 73
     1
 74
     1
 75
     0
 76
     0
 77
     0
 78
     0
281
     0
 65
     1
110
0.0
120
0.0
130
0.0
111
1.0
121
0.0
131
0.0
112
0.0
122
1.0
132
0.0
 79
     0
146
0.0
  0
ENDTAB
  0
TABLE
  2
LTYPE
  5
5
330
0
100
AcDbSymbolTable
 70
     1
  0
LTYPE
  5
12
330
5
100
AcDbSymbolTableRecord
100
AcDbLinetypeTableRecord
  2
BYBLOCK
 70
     0
  3

 72
    65
 73
     0
 40
0.0
  0
LTYPE
  5
13
330
5
100
AcDbSymbolTableRecord
100
AcDbLinetypeTableRecord
  2
BYLAYER
 70
     0
  3

 72
    65
 73
     0
 40
0.0
  0
LTYPE
  5
14
330
5
100
AcDbSymbolTableRecord
100
AcDbLinetypeTableRecord
  2
CONTINUOUS
 70
     0
  3
Solid line
 72
    65
 73
     0
 40
0.0
  0
ENDTAB
  0
TABLE
  2
LAYER
  5
2
102
{ACAD_XDICTIONARY
360
2A386
102
}
330
0
100
AcDbSymbolTable
 70
     9
  0
LAYER
  5
E
330
2
100
AcDbSymbolTableRecord
100
AcDbLayerTableRecord
  2
0
 70
     0
 62
     7
  6
CONTINUOUS
370
    -3
390
1B1E3
  0
LAYER
  5
143
330
2
100
AcDbSymbolTableRecord
100
AcDbLayerTableRecord
  2
DEFPOINTS
 70
     0
 62
     7
  6
CONTINUOUS
290
     0
370
    -3
390
1B1E3
  0
LAYER
  5
1848A
330
2
100
AcDbSymbolTableRecord
100
AcDbLayerTableRecord
  2
RAHMEN025
 70
     0
 62
     7
  6
CONTINUOUS
370
    -3
390
1B1E3
  0
LAYER
  5
1848B
330
2
100
AcDbSymbolTableRecord
100
AcDbLayerTableRecord
  2
RAHMEN07
 70
     0
 62
     5
  6
CONTINUOUS
370
    -3
390
1B1E3
  0
LAYER
  5
26712
330
2
100
AcDbSymbolTableRecord
100
AcDbLayerTableRecord
  2
Bemassung
 70
     0
 62
     3
  6
CONTINUOUS
370
    -3
390
1B1E3
  0
LAYER
  5
27AAF
330
2
100
AcDbSymbolTableRecord
100
AcDbLayerTableRecord
  2
Rahmen
 70
     0
 62
     7
  6
CONTINUOUS
370
    -3
390
1B1E3
  0
LAYER
  5
29729
330
2
100
AcDbSymbolTableRecord
100
AcDbLayerTableRecord
  2
Modules
 70
     0
 62
     5
  6
CONTINUOUS
370
    -3
390
1B1E3
  0
LAYER
  5
2A385
330
2
100
AcDbSymbolTableRecord
100
AcDbLayerTableRecord
  2
TEXTFELD
 70
     0
 62
     7
  6
CONTINUOUS
370
    -3
390
1B1E3
  0
ENDTAB
  0
TABLE
  2
STYLE
  5
3
330
0
100
AcDbSymbolTable
 70
     5
  0
STYLE
  5
F
330
3
100
AcDbSymbolTableRecord
100
AcDbTextStyleTableRecord
  2
STANDARD
 70
     0
 40
0.0
 41
1.0
 50
0.0
 71
     0
 42
2.5
  3
txt
  4

  0
STYLE
  5
220D
330
3
100
AcDbSymbolTableRecord
100
AcDbTextStyleTableRecord
  2
TASTENTEXT
 70
     0
 40
2.0
 41
1.0
 50
0.0
 71
     0
 42
2.0
  3
ARIAL.TTF
  4

1001
ACAD
1000
Arial
1071
       34
  0
ENDTAB
  0
TABLE
  2
VIEW
  5
6
330
0
100
AcDbSymbolTable
 70
     0
  0
ENDTAB
  0
TABLE
  2
UCS
  5
7
330
0
100
AcDbSymbolTable
 70
     0
  0
ENDTAB
  0
TABLE
  2
APPID
  5
9
330
0
100
AcDbSymbolTable
 70
     2
  0
APPID
  5
10
330
9
100
AcDbSymbolTableRecord
100
AcDbRegAppTableRecord
  2
ACAD
 70
     0
  0
APPID
  5
2A0F1
330
9
100
AcDbSymbolTableRecord
100
AcDbRegAppTableRecord
  2
ACAD_EXEMPT_FROM_CAD_STANDARDS
 70
     0
  0
ENDTAB
  0
TABLE
  2
DIMSTYLE
  5
A
330
0
100
AcDbSymbolTable
 70
     2
100
AcDbDimStyleTable
 71
     1
340
1D
  0
DIMSTYLE
105
1D
102
{ACAD_REACTORS
330
28E12
330
28E1F
102
}
330
A
100
AcDbSymbolTableRecord
100
AcDbDimStyleTableRecord
  2
STANDARD
 70
     0
340
F
  0
ENDTAB
  0
TABLE
  2
BLOCK_RECORD
  5
1
330
0
100
AcDbSymbolTable
 70
     5
  0
BLOCK_RECORD
  5
18
102
{ACAD_XDICTIONARY
360
9822
102
}
330
1
100
AcDbSymbolTableRecord
100
AcDbBlockTableRecord
  2
*MODEL_SPACE
340
1B1E6
  0
BLOCK_RECORD
  5
15
102
{ACAD_XDICTIONARY
360
2663A
102
}
330
1
100
AcDbSymbolTableRecord
100
AcDbBlockTableRecord
  2
*PAPER_SPACE
340
1B1E7
  0
BLOCK_RECORD
  5
28E13
330
1
100
AcDbSymbolTableRecord
100
AcDbBlockTableRecord
  2
*D1
340
0
  0
BLOCK_RECORD
  5
28E20
330
1
100
AcDbSymbolTableRecord
100
AcDbBlockTableRecord
  2
*D2
340
0
  0
ENDTAB
  0
ENDSEC
  0
SECTION
  2
BLOCKS
  0
BLOCK
  5
19
330
18
100
AcDbEntity
  8
0
100
AcDbBlockBegin
  2
*MODEL_SPACE
 70
     2
 10
0.0
 20
0.0
 30
0.0
  3
*MODEL_SPACE
  1

  0
ENDBLK
  5
1A
330
18
100
AcDbEntity
  8
0
100
AcDbBlockEnd
  0
BLOCK
  5
16
330
15
100
AcDbEntity
 67
     1
  8
0
100
AcDbBlockBegin
  2
*PAPER_SPACE
 70
     0
 10
0.0
 20
0.0
 30
0.0
  3
*PAPER_SPACE
  1

  0
ENDBLK
  5
17
330
15
100
AcDbEntity
 67
     1
  8
0
100
AcDbBlockEnd
  0
BLOCK
  5
28E1D
330
28E13
100
AcDbEntity
  8
0
100
AcDbBlockBegin
  2
*D1
 70
     1
 10
0.0
 20
0.0
 30
0.0
  3
*D1
  1

  0
LINE
  5
2970A
330
28E13
100
AcDbEntity
  8
Bemassung
 62
     0
100
AcDbLine
 10
81.21816142091342
 20
359.5424668352698
 30
0.0
 11
81.21816142091342
 21
373.2602481158397
 31
0.0
  0
LINE
  5
2970B
330
28E13
100
AcDbEntity
  8
Bemassung
 62
     0
100
AcDbLine
 10
521.2181614209135
 20
359.5424668352698
 30
0.0
 11
521.2181614209135
 21
373.2602481158397
 31
0.0
  0
LINE
  5
2970C
330
28E13
100
AcDbEntity
  8
Bemassung
 62
     0
100
AcDbLine
 10
83.71816142091342
 20
372.0102481158396
 30
0.0
 11
518.7181614209134
 21
372.0102481158396
 31
0.0
  0
SOLID
  5
2970D
330
28E13
100
AcDbEntity
  8
Bemassung
 62
     0
100
AcDbTrace
 10
83.71816142091342
 20
372.4269147825063
 30
0.0
 11
83.71816142091342
 21
371.593581449173
 31
0.0
 12
81.21816142091342
 22
372.0102481158396
 32
0.0
 13
81.21816142091342
 23
372.0102481158396
 33
0.0
  0
SOLID
  5
2970E
330
28E13
100
AcDbEntity
  8
Bemassung
 62
     0
100
AcDbTrace
 10
518.7181614209134
 20
372.4269147825063
 30
0.0
 11
518.7181614209134
 21
371.593581449173
 31
0.0
 12
521.2181614209135
 22
372.0102481158396
 32
0.0
 13
521.2181614209135
 23
372.0102481158396
 33
0.0
  0
MTEXT
  5
2970F
330
28E13
100
AcDbEntity
  8
Bemassung
 62
     0
100
AcDbMText
 10
301.2181614209135
 20
373.8852481158397
 30
0.0
 40
2.5
 41
0.0
 71
     5
 72
     1
  1
\A1;448
 73
     1
 44
1.0
1001
ACAD
1000
MTEXTBEGIN
1070
    73
1070
     1
1070
    44
1040
1.0
1070
    74
1070
     0
1000
MTEXTEND
  0
POINT
  5
29710
330
28E13
100
AcDbEntity
  8
DEFPOINTS
 62
     0
100
AcDbPoint
 10
81.21816142091342
 20
358.9174668352698
 30
0.0
  0
POINT
  5
29711
330
28E13
100
AcDbEntity
  8
DEFPOINTS
 62
     0
100
AcDbPoint
 10
521.2181614209135
 20
358.9174668352698
 30
0.0
  0
POINT
  5
29712
330
28E13
100
AcDbEntity
  8
DEFPOINTS
 62
     0
100
AcDbPoint
 10
521.2181614209135
 20
372.0102481158396
 30
0.0
  0
ENDBLK
  5
28E1E
330
28E13
100
AcDbEntity
  8
0
100
AcDbBlockEnd
  0
BLOCK
  5
28E2A
330
28E20
100
AcDbEntity
  8
0
100
AcDbBlockBegin
  2
*D2
 70
     1
 10
0.0
 20
0.0
 30
0.0
  3
*D2
  1

  0
LINE
  5
2A3CE
330
28E20
100
AcDbEntity
  8
Bemassung
 62
     0
370
    -2
100
AcDbLine
 10
81.21816142091342
 20
358.9174668352698
 30
0.0
 11
69.31914219402829
 21
358.9174668352698
 31
0.0
  0
LINE
  5
2A3CF
330
28E20
100
AcDbEntity
  8
Bemassung
 62
     0
370
    -2
100
AcDbLine
 10
81.21816142091342
 20
93.9174668352698
 30
0.0
 11
69.31914219402822
 21
93.9174668352698
 31
0.0
  0
LINE
  5
2A3D0
330
28E20
100
AcDbEntity
  8
Bemassung
 62
     0
370
    -2
100
AcDbLine
 10
70.56914219402829
 20
356.4174668352698
 30
0.0
 11
70.56914219402823
 21
96.41746683526982
 31
0.0
  0
SOLID
  5
2A3D1
330
28E20
100
AcDbEntity
  8
Bemassung
 62
     0
100
AcDbTrace
 10
70.15247552736162
 20
356.4174668352698
 30
0.0
 11
70.98580886069496
 21
356.4174668352698
 31
0.0
 12
70.56914219402829
 22
358.9174668352698
 32
0.0
 13
70.56914219402829
 23
358.9174668352698
 33
0.0
  0
SOLID
  5
2A3D2
330
28E20
100
AcDbEntity
  8
Bemassung
 62
     0
100
AcDbTrace
 10
70.15247552736155
 20
96.41746683526982
 30
0.0
 11
70.9858088606949
 21
96.41746683526982
 31
0.0
 12
70.56914219402822
 22
93.9174668352698
 32
0.0
 13
70.56914219402822
 23
93.9174668352698
 33
0.0
  0
MTEXT
  5
2A3D3
330
28E20
100
AcDbEntity
  8
Bemassung
 62
     0
100
AcDbMText
 10
68.69414219402822
 20
226.4174668352698
 30
0.0
 40
2.5
 41
0.0
 71
     5
 72
     1
  1
\A1;266
 11
0.0000000000000001
 21
1.0
 31
0.0
 73
     1
 44
1.0
1001
ACAD
1000
MTEXTBEGIN
1070
    73
1070
     1
1070
    44
1040
1.0
1070
    74
1070
     0
1000
MTEXTEND
  0
POINT
  5
2A3D4
330
28E20
100
AcDbEntity
  8
DEFPOINTS
 62
     0
100
AcDbPoint
 10
81.84316142091342
 20
358.9174668352698
 30
0.0
  0
POINT
  5
2A3D5
330
28E20
100
AcDbEntity
  8
DEFPOINTS
 62
     0
100
AcDbPoint
 10
81.84316142091342
 20
93.9174668352698
 30
0.0
  0
POINT
  5
2A3D6
330
28E20
100
AcDbEntity
  8
DEFPOINTS
 62
     0
100
AcDbPoint
 10
70.56914219402822
 20
93.9174668352698
 30
0.0
  0
ENDBLK
  5
28E2B
330
28E20
100
AcDbEntity
  8
0
100
AcDbBlockEnd
  0
ENDSEC
  0
SECTION
  2
ENTITIES
  0
LINE
  5
266D4
330
18
100
AcDbEntity
  8
RAHMEN07
100
AcDbLine
 10
589.0
 20
415.0
 30
0.0
 11
20.0
 21
415.0
 31
0.0
  0
LINE
  5
266D5
330
18
100
AcDbEntity
  8
RAHMEN07
100
AcDbLine
 10
20.0
 20
5.0
 30
0.0
 11
589.0
 21
5.0
 31
0.0
  0
LINE
  5
266D6
330
18
100
AcDbEntity
  8
RAHMEN025
100
AcDbLine
 10
594.0
 20
420.0
 30
0.0
 11
0.0
 21
420.0
 31
0.0
  0
LINE
  5
266D7
330
18
100
AcDbEntity
  8
RAHMEN025
100
AcDbLine
 10
0.0
 20
0.0
 30
0.0
 11
594.0
 21
0.0
 31
0.0
  0
LINE
  5
266D8
330
18
100
AcDbEntity
  8
RAHMEN07
100
AcDbLine
 10
20.0
 20
415.0
 30
0.0
 11
20.0
 21
5.0
 31
0.0
  0
LINE
  5
266D9
330
18
100
AcDbEntity
  8
RAHMEN025
100
AcDbLine
 10
0.0
 20
420.0
 30
0.0
 11
0.0
 21
0.0
 31
0.0
  0
LINE
  5
266DA
330
18
100
AcDbEntity
  8
RAHMEN07
100
AcDbLine
 10
589.0
 20
5.0
 30
0.0
 11
589.0
 21
415.0
 31
0.0
  0
LINE
  5
266DB
330
18
100
AcDbEntity
  8
RAHMEN025
100
AcDbLine
 10
594.0
 20
0.0
 30
0.0
 11
594.0
 21
420.0
 31
0.0
  0
DIMENSION
  5
28E12
330
18
100
AcDbEntity
  8
Bemassung
100
AcDbDimension
  2
*D1
 10
521.2181614209135
 20
372.0102481158396
 30
0.0
 11
301.2181614209135
 21
373.8852481158397
 31
0.0
 70
    32
  1
448
 71
     5
 42
-1.0
  3
STANDARD
100
AcDbAlignedDimension
 13
81.21816142091342
 23
358.9174668352698
 33
0.0
 14
521.2181614209135
 24
358.9174668352698
 34
0.0
100
AcDbRotatedDimension
1001
ACAD
1000
DSTYLE
1002
{
1070
   270
1070
     8
1070
   270
1070
     8
1070
   270
1070
     8
1070
    41
1040
2.5
1070
    42
1040
0.625
1070
    43
1040
3.75
1070
    44
1040
1.25
1070
    73
1070
     0
1070
    74
1070
     0
1070
    77
1070
     1
1070
    78
1070
     8
1070
   140
1040
2.5
1070
   141
1040
2.5
1070
   143
1040
0.0394
1070
   147
1040
0.625
1070
   171
1070
     4
1070
   172
1070
     1
1070
   273
1070
     8
1070
   274
1070
     4
1070
   277
1070
     6
1002
}
  0
DIMENSION
  5
28E1F
330
18
100
AcDbEntity
  8
Bemassung
100
AcDbDimension
  2
*D2
 10
70.56914219402822
 20
93.9174668352698
 30
0.0
 11
68.69414219402822
 21
226.4174668352698
 31
0.0
 70
    32
  1
266
 71
     5
 42
265.0
  3
STANDARD
100
AcDbAlignedDimension
 13
81.84316142091342
 23
358.9174668352698
 33
0.0
 14
81.84316142091342
 24
93.9174668352698
 34
0.0
 50
90.0
100
AcDbRotatedDimension
1001
ACAD
1000
DSTYLE
1002
{
1070
   270
1070
     8
1070
   270
1070
     8
1070
   270
1070
     8
1070
    41
1040
2.5
1070
    42
1040
0.625
1070
    43
1040
3.75
1070
    44
1040
1.25
1070
    73
1070
     0
1070
    74
1070
     0
1070
    77
1070
     1
1070
    78
1070
     8
1070
   140
1040
2.5
1070
   141
1040
2.5
1070
   143
1040
0.0394
1070
   147
1040
0.625
1070
   171
1070
     4
1070
   172
1070
     1
1070
   273
1070
     8
1070
   274
1070
     4
1070
   277
1070
     6
1002
}
  0
LWPOLYLINE
  5
2A22E
102
{ACAD_REACTORS
330
2A36A
102
}
330
18
100
AcDbEntity
  8
Modules
100
AcDbPolyline
 90
        4
 70
     1
 43
0.0
 10
301.4081614209132
 20
224.4174670060257
 10
514.4081614209135
 20
224.4174670060257
 10
514.4081614209135
 20
96.01746666451388
 10
301.4081614209132
 20
96.01746666451388
  0
CIRCLE
  5
2A22F
102
{ACAD_REACTORS
330
2A36A
102
}
330
18
100
AcDbEntity
  8
Modules
100
AcDbCircle
 10
308.9081614209137
 20
221.4174666645138
 30
0.0
 40
2.45
  0
LWPOLYLINE
  5
2A230
102
{ACAD_REACTORS
330
2A36A
102
}
330
18
100
AcDbEntity
  8
Modules
100
AcDbPolyline
 90
        6
 70
     1
 43
0.0
 10
308.2730761248052
 20
222.5174666645139
 10
307.6379908286966
 20
221.4174666645138
 10
308.2730761248052
 20
220.3174666645138
 10
309.5432467170224
 20
220.3174666645138
 10
310.178332013131
 20
221.4174666645138
 10
309.5432467170224
 20
222.5174666645139
  0
CIRCLE
  5
2A235
102
{ACAD_REACTORS
330
2A36A
102
}
330
18
100
AcDbEntity
  8
Modules
100
AcDbCircle
 10
308.9081614209137
 20
99.01746666451387
 30
0.0
 40
2.45
  0
LWPOLYLINE
  5
2A236
102
{ACAD_REACTORS
330
2A36A
102
}
330
18
100
AcDbEntity
  8
Modules
100
AcDbPolyline
 90
        6
 70
     1
 43
0.0
 10
308.2730761248051
 20
100.1174666645139
 10
307.6379908286965
 20
99.01746666451387
 10
308.2730761248051
 20
97.91746666451386
 10
309.5432467170223
 20
97.91746666451386
 10
310.1783320131308
 20
99.01746666451387
 10
309.5432467170223
 20
100.1174666645139
  0
CIRCLE
  5
2A237
102
{ACAD_REACTORS
330
2A36A
102
}
330
18
100
AcDbEntity
  8
Modules
100
AcDbCircle
 10
405.4281614209136
 20
99.01746666451387
 30
0.0
 40
2.45
  0
LWPOLYLINE
  5
2A238
102
{ACAD_REACTORS
330
2A36A
102
}
330
18
100
AcDbEntity
  8
Modules
100
AcDbPolyline
 90
        6
 70
     1
 43
0.0
 10
404.7930761248051
 20
100.1174666645139
 10
404.1579908286965
 20
99.01746666451387
 10
404.7930761248051
 20
97.91746666451386
 10
406.0632467170223
 20
97.91746666451386
 10
406.6983320131308
 20
99.01746666451387
 10
406.0632467170223
 20
100.1174666645139
  0
CIRCLE
  5
2A239
102
{ACAD_REACTORS
330
2A36A
102
}
330
18
100
AcDbEntity
  8
Modules
100
AcDbCircle
 10
405.4281614209138
 20
221.4174666645138
 30
0.0
 40
2.45
  0
LWPOLYLINE
  5
2A23A
102
{ACAD_REACTORS
330
2A36A
102
}
330
18
100
AcDbEntity
  8
Modules
100
AcDbPolyline
 90
        6
 70
     1
 43
0.0
 10
404.7930761248052
 20
222.5174666645139
 10
404.1579908286967
 20
221.4174666645138
 10
404.7930761248052
 20
220.3174666645138
 10
406.0632467170224
 20
220.3174666645138
 10
406.698332013131
 20
221.4174666645138
 10
406.0632467170224
 20
222.5174666645139
  0
CIRCLE
  5
2A23B
102
{ACAD_REACTORS
330
2A36A
102
}
330
18
100
AcDbEntity
  8
Modules
100
AcDbCircle
 10
507.0281614209134
 20
221.4174666645138
 30
0.0
 40
2.45
  0
LWPOLYLINE
  5
2A23C
102
{ACAD_REACTORS
330
2A36A
102
}
330
18
100
AcDbEntity
  8
Modules
100
AcDbPolyline
 90
        6
 70
     1
 43
0.0
 10
506.3930761248049
 20
222.5174666645139
 10
505.7579908286963
 20
221.4174666645138
 10
506.3930761248049
 20
220.3174666645138
 10
507.663246717022
 20
220.3174666645138
 10
508.2983320131306
 20
221.4174666645138
 10
507.663246717022
 20
222.5174666645139
  0
CIRCLE
  5
2A241
102
{ACAD_REACTORS
330
2A36A
102
}
330
18
100
AcDbEntity
  8
Modules
100
AcDbCircle
 10
507.0281614209135
 20
99.01746666451387
 30
0.0
 40
2.45
  0
LWPOLYLINE
  5
2A242
102
{ACAD_REACTORS
330
2A36A
102
}
330
18
100
AcDbEntity
  8
Modules
100
AcDbPolyline
 90
        6
 70
     1
 43
0.0
 10
506.393076124805
 20
100.1174666645139
 10
505.7579908286964
 20
99.01746666451387
 10
506.393076124805
 20
97.91746666451386
 10
507.6632467170222
 20
97.91746666451386
 10
508.2983320131307
 20
99.01746666451387
 10
507.6632467170222
 20
100.1174666645139
  0
LWPOLYLINE
  5
2A308
102
{ACAD_REACTORS
330
2A335
102
}
330
18
100
AcDbEntity
  8
Modules
100
AcDbPolyline
 90
        8
 70
     1
 43
0.0
 10
323.6081614209137
 20
338.7174666645138
 10
382.4081614209137
 20
338.7174666645138
 42
-0.4142135623730951
 10
383.4081614209137
 20
337.7174666645138
 10
383.4081614209137
 20
310.5174666645139
 42
-0.4142135623730951
 10
382.4081614209137
 20
309.5174666645139
 10
323.6081614209137
 20
309.5174666645139
 42
-0.4142135623730951
 10
322.6081614209137
 20
310.5174666645139
 10
322.6081614209137
 20
337.7174666645138
 42
-0.4142135623730951
  0
CIRCLE
  5
2A309
102
{ACAD_REACTORS
330
2A335
102
}
330
18
100
AcDbEntity
  8
Modules
100
AcDbCircle
 10
508.0531614209134
 20
331.7174511266779
 30
0.0
 40
1.3
  0
LWPOLYLINE
  5
2A30A
102
{ACAD_REACTORS
330
2A335
102
}
330
18
100
AcDbEntity
  8
Modules
100
AcDbPolyline
 90
        4
 70
     1
 43
0.0
 10
301.4081614209131
 20
357.1174670060258
 10
514.4081614209135
 20
357.1174670060258
 10
514.4081614209135
 20
228.7174666645139
 10
301.4081614209131
 20
228.7174666645139
  0
CIRCLE
  5
2A30B
102
{ACAD_REACTORS
330
2A335
102
}
330
18
100
AcDbEntity
  8
Modules
100
AcDbCircle
 10
308.9081614209137
 20
354.1174666645139
 30
0.0
 40
2.45
  0
LWPOLYLINE
  5
2A30C
102
{ACAD_REACTORS
330
2A335
102
}
330
18
100
AcDbEntity
  8
Modules
100
AcDbPolyline
 90
        6
 70
     1
 43
0.0
 10
308.2730761248051
 20
355.2174666645139
 10
307.6379908286966
 20
354.1174666645139
 10
308.2730761248051
 20
353.0174666645139
 10
309.5432467170223
 20
353.0174666645139
 10
310.1783320131309
 20
354.1174666645139
 10
309.5432467170223
 20
355.2174666645139
  0
CIRCLE
  5
2A30D
102
{ACAD_REACTORS
330
2A335
102
}
330
18
100
AcDbEntity
  8
Modules
100
AcDbCircle
 10
308.9081614209137
 20
342.4174666645139
 30
0.0
 40
2.45
  0
LWPOLYLINE
  5
2A30E
102
{ACAD_REACTORS
330
2A335
102
}
330
18
100
AcDbEntity
  8
Modules
100
AcDbPolyline
 90
        6
 70
     1
 43
0.0
 10
308.2730761248051
 20
343.517466664514
 10
307.6379908286966
 20
342.4174666645139
 10
308.2730761248051
 20
341.317466664514
 10
309.5432467170223
 20
341.317466664514
 10
310.1783320131309
 20
342.4174666645139
 10
309.5432467170223
 20
343.517466664514
  0
CIRCLE
  5
2A30F
102
{ACAD_REACTORS
330
2A335
102
}
330
18
100
AcDbEntity
  8
Modules
100
AcDbCircle
 10
308.9081614209136
 20
243.417466664514
 30
0.0
 40
2.45
  0
LWPOLYLINE
  5
2A310
102
{ACAD_REACTORS
330
2A335
102
}
330
18
100
AcDbEntity
  8
Modules
100
AcDbPolyline
 90
        6
 70
     1
 43
0.0
 10
308.273076124805
 20
244.517466664514
 10
307.6379908286964
 20
243.417466664514
 10
308.273076124805
 20
242.3174666645139
 10
309.5432467170222
 20
242.3174666645139
 10
310.1783320131308
 20
243.417466664514
 10
309.5432467170222
 20
244.517466664514
  0
CIRCLE
  5
2A311
102
{ACAD_REACTORS
330
2A335
102
}
330
18
100
AcDbEntity
  8
Modules
100
AcDbCircle
 10
308.9081614209136
 20
231.717466664514
 30
0.0
 40
2.45
  0
LWPOLYLINE
  5
2A312
102
{ACAD_REACTORS
330
2A335
102
}
330
18
100
AcDbEntity
  8
Modules
100
AcDbPolyline
 90
        6
 70
     1
 43
0.0
 10
308.273076124805
 20
232.817466664514
 10
307.6379908286964
 20
231.717466664514
 10
308.273076124805
 20
230.6174666645139
 10
309.5432467170222
 20
230.6174666645139
 10
310.1783320131308
 20
231.717466664514
 10
309.5432467170222
 20
232.817466664514
  0
CIRCLE
  5
2A313
102
{ACAD_REACTORS
330
2A335
102
}
330
18
100
AcDbEntity
  8
Modules
100
AcDbCircle
 10
405.4281614209136
 20
231.717466664514
 30
0.0
 40
2.45
  0
LWPOLYLINE
  5
2A314
102
{ACAD_REACTORS
330
2A335
102
}
330
18
100
AcDbEntity
  8
Modules
100
AcDbPolyline
 90
        6
 70
     1
 43
0.0
 10
404.793076124805
 20
232.817466664514
 10
404.1579908286965
 20
231.717466664514
 10
404.793076124805
 20
230.6174666645139
 10
406.0632467170222
 20
230.6174666645139
 10
406.6983320131308
 20
231.717466664514
 10
406.0632467170222
 20
232.817466664514
  0
CIRCLE
  5
2A315
102
{ACAD_REACTORS
330
2A335
102
}
330
18
100
AcDbEntity
  8
Modules
100
AcDbCircle
 10
405.4281614209137
 20
354.1174666645139
 30
0.0
 40
2.45
  0
LWPOLYLINE
  5
2A316
102
{ACAD_REACTORS
330
2A335
102
}
330
18
100
AcDbEntity
  8
Modules
100
AcDbPolyline
 90
        6
 70
     1
 43
0.0
 10
404.7930761248052
 20
355.2174666645139
 10
404.1579908286966
 20
354.1174666645139
 10
404.7930761248052
 20
353.0174666645139
 10
406.0632467170223
 20
353.0174666645139
 10
406.6983320131309
 20
354.1174666645139
 10
406.0632467170223
 20
355.2174666645139
  0
CIRCLE
  5
2A317
102
{ACAD_REACTORS
330
2A335
102
}
330
18
100
AcDbEntity
  8
Modules
100
AcDbCircle
 10
507.0281614209134
 20
354.1174666645139
 30
0.0
 40
2.45
  0
LWPOLYLINE
  5
2A318
102
{ACAD_REACTORS
330
2A335
102
}
330
18
100
AcDbEntity
  8
Modules
100
AcDbPolyline
 90
        6
 70
     1
 43
0.0
 10
506.3930761248048
 20
355.2174666645139
 10
505.7579908286962
 20
354.1174666645139
 10
506.3930761248048
 20
353.0174666645139
 10
507.663246717022
 20
353.0174666645139
 10
508.2983320131305
 20
354.1174666645139
 10
507.663246717022
 20
355.2174666645139
  0
CIRCLE
  5
2A319
102
{ACAD_REACTORS
330
2A335
102
}
330
18
100
AcDbEntity
  8
Modules
100
AcDbCircle
 10
507.0281614209134
 20
342.4174666645139
 30
0.0
 40
2.45
  0
LWPOLYLINE
  5
2A31A
102
{ACAD_REACTORS
330
2A335
102
}
330
18
100
AcDbEntity
  8
Modules
100
AcDbPolyline
 90
        6
 70
     1
 43
0.0
 10
506.3930761248048
 20
343.517466664514
 10
505.7579908286962
 20
342.4174666645139
 10
506.3930761248048
 20
341.317466664514
 10
507.663246717022
 20
341.317466664514
 10
508.2983320131305
 20
342.4174666645139
 10
507.663246717022
 20
343.517466664514
  0
CIRCLE
  5
2A31B
102
{ACAD_REACTORS
330
2A335
102
}
330
18
100
AcDbEntity
  8
Modules
100
AcDbCircle
 10
507.0281614209135
 20
243.417466664514
 30
0.0
 40
2.45
  0
LWPOLYLINE
  5
2A31C
102
{ACAD_REACTORS
330
2A335
102
}
330
18
100
AcDbEntity
  8
Modules
100
AcDbPolyline
 90
        6
 70
     1
 43
0.0
 10
506.3930761248049
 20
244.517466664514
 10
505.7579908286964
 20
243.417466664514
 10
506.3930761248049
 20
242.3174666645139
 10
507.6632467170221
 20
242.3174666645139
 10
508.2983320131307
 20
243.417466664514
 10
507.6632467170221
 20
244.517466664514
  0
CIRCLE
  5
2A31D
102
{ACAD_REACTORS
330
2A335
102
}
330
18
100
AcDbEntity
  8
Modules
100
AcDbCircle
 10
507.0281614209135
 20
231.717466664514
 30
0.0
 40
2.45
  0
LWPOLYLINE
  5
2A31E
102
{ACAD_REACTORS
330
2A335
102
}
330
18
100
AcDbEntity
  8
Modules
100
AcDbPolyline
 90
        6
 70
     1
 43
0.0
 10
506.3930761248049
 20
232.817466664514
 10
505.7579908286964
 20
231.717466664514
 10
506.3930761248049
 20
230.6174666645139
 10
507.6632467170221
 20
230.6174666645139
 10
508.2983320131307
 20
231.717466664514
 10
507.6632467170221
 20
232.817466664514
  0
CIRCLE
  5
2A31F
102
{ACAD_REACTORS
330
2A335
102
}
330
18
100
AcDbEntity
  8
Modules
100
AcDbCircle
 10
323.9081614209136
 20
344.0174666645138
 30
0.0
 40
2.75
  0
LWPOLYLINE
  5
2A320
102
{ACAD_REACTORS
330
2A335
102
}
330
18
100
AcDbEntity
  8
Modules
100
AcDbPolyline
 90
        6
 70
     1
 43
0.0
 10
323.2730761248051
 20
345.1174666645138
 10
322.6379908286964
 20
344.0174666645138
 10
323.2730761248051
 20
342.9174666645138
 10
324.5432467170222
 20
342.9174666645138
 10
325.1783320131309
 20
344.0174666645138
 10
324.5432467170222
 20
345.1174666645138
  0
CIRCLE
  5
2A321
102
{ACAD_REACTORS
330
2A335
102
}
330
18
100
AcDbEntity
  8
Modules
100
AcDbCircle
 10
407.9081614209136
 20
344.0174666645138
 30
0.0
 40
2.75
  0
LWPOLYLINE
  5
2A322
102
{ACAD_REACTORS
330
2A335
102
}
330
18
100
AcDbEntity
  8
Modules
100
AcDbPolyline
 90
        6
 70
     1
 43
0.0
 10
407.2730761248051
 20
345.1174666645138
 10
406.6379908286965
 20
344.0174666645138
 10
407.2730761248051
 20
342.9174666645138
 10
408.5432467170222
 20
342.9174666645138
 10
409.1783320131308
 20
344.0174666645138
 10
408.5432467170222
 20
345.1174666645138
  0
CIRCLE
  5
2A323
102
{ACAD_REACTORS
330
2A335
102
}
330
18
100
AcDbEntity
  8
Modules
100
AcDbCircle
 10
491.9081614209136
 20
344.0174666645138
 30
0.0
 40
2.75
  0
LWPOLYLINE
  5
2A324
102
{ACAD_REACTORS
330
2A335
102
}
330
18
100
AcDbEntity
  8
Modules
100
AcDbPolyline
 90
        6
 70
     1
 43
0.0
 10
491.2730761248051
 20
345.1174666645138
 10
490.6379908286965
 20
344.0174666645138
 10
491.2730761248051
 20
342.9174666645138
 10
492.5432467170223
 20
342.9174666645138
 10
493.1783320131308
 20
344.0174666645138
 10
492.5432467170223
 20
345.1174666645138
  0
CIRCLE
  5
2A325
102
{ACAD_REACTORS
330
2A335
102
}
330
18
100
AcDbEntity
  8
Modules
100
AcDbCircle
 10
313.9081614209136
 20
272.3174511266776
 30
0.0
 40
2.75
  0
LWPOLYLINE
  5
2A326
102
{ACAD_REACTORS
330
2A335
102
}
330
18
100
AcDbEntity
  8
Modules
100
AcDbPolyline
 90
        6
 70
     1
 43
0.0
 10
313.2730761248049
 20
273.4174511266776
 10
312.6379908286964
 20
272.3174511266776
 10
313.2730761248049
 20
271.2174511266775
 10
314.5432467170222
 20
271.2174511266775
 10
315.1783320131307
 20
272.3174511266776
 10
314.5432467170222
 20
273.4174511266776
  0
CIRCLE
  5
2A327
102
{ACAD_REACTORS
330
2A335
102
}
330
18
100
AcDbEntity
  8
Modules
100
AcDbCircle
 10
501.9081614209135
 20
272.3174511266776
 30
0.0
 40
2.75
  0
LWPOLYLINE
  5
2A328
102
{ACAD_REACTORS
330
2A335
102
}
330
18
100
AcDbEntity
  8
Modules
100
AcDbPolyline
 90
        6
 70
     1
 43
0.0
 10
501.2730761248049
 20
273.4174511266776
 10
500.6379908286964
 20
272.3174511266776
 10
501.2730761248049
 20
271.2174511266775
 10
502.5432467170221
 20
271.2174511266775
 10
503.1783320131308
 20
272.3174511266776
 10
502.5432467170221
 20
273.4174511266776
  0
LWPOLYLINE
  5
2A329
102
{ACAD_REACTORS
330
2A335
102
}
330
18
100
AcDbEntity
  8
Modules
100
AcDbPolyline
 90
       13
 70
     0
 43
0.0
 10
320.096075632403
 20
309.4623232292363
 10
312.3460756324031
 20
322.8123232292362
 10
312.3460756324031
 20
325.3226100997915
 10
320.096075632403
 20
338.6726100997915
 10
322.2581614209137
 20
339.9174666645139
 10
383.7581614209137
 20
339.9174666645139
 10
385.9202472094244
 20
338.6726100997915
 10
393.6702472094243
 20
325.3226100997916
 10
393.6702472094243
 20
322.8123232292362
 10
385.9202472094243
 20
309.4623232292363
 10
383.7581614209137
 20
308.217466664514
 10
322.2581614209137
 20
308.2174666645138
 10
320.096075632403
 20
309.4623232292363
  0
CIRCLE
  5
2A32A
102
{ACAD_REACTORS
330
2A335
102
}
330
18
100
AcDbEntity
  8
Modules
100
AcDbCircle
 10
317.0081614209137
 20
324.1174666645139
 30
0.0
 40
2.75
  0
LWPOLYLINE
  5
2A32B
102
{ACAD_REACTORS
330
2A335
102
}
330
18
100
AcDbEntity
  8
Modules
100
AcDbPolyline
 90
        6
 70
     1
 43
0.0
 10
316.3730761248051
 20
325.2174666645138
 10
315.7379908286966
 20
324.1174666645139
 10
316.3730761248051
 20
323.0174666645138
 10
317.6432467170223
 20
323.0174666645138
 10
318.2783320131309
 20
324.1174666645139
 10
317.6432467170223
 20
325.2174666645138
  0
CIRCLE
  5
2A32C
102
{ACAD_REACTORS
330
2A335
102
}
330
18
100
AcDbEntity
  8
Modules
100
AcDbCircle
 10
389.0081614209137
 20
324.1174666645139
 30
0.0
 40
2.75
  0
LWPOLYLINE
  5
2A32D
102
{ACAD_REACTORS
330
2A335
102
}
330
18
100
AcDbEntity
  8
Modules
100
AcDbPolyline
 90
        6
 70
     1
 43
0.0
 10
388.3730761248051
 20
325.2174666645138
 10
387.7379908286965
 20
324.1174666645139
 10
388.3730761248051
 20
323.0174666645138
 10
389.6432467170223
 20
323.0174666645138
 10
390.2783320131309
 20
324.1174666645139
 10
389.6432467170223
 20
325.2174666645138
  0
LWPOLYLINE
  5
2A32E
102
{ACAD_REACTORS
330
2A335
102
}
330
18
100
AcDbEntity
  8
Modules
100
AcDbPolyline
 90
        8
 70
     1
 43
0.0
 10
359.2413841206832
 20
336.0284483799597
 10
378.5208721694597
 20
336.0284483799597
 42
-0.4142135623730951
 10
379.5208721694597
 20
335.0284483799597
 10
379.5208721694597
 20
313.0958045737076
 42
-0.4142135623730951
 10
378.5208721694597
 20
312.0958045737076
 10
359.2413841206832
 20
312.0958045737076
 42
-0.4142135623730951
 10
358.2413841206832
 20
313.0958045737076
 10
358.2413841206832
 20
335.0284483799597
 42
-0.4142135623730951
  0
LWPOLYLINE
  5
2A32F
102
{ACAD_REACTORS
330
2A335
102
}
330
18
100
AcDbEntity
  8
Modules
100
AcDbPolyline
 90
        4
 70
     1
 43
0.0
 10
360.9013197810267
 20
334.1290328283796
 10
376.9875998485585
 20
334.1290328283796
 10
376.9875998485585
 20
314.1218490653729
 10
360.9013197810267
 20
314.1218490653729
  0
LINE
  5
2A330
102
{ACAD_REACTORS
330
2A335
102
}
330
18
100
AcDbEntity
  8
Modules
100
AcDbLine
 10
360.9013197810267
 20
324.1254409468762
 30
0.0
 11
376.9875998485585
 21
324.1254409468762
 31
0.0
  0
LWPOLYLINE
  5
2A331
102
{ACAD_REACTORS
330
2A335
102
}
330
18
100
AcDbEntity
  8
Modules
100
AcDbPolyline
 90
        8
 70
     0
 43
0.0
 10
326.4581614209137
 20
331.1409976688593
 10
331.7602248419153
 20
336.2674666645138
 10
339.7581614209137
 20
336.2674666645138
 10
342.7884207503629
 20
336.2674666645138
 10
342.7884207503629
 20
311.8425488758547
 10
331.760224841915
 20
311.8674666645139
 10
326.4581614209135
 20
316.9939356601684
 10
326.4581614209137
 20
331.1409976688593
  0
LWPOLYLINE
  5
2A332
102
{ACAD_REACTORS
330
2A335
102
}
330
18
100
AcDbEntity
  8
Modules
100
AcDbPolyline
 90
        4
 70
     1
 43
0.0
 10
334.9581614209136
 20
330.9674666645138
 10
338.9581614209136
 20
330.9674666645138
 10
338.9581614209136
 20
333.1674666645138
 10
334.9581614209136
 20
333.1674666645138
  0
LWPOLYLINE
  5
2A333
102
{ACAD_REACTORS
330
2A335
102
}
330
18
100
AcDbEntity
  8
Modules
100
AcDbPolyline
 90
        4
 70
     1
 43
0.0
 10
330.6581614209136
 20
322.9674666645137
 10
334.6581614209136
 20
322.9674666645137
 10
334.6581614209136
 20
325.1674666645138
 10
330.6581614209136
 20
325.1674666645138
  0
LWPOLYLINE
  5
2A334
102
{ACAD_REACTORS
330
2A335
102
}
330
18
100
AcDbEntity
  8
Modules
100
AcDbPolyline
 90
        4
 70
     1
 43
0.0
 10
334.9581614209136
 20
314.9674666645138
 10
338.9581614209136
 20
314.9674666645138
 10
338.9581614209136
 20
317.1674666645138
 10
334.9581614209136
 20
317.1674666645138
  0
LWPOLYLINE
  5
2A33C
102
{ACAD_REACTORS
330
2A369
102
}
330
18
100
AcDbEntity
  8
Modules
100
AcDbPolyline
 90
        8
 70
     1
 43
0.0
 10
110.228161420914
 20
338.7174666645138
 10
169.0281614209141
 20
338.7174666645138
 42
-0.4142135623730951
 10
170.028161420914
 20
337.7174666645138
 10
170.028161420914
 20
310.5174666645139
 42
-0.4142135623730951
 10
169.0281614209141
 20
309.5174666645139
 10
110.228161420914
 20
309.5174666645139
 42
-0.4142135623730951
 10
109.228161420914
 20
310.5174666645139
 10
109.228161420914
 20
337.7174666645138
 42
-0.4142135623730951
  0
CIRCLE
  5
2A33D
102
{ACAD_REACTORS
330
2A369
102
}
330
18
100
AcDbEntity
  8
Modules
100
AcDbCircle
 10
294.6731614209138
 20
331.7174511266779
 30
0.0
 40
1.3
  0
LWPOLYLINE
  5
2A33E
102
{ACAD_REACTORS
330
2A369
102
}
330
18
100
AcDbEntity
  8
Modules
100
AcDbPolyline
 90
        4
 70
     1
 43
0.0
 10
88.02816142091344
 20
357.1174670060258
 10
301.0281614209139
 20
357.1174670060258
 10
301.0281614209139
 20
228.7174666645139
 10
88.02816142091344
 20
228.7174666645139
  0
CIRCLE
  5
2A33F
102
{ACAD_REACTORS
330
2A369
102
}
330
18
100
AcDbEntity
  8
Modules
100
AcDbCircle
 10
95.52816142091407
 20
354.1174666645139
 30
0.0
 40
2.45
  0
LWPOLYLINE
  5
2A340
102
{ACAD_REACTORS
330
2A369
102
}
330
18
100
AcDbEntity
  8
Modules
100
AcDbPolyline
 90
        6
 70
     1
 43
0.0
 10
94.89307612480549
 20
355.2174666645139
 10
94.25799082869692
 20
354.1174666645139
 10
94.89307612480549
 20
353.0174666645139
 10
96.16324671702271
 20
353.0174666645139
 10
96.79833201313128
 20
354.1174666645139
 10
96.16324671702271
 20
355.2174666645139
  0
CIRCLE
  5
2A341
102
{ACAD_REACTORS
330
2A369
102
}
330
18
100
AcDbEntity
  8
Modules
100
AcDbCircle
 10
95.52816142091407
 20
342.4174666645139
 30
0.0
 40
2.45
  0
LWPOLYLINE
  5
2A342
102
{ACAD_REACTORS
330
2A369
102
}
330
18
100
AcDbEntity
  8
Modules
100
AcDbPolyline
 90
        6
 70
     1
 43
0.0
 10
94.89307612480549
 20
343.517466664514
 10
94.25799082869692
 20
342.4174666645139
 10
94.89307612480549
 20
341.317466664514
 10
96.16324671702271
 20
341.317466664514
 10
96.79833201313128
 20
342.4174666645139
 10
96.16324671702271
 20
343.517466664514
  0
CIRCLE
  5
2A343
102
{ACAD_REACTORS
330
2A369
102
}
330
18
100
AcDbEntity
  8
Modules
100
AcDbCircle
 10
95.52816142091396
 20
243.417466664514
 30
0.0
 40
2.45
  0
LWPOLYLINE
  5
2A344
102
{ACAD_REACTORS
330
2A369
102
}
330
18
100
AcDbEntity
  8
Modules
100
AcDbPolyline
 90
        6
 70
     1
 43
0.0
 10
94.89307612480539
 20
244.517466664514
 10
94.25799082869682
 20
243.417466664514
 10
94.89307612480539
 20
242.3174666645139
 10
96.16324671702258
 20
242.3174666645139
 10
96.79833201313115
 20
243.417466664514
 10
96.16324671702258
 20
244.517466664514
  0
CIRCLE
  5
2A345
102
{ACAD_REACTORS
330
2A369
102
}
330
18
100
AcDbEntity
  8
Modules
100
AcDbCircle
 10
95.52816142091396
 20
231.717466664514
 30
0.0
 40
2.45
  0
LWPOLYLINE
  5
2A346
102
{ACAD_REACTORS
330
2A369
102
}
330
18
100
AcDbEntity
  8
Modules
100
AcDbPolyline
 90
        6
 70
     1
 43
0.0
 10
94.89307612480539
 20
232.817466664514
 10
94.25799082869682
 20
231.717466664514
 10
94.89307612480539
 20
230.6174666645139
 10
96.16324671702258
 20
230.6174666645139
 10
96.79833201313115
 20
231.717466664514
 10
96.16324671702258
 20
232.817466664514
  0
CIRCLE
  5
2A347
102
{ACAD_REACTORS
330
2A369
102
}
330
18
100
AcDbEntity
  8
Modules
100
AcDbCircle
 10
192.048161420914
 20
231.717466664514
 30
0.0
 40
2.45
  0
LWPOLYLINE
  5
2A348
102
{ACAD_REACTORS
330
2A369
102
}
330
18
100
AcDbEntity
  8
Modules
100
AcDbPolyline
 90
        6
 70
     1
 43
0.0
 10
191.4130761248054
 20
232.817466664514
 10
190.7779908286968
 20
231.717466664514
 10
191.4130761248054
 20
230.6174666645139
 10
192.6832467170226
 20
230.6174666645139
 10
193.3183320131312
 20
231.717466664514
 10
192.6832467170226
 20
232.817466664514
  0
CIRCLE
  5
2A349
102
{ACAD_REACTORS
330
2A369
102
}
330
18
100
AcDbEntity
  8
Modules
100
AcDbCircle
 10
192.0481614209141
 20
354.1174666645139
 30
0.0
 40
2.45
  0
LWPOLYLINE
  5
2A34A
102
{ACAD_REACTORS
330
2A369
102
}
330
18
100
AcDbEntity
  8
Modules
100
AcDbPolyline
 90
        6
 70
     1
 43
0.0
 10
191.4130761248055
 20
355.2174666645139
 10
190.7779908286969
 20
354.1174666645139
 10
191.4130761248055
 20
353.0174666645139
 10
192.6832467170227
 20
353.0174666645139
 10
193.3183320131313
 20
354.1174666645139
 10
192.6832467170227
 20
355.2174666645139
  0
CIRCLE
  5
2A34B
102
{ACAD_REACTORS
330
2A369
102
}
330
18
100
AcDbEntity
  8
Modules
100
AcDbCircle
 10
293.6481614209138
 20
354.1174666645139
 30
0.0
 40
2.45
  0
LWPOLYLINE
  5
2A34C
102
{ACAD_REACTORS
330
2A369
102
}
330
18
100
AcDbEntity
  8
Modules
100
AcDbPolyline
 90
        6
 70
     1
 43
0.0
 10
293.0130761248053
 20
355.2174666645139
 10
292.3779908286966
 20
354.1174666645139
 10
293.0130761248053
 20
353.0174666645139
 10
294.2832467170224
 20
353.0174666645139
 10
294.918332013131
 20
354.1174666645139
 10
294.2832467170224
 20
355.2174666645139
  0
CIRCLE
  5
2A34D
102
{ACAD_REACTORS
330
2A369
102
}
330
18
100
AcDbEntity
  8
Modules
100
AcDbCircle
 10
293.6481614209138
 20
342.4174666645139
 30
0.0
 40
2.45
  0
LWPOLYLINE
  5
2A34E
102
{ACAD_REACTORS
330
2A369
102
}
330
18
100
AcDbEntity
  8
Modules
100
AcDbPolyline
 90
        6
 70
     1
 43
0.0
 10
293.0130761248053
 20
343.517466664514
 10
292.3779908286966
 20
342.4174666645139
 10
293.0130761248053
 20
341.317466664514
 10
294.2832467170224
 20
341.317466664514
 10
294.918332013131
 20
342.4174666645139
 10
294.2832467170224
 20
343.517466664514
  0
CIRCLE
  5
2A34F
102
{ACAD_REACTORS
330
2A369
102
}
330
18
100
AcDbEntity
  8
Modules
100
AcDbCircle
 10
293.6481614209139
 20
243.417466664514
 30
0.0
 40
2.45
  0
LWPOLYLINE
  5
2A350
102
{ACAD_REACTORS
330
2A369
102
}
330
18
100
AcDbEntity
  8
Modules
100
AcDbPolyline
 90
        6
 70
     1
 43
0.0
 10
293.0130761248054
 20
244.517466664514
 10
292.3779908286967
 20
243.417466664514
 10
293.0130761248054
 20
242.3174666645139
 10
294.2832467170225
 20
242.3174666645139
 10
294.9183320131311
 20
243.417466664514
 10
294.2832467170225
 20
244.517466664514
  0
CIRCLE
  5
2A351
102
{ACAD_REACTORS
330
2A369
102
}
330
18
100
AcDbEntity
  8
Modules
100
AcDbCircle
 10
293.6481614209139
 20
231.717466664514
 30
0.0
 40
2.45
  0
LWPOLYLINE
  5
2A352
102
{ACAD_REACTORS
330
2A369
102
}
330
18
100
AcDbEntity
  8
Modules
100
AcDbPolyline
 90
        6
 70
     1
 43
0.0
 10
293.0130761248054
 20
232.817466664514
 10
292.3779908286967
 20
231.717466664514
 10
293.0130761248054
 20
230.6174666645139
 10
294.2832467170225
 20
230.6174666645139
 10
294.9183320131311
 20
231.717466664514
 10
294.2832467170225
 20
232.817466664514
  0
CIRCLE
  5
2A353
102
{ACAD_REACTORS
330
2A369
102
}
330
18
100
AcDbEntity
  8
Modules
100
AcDbCircle
 10
110.5281614209139
 20
344.0174666645138
 30
0.0
 40
2.75
  0
LWPOLYLINE
  5
2A354
102
{ACAD_REACTORS
330
2A369
102
}
330
18
100
AcDbEntity
  8
Modules
100
AcDbPolyline
 90
        6
 70
     1
 43
0.0
 10
109.8930761248054
 20
345.1174666645138
 10
109.2579908286968
 20
344.0174666645138
 10
109.8930761248054
 20
342.9174666645138
 10
111.1632467170226
 20
342.9174666645138
 10
111.7983320131312
 20
344.0174666645138
 10
111.1632467170226
 20
345.1174666645138
  0
CIRCLE
  5
2A355
102
{ACAD_REACTORS
330
2A369
102
}
330
18
100
AcDbEntity
  8
Modules
100
AcDbCircle
 10
194.528161420914
 20
344.0174666645138
 30
0.0
 40
2.75
  0
LWPOLYLINE
  5
2A356
102
{ACAD_REACTORS
330
2A369
102
}
330
18
100
AcDbEntity
  8
Modules
100
AcDbPolyline
 90
        6
 70
     1
 43
0.0
 10
193.8930761248054
 20
345.1174666645138
 10
193.2579908286968
 20
344.0174666645138
 10
193.8930761248054
 20
342.9174666645138
 10
195.1632467170226
 20
342.9174666645138
 10
195.7983320131312
 20
344.0174666645138
 10
195.1632467170226
 20
345.1174666645138
  0
CIRCLE
  5
2A357
102
{ACAD_REACTORS
330
2A369
102
}
330
18
100
AcDbEntity
  8
Modules
100
AcDbCircle
 10
278.528161420914
 20
344.0174666645138
 30
0.0
 40
2.75
  0
LWPOLYLINE
  5
2A358
102
{ACAD_REACTORS
330
2A369
102
}
330
18
100
AcDbEntity
  8
Modules
100
AcDbPolyline
 90
        6
 70
     1
 43
0.0
 10
277.8930761248055
 20
345.1174666645138
 10
277.2579908286969
 20
344.0174666645138
 10
277.8930761248055
 20
342.9174666645138
 10
279.1632467170226
 20
342.9174666645138
 10
279.7983320131312
 20
344.0174666645138
 10
279.1632467170226
 20
345.1174666645138
  0
CIRCLE
  5
2A359
102
{ACAD_REACTORS
330
2A369
102
}
330
18
100
AcDbEntity
  8
Modules
100
AcDbCircle
 10
100.5281614209139
 20
272.3174511266776
 30
0.0
 40
2.75
  0
LWPOLYLINE
  5
2A35A
102
{ACAD_REACTORS
330
2A369
102
}
330
18
100
AcDbEntity
  8
Modules
100
AcDbPolyline
 90
        6
 70
     1
 43
0.0
 10
99.89307612480534
 20
273.4174511266776
 10
99.25799082869682
 20
272.3174511266776
 10
99.89307612480534
 20
271.2174511266775
 10
101.1632467170225
 20
271.2174511266775
 10
101.7983320131311
 20
272.3174511266776
 10
101.1632467170225
 20
273.4174511266776
  0
CIRCLE
  5
2A35B
102
{ACAD_REACTORS
330
2A369
102
}
330
18
100
AcDbEntity
  8
Modules
100
AcDbCircle
 10
288.528161420914
 20
272.3174511266776
 30
0.0
 40
2.75
  0
LWPOLYLINE
  5
2A35C
102
{ACAD_REACTORS
330
2A369
102
}
330
18
100
AcDbEntity
  8
Modules
100
AcDbPolyline
 90
        6
 70
     1
 43
0.0
 10
287.8930761248053
 20
273.4174511266776
 10
287.2579908286969
 20
272.3174511266776
 10
287.8930761248053
 20
271.2174511266775
 10
289.1632467170226
 20
271.2174511266775
 10
289.7983320131311
 20
272.3174511266776
 10
289.1632467170226
 20
273.4174511266776
  0
LWPOLYLINE
  5
2A35D
102
{ACAD_REACTORS
330
2A369
102
}
330
18
100
AcDbEntity
  8
Modules
100
AcDbPolyline
 90
       13
 70
     0
 43
0.0
 10
106.7160756324034
 20
309.4623232292363
 10
98.96607563240351
 20
322.8123232292362
 10
98.96607563240351
 20
325.3226100997915
 10
106.7160756324034
 20
338.6726100997915
 10
108.8781614209141
 20
339.9174666645139
 10
170.3781614209141
 20
339.9174666645139
 10
172.5402472094247
 20
338.6726100997915
 10
180.2902472094246
 20
325.3226100997916
 10
180.2902472094246
 20
322.8123232292362
 10
172.5402472094247
 20
309.4623232292363
 10
170.3781614209141
 20
308.217466664514
 10
108.8781614209141
 20
308.2174666645138
 10
106.7160756324034
 20
309.4623232292363
  0
CIRCLE
  5
2A35E
102
{ACAD_REACTORS
330
2A369
102
}
330
18
100
AcDbEntity
  8
Modules
100
AcDbCircle
 10
103.6281614209141
 20
324.1174666645139
 30
0.0
 40
2.75
  0
LWPOLYLINE
  5
2A35F
102
{ACAD_REACTORS
330
2A369
102
}
330
18
100
AcDbEntity
  8
Modules
100
AcDbPolyline
 90
        6
 70
     1
 43
0.0
 10
102.9930761248054
 20
325.2174666645138
 10
102.3579908286969
 20
324.1174666645139
 10
102.9930761248054
 20
323.0174666645138
 10
104.2632467170226
 20
323.0174666645138
 10
104.8983320131312
 20
324.1174666645139
 10
104.2632467170226
 20
325.2174666645138
  0
CIRCLE
  5
2A360
102
{ACAD_REACTORS
330
2A369
102
}
330
18
100
AcDbEntity
  8
Modules
100
AcDbCircle
 10
175.628161420914
 20
324.1174666645139
 30
0.0
 40
2.75
  0
LWPOLYLINE
  5
2A361
102
{ACAD_REACTORS
330
2A369
102
}
330
18
100
AcDbEntity
  8
Modules
100
AcDbPolyline
 90
        6
 70
     1
 43
0.0
 10
174.9930761248054
 20
325.2174666645138
 10
174.3579908286969
 20
324.1174666645139
 10
174.9930761248054
 20
323.0174666645138
 10
176.2632467170226
 20
323.0174666645138
 10
176.8983320131312
 20
324.1174666645139
 10
176.2632467170226
 20
325.2174666645138
  0
LWPOLYLINE
  5
2A362
102
{ACAD_REACTORS
330
2A369
102
}
330
18
100
AcDbEntity
  8
Modules
100
AcDbPolyline
 90
        8
 70
     1
 43
0.0
 10
145.8613841206835
 20
336.0284483799597
 10
165.1408721694601
 20
336.0284483799597
 42
-0.4142135623730951
 10
166.1408721694601
 20
335.0284483799597
 10
166.1408721694601
 20
313.0958045737076
 42
-0.4142135623730951
 10
165.1408721694601
 20
312.0958045737076
 10
145.8613841206835
 20
312.0958045737076
 42
-0.4142135623730951
 10
144.8613841206835
 20
313.0958045737076
 10
144.8613841206835
 20
335.0284483799597
 42
-0.4142135623730951
  0
LWPOLYLINE
  5
2A363
102
{ACAD_REACTORS
330
2A369
102
}
330
18
100
AcDbEntity
  8
Modules
100
AcDbPolyline
 90
        4
 70
     1
 43
0.0
 10
147.521319781027
 20
334.1290328283796
 10
163.6075998485588
 20
334.1290328283796
 10
163.6075998485588
 20
314.1218490653729
 10
147.521319781027
 20
314.1218490653729
  0
LINE
  5
2A364
102
{ACAD_REACTORS
330
2A369
102
}
330
18
100
AcDbEntity
  8
Modules
100
AcDbLine
 10
147.521319781027
 20
324.1254409468762
 30
0.0
 11
163.6075998485588
 21
324.1254409468762
 31
0.0
  0
LWPOLYLINE
  5
2A365
102
{ACAD_REACTORS
330
2A369
102
}
330
18
100
AcDbEntity
  8
Modules
100
AcDbPolyline
 90
        8
 70
     0
 43
0.0
 10
113.0781614209141
 20
331.1409976688593
 10
118.3802248419156
 20
336.2674666645138
 10
126.378161420914
 20
336.2674666645138
 10
129.4084207503632
 20
336.2674666645138
 10
129.4084207503632
 20
311.8425488758547
 10
118.3802248419153
 20
311.8674666645139
 10
113.0781614209139
 20
316.9939356601684
 10
113.078161420914
 20
331.1409976688593
  0
LWPOLYLINE
  5
2A366
102
{ACAD_REACTORS
330
2A369
102
}
330
18
100
AcDbEntity
  8
Modules
100
AcDbPolyline
 90
        4
 70
     1
 43
0.0
 10
121.5781614209139
 20
330.9674666645138
 10
125.578161420914
 20
330.9674666645138
 10
125.578161420914
 20
333.1674666645138
 10
121.5781614209139
 20
333.1674666645138
  0
LWPOLYLINE
  5
2A367
102
{ACAD_REACTORS
330
2A369
102
}
330
18
100
AcDbEntity
  8
Modules
100
AcDbPolyline
 90
        4
 70
     1
 43
0.0
 10
117.2781614209139
 20
322.9674666645137
 10
121.2781614209139
 20
322.9674666645137
 10
121.2781614209139
 20
325.1674666645138
 10
117.2781614209139
 20
325.1674666645138
  0
LWPOLYLINE
  5
2A368
102
{ACAD_REACTORS
330
2A369
102
}
330
18
100
AcDbEntity
  8
Modules
100
AcDbPolyline
 90
        4
 70
     1
 43
0.0
 10
121.5781614209139
 20
314.9674666645138
 10
125.578161420914
 20
314.9674666645138
 10
125.578161420914
 20
317.1674666645138
 10
121.5781614209139
 20
317.1674666645138
  0
LWPOLYLINE
  5
2A36B
102
{ACAD_REACTORS
330
2A378
102
}
330
18
100
AcDbEntity
  8
Modules
100
AcDbPolyline
 90
        4
 70
     1
 43
0.0
 10
88.02816142091348
 20
224.4174670060257
 10
301.0281614209139
 20
224.4174670060257
 10
301.0281614209139
 20
96.01746666451388
 10
88.02816142091348
 20
96.01746666451388
  0
CIRCLE
  5
2A36C
102
{ACAD_REACTORS
330
2A378
102
}
330
18
100
AcDbEntity
  8
Modules
100
AcDbCircle
 10
95.5281614209141
 20
221.4174666645138
 30
0.0
 40
2.45
  0
LWPOLYLINE
  5
2A36D
102
{ACAD_REACTORS
330
2A378
102
}
330
18
100
AcDbEntity
  8
Modules
100
AcDbPolyline
 90
        6
 70
     1
 43
0.0
 10
94.89307612480553
 20
222.5174666645139
 10
94.25799082869696
 20
221.4174666645138
 10
94.89307612480553
 20
220.3174666645138
 10
96.16324671702273
 20
220.3174666645138
 10
96.7983320131313
 20
221.4174666645138
 10
96.16324671702273
 20
222.5174666645139
  0
CIRCLE
  5
2A36E
102
{ACAD_REACTORS
330
2A378
102
}
330
18
100
AcDbEntity
  8
Modules
100
AcDbCircle
 10
95.52816142091399
 20
99.01746666451387
 30
0.0
 40
2.45
  0
LWPOLYLINE
  5
2A36F
102
{ACAD_REACTORS
330
2A378
102
}
330
18
100
AcDbEntity
  8
Modules
100
AcDbPolyline
 90
        6
 70
     1
 43
0.0
 10
94.89307612480542
 20
100.1174666645139
 10
94.25799082869685
 20
99.01746666451387
 10
94.89307612480542
 20
97.91746666451386
 10
96.16324671702262
 20
97.91746666451386
 10
96.79833201313119
 20
99.01746666451387
 10
96.16324671702262
 20
100.1174666645139
  0
CIRCLE
  5
2A370
102
{ACAD_REACTORS
330
2A378
102
}
330
18
100
AcDbEntity
  8
Modules
100
AcDbCircle
 10
192.048161420914
 20
99.01746666451387
 30
0.0
 40
2.45
  0
LWPOLYLINE
  5
2A371
102
{ACAD_REACTORS
330
2A378
102
}
330
18
100
AcDbEntity
  8
Modules
100
AcDbPolyline
 90
        6
 70
     1
 43
0.0
 10
191.4130761248054
 20
100.1174666645139
 10
190.7779908286969
 20
99.01746666451387
 10
191.4130761248054
 20
97.91746666451386
 10
192.6832467170226
 20
97.91746666451386
 10
193.3183320131312
 20
99.01746666451387
 10
192.6832467170226
 20
100.1174666645139
  0
CIRCLE
  5
2A372
102
{ACAD_REACTORS
330
2A378
102
}
330
18
100
AcDbEntity
  8
Modules
100
AcDbCircle
 10
192.0481614209141
 20
221.4174666645138
 30
0.0
 40
2.45
  0
LWPOLYLINE
  5
2A373
102
{ACAD_REACTORS
330
2A378
102
}
330
18
100
AcDbEntity
  8
Modules
100
AcDbPolyline
 90
        6
 70
     1
 43
0.0
 10
191.4130761248055
 20
222.5174666645139
 10
190.777990828697
 20
221.4174666645138
 10
191.4130761248055
 20
220.3174666645138
 10
192.6832467170227
 20
220.3174666645138
 10
193.3183320131313
 20
221.4174666645138
 10
192.6832467170227
 20
222.5174666645139
  0
CIRCLE
  5
2A374
102
{ACAD_REACTORS
330
2A378
102
}
330
18
100
AcDbEntity
  8
Modules
100
AcDbCircle
 10
293.6481614209138
 20
221.4174666645138
 30
0.0
 40
2.45
  0
LWPOLYLINE
  5
2A375
102
{ACAD_REACTORS
330
2A378
102
}
330
18
100
AcDbEntity
  8
Modules
100
AcDbPolyline
 90
        6
 70
     1
 43
0.0
 10
293.0130761248053
 20
222.5174666645139
 10
292.3779908286967
 20
221.4174666645138
 10
293.0130761248053
 20
220.3174666645138
 10
294.2832467170224
 20
220.3174666645138
 10
294.918332013131
 20
221.4174666645138
 10
294.2832467170224
 20
222.5174666645139
  0
CIRCLE
  5
2A376
102
{ACAD_REACTORS
330
2A378
102
}
330
18
100
AcDbEntity
  8
Modules
100
AcDbCircle
 10
293.6481614209139
 20
99.01746666451387
 30
0.0
 40
2.45
  0
LWPOLYLINE
  5
2A377
102
{ACAD_REACTORS
330
2A378
102
}
330
18
100
AcDbEntity
  8
Modules
100
AcDbPolyline
 90
        6
 70
     1
 43
0.0
 10
293.0130761248054
 20
100.1174666645139
 10
292.3779908286968
 20
99.01746666451387
 10
293.0130761248054
 20
97.91746666451386
 10
294.2832467170226
 20
97.91746666451386
 10
294.9183320131311
 20
99.01746666451387
 10
294.2832467170226
 20
100.1174666645139
  0
LINE
  5
2A3AE
330
18
100
AcDbEntity
  8
TEXTFELD
100
AcDbLine
 10
589.0
 20
21.80000000000018
 30
0.0
 11
379.905891162972
 21
21.80000000000018
 31
0.0
  0
LINE
  5
2A3AF
330
18
100
AcDbEntity
  8
TEXTFELD
100
AcDbLine
 10
469.000000000001
 20
13.40000000000054
 30
0.0
 11
389.0000000000001
 21
13.40000000000054
 31
0.0
  0
LINE
  5
2A3B0
330
18
100
AcDbEntity
  8
TEXTFELD
100
AcDbLine
 10
589.0
 20
38.40000000000055
 30
0.0
 11
469.000000000001
 21
38.40000000000055
 31
0.0
  0
LINE
  5
2A3B1
330
18
100
AcDbEntity
  8
TEXTFELD
100
AcDbLine
 10
567.9617500899949
 20
5.0
 30
0.0
 11
567.9617500899958
 21
21.80000000000018
 31
0.0
  0
LINE
  5
2A3B2
330
18
100
AcDbEntity
  8
TEXTFELD
100
AcDbLine
 10
589.0
 20
13.40000000000054
 30
0.0
 11
567.9617500899949
 21
13.40000000000054
 31
0.0
  0
TEXT
  5
2A3B3
330
18
100
AcDbEntity
  8
TEXTFELD
100
AcDbText
 10
570.1557668242243
 20
15.59377413430138
 30
0.0
 40
3.476425511656998
  1
Page:
100
AcDbText
  0
TEXT
  5
2A3B4
330
18
100
AcDbEntity
  8
TEXTFELD
100
AcDbText
 10
570.1557668242243
 20
7.256695164528537
 30
0.0
 40
3.476425511656998
  1
1 / 1
100
AcDbText
  0
LINE
  5
2A3B5
330
18
100
AcDbEntity
  8
TEXTFELD
100
AcDbLine
 10
469.0000000000001
 20
5.000000000000909
 30
0.0
 11
469.0000000000001
 21
55.00000000000091
 31
0.0
  0
TEXT
  5
2A3B6
330
18
100
AcDbEntity
  8
TEXTFELD
100
AcDbText
 10
421.3100100949848
 20
15.59377413430138
 30
0.0
 40
3.476425511656998
  1
Date:
100
AcDbText
  0
LINE
  5
2A3B7
330
18
100
AcDbEntity
  8
TEXTFELD
100
AcDbLine
 10
418.3971173822312
 20
21.80000000000018
 30
0.0
 11
418.3971173822303
 21
13.40000000000054
 31
0.0
  0
TEXT
  5
2A3B8
330
18
100
AcDbEntity
  8
TEXTFELD
100
AcDbText
 10
380.5201699836723
 20
15.59377413430138
 30
0.0
 40
3.476425511656998
  1
Name:
100
AcDbText
  0
TEXT
  5
2A3B9
330
18
100
AcDbEntity
  8
TEXTFELD
100
AcDbText
 10
380.5201699836723
 20
7.256695164528537
 30
0.0
 40
3.476425511656998
  1
File: 
100
AcDbText
  0
TEXT
  5
2A3BA
330
18
100
AcDbEntity
  8
TEXTFELD
100
AcDbText
 10
471.9209941166032
 20
44.66562196635959
 30
0.0
 40
3.476425511656998
  1
Scale 1:1 (DIN A2)
100
AcDbText
  0
LINE
  5
2A3BB
330
18
100
AcDbEntity
  8
TEXTFELD
100
AcDbLine
 10
567.9617500899951
 20
38.40000000000055
 30
0.0
 11
567.961750089996
 21
55.00000000000011
 31
0.0
  0
LINE
  5
2A3BC
330
18
100
AcDbEntity
  8
TEXTFELD
100
AcDbLine
 10
589.0
 20
5.0
 30
0.0
 11
379.905891162972
 21
5.000000000000966
 31
0.0
  0
LINE
  5
2A3BD
330
18
100
AcDbEntity
  8
TEXTFELD
100
AcDbLine
 10
379.905891162972
 20
5.000000000000909
 30
0.0
 11
379.905891162972
 21
55.00000000000091
 31
0.0
  0
LINE
  5
2A3BE
330
18
100
AcDbEntity
  8
TEXTFELD
100
AcDbLine
 10
379.905891162972
 20
55.00000000000096
 30
0.0
 11
589.0
 21
55.0
 31
0.0
  0
LINE
  5
2A3BF
330
18
100
AcDbEntity
  8
TEXTFELD
100
AcDbLine
 10
589.0
 20
55.0
 30
0.0
 11
589.0
 21
5.0
 31
0.0
  0
LINE
  5
2A3C0
330
18
100
AcDbEntity
  8
TEXTFELD
100
AcDbLine
 10
469.0000000000001
 20
5.000000000000568
 30
0.0
 11
469.0000000000001
 21
55.00000000000056
 31
0.0
  0
TEXT
  5
2A3C1
330
18
100
AcDbEntity
  8
TEXTFELD
100
AcDbText
 10
397.5497206017919
 20
15.63053387341154
 30
0.0
 40
3.0
  1
Miethling
100
AcDbText
  0
TEXT
  5
2A3C2
330
18
100
AcDbEntity
  8
TEXTFELD
100
AcDbText
 10
381.8294790513039
 20
24.72697290493272
 30
0.0
 40
3.0
  1
Fax:
100
AcDbText
  0
TEXT
  5
2A3C3
330
18
100
AcDbEntity
  8
TEXTFELD
100
AcDbText
 10
381.8294790513039
 20
47.10386991868756
 30
0.0
 40
3.0
  1
DHD GmbH
100
AcDbText
  0
TEXT
  5
2A3C4
330
18
100
AcDbEntity
  8
TEXTFELD
100
AcDbText
 10
381.8294790513039
 20
41.75480612721446
 30
0.0
 40
3.0
  1
Haferkornstraße 5
100
AcDbText
  0
TEXT
  5
2A3C5
330
18
100
AcDbEntity
  8
TEXTFELD
100
AcDbText
 10
381.8294790513039
 20
36.29477517264729
 30
0.0
 40
3.0
  1
04129 Leipzig / Germany
100
AcDbText
  0
TEXT
  5
2A3C6
330
18
100
AcDbEntity
  8
TEXTFELD
100
AcDbText
 10
398.4805527305628
 20
24.53217067856315
 30
0.0
 40
3.0
  1
+ 49  341  5897022
100
AcDbText
  0
LINE
  5
2A3C7
330
18
100
AcDbEntity
  8
TEXTFELD
100
AcDbLine
 10
469.000000000001
 20
13.4000000000002
 30
0.0
 11
379.9058911629721
 21
13.4000000000002
 31
0.0
  0
TEXT
  5
2A3C8
330
18
100
AcDbEntity
  8
TEXTFELD
100
AcDbText
 10
381.8294790513039
 20
29.58568776218852
 30
0.0
 40
3.0
  1
Phone: + 49  341  5897020
100
AcDbText
  0
TEXT
  5
2A3C9
330
18
100
AcDbEntity
  8
TEXTFELD
100
AcDbText
 10
394.8409816184467
 20
7.469098588154338
 30
0.0
 40
3.0
  1
52-6066_rearview.dwg
100
AcDbText
  0
TEXT
  5
2A3CA
330
18
100
AcDbEntity
  8
TEXTFELD
100
AcDbText
 10
474.7569833410441
 20
31.0110865885473
 30
0.0
 40
5.0
  1
XR Router/DSP Frame 6U
100
AcDbText
  0
TEXT
  5
2A3CB
330
18
100
AcDbEntity
  8
TEXTFELD
100
AcDbText
 10
437.749650981688
 20
15.81476326692919
 30
0.0
 40
3.0
  1
02.03.2007
100
AcDbText
  0
TEXT
  5
2A3CC
330
18
100
AcDbEntity
  8
TEXTFELD
100
AcDbText
 10
502.6275544891631
 20
9.994346401232292
 30
0.0
 40
5.259814435336018
  1
52-6066
100
AcDbText
  0
TEXT
  5
2A3CD
330
18
100
AcDbEntity
  8
TEXTFELD
100
AcDbText
 10
504.2148919073593
 20
23.04543142521016
 30
0.0
 40
5.0
  1
Rearview
100
AcDbText
  0
LINE
  5
2A3F1
330
18
100
AcDbEntity
  8
Rahmen
100
AcDbLine
 10
81.21816142091342
 20
93.91746683526974
 30
0.0
 11
521.2181614209135
 21
93.91746683526974
 31
0.0
  0
LINE
  5
2A3F2
330
18
100
AcDbEntity
  8
Rahmen
100
AcDbLine
 10
521.2181614209135
 20
93.91746683526974
 30
0.0
 11
521.2181614209135
 21
358.9174668352698
 31
0.0
  0
LINE
  5
2A3F3
330
18
100
AcDbEntity
  8
Rahmen
100
AcDbLine
 10
521.2181614209135
 20
358.9174668352698
 30
0.0
 11
81.21816142091342
 21
358.9174668352698
 31
0.0
  0
LINE
  5
2A3F4
330
18
100
AcDbEntity
  8
Rahmen
100
AcDbLine
 10
81.21816142091342
 20
358.9174668352698
 30
0.0
 11
81.21816142091342
 21
93.91746683526974
 31
0.0
  0
LINE
  5
2A3F6
330
18
100
AcDbEntity
  8
Rahmen
100
AcDbLine
 10
87.71816142091342
 20
358.9174668352698
 30
0.0
 11
87.71816142091342
 21
93.91746683526974
 31
0.0
  0
LINE
  5
2A3F7
330
18
100
AcDbEntity
  8
Rahmen
100
AcDbLine
 10
514.7181614209134
 20
357.4174668352697
 30
0.0
 11
87.71816142091342
 21
357.4174668352699
 31
0.0
  0
LINE
  5
2A3F8
330
18
100
AcDbEntity
  8
Rahmen
100
AcDbLine
 10
87.71816142091342
 20
95.41746683526973
 30
0.0
 11
514.7181614209134
 21
95.41746683526973
 31
0.0
  0
LINE
  5
2A3F9
330
18
100
AcDbEntity
  8
Rahmen
100
AcDbLine
 10
514.7181614209134
 20
93.91746683526974
 30
0.0
 11
514.7181614209134
 21
358.9174668352698
 31
0.0
  0
LINE
  5
2A3FA
330
18
100
AcDbEntity
  8
Rahmen
100
AcDbLine
 10
87.71816142091342
 20
225.0174668352698
 30
0.0
 11
514.7181614209134
 21
225.0174668352698
 31
0.0
  0
LINE
  5
2A3FB
330
18
100
AcDbEntity
  8
Rahmen
100
AcDbLine
 10
87.71816142091338
 20
228.1174668352698
 30
0.0
 11
514.7181614209134
 21
228.1174668352698
 31
0.0
  0
LINE
  5
2A3FC
330
18
100
AcDbEntity
  8
Rahmen
100
AcDbLine
 10
87.71816142091338
 20
226.6174668352698
 30
0.0
 11
514.7181614209134
 21
226.6174668352698
 31
0.0
  0
LINE
  5
2A3FD
330
18
100
AcDbEntity
  8
Rahmen
100
AcDbLine
 10
87.71816142091342
 20
226.5174668352698
 30
0.0
 11
514.7181614209134
 21
226.5174668352698
 31
0.0
  0
ENDSEC
  0
SECTION
  2
OBJECTS
  0
DICTIONARY
  5
C
330
0
100
AcDbDictionary
281
     1
  3
ACAD_COLOR
350
2971E
  3
ACAD_GROUP
350
D
  3
ACAD_LAYOUT
350
1B1E4
  3
ACAD_MATERIAL
350
2971D
  3
ACAD_MLINESTYLE
350
1B
  3
ACAD_PLOTSETTINGS
350
1B1E5
  3
ACAD_PLOTSTYLENAME
350
1B1E2
  3
ACAD_TABLESTYLE
350
2971F
  3
ACDBHEADERROUNDTRIPXREC
350
2A3FF
  3
ACDBVARIABLEDICTIONARY
350
9820
  0
DICTIONARY
  5
2A386
330
2
100
AcDbDictionary
280
     1
281
     1
  3
ACAD_LAYERSTATES
360
2A387
  0
DICTIONARY
  5
9822
330
18
100
AcDbDictionary
280
     1
281
     1
  3
ACAD_LAYOUTSELFREF
360
296FC
  3
ACAD_SORTENTS
360
9823
  0
DICTIONARY
  5
2663A
330
15
100
AcDbDictionary
280
     1
281
     1
  3
ACAD_LAYOUTSELFREF
360
296FB
  0
DICTIONARY
  5
2971E
102
{ACAD_REACTORS
330
C
102
}
330
C
100
AcDbDictionary
281
     1
  0
DICTIONARY
  5
D
102
{ACAD_REACTORS
330
C
102
}
330
C
100
AcDbDictionary
281
     1
  3
*A1
350
981F
  3
*A10
350
27D07
  3
*A100
350
282D0
  3
*A101
350
2819F
  3
*A102
350
281BB
  3
*A103
350
27CDD
  3
*A104
350
28D6F
  3
*A105
350
27CDF
  3
*A106
350
281A0
  3
*A107
350
281A1
  3
*A108
350
281A2
  3
*A109
350
281B6
  3
*A11
350
27C3B
  3
*A110
350
281A3
  3
*A111
350
27FE5
  3
*A112
350
282D1
  3
*A113
350
9FC0
  3
*A114
350
281A4
  3
*A115
350
281A5
  3
*A116
350
281B9
  3
*A117
350
281A6
  3
*A118
350
281BC
  3
*A119
350
27FCE
  3
*A12
350
1BD89
  3
*A120
350
281A7
  3
*A121
350
27D05
  3
*A122
350
28D70
  3
*A123
350
282D3
  3
*A124
350
27FD8
  3
*A125
350
281A8
  3
*A126
350
281A9
  3
*A127
350
281AA
  3
*A128
350
27FE1
  3
*A129
350
281AB
  3
*A13
350
281E1
  3
*A130
350
281AC
  3
*A131
350
281AD
  3
*A132
350
281BD
  3
*A133
350
9FC1
  3
*A134
350
281B0
  3
*A135
350
281AE
  3
*A136
350
281AF
  3
*A137
350
27BC5
  3
*A138
350
29C92
  3
*A139
350
29CD1
  3
*A14
350
27C61
  3
*A140
350
27FE2
  3
*A141
350
29D03
  3
*A142
350
29D35
  3
*A143
350
29D67
  3
*A144
350
29D99
  3
*A145
350
282D4
  3
*A146
350
29DCB
  3
*A147
350
27D08
  3
*A148
350
29DFD
  3
*A149
350
29DFE
  3
*A15
350
21E84
  3
*A150
350
9D2A
  3
*A151
350
29DFF
  3
*A152
350
27FE3
  3
*A153
350
29E32
  3
*A154
350
29E65
  3
*A155
350
29E98
  3
*A156
350
27FE7
  3
*A157
350
29ECB
  3
*A158
350
29EFE
  3
*A159
350
29F31
  3
*A16
350
9D4A
  3
*A160
350
29F64
  3
*A161
350
281BE
  3
*A162
350
29F97
  3
*A163
350
27D30
  3
*A164
350
27FE4
  3
*A165
350
29FCA
  3
*A166
350
29FFD
  3
*A167
350
282D5
  3
*A168
350
2A030
  3
*A169
350
2A063
  3
*A17
350
27C62
  3
*A170
350
2A096
  3
*A171
350
2A0E0
  3
*A172
350
2A13C
  3
*A173
350
2A14A
  3
*A174
350
281BF
  3
*A175
350
281C0
  3
*A176
350
27FCC
  3
*A177
350
282F7
  3
*A178
350
282DB
  3
*A179
350
281C1
  3
*A18
350
A49B
  3
*A180
350
28D7B
  3
*A181
350
27FCF
  3
*A182
350
1BD82
  3
*A183
350
27FD1
  3
*A184
350
281C2
  3
*A185
350
281C3
  3
*A186
350
281C4
  3
*A187
350
2601A
  3
*A188
350
2A335
  3
*A189
350
2601B
  3
*A19
350
27C63
  3
*A190
350
2A369
  3
*A191
350
2A36A
  3
*A192
350
2A378
  3
*A193
350
282DC
  3
*A194
350
27BD4
  3
*A195
350
281C5
  3
*A196
350
282DF
  3
*A197
350
1BD85
  3
*A198
350
27D2E
  3
*A199
350
27FD5
  3
*A2
350
28D90
  3
*A20
350
27D7C
  3
*A200
350
28D91
  3
*A201
350
27B8A
  3
*A202
350
281B1
  3
*A203
350
28D92
  3
*A204
350
28D93
  3
*A205
350
28D94
  3
*A206
350
27BC6
  3
*A207
350
28D95
  3
*A208
350
27BF3
  3
*A209
350
282EA
  3
*A21
350
27C64
  3
*A210
350
28DAA
  3
*A211
350
28DAB
  3
*A212
350
28DAC
  3
*A213
350
28D6E
  3
*A214
350
1BD86
  3
*A215
350
28DAD
  3
*A216
350
281B2
  3
*A217
350
281C6
  3
*A218
350
28DAE
  3
*A219
350
194F8
  3
*A22
350
A22E
  3
*A220
350
1BD87
  3
*A221
350
27BF4
  3
*A222
350
28DAF
  3
*A223
350
28DC4
  3
*A224
350
28DC5
  3
*A225
350
27FE8
  3
*A226
350
282EB
  3
*A227
350
28DC6
  3
*A228
350
281DE
  3
*A229
350
28DC7
  3
*A23
350
28D02
  3
*A230
350
27FDC
  3
*A231
350
281B3
  3
*A232
350
28DC8
  3
*A233
350
28DC9
  3
*A234
350
281B7
  3
*A235
350
28DDE
  3
*A236
350
28DDF
  3
*A237
350
27D06
  3
*A238
350
27FD6
  3
*A239
350
281DF
  3
*A24
350
1FC80
  3
*A240
350
28DE0
  3
*A241
350
1BD88
  3
*A242
350
28DE1
  3
*A243
350
282F1
  3
*A244
350
28DE2
  3
*A245
350
281B4
  3
*A246
350
27D2F
  3
*A247
350
27BF5
  3
*A248
350
28DE3
  3
*A249
350
281BA
  3
*A25
350
27FDA
  3
*A250
350
28D75
  3
*A251
350
28DEA
  3
*A252
350
28DEF
  3
*A253
350
28DF8
  3
*A254
350
28DF9
  3
*A255
350
28E03
  3
*A256
350
27FD7
  3
*A257
350
28E04
  3
*A258
350
265C2
  3
*A259
350
2A219
  3
*A26
350
1BD84
  3
*A260
350
27BFB
  3
*A261
350
281E0
  3
*A262
350
27CDE
  3
*A263
350
2A21A
  3
*A264
350
2A21B
  3
*A265
350
2A21C
  3
*A266
350
2A27B
  3
*A267
350
2A27D
  3
*A268
350
2A27E
  3
*A269
350
1BD83
  3
*A27
350
27C8A
  3
*A270
350
27BFC
  3
*A271
350
27D31
  3
*A28
350
27FEA
  3
*A29
350
27C8B
  3
*A3
350
27FE9
  3
*A30
350
27C8C
  3
*A31
350
27B51
  3
*A32
350
27C8D
  3
*A33
350
27CB3
  3
*A34
350
27CB4
  3
*A35
350
27FE6
  3
*A36
350
27D7D
  3
*A37
350
1BD8A
  3
*A38
350
27CB5
  3
*A39
350
27CB6
  3
*A4
350
282F4
  3
*A40
350
2819B
  3
*A41
350
281B8
  3
*A42
350
28D65
  3
*A43
350
27D7E
  3
*A44
350
27B54
  3
*A45
350
1FC8F
  3
*A46
350
27FD2
  3
*A47
350
1BD8C
  3
*A48
350
27DBB
  3
*A49
350
27FDD
  3
*A5
350
27FD9
  3
*A50
350
27CDC
  3
*A51
350
27DBC
  3
*A52
350
2819C
  3
*A53
350
194F7
  3
*A54
350
27DBD
  3
*A55
350
27FD3
  3
*A56
350
27DBE
  3
*A57
350
282CF
  3
*A58
350
27B57
  3
*A59
350
27DBF
  3
*A6
350
282FA
  3
*A60
350
27FD4
  3
*A61
350
27E11
  3
*A62
350
27E12
  3
*A63
350
27E13
  3
*A64
350
27B8B
  3
*A65
350
27E14
  3
*A66
350
27FDB
  3
*A67
350
27FBF
  3
*A68
350
281B5
  3
*A69
350
27FDE
  3
*A7
350
27C38
  3
*A70
350
28D76
  3
*A71
350
27B88
  3
*A72
350
27FC0
  3
*A73
350
27FC1
  3
*A74
350
194F5
  3
*A75
350
27FC2
  3
*A76
350
2819D
  3
*A77
350
28D66
  3
*A78
350
27FC3
  3
*A79
350
194F6
  3
*A8
350
27C39
  3
*A80
350
27FC4
  3
*A81
350
27FC5
  3
*A82
350
A49A
  3
*A83
350
27FC6
  3
*A84
350
27B89
  3
*A85
350
27FD0
  3
*A86
350
27FC7
  3
*A87
350
27FC8
  3
*A88
350
27FCD
  3
*A89
350
27FDF
  3
*A9
350
27C3A
  3
*A90
350
1BD8B
  3
*A91
350
27FC9
  3
*A92
350
27FCA
  3
*A93
350
27FCB
  3
*A94
350
28D67
  3
*A95
350
A22D
  3
*A96
350
27FE0
  3
*A97
350
2A2B9
  3
*A98
350
2A2C8
  3
*A99
350
2819E
  0
DICTIONARY
  5
1B1E4
102
{ACAD_REACTORS
330
C
102
}
330
C
100
AcDbDictionary
281
     1
  3
Layout1
350
1B1E7
  3
Model
350
1B1E6
  0
DICTIONARY
  5
2971D
102
{ACAD_REACTORS
330
C
102
}
330
C
100
AcDbDictionary
281
     1
  0
DICTIONARY
  5
1B
102
{ACAD_REACTORS
330
C
102
}
330
C
100
AcDbDictionary
281
     1
  3
STANDARD
350
1C
  0
DICTIONARY
  5
1B1E5
102
{ACAD_REACTORS
330
C
102
}
330
C
100
AcDbDictionary
281
     1
  0
ACDBDICTIONARYWDFLT
  5
1B1E2
102
{ACAD_REACTORS
330
C
102
}
330
C
100
AcDbDictionary
281
     1
  3
Normal
350
1B1E3
100
AcDbDictionaryWithDefault
340
1B1E3
1001
ACAD
1000
TREAT_AS_HARD
1070
     0
  0
DICTIONARY
  5
2971F
102
{ACAD_REACTORS
330
C
102
}
330
C
100
AcDbDictionary
281
     1
  3
Standard
350
29720
  0
DICTIONARY
  5
2A3FF
102
{ACAD_REACTORS
330
C
102
}
330
C
100
AcDbDictionary
281
     1
  0
DICTIONARY
  5
9820
102
{ACAD_REACTORS
330
C
102
}
330
C
100
AcDbDictionary
281
     1
  3
CTABLESTYLE
350
29728
  3
DIMASSOC
350
1FD3B
  3
PROJECTNAME
350
2A151
  3
SORTENTS
350
9821
  0
DICTIONARY
  5
2A387
102
{ACAD_REACTORS
330
2A386
102
}
330
2A386
100
AcDbDictionary
281
     1
  0
XRECORD
  5
296FC
102
{ACAD_REACTORS
330
9822
102
}
330
9822
100
AcDbXrecord
280
     1
340
18
  0
SORTENTSTABLE
  5
9823
102
{ACAD_REACTORS
330
9822
102
}
330
9822
100
AcDbSortentsTable
330
18
331
2A360
  5
2A36B
331
2A342
  5
2A34B
331
2A332
  5
2A342
331
2A3C7
  5
2A3F3
331
2A314
  5
2A31D
331
2A3B1
  5
2A3BA
331
2A230
  5
2A241
331
2A375
  5
2A3B4
331
2A357
  5
2A360
331
2A3BA
  5
2A3C3
331
2A241
  5
2A30F
331
2A368
  5
2A373
331
2A34A
  5
2A353
331
2A31C
  5
2A325
331
2A35F
  5
2A368
331
2A238
  5
2A30A
331
2A32D
  5
2A33D
331
2A30F
  5
2A318
331
2A3C2
  5
2A3CB
331
2A370
  5
2A3AF
331
2A352
  5
2A35B
331
2A324
  5
2A32D
331
266D8
  5
266D8
331
2A363
  5
2A36E
331
2A345
  5
2A34E
331
2A3CA
  5
2A3F6
331
2A317
  5
2A320
331
2A3B4
  5
2A3BD
331
2A35A
  5
2A363
331
2A328
  5
2A331
331
2A3BD
  5
2A3C6
331
2A30A
  5
2A313
331
2A3F9
  5
2A22F
331
2A36B
  5
2A374
331
2A34D
  5
2A356
331
2A33D
  5
2A346
331
2A31F
  5
2A328
331
2A23B
  5
2A30D
331
2A340
  5
2A349
331
2A330
  5
2A340
331
2A312
  5
2A31B
331
2A3C5
  5
2A3F1
331
2A3AF
  5
2A3B8
331
2A22E
  5
2A23B
331
2A373
  5
2A3B2
331
2A355
  5
2A35E
331
2A327
  5
2A330
331
266DB
  5
266DB
331
2A3B8
  5
2A3C1
331
2A366
  5
2A371
331
2A348
  5
2A351
331
2A3CD
  5
2A3F9
331
2A31A
  5
2A323
331
2A3B7
  5
2A3C0
331
2A236
  5
2A308
331
2A35D
  5
2A366
331
2A3FC
  5
2A3FD
331
2A32B
  5
2A334
331
2A30D
  5
2A316
331
2A3C0
  5
2A3C9
331
2A36E
  5
2A377
331
2A350
  5
2A359
331
2A322
  5
2A32B
331
28E1F
  5
2A23A
331
2A3F3
  5
2A235
331
266D6
  5
266D6
331
2A361
  5
2A36C
331
2A343
  5
2A34C
331
2A333
  5
2A343
331
2A3C8
  5
2A3F4
331
2A315
  5
2A31E
331
2A3B2
  5
2A3BB
331
2A376
  5
2A3B5
331
28E12
  5
2A239
331
2A358
  5
2A361
331
2A308
  5
2A311
331
2A3BB
  5
2A3C4
331
2A242
  5
2A310
331
2A34B
  5
2A354
331
2A31D
  5
2A326
331
2A239
  5
2A30B
331
2A32E
  5
2A33E
331
2A310
  5
2A319
331
2A3C3
  5
2A3CC
331
2A371
  5
2A3B0
331
2A353
  5
2A35C
331
2A325
  5
2A32E
331
2A3F6
  5
2A238
331
266D9
  5
266D9
331
2A364
  5
2A36F
331
2A346
  5
2A34F
331
2A3CB
  5
2A3F7
331
2A318
  5
2A321
331
2A3B5
  5
2A3BE
331
2A35B
  5
2A364
331
2A3FA
  5
2A3FA
331
2A329
  5
2A332
331
2A30B
  5
2A314
331
2A3BE
  5
2A3C7
331
2A36C
  5
2A375
331
2A34E
  5
2A357
331
2A33E
  5
2A347
331
2A320
  5
2A329
331
2A23C
  5
2A30E
331
2A3F1
  5
28E12
331
266D4
  5
266D4
331
2A341
  5
2A34A
331
2A331
  5
2A341
331
2A3C6
  5
2A3F2
331
2A313
  5
2A31C
331
2A3B0
  5
2A3B9
331
2A22F
  5
2A23C
331
2A374
  5
2A3B3
331
2A356
  5
2A35F
331
2A3B9
  5
2A3C2
331
2A367
  5
2A372
331
2A349
  5
2A352
331
2A31B
  5
2A324
331
2A35E
  5
2A367
331
2A237
  5
2A309
331
2A3FD
  5
2A3FB
331
2A32C
  5
2A33C
331
2A30E
  5
2A317
331
2A3C1
  5
2A3CA
331
2A36F
  5
2A3AE
331
2A351
  5
2A35A
331
2A323
  5
2A32C
331
2A3F4
  5
2A237
331
266D7
  5
266D7
331
2A362
  5
2A36D
331
2A344
  5
2A34D
331
2A334
  5
2A344
331
2A3C9
  5
2A3F5
331
2A316
  5
2A31F
331
2A3B3
  5
2A3BC
331
2A377
  5
2A3B6
331
2A359
  5
2A362
331
2A3BC
  5
2A3C5
331
2A309
  5
2A312
331
2A34C
  5
2A355
331
2A3F8
  5
28E1F
331
2A33C
  5
2A345
331
2A31E
  5
2A327
331
2A23A
  5
2A30C
331
2A32F
  5
2A33F
331
2A311
  5
2A31A
331
2A3C4
  5
2A3CD
331
2A3AE
  5
2A3B7
331
2A372
  5
2A3B1
331
2A354
  5
2A35D
331
2A326
  5
2A32F
331
2A3F7
  5
2A236
331
266DA
  5
266DA
331
2A365
  5
2A370
331
2A347
  5
2A350
331
2A3CC
  5
2A3F8
331
2A319
  5
2A322
331
2A3B6
  5
2A3BF
331
2A235
  5
2A242
331
2A35C
  5
2A365
331
2A3FB
  5
2A3FC
331
2A32A
  5
2A333
331
2A30C
  5
2A315
331
2A3BF
  5
2A3C8
331
2A36D
  5
2A376
331
2A34F
  5
2A358
331
2A33F
  5
2A348
331
2A321
  5
2A32A
331
2A3F2
  5
2A22E
331
266D5
  5
266D5
  0
XRECORD
  5
296FB
102
{ACAD_REACTORS
330
2663A
102
}
330
2663A
100
AcDbXrecord
280
     1
340
15
  0
GROUP
  5
981F
102
{ACAD_REACTORS
330
D
102
}
330
D
100
AcDbGroup
300

 70
     1
 71
     1
  0
GROUP
  5
27D07
102
{ACAD_REACTORS
330
D
102
}
330
D
100
AcDbGroup
300

 70
     1
 71
     1
  0
GROUP
  5
282D0
102
{ACAD_REACTORS
330
D
102
}
330
D
100
AcDbGroup
300

 70
     1
 71
     1
  0
GROUP
  5
2819F
102
{ACAD_REACTORS
330
D
102
}
330
D
100
AcDbGroup
300

 70
     1
 71
     1
  0
GROUP
  5
281BB
102
{ACAD_REACTORS
330
D
102
}
330
D
100
AcDbGroup
300

 70
     1
 71
     1
  0
GROUP
  5
27CDD
102
{ACAD_REACTORS
330
D
102
}
330
D
100
AcDbGroup
300

 70
     1
 71
     1
  0
GROUP
  5
28D6F
102
{ACAD_REACTORS
330
D
102
}
330
D
100
AcDbGroup
300

 70
     1
 71
     1
  0
GROUP
  5
27CDF
102
{ACAD_REACTORS
330
D
102
}
330
D
100
AcDbGroup
300

 70
     1
 71
     1
  0
GROUP
  5
281A0
102
{ACAD_REACTORS
330
D
102
}
330
D
100
AcDbGroup
300

 70
     1
 71
     1
  0
GROUP
  5
281A1
102
{ACAD_REACTORS
330
D
102
}
330
D
100
AcDbGroup
300

 70
     1
 71
     1
  0
GROUP
  5
281A2
102
{ACAD_REACTORS
330
D
102
}
330
D
100
AcDbGroup
300

 70
     1
 71
     1
  0
GROUP
  5
281B6
102
{ACAD_REACTORS
330
D
102
}
330
D
100
AcDbGroup
300

 70
     1
 71
     1
  0
GROUP
  5
27C3B
102
{ACAD_REACTORS
330
D
102
}
330
D
100
AcDbGroup
300

 70
     1
 71
     1
  0
GROUP
  5
281A3
102
{ACAD_REACTORS
330
D
102
}
330
D
100
AcDbGroup
300

 70
     1
 71
     1
  0
GROUP
  5
27FE5
102
{ACAD_REACTORS
330
D
102
}
330
D
100
AcDbGroup
300

 70
     1
 71
     1
  0
GROUP
  5
282D1
102
{ACAD_REACTORS
330
D
102
}
330
D
100
AcDbGroup
300

 70
     1
 71
     1
  0
GROUP
  5
9FC0
102
{ACAD_REACTORS
330
D
102
}
330
D
100
AcDbGroup
300

 70
     1
 71
     1
  0
GROUP
  5
281A4
102
{ACAD_REACTORS
330
D
102
}
330
D
100
AcDbGroup
300

 70
     1
 71
     1
  0
GROUP
  5
281A5
102
{ACAD_REACTORS
330
D
102
}
330
D
100
AcDbGroup
300

 70
     1
 71
     1
  0
GROUP
  5
281B9
102
{ACAD_REACTORS
330
D
102
}
330
D
100
AcDbGroup
300

 70
     1
 71
     1
  0
GROUP
  5
281A6
102
{ACAD_REACTORS
330
D
102
}
330
D
100
AcDbGroup
300

 70
     1
 71
     1
  0
GROUP
  5
281BC
102
{ACAD_REACTORS
330
D
102
}
330
D
100
AcDbGroup
300

 70
     1
 71
     1
  0
GROUP
  5
27FCE
102
{ACAD_REACTORS
330
D
102
}
330
D
100
AcDbGroup
300

 70
     1
 71
     1
  0
GROUP
  5
1BD89
102
{ACAD_REACTORS
330
D
102
}
330
D
100
AcDbGroup
300

 70
     1
 71
     1
  0
GROUP
  5
281A7
102
{ACAD_REACTORS
330
D
102
}
330
D
100
AcDbGroup
300

 70
     1
 71
     1
  0
GROUP
  5
27D05
102
{ACAD_REACTORS
330
D
102
}
330
D
100
AcDbGroup
300

 70
     1
 71
     1
  0
GROUP
  5
28D70
102
{ACAD_REACTORS
330
D
102
}
330
D
100
AcDbGroup
300

 70
     1
 71
     1
  0
GROUP
  5
282D3
102
{ACAD_REACTORS
330
D
102
}
330
D
100
AcDbGroup
300

 70
     1
 71
     1
  0
GROUP
  5
27FD8
102
{ACAD_REACTORS
330
D
102
}
330
D
100
AcDbGroup
300

 70
     1
 71
     1
  0
GROUP
  5
281A8
102
{ACAD_REACTORS
330
D
102
}
330
D
100
AcDbGroup
300

 70
     1
 71
     1
  0
GROUP
  5
281A9
102
{ACAD_REACTORS
330
D
102
}
330
D
100
AcDbGroup
300

 70
     1
 71
     1
  0
GROUP
  5
281AA
102
{ACAD_REACTORS
330
D
102
}
330
D
100
AcDbGroup
300

 70
     1
 71
     1
  0
GROUP
  5
27FE1
102
{ACAD_REACTORS
330
D
102
}
330
D
100
AcDbGroup
300

 70
     1
 71
     1
  0
GROUP
  5
281AB
102
{ACAD_REACTORS
330
D
102
}
330
D
100
AcDbGroup
300

 70
     1
 71
     1
  0
GROUP
  5
281E1
102
{ACAD_REACTORS
330
D
102
}
330
D
100
AcDbGroup
300

 70
     1
 71
     1
  0
GROUP
  5
281AC
102
{ACAD_REACTORS
330
D
102
}
330
D
100
AcDbGroup
300

 70
     1
 71
     1
  0
GROUP
  5
281AD
102
{ACAD_REACTORS
330
D
102
}
330
D
100
AcDbGroup
300

 70
     1
 71
     1
  0
GROUP
  5
281BD
102
{ACAD_REACTORS
330
D
102
}
330
D
100
AcDbGroup
300

 70
     1
 71
     1
  0
GROUP
  5
9FC1
102
{ACAD_REACTORS
330
D
102
}
330
D
100
AcDbGroup
300

 70
     1
 71
     1
  0
GROUP
  5
281B0
102
{ACAD_REACTORS
330
D
102
}
330
D
100
AcDbGroup
300

 70
     1
 71
     1
  0
GROUP
  5
281AE
102
{ACAD_REACTORS
330
D
102
}
330
D
100
AcDbGroup
300

 70
     1
 71
     1
  0
GROUP
  5
281AF
102
{ACAD_REACTORS
330
D
102
}
330
D
100
AcDbGroup
300

 70
     1
 71
     1
  0
GROUP
  5
27BC5
102
{ACAD_REACTORS
330
D
102
}
330
D
100
AcDbGroup
300

 70
     1
 71
     1
  0
GROUP
  5
29C92
102
{ACAD_REACTORS
330
D
102
}
330
D
100
AcDbGroup
300

 70
     1
 71
     1
  0
GROUP
  5
29CD1
102
{ACAD_REACTORS
330
D
102
}
330
D
100
AcDbGroup
300

 70
     1
 71
     1
  0
GROUP
  5
27C61
102
{ACAD_REACTORS
330
D
102
}
330
D
100
AcDbGroup
300

 70
     1
 71
     1
  0
GROUP
  5
27FE2
102
{ACAD_REACTORS
330
D
102
}
330
D
100
AcDbGroup
300

 70
     1
 71
     1
  0
GROUP
  5
29D03
102
{ACAD_REACTORS
330
D
102
}
330
D
100
AcDbGroup
300

 70
     1
 71
     1
  0
GROUP
  5
29D35
102
{ACAD_REACTORS
330
D
102
}
330
D
100
AcDbGroup
300

 70
     1
 71
     1
  0
GROUP
  5
29D67
102
{ACAD_REACTORS
330
D
102
}
330
D
100
AcDbGroup
300

 70
     1
 71
     1
  0
GROUP
  5
29D99
102
{ACAD_REACTORS
330
D
102
}
330
D
100
AcDbGroup
300

 70
     1
 71
     1
  0
GROUP
  5
282D4
102
{ACAD_REACTORS
330
D
102
}
330
D
100
AcDbGroup
300

 70
     1
 71
     1
  0
GROUP
  5
29DCB
102
{ACAD_REACTORS
330
D
102
}
330
D
100
AcDbGroup
300

 70
     1
 71
     1
  0
GROUP
  5
27D08
102
{ACAD_REACTORS
330
D
102
}
330
D
100
AcDbGroup
300

 70
     1
 71
     1
  0
GROUP
  5
29DFD
102
{ACAD_REACTORS
330
D
102
}
330
D
100
AcDbGroup
300

 70
     1
 71
     1
  0
GROUP
  5
29DFE
102
{ACAD_REACTORS
330
D
102
}
330
D
100
AcDbGroup
300

 70
     1
 71
     1
  0
GROUP
  5
21E84
102
{ACAD_REACTORS
330
D
102
}
330
D
100
AcDbGroup
300

 70
     1
 71
     1
  0
GROUP
  5
9D2A
102
{ACAD_REACTORS
330
D
102
}
330
D
100
AcDbGroup
300

 70
     1
 71
     1
  0
GROUP
  5
29DFF
102
{ACAD_REACTORS
330
D
102
}
330
D
100
AcDbGroup
300

 70
     1
 71
     1
  0
GROUP
  5
27FE3
102
{ACAD_REACTORS
330
D
102
}
330
D
100
AcDbGroup
300

 70
     1
 71
     1
  0
GROUP
  5
29E32
102
{ACAD_REACTORS
330
D
102
}
330
D
100
AcDbGroup
300

 70
     1
 71
     1
  0
GROUP
  5
29E65
102
{ACAD_REACTORS
330
D
102
}
330
D
100
AcDbGroup
300

 70
     1
 71
     1
  0
GROUP
  5
29E98
102
{ACAD_REACTORS
330
D
102
}
330
D
100
AcDbGroup
300

 70
     1
 71
     1
  0
GROUP
  5
27FE7
102
{ACAD_REACTORS
330
D
102
}
330
D
100
AcDbGroup
300

 70
     1
 71
     1
  0
GROUP
  5
29ECB
102
{ACAD_REACTORS
330
D
102
}
330
D
100
AcDbGroup
300

 70
     1
 71
     1
  0
GROUP
  5
29EFE
102
{ACAD_REACTORS
330
D
102
}
330
D
100
AcDbGroup
300

 70
     1
 71
     1
  0
GROUP
  5
29F31
102
{ACAD_REACTORS
330
D
102
}
330
D
100
AcDbGroup
300

 70
     1
 71
     1
  0
GROUP
  5
9D4A
102
{ACAD_REACTORS
330
D
102
}
330
D
100
AcDbGroup
300

 70
     1
 71
     1
  0
GROUP
  5
29F64
102
{ACAD_REACTORS
330
D
102
}
330
D
100
AcDbGroup
300

 70
     1
 71
     1
  0
GROUP
  5
281BE
102
{ACAD_REACTORS
330
D
102
}
330
D
100
AcDbGroup
300

 70
     1
 71
     1
  0
GROUP
  5
29F97
102
{ACAD_REACTORS
330
D
102
}
330
D
100
AcDbGroup
300

 70
     1
 71
     1
  0
GROUP
  5
27D30
102
{ACAD_REACTORS
330
D
102
}
330
D
100
AcDbGroup
300

 70
     1
 71
     1
  0
GROUP
  5
27FE4
102
{ACAD_REACTORS
330
D
102
}
330
D
100
AcDbGroup
300

 70
     1
 71
     1
  0
GROUP
  5
29FCA
102
{ACAD_REACTORS
330
D
102
}
330
D
100
AcDbGroup
300

 70
     1
 71
     1
  0
GROUP
  5
29FFD
102
{ACAD_REACTORS
330
D
102
}
330
D
100
AcDbGroup
300

 70
     1
 71
     1
  0
GROUP
  5
282D5
102
{ACAD_REACTORS
330
D
102
}
330
D
100
AcDbGroup
300

 70
     1
 71
     1
  0
GROUP
  5
2A030
102
{ACAD_REACTORS
330
D
102
}
330
D
100
AcDbGroup
300

 70
     1
 71
     1
  0
GROUP
  5
2A063
102
{ACAD_REACTORS
330
D
102
}
330
D
100
AcDbGroup
300

 70
     1
 71
     1
  0
GROUP
  5
27C62
102
{ACAD_REACTORS
330
D
102
}
330
D
100
AcDbGroup
300

 70
     1
 71
     1
  0
GROUP
  5
2A096
102
{ACAD_REACTORS
330
D
102
}
330
D
100
AcDbGroup
300

 70
     1
 71
     1
  0
GROUP
  5
2A0E0
102
{ACAD_REACTORS
330
D
102
}
330
D
100
AcDbGroup
300

 70
     1
 71
     1
  0
GROUP
  5
2A13C
102
{ACAD_REACTORS
330
D
102
}
330
D
100
AcDbGroup
300

 70
     1
 71
     1
  0
GROUP
  5
2A14A
102
{ACAD_REACTORS
330
D
102
}
330
D
100
AcDbGroup
300

 70
     1
 71
     1
  0
GROUP
  5
281BF
102
{ACAD_REACTORS
330
D
102
}
330
D
100
AcDbGroup
300

 70
     1
 71
     1
  0
GROUP
  5
281C0
102
{ACAD_REACTORS
330
D
102
}
330
D
100
AcDbGroup
300

 70
     1
 71
     1
  0
GROUP
  5
27FCC
102
{ACAD_REACTORS
330
D
102
}
330
D
100
AcDbGroup
300

 70
     1
 71
     1
  0
GROUP
  5
282F7
102
{ACAD_REACTORS
330
D
102
}
330
D
100
AcDbGroup
300

 70
     1
 71
     1
  0
GROUP
  5
282DB
102
{ACAD_REACTORS
330
D
102
}
330
D
100
AcDbGroup
300

 70
     1
 71
     1
  0
GROUP
  5
281C1
102
{ACAD_REACTORS
330
D
102
}
330
D
100
AcDbGroup
300

 70
     1
 71
     1
  0
GROUP
  5
A49B
102
{ACAD_REACTORS
330
D
102
}
330
D
100
AcDbGroup
300

 70
     1
 71
     1
  0
GROUP
  5
28D7B
102
{ACAD_REACTORS
330
D
102
}
330
D
100
AcDbGroup
300

 70
     1
 71
     1
  0
GROUP
  5
27FCF
102
{ACAD_REACTORS
330
D
102
}
330
D
100
AcDbGroup
300

 70
     1
 71
     1
  0
GROUP
  5
1BD82
102
{ACAD_REACTORS
330
D
102
}
330
D
100
AcDbGroup
300

 70
     1
 71
     1
  0
GROUP
  5
27FD1
102
{ACAD_REACTORS
330
D
102
}
330
D
100
AcDbGroup
300

 70
     1
 71
     1
  0
GROUP
  5
281C2
102
{ACAD_REACTORS
330
D
102
}
330
D
100
AcDbGroup
300

 70
     1
 71
     1
  0
GROUP
  5
281C3
102
{ACAD_REACTORS
330
D
102
}
330
D
100
AcDbGroup
300

 70
     1
 71
     1
  0
GROUP
  5
281C4
102
{ACAD_REACTORS
330
D
102
}
330
D
100
AcDbGroup
300

 70
     1
 71
     1
  0
GROUP
  5
2601A
102
{ACAD_REACTORS
330
D
102
}
330
D
100
AcDbGroup
300

 70
     1
 71
     1
  0
GROUP
  5
2A335
102
{ACAD_REACTORS
330
D
102
}
330
D
100
AcDbGroup
300

 70
     1
 71
     1
340
2A334
340
2A333
340
2A332
340
2A331
340
2A330
340
2A32F
340
2A32E
340
2A32D
340
2A32C
340
2A32B
340
2A32A
340
2A329
340
2A328
340
2A327
340
2A326
340
2A325
340
2A324
340
2A323
340
2A322
340
2A321
340
2A320
340
2A31F
340
2A31E
340
2A31D
340
2A31C
340
2A31B
340
2A31A
340
2A319
340
2A318
340
2A317
340
2A316
340
2A315
340
2A314
340
2A313
340
2A312
340
2A311
340
2A310
340
2A30F
340
2A30E
340
2A30D
340
2A30C
340
2A30B
340
2A30A
340
2A309
340
2A308
  0
GROUP
  5
2601B
102
{ACAD_REACTORS
330
D
102
}
330
D
100
AcDbGroup
300

 70
     1
 71
     1
  0
GROUP
  5
27C63
102
{ACAD_REACTORS
330
D
102
}
330
D
100
AcDbGroup
300

 70
     1
 71
     1
  0
GROUP
  5
2A369
102
{ACAD_REACTORS
330
D
102
}
330
D
100
AcDbGroup
300

 70
     1
 71
     1
340
2A368
340
2A367
340
2A366
340
2A365
340
2A364
340
2A363
340
2A362
340
2A361
340
2A360
340
2A35F
340
2A35E
340
2A35D
340
2A35C
340
2A35B
340
2A35A
340
2A359
340
2A358
340
2A357
340
2A356
340
2A355
340
2A354
340
2A353
340
2A352
340
2A351
340
2A350
340
2A34F
340
2A34E
340
2A34D
340
2A34C
340
2A34B
340
2A34A
340
2A349
340
2A348
340
2A347
340
2A346
340
2A345
340
2A344
340
2A343
340
2A342
340
2A341
340
2A340
340
2A33F
340
2A33E
340
2A33D
340
2A33C
  0
GROUP
  5
2A36A
102
{ACAD_REACTORS
330
D
102
}
330
D
100
AcDbGroup
300

 70
     1
 71
     1
340
2A242
340
2A241
340
2A23C
340
2A23B
340
2A23A
340
2A239
340
2A238
340
2A237
340
2A236
340
2A235
340
2A230
340
2A22F
340
2A22E
  0
GROUP
  5
2A378
102
{ACAD_REACTORS
330
D
102
}
330
D
100
AcDbGroup
300

 70
     1
 71
     1
340
2A377
340
2A376
340
2A375
340
2A374
340
2A373
340
2A372
340
2A371
340
2A370
340
2A36F
340
2A36E
340
2A36D
340
2A36C
340
2A36B
  0
GROUP
  5
282DC
102
{ACAD_REACTORS
330
D
102
}
330
D
100
AcDbGroup
300

 70
     1
 71
     1
  0
GROUP
  5
27BD4
102
{ACAD_REACTORS
330
D
102
}
330
D
100
AcDbGroup
300

 70
     1
 71
     1
  0
GROUP
  5
281C5
102
{ACAD_REACTORS
330
D
102
}
330
D
100
AcDbGroup
300

 70
     1
 71
     1
  0
GROUP
  5
282DF
102
{ACAD_REACTORS
330
D
102
}
330
D
100
AcDbGroup
300

 70
     1
 71
     1
  0
GROUP
  5
1BD85
102
{ACAD_REACTORS
330
D
102
}
330
D
100
AcDbGroup
300

 70
     1
 71
     1
  0
GROUP
  5
27D2E
102
{ACAD_REACTORS
330
D
102
}
330
D
100
AcDbGroup
300

 70
     1
 71
     1
  0
GROUP
  5
27FD5
102
{ACAD_REACTORS
330
D
102
}
330
D
100
AcDbGroup
300

 70
     1
 71
     1
  0
GROUP
  5
28D90
102
{ACAD_REACTORS
330
D
102
}
330
D
100
AcDbGroup
300

 70
     1
 71
     1
  0
GROUP
  5
27D7C
102
{ACAD_REACTORS
330
D
102
}
330
D
100
AcDbGroup
300

 70
     1
 71
     1
  0
GROUP
  5
28D91
102
{ACAD_REACTORS
330
D
102
}
330
D
100
AcDbGroup
300

 70
     1
 71
     1
  0
GROUP
  5
27B8A
102
{ACAD_REACTORS
330
D
102
}
330
D
100
AcDbGroup
300

 70
     1
 71
     1
  0
GROUP
  5
281B1
102
{ACAD_REACTORS
330
D
102
}
330
D
100
AcDbGroup
300

 70
     1
 71
     1
  0
GROUP
  5
28D92
102
{ACAD_REACTORS
330
D
102
}
330
D
100
AcDbGroup
300

 70
     1
 71
     1
  0
GROUP
  5
28D93
102
{ACAD_REACTORS
330
D
102
}
330
D
100
AcDbGroup
300

 70
     1
 71
     1
  0
GROUP
  5
28D94
102
{ACAD_REACTORS
330
D
102
}
330
D
100
AcDbGroup
300

 70
     1
 71
     1
  0
GROUP
  5
27BC6
102
{ACAD_REACTORS
330
D
102
}
330
D
100
AcDbGroup
300

 70
     1
 71
     1
  0
GROUP
  5
28D95
102
{ACAD_REACTORS
330
D
102
}
330
D
100
AcDbGroup
300

 70
     1
 71
     1
  0
GROUP
  5
27BF3
102
{ACAD_REACTORS
330
D
102
}
330
D
100
AcDbGroup
300

 70
     1
 71
     1
  0
GROUP
  5
282EA
102
{ACAD_REACTORS
330
D
102
}
330
D
100
AcDbGroup
300

 70
     1
 71
     1
  0
GROUP
  5
27C64
102
{ACAD_REACTORS
330
D
102
}
330
D
100
AcDbGroup
300

 70
     1
 71
     1
  0
GROUP
  5
28DAA
102
{ACAD_REACTORS
330
D
102
}
330
D
100
AcDbGroup
300

 70
     1
 71
     1
  0
GROUP
  5
28DAB
102
{ACAD_REACTORS
330
D
102
}
330
D
100
AcDbGroup
300

 70
     1
 71
     1
  0
GROUP
  5
28DAC
102
{ACAD_REACTORS
330
D
102
}
330
D
100
AcDbGroup
300

 70
     1
 71
     1
  0
GROUP
  5
28D6E
102
{ACAD_REACTORS
330
D
102
}
330
D
100
AcDbGroup
300

 70
     1
 71
     1
  0
GROUP
  5
1BD86
102
{ACAD_REACTORS
330
D
102
}
330
D
100
AcDbGroup
300

 70
     1
 71
     1
  0
GROUP
  5
28DAD
102
{ACAD_REACTORS
330
D
102
}
330
D
100
AcDbGroup
300

 70
     1
 71
     1
  0
GROUP
  5
281B2
102
{ACAD_REACTORS
330
D
102
}
330
D
100
AcDbGroup
300

 70
     1
 71
     1
  0
GROUP
  5
281C6
102
{ACAD_REACTORS
330
D
102
}
330
D
100
AcDbGroup
300

 70
     1
 71
     1
  0
GROUP
  5
28DAE
102
{ACAD_REACTORS
330
D
102
}
330
D
100
AcDbGroup
300

 70
     1
 71
     1
  0
GROUP
  5
194F8
102
{ACAD_REACTORS
330
D
102
}
330
D
100
AcDbGroup
300

 70
     1
 71
     1
  0
GROUP
  5
A22E
102
{ACAD_REACTORS
330
D
102
}
330
D
100
AcDbGroup
300

 70
     1
 71
     1
  0
GROUP
  5
1BD87
102
{ACAD_REACTORS
330
D
102
}
330
D
100
AcDbGroup
300

 70
     1
 71
     1
  0
GROUP
  5
27BF4
102
{ACAD_REACTORS
330
D
102
}
330
D
100
AcDbGroup
300

 70
     1
 71
     1
  0
GROUP
  5
28DAF
102
{ACAD_REACTORS
330
D
102
}
330
D
100
AcDbGroup
300

 70
     1
 71
     1
  0
GROUP
  5
28DC4
102
{ACAD_REACTORS
330
D
102
}
330
D
100
AcDbGroup
300

 70
     1
 71
     1
  0
GROUP
  5
28DC5
102
{ACAD_REACTORS
330
D
102
}
330
D
100
AcDbGroup
300

 70
     1
 71
     1
  0
GROUP
  5
27FE8
102
{ACAD_REACTORS
330
D
102
}
330
D
100
AcDbGroup
300

 70
     1
 71
     1
  0
GROUP
  5
282EB
102
{ACAD_REACTORS
330
D
102
}
330
D
100
AcDbGroup
300

 70
     1
 71
     1
  0
GROUP
  5
28DC6
102
{ACAD_REACTORS
330
D
102
}
330
D
100
AcDbGroup
300

 70
     1
 71
     1
  0
GROUP
  5
281DE
102
{ACAD_REACTORS
330
D
102
}
330
D
100
AcDbGroup
300

 70
     1
 71
     1
  0
GROUP
  5
28DC7
102
{ACAD_REACTORS
330
D
102
}
330
D
100
AcDbGroup
300

 70
     1
 71
     1
  0
GROUP
  5
28D02
102
{ACAD_REACTORS
330
D
102
}
330
D
100
AcDbGroup
300

 70
     1
 71
     1
  0
GROUP
  5
27FDC
102
{ACAD_REACTORS
330
D
102
}
330
D
100
AcDbGroup
300

 70
     1
 71
     1
  0
GROUP
  5
281B3
102
{ACAD_REACTORS
330
D
102
}
330
D
100
AcDbGroup
300

 70
     1
 71
     1
  0
GROUP
  5
28DC8
102
{ACAD_REACTORS
330
D
102
}
330
D
100
AcDbGroup
300

 70
     1
 71
     1
  0
GROUP
  5
28DC9
102
{ACAD_REACTORS
330
D
102
}
330
D
100
AcDbGroup
300

 70
     1
 71
     1
  0
GROUP
  5
281B7
102
{ACAD_REACTORS
330
D
102
}
330
D
100
AcDbGroup
300

 70
     1
 71
     1
  0
GROUP
  5
28DDE
102
{ACAD_REACTORS
330
D
102
}
330
D
100
AcDbGroup
300

 70
     1
 71
     1
  0
GROUP
  5
28DDF
102
{ACAD_REACTORS
330
D
102
}
330
D
100
AcDbGroup
300

 70
     1
 71
     1
  0
GROUP
  5
27D06
102
{ACAD_REACTORS
330
D
102
}
330
D
100
AcDbGroup
300

 70
     1
 71
     1
  0
GROUP
  5
27FD6
102
{ACAD_REACTORS
330
D
102
}
330
D
100
AcDbGroup
300

 70
     1
 71
     1
  0
GROUP
  5
281DF
102
{ACAD_REACTORS
330
D
102
}
330
D
100
AcDbGroup
300

 70
     1
 71
     1
  0
GROUP
  5
1FC80
102
{ACAD_REACTORS
330
D
102
}
330
D
100
AcDbGroup
300

 70
     1
 71
     1
  0
GROUP
  5
28DE0
102
{ACAD_REACTORS
330
D
102
}
330
D
100
AcDbGroup
300

 70
     1
 71
     1
  0
GROUP
  5
1BD88
102
{ACAD_REACTORS
330
D
102
}
330
D
100
AcDbGroup
300

 70
     1
 71
     1
  0
GROUP
  5
28DE1
102
{ACAD_REACTORS
330
D
102
}
330
D
100
AcDbGroup
300

 70
     1
 71
     1
  0
GROUP
  5
282F1
102
{ACAD_REACTORS
330
D
102
}
330
D
100
AcDbGroup
300

 70
     1
 71
     1
  0
GROUP
  5
28DE2
102
{ACAD_REACTORS
330
D
102
}
330
D
100
AcDbGroup
300

 70
     1
 71
     1
  0
GROUP
  5
281B4
102
{ACAD_REACTORS
330
D
102
}
330
D
100
AcDbGroup
300

 70
     1
 71
     1
  0
GROUP
  5
27D2F
102
{ACAD_REACTORS
330
D
102
}
330
D
100
AcDbGroup
300

 70
     1
 71
     1
  0
GROUP
  5
27BF5
102
{ACAD_REACTORS
330
D
102
}
330
D
100
AcDbGroup
300

 70
     1
 71
     1
  0
GROUP
  5
28DE3
102
{ACAD_REACTORS
330
D
102
}
330
D
100
AcDbGroup
300

 70
     1
 71
     1
  0
GROUP
  5
281BA
102
{ACAD_REACTORS
330
D
102
}
330
D
100
AcDbGroup
300

 70
     1
 71
     1
  0
GROUP
  5
27FDA
102
{ACAD_REACTORS
330
D
102
}
330
D
100
AcDbGroup
300

 70
     1
 71
     1
  0
GROUP
  5
28D75
102
{ACAD_REACTORS
330
D
102
}
330
D
100
AcDbGroup
300

 70
     1
 71
     1
  0
GROUP
  5
28DEA
102
{ACAD_REACTORS
330
D
102
}
330
D
100
AcDbGroup
300

 70
     1
 71
     1
  0
GROUP
  5
28DEF
102
{ACAD_REACTORS
330
D
102
}
330
D
100
AcDbGroup
300

 70
     1
 71
     1
  0
GROUP
  5
28DF8
102
{ACAD_REACTORS
330
D
102
}
330
D
100
AcDbGroup
300

 70
     1
 71
     1
  0
GROUP
  5
28DF9
102
{ACAD_REACTORS
330
D
102
}
330
D
100
AcDbGroup
300

 70
     1
 71
     1
  0
GROUP
  5
28E03
102
{ACAD_REACTORS
330
D
102
}
330
D
100
AcDbGroup
300

 70
     1
 71
     1
  0
GROUP
  5
27FD7
102
{ACAD_REACTORS
330
D
102
}
330
D
100
AcDbGroup
300

 70
     1
 71
     1
  0
GROUP
  5
28E04
102
{ACAD_REACTORS
330
D
102
}
330
D
100
AcDbGroup
300

 70
     1
 71
     1
  0
GROUP
  5
265C2
102
{ACAD_REACTORS
330
D
102
}
330
D
100
AcDbGroup
300

 70
     1
 71
     1
  0
GROUP
  5
2A219
102
{ACAD_REACTORS
330
D
102
}
330
D
100
AcDbGroup
300

 70
     1
 71
     1
  0
GROUP
  5
1BD84
102
{ACAD_REACTORS
330
D
102
}
330
D
100
AcDbGroup
300

 70
     1
 71
     1
  0
GROUP
  5
27BFB
102
{ACAD_REACTORS
330
D
102
}
330
D
100
AcDbGroup
300

 70
     1
 71
     1
  0
GROUP
  5
281E0
102
{ACAD_REACTORS
330
D
102
}
330
D
100
AcDbGroup
300

 70
     1
 71
     1
  0
GROUP
  5
27CDE
102
{ACAD_REACTORS
330
D
102
}
330
D
100
AcDbGroup
300

 70
     1
 71
     1
  0
GROUP
  5
2A21A
102
{ACAD_REACTORS
330
D
102
}
330
D
100
AcDbGroup
300

 70
     1
 71
     1
  0
GROUP
  5
2A21B
102
{ACAD_REACTORS
330
D
102
}
330
D
100
AcDbGroup
300

 70
     1
 71
     1
  0
GROUP
  5
2A21C
102
{ACAD_REACTORS
330
D
102
}
330
D
100
AcDbGroup
300

 70
     1
 71
     1
  0
GROUP
  5
2A27B
102
{ACAD_REACTORS
330
D
102
}
330
D
100
AcDbGroup
300

 70
     1
 71
     1
  0
GROUP
  5
2A27D
102
{ACAD_REACTORS
330
D
102
}
330
D
100
AcDbGroup
300

 70
     1
 71
     1
  0
GROUP
  5
2A27E
102
{ACAD_REACTORS
330
D
102
}
330
D
100
AcDbGroup
300

 70
     1
 71
     1
  0
GROUP
  5
1BD83
102
{ACAD_REACTORS
330
D
102
}
330
D
100
AcDbGroup
300

 70
     1
 71
     1
  0
GROUP
  5
27C8A
102
{ACAD_REACTORS
330
D
102
}
330
D
100
AcDbGroup
300

 70
     1
 71
     1
  0
GROUP
  5
27BFC
102
{ACAD_REACTORS
330
D
102
}
330
D
100
AcDbGroup
300

 70
     1
 71
     1
  0
GROUP
  5
27D31
102
{ACAD_REACTORS
330
D
102
}
330
D
100
AcDbGroup
300

 70
     1
 71
     1
  0
GROUP
  5
27FEA
102
{ACAD_REACTORS
330
D
102
}
330
D
100
AcDbGroup
300

 70
     1
 71
     1
  0
GROUP
  5
27C8B
102
{ACAD_REACTORS
330
D
102
}
330
D
100
AcDbGroup
300

 70
     1
 71
     1
  0
GROUP
  5
27FE9
102
{ACAD_REACTORS
330
D
102
}
330
D
100
AcDbGroup
300

 70
     1
 71
     1
  0
GROUP
  5
27C8C
102
{ACAD_REACTORS
330
D
102
}
330
D
100
AcDbGroup
300

 70
     1
 71
     1
  0
GROUP
  5
27B51
102
{ACAD_REACTORS
330
D
102
}
330
D
100
AcDbGroup
300

 70
     1
 71
     1
  0
GROUP
  5
27C8D
102
{ACAD_REACTORS
330
D
102
}
330
D
100
AcDbGroup
300

 70
     1
 71
     1
  0
GROUP
  5
27CB3
102
{ACAD_REACTORS
330
D
102
}
330
D
100
AcDbGroup
300

 70
     1
 71
     1
  0
GROUP
  5
27CB4
102
{ACAD_REACTORS
330
D
102
}
330
D
100
AcDbGroup
300

 70
     1
 71
     1
  0
GROUP
  5
27FE6
102
{ACAD_REACTORS
330
D
102
}
330
D
100
AcDbGroup
300

 70
     1
 71
     1
  0
GROUP
  5
27D7D
102
{ACAD_REACTORS
330
D
102
}
330
D
100
AcDbGroup
300

 70
     1
 71
     1
  0
GROUP
  5
1BD8A
102
{ACAD_REACTORS
330
D
102
}
330
D
100
AcDbGroup
300

 70
     1
 71
     1
  0
GROUP
  5
27CB5
102
{ACAD_REACTORS
330
D
102
}
330
D
100
AcDbGroup
300

 70
     1
 71
     1
  0
GROUP
  5
27CB6
102
{ACAD_REACTORS
330
D
102
}
330
D
100
AcDbGroup
300

 70
     1
 71
     1
  0
GROUP
  5
282F4
102
{ACAD_REACTORS
330
D
102
}
330
D
100
AcDbGroup
300

 70
     1
 71
     1
  0
GROUP
  5
2819B
102
{ACAD_REACTORS
330
D
102
}
330
D
100
AcDbGroup
300

 70
     1
 71
     1
  0
GROUP
  5
281B8
102
{ACAD_REACTORS
330
D
102
}
330
D
100
AcDbGroup
300

 70
     1
 71
     1
  0
GROUP
  5
28D65
102
{ACAD_REACTORS
330
D
102
}
330
D
100
AcDbGroup
300

 70
     1
 71
     1
  0
GROUP
  5
27D7E
102
{ACAD_REACTORS
330
D
102
}
330
D
100
AcDbGroup
300

 70
     1
 71
     1
  0
GROUP
  5
27B54
102
{ACAD_REACTORS
330
D
102
}
330
D
100
AcDbGroup
300

 70
     1
 71
     1
  0
GROUP
  5
1FC8F
102
{ACAD_REACTORS
330
D
102
}
330
D
100
AcDbGroup
300

 70
     1
 71
     1
  0
GROUP
  5
27FD2
102
{ACAD_REACTORS
330
D
102
}
330
D
100
AcDbGroup
300

 70
     1
 71
     1
  0
GROUP
  5
1BD8C
102
{ACAD_REACTORS
330
D
102
}
330
D
100
AcDbGroup
300

 70
     1
 71
     1
  0
GROUP
  5
27DBB
102
{ACAD_REACTORS
330
D
102
}
330
D
100
AcDbGroup
300

 70
     1
 71
     1
  0
GROUP
  5
27FDD
102
{ACAD_REACTORS
330
D
102
}
330
D
100
AcDbGroup
300

 70
     1
 71
     1
  0
GROUP
  5
27FD9
102
{ACAD_REACTORS
330
D
102
}
330
D
100
AcDbGroup
300

 70
     1
 71
     1
  0
GROUP
  5
27CDC
102
{ACAD_REACTORS
330
D
102
}
330
D
100
AcDbGroup
300

 70
     1
 71
     1
  0
GROUP
  5
27DBC
102
{ACAD_REACTORS
330
D
102
}
330
D
100
AcDbGroup
300

 70
     1
 71
     1
  0
GROUP
  5
2819C
102
{ACAD_REACTORS
330
D
102
}
330
D
100
AcDbGroup
300

 70
     1
 71
     1
  0
GROUP
  5
194F7
102
{ACAD_REACTORS
330
D
102
}
330
D
100
AcDbGroup
300

 70
     1
 71
     1
  0
GROUP
  5
27DBD
102
{ACAD_REACTORS
330
D
102
}
330
D
100
AcDbGroup
300

 70
     1
 71
     1
  0
GROUP
  5
27FD3
102
{ACAD_REACTORS
330
D
102
}
330
D
100
AcDbGroup
300

 70
     1
 71
     1
  0
GROUP
  5
27DBE
102
{ACAD_REACTORS
330
D
102
}
330
D
100
AcDbGroup
300

 70
     1
 71
     1
  0
GROUP
  5
282CF
102
{ACAD_REACTORS
330
D
102
}
330
D
100
AcDbGroup
300

 70
     1
 71
     1
  0
GROUP
  5
27B57
102
{ACAD_REACTORS
330
D
102
}
330
D
100
AcDbGroup
300

 70
     1
 71
     1
  0
GROUP
  5
27DBF
102
{ACAD_REACTORS
330
D
102
}
330
D
100
AcDbGroup
300

 70
     1
 71
     1
  0
GROUP
  5
282FA
102
{ACAD_REACTORS
330
D
102
}
330
D
100
AcDbGroup
300

 70
     1
 71
     1
  0
GROUP
  5
27FD4
102
{ACAD_REACTORS
330
D
102
}
330
D
100
AcDbGroup
300

 70
     1
 71
     1
  0
GROUP
  5
27E11
102
{ACAD_REACTORS
330
D
102
}
330
D
100
AcDbGroup
300

 70
     1
 71
     1
  0
GROUP
  5
27E12
102
{ACAD_REACTORS
330
D
102
}
330
D
100
AcDbGroup
300

 70
     1
 71
     1
  0
GROUP
  5
27E13
102
{ACAD_REACTORS
330
D
102
}
330
D
100
AcDbGroup
300

 70
     1
 71
     1
  0
GROUP
  5
27B8B
102
{ACAD_REACTORS
330
D
102
}
330
D
100
AcDbGroup
300

 70
     1
 71
     1
  0
GROUP
  5
27E14
102
{ACAD_REACTORS
330
D
102
}
330
D
100
AcDbGroup
300

 70
     1
 71
     1
  0
GROUP
  5
27FDB
102
{ACAD_REACTORS
330
D
102
}
330
D
100
AcDbGroup
300

 70
     1
 71
     1
  0
GROUP
  5
27FBF
102
{ACAD_REACTORS
330
D
102
}
330
D
100
AcDbGroup
300

 70
     1
 71
     1
  0
GROUP
  5
281B5
102
{ACAD_REACTORS
330
D
102
}
330
D
100
AcDbGroup
300

 70
     1
 71
     1
  0
GROUP
  5
27FDE
102
{ACAD_REACTORS
330
D
102
}
330
D
100
AcDbGroup
300

 70
     1
 71
     1
  0
GROUP
  5
27C38
102
{ACAD_REACTORS
330
D
102
}
330
D
100
AcDbGroup
300

 70
     1
 71
     1
  0
GROUP
  5
28D76
102
{ACAD_REACTORS
330
D
102
}
330
D
100
AcDbGroup
300

 70
     1
 71
     1
  0
GROUP
  5
27B88
102
{ACAD_REACTORS
330
D
102
}
330
D
100
AcDbGroup
300

 70
     1
 71
     1
  0
GROUP
  5
27FC0
102
{ACAD_REACTORS
330
D
102
}
330
D
100
AcDbGroup
300

 70
     1
 71
     1
  0
GROUP
  5
27FC1
102
{ACAD_REACTORS
330
D
102
}
330
D
100
AcDbGroup
300

 70
     1
 71
     1
  0
GROUP
  5
194F5
102
{ACAD_REACTORS
330
D
102
}
330
D
100
AcDbGroup
300

 70
     1
 71
     1
  0
GROUP
  5
27FC2
102
{ACAD_REACTORS
330
D
102
}
330
D
100
AcDbGroup
300

 70
     1
 71
     1
  0
GROUP
  5
2819D
102
{ACAD_REACTORS
330
D
102
}
330
D
100
AcDbGroup
300

 70
     1
 71
     1
  0
GROUP
  5
28D66
102
{ACAD_REACTORS
330
D
102
}
330
D
100
AcDbGroup
300

 70
     1
 71
     1
  0
GROUP
  5
27FC3
102
{ACAD_REACTORS
330
D
102
}
330
D
100
AcDbGroup
300

 70
     1
 71
     1
  0
GROUP
  5
194F6
102
{ACAD_REACTORS
330
D
102
}
330
D
100
AcDbGroup
300

 70
     1
 71
     1
  0
GROUP
  5
27C39
102
{ACAD_REACTORS
330
D
102
}
330
D
100
AcDbGroup
300

 70
     1
 71
     1
  0
GROUP
  5
27FC4
102
{ACAD_REACTORS
330
D
102
}
330
D
100
AcDbGroup
300

 70
     1
 71
     1
  0
GROUP
  5
27FC5
102
{ACAD_REACTORS
330
D
102
}
330
D
100
AcDbGroup
300

 70
     1
 71
     1
  0
GROUP
  5
A49A
102
{ACAD_REACTORS
330
D
102
}
330
D
100
AcDbGroup
300

 70
     1
 71
     1
  0
GROUP
  5
27FC6
102
{ACAD_REACTORS
330
D
102
}
330
D
100
AcDbGroup
300

 70
     1
 71
     1
  0
GROUP
  5
27B89
102
{ACAD_REACTORS
330
D
102
}
330
D
100
AcDbGroup
300

 70
     1
 71
     1
  0
GROUP
  5
27FD0
102
{ACAD_REACTORS
330
D
102
}
330
D
100
AcDbGroup
300

 70
     1
 71
     1
  0
GROUP
  5
27FC7
102
{ACAD_REACTORS
330
D
102
}
330
D
100
AcDbGroup
300

 70
     1
 71
     1
  0
GROUP
  5
27FC8
102
{ACAD_REACTORS
330
D
102
}
330
D
100
AcDbGroup
300

 70
     1
 71
     1
  0
GROUP
  5
27FCD
102
{ACAD_REACTORS
330
D
102
}
330
D
100
AcDbGroup
300

 70
     1
 71
     1
  0
GROUP
  5
27FDF
102
{ACAD_REACTORS
330
D
102
}
330
D
100
AcDbGroup
300

 70
     1
 71
     1
  0
GROUP
  5
27C3A
102
{ACAD_REACTORS
330
D
102
}
330
D
100
AcDbGroup
300

 70
     1
 71
     1
  0
GROUP
  5
1BD8B
102
{ACAD_REACTORS
330
D
102
}
330
D
100
AcDbGroup
300

 70
     1
 71
     1
  0
GROUP
  5
27FC9
102
{ACAD_REACTORS
330
D
102
}
330
D
100
AcDbGroup
300

 70
     1
 71
     1
  0
GROUP
  5
27FCA
102
{ACAD_REACTORS
330
D
102
}
330
D
100
AcDbGroup
300

 70
     1
 71
     1
  0
GROUP
  5
27FCB
102
{ACAD_REACTORS
330
D
102
}
330
D
100
AcDbGroup
300

 70
     1
 71
     1
  0
GROUP
  5
28D67
102
{ACAD_REACTORS
330
D
102
}
330
D
100
AcDbGroup
300

 70
     1
 71
     1
  0
GROUP
  5
A22D
102
{ACAD_REACTORS
330
D
102
}
330
D
100
AcDbGroup
300

 70
     1
 71
     1
  0
GROUP
  5
27FE0
102
{ACAD_REACTORS
330
D
102
}
330
D
100
AcDbGroup
300

 70
     1
 71
     1
  0
GROUP
  5
2A2B9
102
{ACAD_REACTORS
330
D
102
}
330
D
100
AcDbGroup
300

 70
     1
 71
     1
  0
GROUP
  5
2A2C8
102
{ACAD_REACTORS
330
D
102
}
330
D
100
AcDbGroup
300

 70
     1
 71
     1
  0
GROUP
  5
2819E
102
{ACAD_REACTORS
330
D
102
}
330
D
100
AcDbGroup
300

 70
     1
 71
     1
  0
LAYOUT
  5
1B1E7
102
{ACAD_XDICTIONARY
360
2A402
102
}
102
{ACAD_REACTORS
330
1B1E4
102
}
330
1B1E4
100
AcDbPlotSettings
  1

  2
\\SERVER1\HP Color LaserJet 4500
  4

  6

 40
0.0
 41
0.0
 42
0.0
 43
0.0
 44
0.0
 45
0.0
 46
0.0
 47
0.0
 48
0.0
 49
0.0
140
0.0
141
0.0
142
1.0
143
1.0
 70
   688
 72
     0
 73
     0
 74
     5
  7
monochrome.ctb
 75
    16
147
1.0
148
0.0
149
0.0
100
AcDbLayout
  1
Layout1
 70
     1
 71
     1
 10
0.0
 20
0.0
 11
420.0
 21
297.0
 12
0.0
 22
0.0
 32
0.0
 14
1.000000000000000E+20
 24
1.000000000000000E+20
 34
1.000000000000000E+20
 15
-1.000000000000000E+20
 25
-1.000000000000000E+20
 35
-1.000000000000000E+20
146
0.0
 13
0.0
 23
0.0
 33
0.0
 16
1.0
 26
0.0
 36
0.0
 17
0.0
 27
1.0
 37
0.0
 76
     0
330
15
  0
LAYOUT
  5
1B1E6
102
{ACAD_XDICTIONARY
360
2A400
102
}
102
{ACAD_REACTORS
330
1B1E4
102
}
330
1B1E4
100
AcDbPlotSettings
  1

  2
\\SERVER1\HP Color LaserJet 4500
  4
A4
  6

 40
5.365749835968017
 41
5.450419902801513
 42
5.111740112304687
 43
5.069427490234375
 44
209.9733276367187
 45
296.9683227539062
 46
0.0
 47
0.0
 48
0.0
 49
0.0
140
0.0
141
0.0
142
1.0
143
1.0
 70
 11952
 72
     1
 73
     1
 74
     0
  7

 75
     0
147
1.0
148
-128.8221196428741
149
-57.42083115755417
100
AcDbLayout
  1
Model
 70
     1
 71
     0
 10
0.0
 20
0.0
 11
12.0
 21
9.0
 12
0.0
 22
0.0
 32
0.0
 14
0.0
 24
0.0
 34
0.0
 15
0.0
 25
0.0
 35
0.0
146
0.0
 13
0.0
 23
0.0
 33
0.0
 16
1.0
 26
0.0
 36
0.0
 17
0.0
 27
1.0
 37
0.0
 76
     0
330
18
  0
MLINESTYLE
  5
1C
102
{ACAD_REACTORS
330
1B
102
}
330
1B
100
AcDbMlineStyle
  2
STANDARD
 70
     0
  3

 62
   256
 51
90.0
 52
90.0
 71
     2
 49
0.5
 62
   256
  6
BYLAYER
 49
-0.5
 62
   256
  6
BYLAYER
  0
ACDBPLACEHOLDER
  5
1B1E3
102
{ACAD_REACTORS
330
1B1E2
102
}
330
1B1E2
  0
TABLESTYLE
  5
29720
102
{ACAD_REACTORS
330
2971F
102
}
330
2971F
100
AcDbTableStyle
  3
Standard
 70
     0
 71
     0
 40
1.5
 41
1.5
280
     0
281
     0
  7
STANDARD
140
4.5
170
     2
 62
     0
 63
     7
283
     0
274
    -2
284
     1
 64
     0
275
    -2
285
     1
 65
     0
276
    -2
286
     1
 66
     0
277
    -2
287
     1
 67
     0
278
    -2
288
     1
 68
     0
279
    -2
289
     1
 69
     0
  7
STANDARD
140
6.0
170
     5
 62
     0
 63
     7
283
     0
274
    -2
284
     1
 64
     0
275
    -2
285
     1
 65
     0
276
    -2
286
     1
 66
     0
277
    -2
287
     1
 67
     0
278
    -2
288
     1
 68
     0
279
    -2
289
     1
 69
     0
  7
STANDARD
140
4.5
170
     5
 62
     0
 63
     7
283
     0
274
    -2
284
     1
 64
     0
275
    -2
285
     1
 65
     0
276
    -2
286
     1
 66
     0
277
    -2
287
     1
 67
     0
278
    -2
288
     1
 68
     0
279
    -2
289
     1
 69
     0
  0
DICTIONARYVAR
  5
29728
102
{ACAD_REACTORS
330
9820
102
}
330
9820
100
DictionaryVariables
280
     0
  1
STANDARD
  0
DICTIONARYVAR
  5
1FD3B
102
{ACAD_REACTORS
330
9820
102
}
330
9820
100
DictionaryVariables
280
     0
  1
1
  0
DICTIONARYVAR
  5
2A151
102
{ACAD_REACTORS
330
9820
102
}
330
9820
100
DictionaryVariables
280
     0
  1

  0
DICTIONARYVAR
  5
9821
102
{ACAD_REACTORS
330
9820
102
}
330
9820
100
DictionaryVariables
280
     0
  1
127
  0
DICTIONARY
  5
2A402
330
1B1E7
100
AcDbDictionary
280
     1
281
     1
  3
ACAD_XREC_ROUNDTRIP
360
2A403
  0
DICTIONARY
  5
2A400
330
1B1E6
100
AcDbDictionary
280
     1
281
     1
  3
ACAD_XREC_ROUNDTRIP
360
2A401
  0
XRECORD
  5
2A403
102
{ACAD_REACTORS
330
2A402
102
}
330
2A402
100
AcDbXrecord
280
     1
102
SHADEPLOT
 70
     0
102
SHADEPLOTRESLEVEL
 70
     2
102
SHADEPLOTCUSTOMDPI
 70
   300
  0
XRECORD
  5
2A401
102
{ACAD_REACTORS
330
2A400
102
}
330
2A400
100
AcDbXrecord
280
     1
102
SHADEPLOT
 70
     0
102
SHADEPLOTRESLEVEL
 70
     2
102
SHADEPLOTCUSTOMDPI
 70
   300
  0
ENDSEC
  0
EOF
