  0
SECTION
  2
HEADER
  9
$ACADVER
  1
AC1015
  9
$ACADMAINTVER
 70
    20
  9
$DWGCODEPAGE
  3
ANSI_1252
  9
$INSBASE
 10
0.0
 20
0.0
 30
0.0
  9
$EXTMIN
 10
-0.0090573584943741
 20
-0.0064041928748111
 30
-0.0000000000112498
  9
$EXTMAX
 10
594.0090656570853
 20
420.0064100605656
 30
0.0000000000002956
  9
$LIMMIN
 10
0.0
 20
0.0
  9
$LIMMAX
 10
420.0
 20
297.0
  9
$ORTHOMODE
 70
     1
  9
$REGENMODE
 70
     1
  9
$FILLMODE
 70
     1
  9
$QTEXTMODE
 70
     0
  9
$MIRRTEXT
 70
     1
  9
$LTSCALE
 40
1.0
  9
$ATTMODE
 70
     1
  9
$TEXTSIZE
 40
2.0
  9
$TRACEWID
 40
1.0
  9
$TEXTSTYLE
  7
TASTENTEXT
  9
$CLAYER
  8
Modules
  9
$CELTYPE
  6
VERDECKT2
  9
$CECOLOR
 62
   256
  9
$CELTSCALE
 40
1.0
  9
$DISPSILH
 70
     0
  9
$DIMSCALE
 40
1.0
  9
$DIMASZ
 40
2.5
  9
$DIMEXO
 40
0.625
  9
$DIMDLI
 40
3.75
  9
$DIMRND
 40
0.0
  9
$DIMDLE
 40
0.0
  9
$DIMEXE
 40
1.25
  9
$DIMTP
 40
0.0
  9
$DIMTM
 40
0.0
  9
$DIMTXT
 40
2.5
  9
$DIMCEN
 40
2.5
  9
$DIMTSZ
 40
0.0
  9
$DIMTOL
 70
     0
  9
$DIMLIM
 70
     0
  9
$DIMTIH
 70
     0
  9
$DIMTOH
 70
     0
  9
$DIMSE1
 70
     0
  9
$DIMSE2
 70
     0
  9
$DIMTAD
 70
     1
  9
$DIMZIN
 70
     8
  9
$DIMBLK
  1

  9
$DIMASO
 70
     1
  9
$DIMSHO
 70
     1
  9
$DIMPOST
  1

  9
$DIMAPOST
  1

  9
$DIMALT
 70
     0
  9
$DIMALTD
 70
     4
  9
$DIMALTF
 40
0.0394
  9
$DIMLFAC
 40
1.0
  9
$DIMTOFL
 70
     1
  9
$DIMTVP
 40
0.0
  9
$DIMTIX
 70
     0
  9
$DIMSOXD
 70
     0
  9
$DIMSAH
 70
     0
  9
$DIMBLK1
  1

  9
$DIMBLK2
  1

  9
$DIMSTYLE
  2
STANDARD
  9
$DIMCLRD
 70
     0
  9
$DIMCLRE
 70
     0
  9
$DIMCLRT
 70
     0
  9
$DIMTFAC
 40
1.0
  9
$DIMGAP
 40
0.625
  9
$DIMJUST
 70
     0
  9
$DIMSD1
 70
     0
  9
$DIMSD2
 70
     0
  9
$DIMTOLJ
 70
     1
  9
$DIMTZIN
 70
     0
  9
$DIMALTZ
 70
     0
  9
$DIMALTTZ
 70
     0
  9
$DIMUPT
 70
     0
  9
$DIMDEC
 70
     4
  9
$DIMTDEC
 70
     4
  9
$DIMALTU
 70
     8
  9
$DIMALTTD
 70
     4
  9
$DIMTXSTY
  7
STANDARD
  9
$DIMAUNIT
 70
     0
  9
$DIMADEC
 70
     0
  9
$DIMALTRND
 40
0.0
  9
$DIMAZIN
 70
     0
  9
$DIMDSEP
 70
    46
  9
$DIMATFIT
 70
     3
  9
$DIMFRAC
 70
     0
  9
$DIMLDRBLK
  1

  9
$DIMLUNIT
 70
     6
  9
$DIMLWD
 70
    -2
  9
$DIMLWE
 70
    -2
  9
$DIMTMOVE
 70
     0
  9
$LUNITS
 70
     2
  9
$LUPREC
 70
     4
  9
$SKETCHINC
 40
1.0
  9
$FILLETRAD
 40
1.0
  9
$AUNITS
 70
     0
  9
$AUPREC
 70
     0
  9
$MENU
  1
acad
  9
$ELEVATION
 40
0.0
  9
$PELEVATION
 40
0.0
  9
$THICKNESS
 40
0.0
  9
$LIMCHECK
 70
     0
  9
$CHAMFERA
 40
0.0
  9
$CHAMFERB
 40
0.0
  9
$CHAMFERC
 40
20.0
  9
$CHAMFERD
 40
0.0
  9
$SKPOLY
 70
     0
  9
$TDCREATE
 40
2451774.314132176
  9
$TDUCREATE
 40
2451774.272465510
  9
$TDUPDATE
 40
2454162.516639537
  9
$TDUUPDATE
 40
2454162.474972870
  9
$TDINDWG
 40
0.5198663773
  9
$TDUSRTIMER
 40
0.5198663773
  9
$USRTIMER
 70
     1
  9
$ANGBASE
 50
0.0
  9
$ANGDIR
 70
     0
  9
$PDMODE
 70
     0
  9
$PDSIZE
 40
0.0
  9
$PLINEWID
 40
0.0
  9
$SPLFRAME
 70
     0
  9
$SPLINETYPE
 70
     6
  9
$SPLINESEGS
 70
     8
  9
$HANDSEED
  5
2A8AC
  9
$SURFTAB1
 70
     6
  9
$SURFTAB2
 70
     6
  9
$SURFTYPE
 70
     6
  9
$SURFU
 70
     6
  9
$SURFV
 70
     6
  9
$UCSBASE
  2

  9
$UCSNAME
  2

  9
$UCSORG
 10
0.0
 20
0.0
 30
0.0
  9
$UCSXDIR
 10
1.0
 20
0.0
 30
0.0
  9
$UCSYDIR
 10
0.0
 20
1.0
 30
0.0
  9
$UCSORTHOREF
  2

  9
$UCSORTHOVIEW
 70
     0
  9
$UCSORGTOP
 10
0.0
 20
0.0
 30
0.0
  9
$UCSORGBOTTOM
 10
0.0
 20
0.0
 30
0.0
  9
$UCSORGLEFT
 10
0.0
 20
0.0
 30
0.0
  9
$UCSORGRIGHT
 10
0.0
 20
0.0
 30
0.0
  9
$UCSORGFRONT
 10
0.0
 20
0.0
 30
0.0
  9
$UCSORGBACK
 10
0.0
 20
0.0
 30
0.0
  9
$PUCSBASE
  2

  9
$PUCSNAME
  2

  9
$PUCSORG
 10
0.0
 20
0.0
 30
0.0
  9
$PUCSXDIR
 10
1.0
 20
0.0
 30
0.0
  9
$PUCSYDIR
 10
0.0
 20
1.0
 30
0.0
  9
$PUCSORTHOREF
  2

  9
$PUCSORTHOVIEW
 70
     0
  9
$PUCSORGTOP
 10
0.0
 20
0.0
 30
0.0
  9
$PUCSORGBOTTOM
 10
0.0
 20
0.0
 30
0.0
  9
$PUCSORGLEFT
 10
0.0
 20
0.0
 30
0.0
  9
$PUCSORGRIGHT
 10
0.0
 20
0.0
 30
0.0
  9
$PUCSORGFRONT
 10
0.0
 20
0.0
 30
0.0
  9
$PUCSORGBACK
 10
0.0
 20
0.0
 30
0.0
  9
$USERI1
 70
     0
  9
$USERI2
 70
     0
  9
$USERI3
 70
     0
  9
$USERI4
 70
     0
  9
$USERI5
 70
     0
  9
$USERR1
 40
0.0
  9
$USERR2
 40
0.0
  9
$USERR3
 40
0.0
  9
$USERR4
 40
0.0
  9
$USERR5
 40
0.0
  9
$WORLDVIEW
 70
     1
  9
$SHADEDGE
 70
     3
  9
$SHADEDIF
 70
    70
  9
$TILEMODE
 70
     1
  9
$MAXACTVP
 70
    48
  9
$PINSBASE
 10
0.0
 20
0.0
 30
0.0
  9
$PLIMCHECK
 70
     0
  9
$PEXTMIN
 10
1.000000000000000E+20
 20
1.000000000000000E+20
 30
1.000000000000000E+20
  9
$PEXTMAX
 10
-1.000000000000000E+20
 20
-1.000000000000000E+20
 30
-1.000000000000000E+20
  9
$PLIMMIN
 10
0.0
 20
0.0
  9
$PLIMMAX
 10
420.0
 20
297.0
  9
$UNITMODE
 70
     0
  9
$VISRETAIN
 70
     1
  9
$PLINEGEN
 70
     0
  9
$PSLTSCALE
 70
     1
  9
$TREEDEPTH
 70
  3020
  9
$CMLSTYLE
  2
STANDARD
  9
$CMLJUST
 70
     0
  9
$CMLSCALE
 40
20.0
  9
$PROXYGRAPHICS
 70
     1
  9
$MEASUREMENT
 70
     1
  9
$CELWEIGHT
370
    -1
  9
$ENDCAPS
280
     0
  9
$JOINSTYLE
280
     0
  9
$LWDISPLAY
290
     0
  9
$INSUNITS
 70
     0
  9
$HYPERLINKBASE
  1

  9
$STYLESHEET
  1

  9
$XEDIT
290
     1
  9
$CEPSNTYPE
380
     0
  9
$PSTYLEMODE
290
     1
  9
$FINGERPRINTGUID
  2
{E7552BDC-5169-4F54-A499-2C82C71F1FBB}
  9
$VERSIONGUID
  2
{512B6995-970F-4DD3-87FA-4F69F8161624}
  9
$EXTNAMES
290
     1
  9
$PSVPSCALE
 40
0.0
  9
$OLESTARTUP
290
     0
  0
ENDSEC
  0
SECTION
  2
CLASSES
  0
CLASS
  1
DICTIONARYVAR
  2
AcDbDictionaryVar
  3
ObjectDBX Classes
 90
        0
280
     0
281
     0
  0
CLASS
  1
SORTENTSTABLE
  2
AcDbSortentsTable
  3
ObjectDBX Classes
 90
        0
280
     0
281
     0
  0
CLASS
  1
ACDBDICTIONARYWDFLT
  2
AcDbDictionaryWithDefault
  3
ObjectDBX Classes
 90
        0
280
     0
281
     0
  0
CLASS
  1
ACDBPLACEHOLDER
  2
AcDbPlaceHolder
  3
ObjectDBX Classes
 90
        0
280
     0
281
     0
  0
CLASS
  1
LAYOUT
  2
AcDbLayout
  3
ObjectDBX Classes
 90
        0
280
     0
281
     0
  0
CLASS
  1
TABLESTYLE
  2
AcDbTableStyle
  3
ObjectDBX Classes
 90
     2047
280
     0
281
     0
  0
ENDSEC
  0
SECTION
  2
TABLES
  0
TABLE
  2
VPORT
  5
8
330
0
100
AcDbSymbolTable
 70
     5
  0
VPORT
  5
2A8A6
330
8
100
AcDbSymbolTableRecord
100
AcDbViewportTableRecord
  2
*Active
 70
     0
 10
0.0
 20
0.0
 11
1.0
 21
1.0
 12
297.0000041492955
 22
210.0000029338454
 13
0.0
 23
0.0
 14
10.0
 24
10.0
 15
10.0
 25
10.0
 16
0.0
 26
0.0
 36
1.0
 17
0.0
 27
0.0
 37
0.0
 40
462.0617180434146
 41
1.293715846994535
 42
50.0
 43
0.0
 44
0.0
 50
0.0
 51
0.0
 71
     0
 72
   100
 73
     1
 74
     1
 75
     0
 76
     0
 77
     0
 78
     0
281
     0
 65
     1
110
0.0
120
0.0
130
0.0
111
1.0
121
0.0
131
0.0
112
0.0
122
1.0
132
0.0
 79
     0
146
0.0
  0
ENDTAB
  0
TABLE
  2
LTYPE
  5
5
330
0
100
AcDbSymbolTable
 70
     2
  0
LTYPE
  5
12
330
5
100
AcDbSymbolTableRecord
100
AcDbLinetypeTableRecord
  2
BYBLOCK
 70
     0
  3

 72
    65
 73
     0
 40
0.0
  0
LTYPE
  5
13
330
5
100
AcDbSymbolTableRecord
100
AcDbLinetypeTableRecord
  2
BYLAYER
 70
     0
  3

 72
    65
 73
     0
 40
0.0
  0
LTYPE
  5
14
330
5
100
AcDbSymbolTableRecord
100
AcDbLinetypeTableRecord
  2
CONTINUOUS
 70
     0
  3
Solid line
 72
    65
 73
     0
 40
0.0
  0
LTYPE
  5
2A89F
330
5
100
AcDbSymbolTableRecord
100
AcDbLinetypeTableRecord
  2
VERDECKT2
 70
     0
  3
Verdeckt (.5x) _ _ _ _ _ _ _ _ _ _ _ _ _ _ _ _ 
 72
    65
 73
     2
 40
4.762499999999999
 49
3.174999999999999
 74
     0
 49
-1.587499999999999
 74
     0
  0
ENDTAB
  0
TABLE
  2
LAYER
  5
2
102
{ACAD_XDICTIONARY
360
2A82D
102
}
330
0
100
AcDbSymbolTable
 70
     9
  0
LAYER
  5
E
330
2
100
AcDbSymbolTableRecord
100
AcDbLayerTableRecord
  2
0
 70
     0
 62
     7
  6
CONTINUOUS
370
    -3
390
1B1E3
  0
LAYER
  5
143
330
2
100
AcDbSymbolTableRecord
100
AcDbLayerTableRecord
  2
DEFPOINTS
 70
     0
 62
     7
  6
CONTINUOUS
290
     0
370
    -3
390
1B1E3
  0
LAYER
  5
1848A
330
2
100
AcDbSymbolTableRecord
100
AcDbLayerTableRecord
  2
RAHMEN025
 70
     0
 62
     7
  6
CONTINUOUS
370
    -3
390
1B1E3
  0
LAYER
  5
1848B
330
2
100
AcDbSymbolTableRecord
100
AcDbLayerTableRecord
  2
RAHMEN07
 70
     0
 62
     5
  6
CONTINUOUS
370
    -3
390
1B1E3
  0
LAYER
  5
26712
330
2
100
AcDbSymbolTableRecord
100
AcDbLayerTableRecord
  2
Bemassung
 70
     0
 62
     3
  6
CONTINUOUS
370
    -3
390
1B1E3
  0
LAYER
  5
27AAF
330
2
100
AcDbSymbolTableRecord
100
AcDbLayerTableRecord
  2
Rahmen
 70
     0
 62
     7
  6
CONTINUOUS
370
    -3
390
1B1E3
  0
LAYER
  5
29729
330
2
100
AcDbSymbolTableRecord
100
AcDbLayerTableRecord
  2
Modules
 70
     0
 62
     5
  6
CONTINUOUS
370
    -3
390
1B1E3
  0
LAYER
  5
2A82B
330
2
100
AcDbSymbolTableRecord
100
AcDbLayerTableRecord
  2
TEXTFELD
 70
     0
 62
     7
  6
CONTINUOUS
370
    -3
390
1B1E3
  0
ENDTAB
  0
TABLE
  2
STYLE
  5
3
330
0
100
AcDbSymbolTable
 70
     6
  0
STYLE
  5
F
330
3
100
AcDbSymbolTableRecord
100
AcDbTextStyleTableRecord
  2
STANDARD
 70
     0
 40
0.0
 41
1.0
 50
0.0
 71
     0
 42
2.5
  3
txt
  4

  0
STYLE
  5
220D
330
3
100
AcDbSymbolTableRecord
100
AcDbTextStyleTableRecord
  2
TASTENTEXT
 70
     0
 40
2.0
 41
1.0
 50
0.0
 71
     0
 42
2.0
  3
ARIAL.TTF
  4

1001
ACAD
1000
Arial
1071
       34
  0
STYLE
  5
2A89E
330
3
100
AcDbSymbolTableRecord
100
AcDbTextStyleTableRecord
  2

 70
     1
 40
0.0
 41
1.0
 50
0.0
 71
     0
 42
2.0
  3
ltypeshp.shx
  4

  0
ENDTAB
  0
TABLE
  2
VIEW
  5
6
330
0
100
AcDbSymbolTable
 70
     0
  0
ENDTAB
  0
TABLE
  2
UCS
  5
7
330
0
100
AcDbSymbolTable
 70
     0
  0
ENDTAB
  0
TABLE
  2
APPID
  5
9
330
0
100
AcDbSymbolTable
 70
     3
  0
APPID
  5
10
330
9
100
AcDbSymbolTableRecord
100
AcDbRegAppTableRecord
  2
ACAD
 70
     0
  0
APPID
  5
2A0F1
330
9
100
AcDbSymbolTableRecord
100
AcDbRegAppTableRecord
  2
ACAD_EXEMPT_FROM_CAD_STANDARDS
 70
     0
  0
APPID
  5
2A82C
330
9
100
AcDbSymbolTableRecord
100
AcDbRegAppTableRecord
  2
ACAD_PSEXT
 70
     0
  0
ENDTAB
  0
TABLE
  2
DIMSTYLE
  5
A
330
0
100
AcDbSymbolTable
 70
     2
100
AcDbDimStyleTable
 71
     1
340
1D
  0
DIMSTYLE
105
1D
102
{ACAD_REACTORS
330
28E05
330
28E12
330
28E1F
102
}
330
A
100
AcDbSymbolTableRecord
100
AcDbDimStyleTableRecord
  2
STANDARD
 70
     0
340
F
  0
ENDTAB
  0
TABLE
  2
BLOCK_RECORD
  5
1
330
0
100
AcDbSymbolTable
 70
     6
  0
BLOCK_RECORD
  5
18
102
{ACAD_XDICTIONARY
360
9822
102
}
330
1
100
AcDbSymbolTableRecord
100
AcDbBlockTableRecord
  2
*MODEL_SPACE
340
1B1E6
  0
BLOCK_RECORD
  5
15
102
{ACAD_XDICTIONARY
360
2663A
102
}
330
1
100
AcDbSymbolTableRecord
100
AcDbBlockTableRecord
  2
*PAPER_SPACE
340
1B1E7
  0
BLOCK_RECORD
  5
28E06
330
1
100
AcDbSymbolTableRecord
100
AcDbBlockTableRecord
  2
*D1
340
0
  0
BLOCK_RECORD
  5
28E13
330
1
100
AcDbSymbolTableRecord
100
AcDbBlockTableRecord
  2
*D2
340
0
  0
BLOCK_RECORD
  5
28E20
330
1
100
AcDbSymbolTableRecord
100
AcDbBlockTableRecord
  2
*D3
340
0
  0
ENDTAB
  0
ENDSEC
  0
SECTION
  2
BLOCKS
  0
BLOCK
  5
19
330
18
100
AcDbEntity
  8
0
100
AcDbBlockBegin
  2
*MODEL_SPACE
 70
     2
 10
0.0
 20
0.0
 30
0.0
  3
*MODEL_SPACE
  1

  0
ENDBLK
  5
1A
330
18
100
AcDbEntity
  8
0
100
AcDbBlockEnd
  0
BLOCK
  5
16
330
15
100
AcDbEntity
 67
     1
  8
0
100
AcDbBlockBegin
  2
*PAPER_SPACE
 70
     0
 10
0.0
 20
0.0
 30
0.0
  3
*PAPER_SPACE
  1

  0
ENDBLK
  5
17
330
15
100
AcDbEntity
 67
     1
  8
0
100
AcDbBlockEnd
  0
BLOCK
  5
28E10
330
28E06
100
AcDbEntity
  8
0
100
AcDbBlockBegin
  2
*D1
 70
     1
 10
0.0
 20
0.0
 30
0.0
  3
*D1
  1

  0
LINE
  5
29701
330
28E06
100
AcDbEntity
  8
Bemassung
 62
     0
100
AcDbLine
 10
60.21816142091342
 20
359.5424668352698
 30
0.0
 11
60.21816142091342
 21
379.0821261694437
 31
0.0
  0
LINE
  5
29702
330
28E06
100
AcDbEntity
  8
Bemassung
 62
     0
100
AcDbLine
 10
542.2181614209135
 20
359.5424668352698
 30
0.0
 11
542.2181614209135
 21
379.0821261694437
 31
0.0
  0
LINE
  5
29703
330
28E06
100
AcDbEntity
  8
Bemassung
 62
     0
100
AcDbLine
 10
62.71816142091342
 20
377.8321261694437
 30
0.0
 11
539.7181614209134
 21
377.8321261694437
 31
0.0
  0
SOLID
  5
29704
330
28E06
100
AcDbEntity
  8
Bemassung
 62
     0
100
AcDbTrace
 10
62.71816142091342
 20
378.2487928361103
 30
0.0
 11
62.71816142091342
 21
377.415459502777
 31
0.0
 12
60.21816142091342
 22
377.8321261694437
 32
0.0
 13
60.21816142091342
 23
377.8321261694437
 33
0.0
  0
SOLID
  5
29705
330
28E06
100
AcDbEntity
  8
Bemassung
 62
     0
100
AcDbTrace
 10
539.7181614209134
 20
378.2487928361103
 30
0.0
 11
539.7181614209134
 21
377.415459502777
 31
0.0
 12
542.2181614209135
 22
377.8321261694437
 32
0.0
 13
542.2181614209135
 23
377.8321261694437
 33
0.0
  0
MTEXT
  5
29706
330
28E06
100
AcDbEntity
  8
Bemassung
 62
     0
100
AcDbMText
 10
301.2181614209135
 20
379.7071261694437
 30
0.0
 40
2.5
 41
0.0
 71
     5
 72
     1
  1
\A1;483
 73
     1
 44
1.0
1001
ACAD
1000
MTEXTBEGIN
1070
    73
1070
     1
1070
    44
1040
1.0
1070
    74
1070
     0
1000
MTEXTEND
  0
POINT
  5
29707
330
28E06
100
AcDbEntity
  8
DEFPOINTS
 62
     0
100
AcDbPoint
 10
60.21816142091342
 20
358.9174668352698
 30
0.0
  0
POINT
  5
29708
330
28E06
100
AcDbEntity
  8
DEFPOINTS
 62
     0
100
AcDbPoint
 10
542.2181614209135
 20
358.9174668352698
 30
0.0
  0
POINT
  5
29709
330
28E06
100
AcDbEntity
  8
DEFPOINTS
 62
     0
100
AcDbPoint
 10
542.2181614209135
 20
377.8321261694437
 30
0.0
  0
ENDBLK
  5
28E11
330
28E06
100
AcDbEntity
  8
0
100
AcDbBlockEnd
  0
BLOCK
  5
28E1D
330
28E13
100
AcDbEntity
  8
0
100
AcDbBlockBegin
  2
*D2
 70
     1
 10
0.0
 20
0.0
 30
0.0
  3
*D2
  1

  0
LINE
  5
2970A
330
28E13
100
AcDbEntity
  8
Bemassung
 62
     0
100
AcDbLine
 10
81.21816142091342
 20
359.5424668352698
 30
0.0
 11
81.21816142091342
 21
373.2602481158397
 31
0.0
  0
LINE
  5
2970B
330
28E13
100
AcDbEntity
  8
Bemassung
 62
     0
100
AcDbLine
 10
521.2181614209135
 20
359.5424668352698
 30
0.0
 11
521.2181614209135
 21
373.2602481158397
 31
0.0
  0
LINE
  5
2970C
330
28E13
100
AcDbEntity
  8
Bemassung
 62
     0
100
AcDbLine
 10
83.71816142091342
 20
372.0102481158396
 30
0.0
 11
518.7181614209134
 21
372.0102481158396
 31
0.0
  0
SOLID
  5
2970D
330
28E13
100
AcDbEntity
  8
Bemassung
 62
     0
100
AcDbTrace
 10
83.71816142091342
 20
372.4269147825063
 30
0.0
 11
83.71816142091342
 21
371.593581449173
 31
0.0
 12
81.21816142091342
 22
372.0102481158396
 32
0.0
 13
81.21816142091342
 23
372.0102481158396
 33
0.0
  0
SOLID
  5
2970E
330
28E13
100
AcDbEntity
  8
Bemassung
 62
     0
100
AcDbTrace
 10
518.7181614209134
 20
372.4269147825063
 30
0.0
 11
518.7181614209134
 21
371.593581449173
 31
0.0
 12
521.2181614209135
 22
372.0102481158396
 32
0.0
 13
521.2181614209135
 23
372.0102481158396
 33
0.0
  0
MTEXT
  5
2970F
330
28E13
100
AcDbEntity
  8
Bemassung
 62
     0
100
AcDbMText
 10
301.2181614209135
 20
373.8852481158397
 30
0.0
 40
2.5
 41
0.0
 71
     5
 72
     1
  1
\A1;448
 73
     1
 44
1.0
1001
ACAD
1000
MTEXTBEGIN
1070
    73
1070
     1
1070
    44
1040
1.0
1070
    74
1070
     0
1000
MTEXTEND
  0
POINT
  5
29710
330
28E13
100
AcDbEntity
  8
DEFPOINTS
 62
     0
100
AcDbPoint
 10
81.21816142091342
 20
358.9174668352698
 30
0.0
  0
POINT
  5
29711
330
28E13
100
AcDbEntity
  8
DEFPOINTS
 62
     0
100
AcDbPoint
 10
521.2181614209135
 20
358.9174668352698
 30
0.0
  0
POINT
  5
29712
330
28E13
100
AcDbEntity
  8
DEFPOINTS
 62
     0
100
AcDbPoint
 10
521.2181614209135
 20
372.0102481158396
 30
0.0
  0
ENDBLK
  5
28E1E
330
28E13
100
AcDbEntity
  8
0
100
AcDbBlockEnd
  0
BLOCK
  5
28E2A
330
28E20
100
AcDbEntity
  8
0
100
AcDbBlockBegin
  2
*D3
 70
     1
 10
0.0
 20
0.0
 30
0.0
  3
*D3
  1

  0
LINE
  5
2A875
330
28E20
100
AcDbEntity
  8
Bemassung
 62
     0
370
    -2
100
AcDbLine
 10
59.59316142091342
 20
358.9174668352698
 30
0.0
 11
47.69414219402828
 21
358.9174668352698
 31
0.0
  0
LINE
  5
2A876
330
28E20
100
AcDbEntity
  8
Bemassung
 62
     0
370
    -2
100
AcDbLine
 10
59.59316142091342
 20
93.9174668352698
 30
0.0
 11
47.69414219402822
 21
93.9174668352698
 31
0.0
  0
LINE
  5
2A877
330
28E20
100
AcDbEntity
  8
Bemassung
 62
     0
370
    -2
100
AcDbLine
 10
48.94414219402828
 20
356.4174668352698
 30
0.0
 11
48.94414219402822
 21
96.41746683526982
 31
0.0
  0
SOLID
  5
2A878
330
28E20
100
AcDbEntity
  8
Bemassung
 62
     0
100
AcDbTrace
 10
48.52747552736161
 20
356.4174668352698
 30
0.0
 11
49.36080886069494
 21
356.4174668352698
 31
0.0
 12
48.94414219402828
 22
358.9174668352698
 32
0.0
 13
48.94414219402828
 23
358.9174668352698
 33
0.0
  0
SOLID
  5
2A879
330
28E20
100
AcDbEntity
  8
Bemassung
 62
     0
100
AcDbTrace
 10
48.52747552736156
 20
96.41746683526982
 30
0.0
 11
49.36080886069489
 21
96.41746683526982
 31
0.0
 12
48.94414219402822
 22
93.9174668352698
 32
0.0
 13
48.94414219402822
 23
93.9174668352698
 33
0.0
  0
MTEXT
  5
2A87A
330
28E20
100
AcDbEntity
  8
Bemassung
 62
     0
100
AcDbMText
 10
47.06914219402821
 20
226.4174668352698
 30
0.0
 40
2.5
 41
0.0
 71
     5
 72
     1
  1
\A1;266
 11
0.0000000000000001
 21
1.0
 31
0.0
 73
     1
 44
1.0
1001
ACAD
1000
MTEXTBEGIN
1070
    73
1070
     1
1070
    44
1040
1.0
1070
    74
1070
     0
1000
MTEXTEND
  0
POINT
  5
2A87B
330
28E20
100
AcDbEntity
  8
DEFPOINTS
 62
     0
100
AcDbPoint
 10
60.21816142091342
 20
358.9174668352698
 30
0.0
  0
POINT
  5
2A87C
330
28E20
100
AcDbEntity
  8
DEFPOINTS
 62
     0
100
AcDbPoint
 10
60.21816142091342
 20
93.9174668352698
 30
0.0
  0
POINT
  5
2A87D
330
28E20
100
AcDbEntity
  8
DEFPOINTS
 62
     0
100
AcDbPoint
 10
48.94414219402822
 20
93.9174668352698
 30
0.0
  0
ENDBLK
  5
28E2B
330
28E20
100
AcDbEntity
  8
0
100
AcDbBlockEnd
  0
ENDSEC
  0
SECTION
  2
ENTITIES
  0
LINE
  5
266D4
330
18
100
AcDbEntity
  8
RAHMEN07
100
AcDbLine
 10
589.0
 20
415.0
 30
0.0
 11
20.0
 21
415.0
 31
0.0
  0
LINE
  5
266D5
330
18
100
AcDbEntity
  8
RAHMEN07
100
AcDbLine
 10
20.0
 20
5.0
 30
0.0
 11
589.0
 21
5.0
 31
0.0
  0
LINE
  5
266D6
330
18
100
AcDbEntity
  8
RAHMEN025
100
AcDbLine
 10
594.0
 20
420.0
 30
0.0
 11
0.0
 21
420.0
 31
0.0
  0
LINE
  5
266D7
330
18
100
AcDbEntity
  8
RAHMEN025
100
AcDbLine
 10
0.0
 20
0.0
 30
0.0
 11
594.0
 21
0.0
 31
0.0
  0
LINE
  5
266D8
330
18
100
AcDbEntity
  8
RAHMEN07
100
AcDbLine
 10
20.0
 20
415.0
 30
0.0
 11
20.0
 21
5.0
 31
0.0
  0
LINE
  5
266D9
330
18
100
AcDbEntity
  8
RAHMEN025
100
AcDbLine
 10
0.0
 20
420.0
 30
0.0
 11
0.0
 21
0.0
 31
0.0
  0
LINE
  5
266DA
330
18
100
AcDbEntity
  8
RAHMEN07
100
AcDbLine
 10
589.0
 20
5.0
 30
0.0
 11
589.0
 21
415.0
 31
0.0
  0
LINE
  5
266DB
330
18
100
AcDbEntity
  8
RAHMEN025
100
AcDbLine
 10
594.0
 20
0.0
 30
0.0
 11
594.0
 21
420.0
 31
0.0
  0
LWPOLYLINE
  5
28DF0
102
{ACAD_REACTORS
330
28DF8
102
}
330
18
100
AcDbEntity
  8
Rahmen
100
AcDbPolyline
 90
        4
 70
     0
 43
0.0
 10
74.59743213756798
 20
317.729896441437
 10
74.59743213756798
 20
317.7031673554609
 10
68.74170332812781
 20
317.7031673554609
 10
68.74170332812781
 20
317.729896441437
  0
ARC
  5
28DF1
102
{ACAD_REACTORS
330
28DF8
102
}
330
18
100
AcDbEntity
  8
Rahmen
100
AcDbCircle
 10
70.15491765342102
 20
321.4903851691326
 30
0.0
 40
4.01726899775711
100
AcDbArc
 50
110.5965227266888
 51
250.5159592740058
  0
ARC
  5
28DF2
102
{ACAD_REACTORS
330
28DF8
102
}
330
18
100
AcDbEntity
  8
Rahmen
100
AcDbCircle
 10
73.18421781227477
 20
321.4903851691326
 30
0.0
 40
4.01726899775711
100
AcDbArc
 50
289.4840407259942
 51
69.40347727331112
  0
LWPOLYLINE
  5
28DF3
102
{ACAD_REACTORS
330
28DF8
102
}
330
18
100
AcDbEntity
  8
Rahmen
100
AcDbPolyline
 90
        3
 70
     0
 43
0.0
 10
68.74170332812781
 20
325.2508738968284
 10
68.74170332812781
 20
325.2508738968284
 10
74.59743213756798
 20
325.2508738968284
  0
LWPOLYLINE
  5
28DF4
102
{ACAD_REACTORS
330
28DF9
102
}
330
18
100
AcDbEntity
  8
Rahmen
100
AcDbPolyline
 90
        4
 70
     0
 43
0.0
 10
74.59743213756798
 20
137.3987982331291
 10
74.59743213756798
 20
137.4255273191052
 10
68.74170332812781
 20
137.4255273191052
 10
68.74170332812781
 20
137.3987982331291
  0
ARC
  5
28DF5
102
{ACAD_REACTORS
330
28DF9
102
}
330
18
100
AcDbEntity
  8
Rahmen
100
AcDbCircle
 10
70.15491765342102
 20
133.6383095054334
 30
0.0
 40
4.01726899775711
100
AcDbArc
 50
109.4840407259942
 51
249.4034772733111
  0
ARC
  5
28DF6
102
{ACAD_REACTORS
330
28DF9
102
}
330
18
100
AcDbEntity
  8
Rahmen
100
AcDbCircle
 10
73.18421781227477
 20
133.6383095054334
 30
0.0
 40
4.01726899775711
100
AcDbArc
 50
290.5965227266889
 51
70.51595927400583
  0
LWPOLYLINE
  5
28DF7
102
{ACAD_REACTORS
330
28DF9
102
}
330
18
100
AcDbEntity
  8
Rahmen
100
AcDbPolyline
 90
        3
 70
     0
 43
0.0
 10
68.74170332812781
 20
129.8778207777376
 10
68.74170332812781
 20
129.8778207777376
 10
74.59743213756798
 20
129.8778207777376
  0
LWPOLYLINE
  5
28DFB
102
{ACAD_REACTORS
330
28E03
102
}
330
18
100
AcDbEntity
  8
Rahmen
100
AcDbPolyline
 90
        4
 70
     0
 43
0.0
 10
527.838890704259
 20
317.729896441437
 10
527.838890704259
 20
317.7031673554609
 10
533.6946195136991
 20
317.7031673554609
 10
533.6946195136991
 20
317.729896441437
  0
ARC
  5
28DFC
102
{ACAD_REACTORS
330
28E03
102
}
330
18
100
AcDbEntity
  8
Rahmen
100
AcDbCircle
 10
532.2814051884058
 20
321.4903851691326
 30
0.0
 40
4.01726899775711
100
AcDbArc
 50
289.4840407259942
 51
69.40347727331112
  0
ARC
  5
28DFD
102
{ACAD_REACTORS
330
28E03
102
}
330
18
100
AcDbEntity
  8
Rahmen
100
AcDbCircle
 10
529.2521050295522
 20
321.4903851691326
 30
0.0
 40
4.01726899775711
100
AcDbArc
 50
110.5965227266888
 51
250.5159592740058
  0
LWPOLYLINE
  5
28DFE
102
{ACAD_REACTORS
330
28E03
102
}
330
18
100
AcDbEntity
  8
Rahmen
100
AcDbPolyline
 90
        3
 70
     0
 43
0.0
 10
533.6946195136991
 20
325.2508738968284
 10
533.6946195136991
 20
325.2508738968284
 10
527.838890704259
 20
325.2508738968284
  0
LWPOLYLINE
  5
28DFF
102
{ACAD_REACTORS
330
28E04
102
}
330
18
100
AcDbEntity
  8
Rahmen
100
AcDbPolyline
 90
        4
 70
     0
 43
0.0
 10
527.838890704259
 20
137.3987982331291
 10
527.838890704259
 20
137.4255273191052
 10
533.6946195136991
 20
137.4255273191052
 10
533.6946195136991
 20
137.3987982331291
  0
ARC
  5
28E00
102
{ACAD_REACTORS
330
28E04
102
}
330
18
100
AcDbEntity
  8
Rahmen
100
AcDbCircle
 10
532.2814051884058
 20
133.6383095054334
 30
0.0
 40
4.01726899775711
100
AcDbArc
 50
290.5965227266889
 51
70.51595927400583
  0
ARC
  5
28E01
102
{ACAD_REACTORS
330
28E04
102
}
330
18
100
AcDbEntity
  8
Rahmen
100
AcDbCircle
 10
529.2521050295522
 20
133.6383095054334
 30
0.0
 40
4.01726899775711
100
AcDbArc
 50
109.4840407259941
 51
249.4034772733111
  0
LWPOLYLINE
  5
28E02
102
{ACAD_REACTORS
330
28E04
102
}
330
18
100
AcDbEntity
  8
Rahmen
100
AcDbPolyline
 90
        3
 70
     0
 43
0.0
 10
533.6946195136991
 20
129.8778207777376
 10
533.6946195136991
 20
129.8778207777376
 10
527.838890704259
 20
129.8778207777376
  0
DIMENSION
  5
28E05
330
18
100
AcDbEntity
  8
Bemassung
100
AcDbDimension
  2
*D1
 10
542.2181614209135
 20
377.8321261694437
 30
0.0
 11
301.2181614209135
 21
379.7071261694437
 31
0.0
 70
    32
  1
483
 71
     5
 42
-1.0
  3
STANDARD
100
AcDbAlignedDimension
 13
60.21816142091342
 23
358.9174668352698
 33
0.0
 14
542.2181614209135
 24
358.9174668352698
 34
0.0
100
AcDbRotatedDimension
1001
ACAD
1000
DSTYLE
1002
{
1070
   270
1070
     8
1070
   270
1070
     8
1070
   270
1070
     8
1070
    41
1040
2.5
1070
    42
1040
0.625
1070
    43
1040
3.75
1070
    44
1040
1.25
1070
    73
1070
     0
1070
    74
1070
     0
1070
    77
1070
     1
1070
    78
1070
     8
1070
   140
1040
2.5
1070
   141
1040
2.5
1070
   143
1040
0.0394
1070
   147
1040
0.625
1070
   171
1070
     4
1070
   172
1070
     1
1070
   273
1070
     8
1070
   274
1070
     4
1070
   277
1070
     6
1002
}
  0
DIMENSION
  5
28E12
330
18
100
AcDbEntity
  8
Bemassung
100
AcDbDimension
  2
*D2
 10
521.2181614209135
 20
372.0102481158396
 30
0.0
 11
301.2181614209135
 21
373.8852481158397
 31
0.0
 70
    32
  1
448
 71
     5
 42
-1.0
  3
STANDARD
100
AcDbAlignedDimension
 13
81.21816142091342
 23
358.9174668352698
 33
0.0
 14
521.2181614209135
 24
358.9174668352698
 34
0.0
100
AcDbRotatedDimension
1001
ACAD
1000
DSTYLE
1002
{
1070
   270
1070
     8
1070
   270
1070
     8
1070
   270
1070
     8
1070
    41
1040
2.5
1070
    42
1040
0.625
1070
    43
1040
3.75
1070
    44
1040
1.25
1070
    73
1070
     0
1070
    74
1070
     0
1070
    77
1070
     1
1070
    78
1070
     8
1070
   140
1040
2.5
1070
   141
1040
2.5
1070
   143
1040
0.0394
1070
   147
1040
0.625
1070
   171
1070
     4
1070
   172
1070
     1
1070
   273
1070
     8
1070
   274
1070
     4
1070
   277
1070
     6
1002
}
  0
DIMENSION
  5
28E1F
330
18
100
AcDbEntity
  8
Bemassung
100
AcDbDimension
  2
*D3
 10
48.94414219402822
 20
93.9174668352698
 30
0.0
 11
47.06914219402821
 21
226.4174668352698
 31
0.0
 70
    32
  1
266
 71
     5
 42
265.0
  3
STANDARD
100
AcDbAlignedDimension
 13
60.21816142091342
 23
358.9174668352698
 33
0.0
 14
60.21816142091342
 24
93.9174668352698
 34
0.0
 50
90.0
100
AcDbRotatedDimension
1001
ACAD
1000
DSTYLE
1002
{
1070
   270
1070
     8
1070
   270
1070
     8
1070
   270
1070
     8
1070
    41
1040
2.5
1070
    42
1040
0.625
1070
    43
1040
3.75
1070
    44
1040
1.25
1070
    73
1070
     0
1070
    74
1070
     0
1070
    77
1070
     1
1070
    78
1070
     8
1070
   140
1040
2.5
1070
   141
1040
2.5
1070
   143
1040
0.0394
1070
   147
1040
0.625
1070
   171
1070
     4
1070
   172
1070
     1
1070
   273
1070
     8
1070
   274
1070
     4
1070
   277
1070
     6
1002
}
  0
LINE
  5
2A39C
102
{ACAD_REACTORS
330
2A5D9
102
}
330
18
100
AcDbEntity
  8
Modules
100
AcDbLine
 10
108.0081614209133
 20
228.7174668352698
 30
0.0
 11
88.0281614209133
 21
228.7174668352697
 31
0.0
  0
CIRCLE
  5
2A39D
102
{ACAD_REACTORS
330
2A5D9
102
}
330
18
100
AcDbEntity
  8
Modules
100
AcDbCircle
 10
94.82816142091357
 20
331.8174668352698
 30
0.0
 40
1.6
  0
CIRCLE
  5
2A39E
102
{ACAD_REACTORS
330
2A5D9
102
}
330
18
100
AcDbEntity
  8
Modules
100
AcDbCircle
 10
99.82816142091357
 20
331.8174668352698
 30
0.0
 40
1.6
  0
CIRCLE
  5
2A39F
102
{ACAD_REACTORS
330
2A5D9
102
}
330
18
100
AcDbEntity
  8
Modules
100
AcDbCircle
 10
99.82816142091357
 20
326.8174668352698
 30
0.0
 40
1.6
  0
CIRCLE
  5
2A3A0
102
{ACAD_REACTORS
330
2A5D9
102
}
330
18
100
AcDbEntity
  8
Modules
100
AcDbCircle
 10
94.82816142091357
 20
326.8174668352698
 30
0.0
 40
1.6
  0
LINE
  5
2A3A1
102
{ACAD_REACTORS
330
2A5D9
102
}
330
18
100
AcDbEntity
  8
Modules
100
AcDbLine
 10
108.0081614209133
 20
357.1174668352699
 30
0.0
 11
88.02816142091343
 21
357.1174668352699
 31
0.0
  0
LINE
  5
2A3A2
102
{ACAD_REACTORS
330
2A5D9
102
}
330
18
100
AcDbEntity
  8
Modules
100
AcDbLine
 10
108.0081614209133
 20
228.7174668352698
 30
0.0
 11
108.0081614209133
 21
357.1174668352699
 31
0.0
  0
LINE
  5
2A3A3
102
{ACAD_REACTORS
330
2A5D9
102
}
330
18
100
AcDbEntity
  8
Modules
100
AcDbLine
 10
88.02816142091341
 20
228.7174668352697
 30
0.0
 11
88.02816142091343
 21
357.1174668352699
 31
0.0
  0
CIRCLE
  5
2A3A4
102
{ACAD_REACTORS
330
2A5D9
102
}
330
18
100
AcDbEntity
  8
Modules
100
AcDbCircle
 10
99.82816142091357
 20
321.8174668352698
 30
0.0
 40
1.6
  0
CIRCLE
  5
2A3A5
102
{ACAD_REACTORS
330
2A5D9
102
}
330
18
100
AcDbEntity
  8
Modules
100
AcDbCircle
 10
94.82816142091357
 20
321.8174668352698
 30
0.0
 40
1.6
  0
CIRCLE
  5
2A3A6
102
{ACAD_REACTORS
330
2A5D9
102
}
330
18
100
AcDbEntity
  8
Modules
100
AcDbCircle
 10
99.82816142091357
 20
273.1674668352698
 30
0.0
 40
1.6
  0
CIRCLE
  5
2A3A7
102
{ACAD_REACTORS
330
2A5D9
102
}
330
18
100
AcDbEntity
  8
Modules
100
AcDbCircle
 10
94.82816142091357
 20
273.1674668352698
 30
0.0
 40
1.6
  0
CIRCLE
  5
2A3A8
102
{ACAD_REACTORS
330
2A5D9
102
}
330
18
100
AcDbEntity
  8
Modules
100
AcDbCircle
 10
95.52816142091343
 20
354.1174668352699
 30
0.0
 40
2.45
  0
LWPOLYLINE
  5
2A3A9
102
{ACAD_REACTORS
330
2A5D9
102
}
330
18
100
AcDbEntity
  8
Modules
100
AcDbPolyline
 90
        6
 70
     1
 43
0.0
 10
94.89307612480486
 20
355.2174668352698
 10
94.25799082869628
 20
354.1174668352699
 10
94.89307612480486
 20
353.0174668352697
 10
96.16324671702201
 20
353.0174668352697
 10
96.79833201313062
 20
354.1174668352699
 10
96.16324671702201
 20
355.2174668352698
  0
CIRCLE
  5
2A3AA
102
{ACAD_REACTORS
330
2A5D9
102
}
330
18
100
AcDbEntity
  8
Modules
100
AcDbCircle
 10
95.52816142091341
 20
342.4174668352698
 30
0.0
 40
2.45
  0
LWPOLYLINE
  5
2A3AB
102
{ACAD_REACTORS
330
2A5D9
102
}
330
18
100
AcDbEntity
  8
Modules
100
AcDbPolyline
 90
        6
 70
     1
 43
0.0
 10
94.89307612480484
 20
343.5174668352698
 10
94.25799082869627
 20
342.4174668352698
 10
94.89307612480484
 20
341.3174668352698
 10
96.16324671702201
 20
341.3174668352698
 10
96.7983320131306
 20
342.4174668352698
 10
96.16324671702201
 20
343.5174668352698
  0
CIRCLE
  5
2A3AC
102
{ACAD_REACTORS
330
2A5D9
102
}
330
18
100
AcDbEntity
  8
Modules
100
AcDbCircle
 10
95.5281614209133
 20
231.7174668352698
 30
0.0
 40
2.45
  0
LWPOLYLINE
  5
2A3AD
102
{ACAD_REACTORS
330
2A5D9
102
}
330
18
100
AcDbEntity
  8
Modules
100
AcDbPolyline
 90
        6
 70
     1
 43
0.0
 10
94.89307612480473
 20
232.8174668352698
 10
94.25799082869616
 20
231.7174668352698
 10
94.89307612480473
 20
230.6174668352698
 10
96.16324671702191
 20
230.6174668352698
 10
96.79833201313051
 20
231.7174668352698
 10
96.16324671702191
 20
232.8174668352698
  0
CIRCLE
  5
2A3AE
102
{ACAD_REACTORS
330
2A5D9
102
}
330
18
100
AcDbEntity
  8
Modules
100
AcDbCircle
 10
95.5281614209133
 20
243.4174668352698
 30
0.0
 40
2.45
  0
LWPOLYLINE
  5
2A3AF
102
{ACAD_REACTORS
330
2A5D9
102
}
330
18
100
AcDbEntity
  8
Modules
100
AcDbPolyline
 90
        6
 70
     1
 43
0.0
 10
94.89307612480473
 20
244.5174668352698
 10
94.25799082869616
 20
243.4174668352698
 10
94.89307612480473
 20
242.3174668352698
 10
96.16324671702191
 20
242.3174668352698
 10
96.79833201313051
 20
243.4174668352698
 10
96.16324671702191
 20
244.5174668352698
  0
LWPOLYLINE
  5
2A3B0
102
{ACAD_REACTORS
330
2A5D9
102
}
330
18
100
AcDbEntity
  8
Modules
100
AcDbPolyline
 90
        4
 70
     1
 43
0.0
 10
91.67819683171773
 20
253.3673959127089
 10
105.6781968317177
 20
253.3673959127089
 10
105.6781968317178
 20
270.1673959127089
 10
91.67819683171778
 20
270.1673959127089
  0
LWPOLYLINE
  5
2A3B1
102
{ACAD_REACTORS
330
2A5D9
102
}
330
18
100
AcDbEntity
  8
Modules
100
AcDbPolyline
 90
        9
 70
     0
 43
0.0
 10
92.97254280365406
 20
257.6070020473909
 10
92.97254280365406
 20
265.9271228775196
 10
95.88854199822092
 20
265.9442600741678
 10
95.88854199822092
 20
267.6964689799336
 10
103.1967508971091
 20
267.6964689799336
 10
103.196750897109
 20
255.7917550586943
 10
95.88854199822087
 20
255.7917550586943
 10
95.88854199822087
 20
257.5954996870232
 10
92.97254280365406
 20
257.6070020473909
  0
CIRCLE
  5
2A3B2
102
{ACAD_REACTORS
330
2A5D9
102
}
330
18
100
AcDbEntity
  8
Modules
100
AcDbCircle
 10
98.42814559835048
 20
305.4174508352698
 30
0.0
 40
3.900000000000019
  0
CIRCLE
  5
2A3B3
102
{ACAD_REACTORS
330
2A5D9
102
}
330
18
100
AcDbEntity
  8
Modules
100
AcDbCircle
 10
98.42814559835048
 20
305.4174508352698
 30
0.0
 40
0.9000000000000198
  0
CIRCLE
  5
2A3B4
102
{ACAD_REACTORS
330
2A5D9
102
}
330
18
100
AcDbEntity
  8
Modules
100
AcDbCircle
 10
98.42814559835048
 20
305.4174508352698
 30
0.0
 40
4.900000000000019
  0
CIRCLE
  5
2A3B5
102
{ACAD_REACTORS
330
2A5D9
102
}
330
18
100
AcDbEntity
  8
Modules
100
AcDbCircle
 10
98.42814559835048
 20
285.9175008352698
 30
0.0
 40
3.900000000000019
  0
CIRCLE
  5
2A3B6
102
{ACAD_REACTORS
330
2A5D9
102
}
330
18
100
AcDbEntity
  8
Modules
100
AcDbCircle
 10
98.42814559835048
 20
285.9175008352698
 30
0.0
 40
0.9000000000000198
  0
CIRCLE
  5
2A3B7
102
{ACAD_REACTORS
330
2A5D9
102
}
330
18
100
AcDbEntity
  8
Modules
100
AcDbCircle
 10
98.42814559835048
 20
285.9175008352698
 30
0.0
 40
4.900000000000019
  0
LWPOLYLINE
  5
2A3B8
102
{ACAD_REACTORS
330
2A5D9
102
}
330
18
100
AcDbEntity
  8
Modules
100
AcDbPolyline
 90
        4
 70
     1
 43
0.0
 10
111.7181614209132
 20
255.6674508352699
 10
123.7181614209131
 20
255.6674508352699
 10
123.7181614209131
 20
268.6674508352699
 10
111.7181614209132
 20
268.6674508352699
  0
LWPOLYLINE
  5
2A3B9
102
{ACAD_REACTORS
330
2A5D9
102
}
330
18
100
AcDbEntity
  8
Modules
100
AcDbPolyline
 90
        4
 70
     1
 43
0.0
 10
111.9981968317176
 20
312.0175168352698
 10
125.9981968317176
 20
312.0175168352698
 10
125.9981968317177
 20
328.8175168352698
 10
111.9981968317177
 20
328.8175168352698
  0
LWPOLYLINE
  5
2A3BA
102
{ACAD_REACTORS
330
2A5D9
102
}
330
18
100
AcDbEntity
  8
Modules
100
AcDbPolyline
 90
        4
 70
     1
 43
0.0
 10
111.9981968317176
 20
292.5174838352698
 10
125.9981968317176
 20
292.5174838352698
 10
125.9981968317177
 20
309.3174838352697
 10
111.9981968317177
 20
309.3174838352697
  0
LWPOLYLINE
  5
2A3BB
102
{ACAD_REACTORS
330
2A5D9
102
}
330
18
100
AcDbEntity
  8
Modules
100
AcDbPolyline
 90
        4
 70
     1
 43
0.0
 10
111.9981968317176
 20
273.0174338352698
 10
125.9981968317176
 20
273.0174338352698
 10
125.9981968317177
 20
289.8174338352698
 10
111.9981968317177
 20
289.8174338352698
  0
CIRCLE
  5
2A3BC
102
{ACAD_REACTORS
330
2A5D9
102
}
330
18
100
AcDbEntity
  8
Modules
100
AcDbCircle
 10
112.6481614209135
 20
310.6674508352698
 30
0.0
 40
1.0
  0
CIRCLE
  5
2A3BD
102
{ACAD_REACTORS
330
2A5D9
102
}
330
18
100
AcDbEntity
  8
Modules
100
AcDbCircle
 10
112.6481614209135
 20
291.1675008352698
 30
0.0
 40
1.0
  0
CIRCLE
  5
2A3BE
102
{ACAD_REACTORS
330
2A5D9
102
}
330
18
100
AcDbEntity
  8
Modules
100
AcDbCircle
 10
112.6481614209135
 20
270.1674508352699
 30
0.0
 40
1.0
  0
CIRCLE
  5
2A3BF
102
{ACAD_REACTORS
330
2A5D9
102
}
330
18
100
AcDbEntity
  8
Modules
100
AcDbCircle
 10
114.6481614209134
 20
253.9574338352698
 30
0.0
 40
1.1
  0
CIRCLE
  5
2A3C0
102
{ACAD_REACTORS
330
2A5D9
102
}
330
18
100
AcDbEntity
  8
Modules
100
AcDbCircle
 10
115.1481614209134
 20
331.8174668352698
 30
0.0
 40
1.6
  0
CIRCLE
  5
2A3C1
102
{ACAD_REACTORS
330
2A5D9
102
}
330
18
100
AcDbEntity
  8
Modules
100
AcDbCircle
 10
120.1481614209134
 20
331.8174668352698
 30
0.0
 40
1.6
  0
CIRCLE
  5
2A3C2
102
{ACAD_REACTORS
330
2A5D9
102
}
330
18
100
AcDbEntity
  8
Modules
100
AcDbCircle
 10
115.8481614209133
 20
354.1174668352699
 30
0.0
 40
2.45
  0
LWPOLYLINE
  5
2A3C3
102
{ACAD_REACTORS
330
2A5D9
102
}
330
18
100
AcDbEntity
  8
Modules
100
AcDbPolyline
 90
        6
 70
     1
 43
0.0
 10
115.2130761248047
 20
355.2174668352698
 10
114.5779908286961
 20
354.1174668352699
 10
115.2130761248047
 20
353.0174668352697
 10
116.4832467170219
 20
353.0174668352697
 10
117.1183320131305
 20
354.1174668352699
 10
116.4832467170219
 20
355.2174668352698
  0
CIRCLE
  5
2A3C4
102
{ACAD_REACTORS
330
2A5D9
102
}
330
18
100
AcDbEntity
  8
Modules
100
AcDbCircle
 10
115.8481614209133
 20
342.4174668352698
 30
0.0
 40
2.45
  0
LWPOLYLINE
  5
2A3C5
102
{ACAD_REACTORS
330
2A5D9
102
}
330
18
100
AcDbEntity
  8
Modules
100
AcDbPolyline
 90
        6
 70
     1
 43
0.0
 10
115.2130761248047
 20
343.5174668352698
 10
114.5779908286961
 20
342.4174668352698
 10
115.2130761248047
 20
341.3174668352698
 10
116.4832467170219
 20
341.3174668352698
 10
117.1183320131305
 20
342.4174668352698
 10
116.4832467170219
 20
343.5174668352698
  0
CIRCLE
  5
2A3C6
102
{ACAD_REACTORS
330
2A5D9
102
}
330
18
100
AcDbEntity
  8
Modules
100
AcDbCircle
 10
115.8481614209133
 20
243.4174668352698
 30
0.0
 40
2.45
  0
LWPOLYLINE
  5
2A3C7
102
{ACAD_REACTORS
330
2A5D9
102
}
330
18
100
AcDbEntity
  8
Modules
100
AcDbPolyline
 90
        6
 70
     1
 43
0.0
 10
115.2130761248047
 20
244.5174668352698
 10
114.5779908286961
 20
243.4174668352698
 10
115.2130761248047
 20
242.3174668352698
 10
116.4832467170219
 20
242.3174668352698
 10
117.1183320131305
 20
243.4174668352698
 10
116.4832467170219
 20
244.5174668352698
  0
CIRCLE
  5
2A3C8
102
{ACAD_REACTORS
330
2A5D9
102
}
330
18
100
AcDbEntity
  8
Modules
100
AcDbCircle
 10
115.8481614209133
 20
231.7174668352698
 30
0.0
 40
2.45
  0
LWPOLYLINE
  5
2A3C9
102
{ACAD_REACTORS
330
2A5D9
102
}
330
18
100
AcDbEntity
  8
Modules
100
AcDbPolyline
 90
        6
 70
     1
 43
0.0
 10
115.2130761248047
 20
232.8174668352698
 10
114.5779908286961
 20
231.7174668352698
 10
115.2130761248047
 20
230.6174668352698
 10
116.4832467170219
 20
230.6174668352698
 10
117.1183320131305
 20
231.7174668352698
 10
116.4832467170219
 20
232.8174668352698
  0
LWPOLYLINE
  5
2A3CA
102
{ACAD_REACTORS
330
2A5D9
102
}
330
18
100
AcDbEntity
  8
Modules
100
AcDbPolyline
 90
        4
 70
     1
 43
0.0
 10
108.3481614209133
 20
357.1174668352699
 10
128.3281614209132
 20
357.1174668352699
 10
128.3281614209132
 20
228.7174668352698
 10
108.3481614209133
 20
228.7174668352698
  0
LWPOLYLINE
  5
2A3CB
102
{ACAD_REACTORS
330
2A5D9
102
}
330
18
100
AcDbEntity
  8
Modules
100
AcDbPolyline
 90
        7
 70
     0
 43
0.0
 10
114.0231614209132
 20
257.9309508352698
 10
114.0231614209132
 20
266.3809508352698
 10
120.1731614209131
 20
266.3809508352698
 10
121.8031614209131
 20
264.9559508352699
 10
121.8031614209131
 20
259.3559508352697
 10
120.1731614209131
 20
257.9309508352698
 10
114.0231614209132
 20
257.9309508352698
  0
LWPOLYLINE
  5
2A3CC
102
{ACAD_REACTORS
330
2A5D9
102
}
330
18
100
AcDbEntity
  8
Modules
100
AcDbPolyline
 90
        9
 70
     0
 43
0.0
 10
113.2925428752729
 20
277.2570403752094
 10
113.2925428752729
 20
285.577161205338
 10
116.2085420698398
 20
285.5942984019863
 10
116.2085420698398
 20
287.3465073077521
 10
123.5167509687279
 20
287.3465073077521
 10
123.5167509687278
 20
275.4417933865128
 10
116.2085420698397
 20
275.4417933865128
 10
116.2085420698397
 20
277.2455380148417
 10
113.2925428752729
 20
277.2570403752094
  0
LWPOLYLINE
  5
2A3CD
102
{ACAD_REACTORS
330
2A5D9
102
}
330
18
100
AcDbEntity
  8
Modules
100
AcDbPolyline
 90
        9
 70
     0
 43
0.0
 10
113.2925428752729
 20
296.7570903752093
 10
113.2925428752729
 20
305.077211205338
 10
116.2085420698398
 20
305.0943484019863
 10
116.2085420698398
 20
306.8465573077519
 10
123.5167509687279
 20
306.8465573077519
 10
123.5167509687278
 20
294.9418433865128
 10
116.2085420698397
 20
294.9418433865128
 10
116.2085420698397
 20
296.7455880148417
 10
113.2925428752729
 20
296.7570903752093
  0
LWPOLYLINE
  5
2A3CE
102
{ACAD_REACTORS
330
2A5D9
102
}
330
18
100
AcDbEntity
  8
Modules
100
AcDbPolyline
 90
        9
 70
     0
 43
0.0
 10
113.2925428752729
 20
316.2571233752093
 10
113.2925428752729
 20
324.5772442053379
 10
116.2085420698398
 20
324.5943814019862
 10
116.2085420698398
 20
326.346590307752
 10
123.5167509687279
 20
326.346590307752
 10
123.5167509687278
 20
314.4418763865127
 10
116.2085420698397
 20
314.4418763865127
 10
116.2085420698397
 20
316.2456210148416
 10
113.2925428752729
 20
316.2571233752093
  0
CIRCLE
  5
2A3CF
102
{ACAD_REACTORS
330
2A5D9
102
}
330
18
100
AcDbEntity
  8
Modules
100
AcDbCircle
 10
135.4681614209134
 20
331.8174668352698
 30
0.0
 40
1.6
  0
CIRCLE
  5
2A3D0
102
{ACAD_REACTORS
330
2A5D9
102
}
330
18
100
AcDbEntity
  8
Modules
100
AcDbCircle
 10
140.4681614209134
 20
331.8174668352698
 30
0.0
 40
1.6
  0
CIRCLE
  5
2A3D1
102
{ACAD_REACTORS
330
2A5D9
102
}
330
18
100
AcDbEntity
  8
Modules
100
AcDbCircle
 10
135.4681614209135
 20
321.8174668352698
 30
0.0
 40
1.6
  0
CIRCLE
  5
2A3D2
102
{ACAD_REACTORS
330
2A5D9
102
}
330
18
100
AcDbEntity
  8
Modules
100
AcDbCircle
 10
140.4681614209134
 20
321.8174668352698
 30
0.0
 40
1.6
  0
CIRCLE
  5
2A3D3
102
{ACAD_REACTORS
330
2A5D9
102
}
330
18
100
AcDbEntity
  8
Modules
100
AcDbCircle
 10
135.4681614209135
 20
326.8174668352698
 30
0.0
 40
1.6
  0
CIRCLE
  5
2A3D4
102
{ACAD_REACTORS
330
2A5D9
102
}
330
18
100
AcDbEntity
  8
Modules
100
AcDbCircle
 10
140.4681614209134
 20
326.8174668352698
 30
0.0
 40
1.6
  0
LWPOLYLINE
  5
2A3D5
102
{ACAD_REACTORS
330
2A5D9
102
}
330
18
100
AcDbEntity
  8
Modules
100
AcDbPolyline
 90
        4
 70
     1
 43
0.0
 10
132.8681614209132
 20
292.7174668352698
 10
144.0681614209131
 20
292.7174668352698
 10
144.0681614209131
 20
318.9174668352698
 10
132.8681614209132
 20
318.9174668352698
  0
LWPOLYLINE
  5
2A3D6
102
{ACAD_REACTORS
330
2A5D9
102
}
330
18
100
AcDbEntity
  8
Modules
100
AcDbPolyline
 90
        4
 70
     1
 43
0.0
 10
132.8681614209132
 20
254.1174668352698
 10
144.0681614209131
 20
254.1174668352698
 10
144.0681614209131
 20
280.3174668352698
 10
132.8681614209132
 20
280.3174668352698
  0
CIRCLE
  5
2A3D7
102
{ACAD_REACTORS
330
2A5D9
102
}
330
18
100
AcDbEntity
  8
Modules
100
AcDbCircle
 10
140.4681614209134
 20
288.2175168352698
 30
0.0
 40
1.6
  0
CIRCLE
  5
2A3D8
102
{ACAD_REACTORS
330
2A5D9
102
}
330
18
100
AcDbEntity
  8
Modules
100
AcDbCircle
 10
135.4681614209134
 20
288.2175168352698
 30
0.0
 40
1.6
  0
CIRCLE
  5
2A3D9
102
{ACAD_REACTORS
330
2A5D9
102
}
330
18
100
AcDbEntity
  8
Modules
100
AcDbCircle
 10
140.4681614209134
 20
283.2174508352697
 30
0.0
 40
1.6
  0
CIRCLE
  5
2A3DA
102
{ACAD_REACTORS
330
2A5D9
102
}
330
18
100
AcDbEntity
  8
Modules
100
AcDbCircle
 10
135.4681614209134
 20
283.2174508352698
 30
0.0
 40
1.6
  0
CIRCLE
  5
2A3DB
102
{ACAD_REACTORS
330
2A5D9
102
}
330
18
100
AcDbEntity
  8
Modules
100
AcDbCircle
 10
136.1681614209133
 20
354.1174668352699
 30
0.0
 40
2.45
  0
LWPOLYLINE
  5
2A3DC
102
{ACAD_REACTORS
330
2A5D9
102
}
330
18
100
AcDbEntity
  8
Modules
100
AcDbPolyline
 90
        6
 70
     1
 43
0.0
 10
135.5330761248047
 20
355.2174668352698
 10
134.8979908286961
 20
354.1174668352699
 10
135.5330761248047
 20
353.0174668352697
 10
136.8032467170219
 20
353.0174668352697
 10
137.4383320131305
 20
354.1174668352699
 10
136.8032467170219
 20
355.2174668352698
  0
CIRCLE
  5
2A3DD
102
{ACAD_REACTORS
330
2A5D9
102
}
330
18
100
AcDbEntity
  8
Modules
100
AcDbCircle
 10
136.1681614209133
 20
342.4174668352698
 30
0.0
 40
2.45
  0
LWPOLYLINE
  5
2A3DE
102
{ACAD_REACTORS
330
2A5D9
102
}
330
18
100
AcDbEntity
  8
Modules
100
AcDbPolyline
 90
        6
 70
     1
 43
0.0
 10
135.5330761248047
 20
343.5174668352698
 10
134.8979908286961
 20
342.4174668352698
 10
135.5330761248047
 20
341.3174668352698
 10
136.8032467170219
 20
341.3174668352698
 10
137.4383320131305
 20
342.4174668352698
 10
136.8032467170219
 20
343.5174668352698
  0
CIRCLE
  5
2A3DF
102
{ACAD_REACTORS
330
2A5D9
102
}
330
18
100
AcDbEntity
  8
Modules
100
AcDbCircle
 10
136.1681614209133
 20
243.4174668352698
 30
0.0
 40
2.45
  0
LWPOLYLINE
  5
2A3E0
102
{ACAD_REACTORS
330
2A5D9
102
}
330
18
100
AcDbEntity
  8
Modules
100
AcDbPolyline
 90
        6
 70
     1
 43
0.0
 10
135.5330761248047
 20
244.5174668352698
 10
134.8979908286961
 20
243.4174668352698
 10
135.5330761248047
 20
242.3174668352698
 10
136.8032467170219
 20
242.3174668352698
 10
137.4383320131305
 20
243.4174668352698
 10
136.8032467170219
 20
244.5174668352698
  0
CIRCLE
  5
2A3E1
102
{ACAD_REACTORS
330
2A5D9
102
}
330
18
100
AcDbEntity
  8
Modules
100
AcDbCircle
 10
136.1681614209133
 20
231.7174668352698
 30
0.0
 40
2.45
  0
LWPOLYLINE
  5
2A3E2
102
{ACAD_REACTORS
330
2A5D9
102
}
330
18
100
AcDbEntity
  8
Modules
100
AcDbPolyline
 90
        6
 70
     1
 43
0.0
 10
135.5330761248047
 20
232.8174668352698
 10
134.8979908286961
 20
231.7174668352698
 10
135.5330761248047
 20
230.6174668352698
 10
136.8032467170219
 20
230.6174668352698
 10
137.4383320131305
 20
231.7174668352698
 10
136.8032467170219
 20
232.8174668352698
  0
LWPOLYLINE
  5
2A3E3
102
{ACAD_REACTORS
330
2A5D9
102
}
330
18
100
AcDbEntity
  8
Modules
100
AcDbPolyline
 90
        4
 70
     1
 43
0.0
 10
128.6681614209133
 20
357.1174668352699
 10
148.6481614209132
 20
357.1174668352699
 10
148.6481614209132
 20
228.7174668352698
 10
128.6681614209133
 20
228.7174668352698
  0
CIRCLE
  5
2A3E4
102
{ACAD_REACTORS
330
2A5D9
102
}
330
18
100
AcDbEntity
  8
Modules
100
AcDbCircle
 10
138.4681614209131
 20
312.1674668352698
 30
0.0
 40
1.75
  0
CIRCLE
  5
2A3E5
102
{ACAD_REACTORS
330
2A5D9
102
}
330
18
100
AcDbEntity
  8
Modules
100
AcDbCircle
 10
138.4681614209131
 20
299.4674668352697
 30
0.0
 40
1.75
  0
LWPOLYLINE
  5
2A3E6
102
{ACAD_REACTORS
330
2A5D9
102
}
330
18
100
AcDbEntity
  8
Modules
100
AcDbPolyline
 90
        4
 70
     1
 43
0.0
 10
134.2931614209132
 20
317.5174668352697
 10
142.6431614209132
 20
317.5174668352697
 10
142.6431614209132
 20
306.8174668352698
 10
134.2931614209132
 20
306.8174668352698
  0
LWPOLYLINE
  5
2A3E7
102
{ACAD_REACTORS
330
2A5D9
102
}
330
18
100
AcDbEntity
  8
Modules
100
AcDbPolyline
 90
        4
 70
     1
 43
0.0
 10
134.2931614209132
 20
304.8174668352697
 10
142.6431614209131
 20
304.8174668352697
 10
142.6431614209131
 20
294.1174668352698
 10
134.2931614209132
 20
294.1174668352698
  0
CIRCLE
  5
2A3E8
102
{ACAD_REACTORS
330
2A5D9
102
}
330
18
100
AcDbEntity
  8
Modules
100
AcDbCircle
 10
138.4681614209131
 20
273.5674668352698
 30
0.0
 40
1.75
  0
CIRCLE
  5
2A3E9
102
{ACAD_REACTORS
330
2A5D9
102
}
330
18
100
AcDbEntity
  8
Modules
100
AcDbCircle
 10
138.4681614209131
 20
260.8674668352697
 30
0.0
 40
1.75
  0
LWPOLYLINE
  5
2A3EA
102
{ACAD_REACTORS
330
2A5D9
102
}
330
18
100
AcDbEntity
  8
Modules
100
AcDbPolyline
 90
        4
 70
     1
 43
0.0
 10
134.2931614209132
 20
278.9174668352698
 10
142.6431614209132
 20
278.9174668352698
 10
142.6431614209132
 20
268.2174668352697
 10
134.2931614209132
 20
268.2174668352697
  0
LWPOLYLINE
  5
2A3EB
102
{ACAD_REACTORS
330
2A5D9
102
}
330
18
100
AcDbEntity
  8
Modules
100
AcDbPolyline
 90
        4
 70
     1
 43
0.0
 10
134.2931614209132
 20
266.2174668352697
 10
142.6431614209131
 20
266.2174668352697
 10
142.6431614209131
 20
255.5174668352698
 10
134.2931614209132
 20
255.5174668352698
  0
CIRCLE
  5
2A3EC
102
{ACAD_REACTORS
330
2A5D9
102
}
330
18
100
AcDbEntity
  8
Modules
100
AcDbCircle
 10
155.7881614209134
 20
331.8174668352698
 30
0.0
 40
1.6
  0
CIRCLE
  5
2A3ED
102
{ACAD_REACTORS
330
2A5D9
102
}
330
18
100
AcDbEntity
  8
Modules
100
AcDbCircle
 10
160.7881614209134
 20
331.8174668352698
 30
0.0
 40
1.6
  0
CIRCLE
  5
2A3EE
102
{ACAD_REACTORS
330
2A5D9
102
}
330
18
100
AcDbEntity
  8
Modules
100
AcDbCircle
 10
155.7881614209135
 20
321.8174668352698
 30
0.0
 40
1.6
  0
CIRCLE
  5
2A3EF
102
{ACAD_REACTORS
330
2A5D9
102
}
330
18
100
AcDbEntity
  8
Modules
100
AcDbCircle
 10
160.7881614209134
 20
321.8174668352698
 30
0.0
 40
1.6
  0
CIRCLE
  5
2A3F0
102
{ACAD_REACTORS
330
2A5D9
102
}
330
18
100
AcDbEntity
  8
Modules
100
AcDbCircle
 10
155.7881614209135
 20
326.8174668352698
 30
0.0
 40
1.6
  0
CIRCLE
  5
2A3F1
102
{ACAD_REACTORS
330
2A5D9
102
}
330
18
100
AcDbEntity
  8
Modules
100
AcDbCircle
 10
160.7881614209134
 20
326.8174668352698
 30
0.0
 40
1.6
  0
LWPOLYLINE
  5
2A3F2
102
{ACAD_REACTORS
330
2A5D9
102
}
330
18
100
AcDbEntity
  8
Modules
100
AcDbPolyline
 90
        4
 70
     1
 43
0.0
 10
153.1881614209131
 20
292.7174668352698
 10
164.3881614209131
 20
292.7174668352698
 10
164.3881614209131
 20
318.9174668352698
 10
153.1881614209131
 20
318.9174668352698
  0
LWPOLYLINE
  5
2A3F3
102
{ACAD_REACTORS
330
2A5D9
102
}
330
18
100
AcDbEntity
  8
Modules
100
AcDbPolyline
 90
        4
 70
     1
 43
0.0
 10
153.1881614209131
 20
254.1174668352698
 10
164.3881614209131
 20
254.1174668352698
 10
164.3881614209131
 20
280.3174668352698
 10
153.1881614209131
 20
280.3174668352698
  0
CIRCLE
  5
2A3F4
102
{ACAD_REACTORS
330
2A5D9
102
}
330
18
100
AcDbEntity
  8
Modules
100
AcDbCircle
 10
160.7881614209134
 20
288.2175168352698
 30
0.0
 40
1.6
  0
CIRCLE
  5
2A3F5
102
{ACAD_REACTORS
330
2A5D9
102
}
330
18
100
AcDbEntity
  8
Modules
100
AcDbCircle
 10
155.7881614209134
 20
288.2175168352698
 30
0.0
 40
1.6
  0
CIRCLE
  5
2A3F6
102
{ACAD_REACTORS
330
2A5D9
102
}
330
18
100
AcDbEntity
  8
Modules
100
AcDbCircle
 10
160.7881614209134
 20
283.2174508352697
 30
0.0
 40
1.6
  0
CIRCLE
  5
2A3F7
102
{ACAD_REACTORS
330
2A5D9
102
}
330
18
100
AcDbEntity
  8
Modules
100
AcDbCircle
 10
155.7881614209134
 20
283.2174508352698
 30
0.0
 40
1.6
  0
CIRCLE
  5
2A3F8
102
{ACAD_REACTORS
330
2A5D9
102
}
330
18
100
AcDbEntity
  8
Modules
100
AcDbCircle
 10
156.4881614209133
 20
354.1174668352699
 30
0.0
 40
2.45
  0
LWPOLYLINE
  5
2A3F9
102
{ACAD_REACTORS
330
2A5D9
102
}
330
18
100
AcDbEntity
  8
Modules
100
AcDbPolyline
 90
        6
 70
     1
 43
0.0
 10
155.8530761248047
 20
355.2174668352698
 10
155.2179908286961
 20
354.1174668352699
 10
155.8530761248047
 20
353.0174668352697
 10
157.1232467170219
 20
353.0174668352697
 10
157.7583320131305
 20
354.1174668352699
 10
157.1232467170219
 20
355.2174668352698
  0
CIRCLE
  5
2A3FA
102
{ACAD_REACTORS
330
2A5D9
102
}
330
18
100
AcDbEntity
  8
Modules
100
AcDbCircle
 10
156.4881614209133
 20
342.4174668352698
 30
0.0
 40
2.45
  0
LWPOLYLINE
  5
2A3FB
102
{ACAD_REACTORS
330
2A5D9
102
}
330
18
100
AcDbEntity
  8
Modules
100
AcDbPolyline
 90
        6
 70
     1
 43
0.0
 10
155.8530761248047
 20
343.5174668352698
 10
155.2179908286961
 20
342.4174668352698
 10
155.8530761248047
 20
341.3174668352698
 10
157.1232467170219
 20
341.3174668352698
 10
157.7583320131305
 20
342.4174668352698
 10
157.1232467170219
 20
343.5174668352698
  0
CIRCLE
  5
2A3FC
102
{ACAD_REACTORS
330
2A5D9
102
}
330
18
100
AcDbEntity
  8
Modules
100
AcDbCircle
 10
156.4881614209133
 20
243.4174668352698
 30
0.0
 40
2.45
  0
LWPOLYLINE
  5
2A3FD
102
{ACAD_REACTORS
330
2A5D9
102
}
330
18
100
AcDbEntity
  8
Modules
100
AcDbPolyline
 90
        6
 70
     1
 43
0.0
 10
155.8530761248047
 20
244.5174668352698
 10
155.2179908286961
 20
243.4174668352698
 10
155.8530761248047
 20
242.3174668352698
 10
157.1232467170219
 20
242.3174668352698
 10
157.7583320131305
 20
243.4174668352698
 10
157.1232467170219
 20
244.5174668352698
  0
CIRCLE
  5
2A3FE
102
{ACAD_REACTORS
330
2A5D9
102
}
330
18
100
AcDbEntity
  8
Modules
100
AcDbCircle
 10
156.4881614209133
 20
231.7174668352698
 30
0.0
 40
2.45
  0
LWPOLYLINE
  5
2A3FF
102
{ACAD_REACTORS
330
2A5D9
102
}
330
18
100
AcDbEntity
  8
Modules
100
AcDbPolyline
 90
        6
 70
     1
 43
0.0
 10
155.8530761248047
 20
232.8174668352698
 10
155.2179908286961
 20
231.7174668352698
 10
155.8530761248047
 20
230.6174668352698
 10
157.1232467170219
 20
230.6174668352698
 10
157.7583320131305
 20
231.7174668352698
 10
157.1232467170219
 20
232.8174668352698
  0
LWPOLYLINE
  5
2A400
102
{ACAD_REACTORS
330
2A5D9
102
}
330
18
100
AcDbEntity
  8
Modules
100
AcDbPolyline
 90
        4
 70
     1
 43
0.0
 10
148.9881614209133
 20
357.1174668352699
 10
168.9681614209132
 20
357.1174668352699
 10
168.9681614209132
 20
228.7174668352698
 10
148.9881614209133
 20
228.7174668352698
  0
CIRCLE
  5
2A401
102
{ACAD_REACTORS
330
2A5D9
102
}
330
18
100
AcDbEntity
  8
Modules
100
AcDbCircle
 10
158.7881614209131
 20
312.1674668352698
 30
0.0
 40
1.75
  0
CIRCLE
  5
2A402
102
{ACAD_REACTORS
330
2A5D9
102
}
330
18
100
AcDbEntity
  8
Modules
100
AcDbCircle
 10
158.7881614209131
 20
299.4674668352697
 30
0.0
 40
1.75
  0
LWPOLYLINE
  5
2A403
102
{ACAD_REACTORS
330
2A5D9
102
}
330
18
100
AcDbEntity
  8
Modules
100
AcDbPolyline
 90
        4
 70
     1
 43
0.0
 10
154.6131614209131
 20
317.5174668352697
 10
162.9631614209132
 20
317.5174668352697
 10
162.9631614209132
 20
306.8174668352698
 10
154.6131614209131
 20
306.8174668352698
  0
LWPOLYLINE
  5
2A404
102
{ACAD_REACTORS
330
2A5D9
102
}
330
18
100
AcDbEntity
  8
Modules
100
AcDbPolyline
 90
        4
 70
     1
 43
0.0
 10
154.6131614209131
 20
304.8174668352697
 10
162.9631614209131
 20
304.8174668352697
 10
162.9631614209131
 20
294.1174668352698
 10
154.6131614209131
 20
294.1174668352698
  0
CIRCLE
  5
2A405
102
{ACAD_REACTORS
330
2A5D9
102
}
330
18
100
AcDbEntity
  8
Modules
100
AcDbCircle
 10
158.7881614209131
 20
273.5674668352698
 30
0.0
 40
1.75
  0
CIRCLE
  5
2A406
102
{ACAD_REACTORS
330
2A5D9
102
}
330
18
100
AcDbEntity
  8
Modules
100
AcDbCircle
 10
158.7881614209131
 20
260.8674668352697
 30
0.0
 40
1.75
  0
LWPOLYLINE
  5
2A407
102
{ACAD_REACTORS
330
2A5D9
102
}
330
18
100
AcDbEntity
  8
Modules
100
AcDbPolyline
 90
        4
 70
     1
 43
0.0
 10
154.6131614209131
 20
278.9174668352698
 10
162.9631614209132
 20
278.9174668352698
 10
162.9631614209132
 20
268.2174668352697
 10
154.6131614209131
 20
268.2174668352697
  0
LWPOLYLINE
  5
2A408
102
{ACAD_REACTORS
330
2A5D9
102
}
330
18
100
AcDbEntity
  8
Modules
100
AcDbPolyline
 90
        4
 70
     1
 43
0.0
 10
154.6131614209131
 20
266.2174668352697
 10
162.9631614209131
 20
266.2174668352697
 10
162.9631614209131
 20
255.5174668352698
 10
154.6131614209131
 20
255.5174668352698
  0
CIRCLE
  5
2A409
102
{ACAD_REACTORS
330
2A5D9
102
}
330
18
100
AcDbEntity
  8
Modules
100
AcDbCircle
 10
176.1081614209134
 20
331.8174668352698
 30
0.0
 40
1.6
  0
CIRCLE
  5
2A40A
102
{ACAD_REACTORS
330
2A5D9
102
}
330
18
100
AcDbEntity
  8
Modules
100
AcDbCircle
 10
181.1081614209134
 20
331.8174668352698
 30
0.0
 40
1.6
  0
CIRCLE
  5
2A40B
102
{ACAD_REACTORS
330
2A5D9
102
}
330
18
100
AcDbEntity
  8
Modules
100
AcDbCircle
 10
176.1081614209135
 20
321.8174668352698
 30
0.0
 40
1.6
  0
CIRCLE
  5
2A40C
102
{ACAD_REACTORS
330
2A5D9
102
}
330
18
100
AcDbEntity
  8
Modules
100
AcDbCircle
 10
181.1081614209134
 20
321.8174668352698
 30
0.0
 40
1.6
  0
CIRCLE
  5
2A40D
102
{ACAD_REACTORS
330
2A5D9
102
}
330
18
100
AcDbEntity
  8
Modules
100
AcDbCircle
 10
176.1081614209135
 20
326.8174668352698
 30
0.0
 40
1.6
  0
CIRCLE
  5
2A40E
102
{ACAD_REACTORS
330
2A5D9
102
}
330
18
100
AcDbEntity
  8
Modules
100
AcDbCircle
 10
181.1081614209134
 20
326.8174668352698
 30
0.0
 40
1.6
  0
LWPOLYLINE
  5
2A40F
102
{ACAD_REACTORS
330
2A5D9
102
}
330
18
100
AcDbEntity
  8
Modules
100
AcDbPolyline
 90
        4
 70
     1
 43
0.0
 10
173.5081614209131
 20
292.7174668352698
 10
184.7081614209131
 20
292.7174668352698
 10
184.7081614209131
 20
318.9174668352698
 10
173.5081614209131
 20
318.9174668352698
  0
LWPOLYLINE
  5
2A410
102
{ACAD_REACTORS
330
2A5D9
102
}
330
18
100
AcDbEntity
  8
Modules
100
AcDbPolyline
 90
        4
 70
     1
 43
0.0
 10
173.5081614209131
 20
254.1174668352698
 10
184.7081614209131
 20
254.1174668352698
 10
184.7081614209131
 20
280.3174668352698
 10
173.5081614209131
 20
280.3174668352698
  0
CIRCLE
  5
2A411
102
{ACAD_REACTORS
330
2A5D9
102
}
330
18
100
AcDbEntity
  8
Modules
100
AcDbCircle
 10
181.1081614209134
 20
288.2175168352698
 30
0.0
 40
1.6
  0
CIRCLE
  5
2A412
102
{ACAD_REACTORS
330
2A5D9
102
}
330
18
100
AcDbEntity
  8
Modules
100
AcDbCircle
 10
176.1081614209134
 20
288.2175168352698
 30
0.0
 40
1.6
  0
CIRCLE
  5
2A413
102
{ACAD_REACTORS
330
2A5D9
102
}
330
18
100
AcDbEntity
  8
Modules
100
AcDbCircle
 10
181.1081614209134
 20
283.2174508352697
 30
0.0
 40
1.6
  0
CIRCLE
  5
2A414
102
{ACAD_REACTORS
330
2A5D9
102
}
330
18
100
AcDbEntity
  8
Modules
100
AcDbCircle
 10
176.1081614209134
 20
283.2174508352698
 30
0.0
 40
1.6
  0
CIRCLE
  5
2A415
102
{ACAD_REACTORS
330
2A5D9
102
}
330
18
100
AcDbEntity
  8
Modules
100
AcDbCircle
 10
176.8081614209133
 20
354.1174668352699
 30
0.0
 40
2.45
  0
LWPOLYLINE
  5
2A416
102
{ACAD_REACTORS
330
2A5D9
102
}
330
18
100
AcDbEntity
  8
Modules
100
AcDbPolyline
 90
        6
 70
     1
 43
0.0
 10
176.1730761248047
 20
355.2174668352698
 10
175.5379908286961
 20
354.1174668352699
 10
176.1730761248047
 20
353.0174668352697
 10
177.4432467170219
 20
353.0174668352697
 10
178.0783320131305
 20
354.1174668352699
 10
177.4432467170219
 20
355.2174668352698
  0
CIRCLE
  5
2A417
102
{ACAD_REACTORS
330
2A5D9
102
}
330
18
100
AcDbEntity
  8
Modules
100
AcDbCircle
 10
176.8081614209133
 20
342.4174668352698
 30
0.0
 40
2.45
  0
LWPOLYLINE
  5
2A418
102
{ACAD_REACTORS
330
2A5D9
102
}
330
18
100
AcDbEntity
  8
Modules
100
AcDbPolyline
 90
        6
 70
     1
 43
0.0
 10
176.1730761248047
 20
343.5174668352698
 10
175.5379908286961
 20
342.4174668352698
 10
176.1730761248047
 20
341.3174668352698
 10
177.4432467170219
 20
341.3174668352698
 10
178.0783320131305
 20
342.4174668352698
 10
177.4432467170219
 20
343.5174668352698
  0
CIRCLE
  5
2A419
102
{ACAD_REACTORS
330
2A5D9
102
}
330
18
100
AcDbEntity
  8
Modules
100
AcDbCircle
 10
176.8081614209133
 20
243.4174668352698
 30
0.0
 40
2.45
  0
LWPOLYLINE
  5
2A41A
102
{ACAD_REACTORS
330
2A5D9
102
}
330
18
100
AcDbEntity
  8
Modules
100
AcDbPolyline
 90
        6
 70
     1
 43
0.0
 10
176.1730761248047
 20
244.5174668352698
 10
175.5379908286961
 20
243.4174668352698
 10
176.1730761248047
 20
242.3174668352698
 10
177.4432467170219
 20
242.3174668352698
 10
178.0783320131305
 20
243.4174668352698
 10
177.4432467170219
 20
244.5174668352698
  0
CIRCLE
  5
2A41B
102
{ACAD_REACTORS
330
2A5D9
102
}
330
18
100
AcDbEntity
  8
Modules
100
AcDbCircle
 10
176.8081614209133
 20
231.7174668352698
 30
0.0
 40
2.45
  0
LWPOLYLINE
  5
2A41C
102
{ACAD_REACTORS
330
2A5D9
102
}
330
18
100
AcDbEntity
  8
Modules
100
AcDbPolyline
 90
        6
 70
     1
 43
0.0
 10
176.1730761248047
 20
232.8174668352698
 10
175.5379908286961
 20
231.7174668352698
 10
176.1730761248047
 20
230.6174668352698
 10
177.4432467170219
 20
230.6174668352698
 10
178.0783320131305
 20
231.7174668352698
 10
177.4432467170219
 20
232.8174668352698
  0
LWPOLYLINE
  5
2A41D
102
{ACAD_REACTORS
330
2A5D9
102
}
330
18
100
AcDbEntity
  8
Modules
100
AcDbPolyline
 90
        4
 70
     1
 43
0.0
 10
169.3081614209132
 20
357.1174668352699
 10
189.2881614209132
 20
357.1174668352699
 10
189.2881614209132
 20
228.7174668352698
 10
169.3081614209132
 20
228.7174668352698
  0
CIRCLE
  5
2A41E
102
{ACAD_REACTORS
330
2A5D9
102
}
330
18
100
AcDbEntity
  8
Modules
100
AcDbCircle
 10
179.1081614209131
 20
312.1674668352698
 30
0.0
 40
1.75
  0
CIRCLE
  5
2A41F
102
{ACAD_REACTORS
330
2A5D9
102
}
330
18
100
AcDbEntity
  8
Modules
100
AcDbCircle
 10
179.1081614209131
 20
299.4674668352697
 30
0.0
 40
1.75
  0
LWPOLYLINE
  5
2A420
102
{ACAD_REACTORS
330
2A5D9
102
}
330
18
100
AcDbEntity
  8
Modules
100
AcDbPolyline
 90
        4
 70
     1
 43
0.0
 10
174.9331614209132
 20
317.5174668352697
 10
183.2831614209132
 20
317.5174668352697
 10
183.2831614209132
 20
306.8174668352698
 10
174.9331614209132
 20
306.8174668352698
  0
LWPOLYLINE
  5
2A421
102
{ACAD_REACTORS
330
2A5D9
102
}
330
18
100
AcDbEntity
  8
Modules
100
AcDbPolyline
 90
        4
 70
     1
 43
0.0
 10
174.9331614209132
 20
304.8174668352697
 10
183.2831614209131
 20
304.8174668352697
 10
183.2831614209131
 20
294.1174668352698
 10
174.9331614209132
 20
294.1174668352698
  0
CIRCLE
  5
2A422
102
{ACAD_REACTORS
330
2A5D9
102
}
330
18
100
AcDbEntity
  8
Modules
100
AcDbCircle
 10
179.1081614209131
 20
273.5674668352698
 30
0.0
 40
1.75
  0
CIRCLE
  5
2A423
102
{ACAD_REACTORS
330
2A5D9
102
}
330
18
100
AcDbEntity
  8
Modules
100
AcDbCircle
 10
179.1081614209131
 20
260.8674668352697
 30
0.0
 40
1.75
  0
LWPOLYLINE
  5
2A424
102
{ACAD_REACTORS
330
2A5D9
102
}
330
18
100
AcDbEntity
  8
Modules
100
AcDbPolyline
 90
        4
 70
     1
 43
0.0
 10
174.9331614209132
 20
278.9174668352698
 10
183.2831614209132
 20
278.9174668352698
 10
183.2831614209132
 20
268.2174668352697
 10
174.9331614209132
 20
268.2174668352697
  0
LWPOLYLINE
  5
2A425
102
{ACAD_REACTORS
330
2A5D9
102
}
330
18
100
AcDbEntity
  8
Modules
100
AcDbPolyline
 90
        4
 70
     1
 43
0.0
 10
174.9331614209132
 20
266.2174668352697
 10
183.2831614209131
 20
266.2174668352697
 10
183.2831614209131
 20
255.5174668352698
 10
174.9331614209132
 20
255.5174668352698
  0
CIRCLE
  5
2A426
102
{ACAD_REACTORS
330
2A5D9
102
}
330
18
100
AcDbEntity
  8
Modules
100
AcDbCircle
 10
196.4281614209134
 20
331.8174668352698
 30
0.0
 40
1.6
  0
CIRCLE
  5
2A427
102
{ACAD_REACTORS
330
2A5D9
102
}
330
18
100
AcDbEntity
  8
Modules
100
AcDbCircle
 10
201.4281614209135
 20
331.8174668352698
 30
0.0
 40
1.6
  0
CIRCLE
  5
2A428
102
{ACAD_REACTORS
330
2A5D9
102
}
330
18
100
AcDbEntity
  8
Modules
100
AcDbCircle
 10
196.4281614209135
 20
321.8174668352698
 30
0.0
 40
1.6
  0
CIRCLE
  5
2A429
102
{ACAD_REACTORS
330
2A5D9
102
}
330
18
100
AcDbEntity
  8
Modules
100
AcDbCircle
 10
201.4281614209135
 20
321.8174668352698
 30
0.0
 40
1.6
  0
CIRCLE
  5
2A42A
102
{ACAD_REACTORS
330
2A5D9
102
}
330
18
100
AcDbEntity
  8
Modules
100
AcDbCircle
 10
196.4281614209135
 20
326.8174668352698
 30
0.0
 40
1.6
  0
CIRCLE
  5
2A42B
102
{ACAD_REACTORS
330
2A5D9
102
}
330
18
100
AcDbEntity
  8
Modules
100
AcDbCircle
 10
201.4281614209135
 20
326.8174668352698
 30
0.0
 40
1.6
  0
LWPOLYLINE
  5
2A42C
102
{ACAD_REACTORS
330
2A5D9
102
}
330
18
100
AcDbEntity
  8
Modules
100
AcDbPolyline
 90
        4
 70
     1
 43
0.0
 10
193.8281614209131
 20
292.7174668352698
 10
205.0281614209132
 20
292.7174668352698
 10
205.0281614209132
 20
318.9174668352698
 10
193.8281614209131
 20
318.9174668352698
  0
LWPOLYLINE
  5
2A42D
102
{ACAD_REACTORS
330
2A5D9
102
}
330
18
100
AcDbEntity
  8
Modules
100
AcDbPolyline
 90
        4
 70
     1
 43
0.0
 10
193.8281614209131
 20
254.1174668352698
 10
205.0281614209132
 20
254.1174668352698
 10
205.0281614209132
 20
280.3174668352698
 10
193.8281614209131
 20
280.3174668352698
  0
CIRCLE
  5
2A42E
102
{ACAD_REACTORS
330
2A5D9
102
}
330
18
100
AcDbEntity
  8
Modules
100
AcDbCircle
 10
201.4281614209135
 20
288.2175168352698
 30
0.0
 40
1.6
  0
CIRCLE
  5
2A42F
102
{ACAD_REACTORS
330
2A5D9
102
}
330
18
100
AcDbEntity
  8
Modules
100
AcDbCircle
 10
196.4281614209134
 20
288.2175168352698
 30
0.0
 40
1.6
  0
CIRCLE
  5
2A430
102
{ACAD_REACTORS
330
2A5D9
102
}
330
18
100
AcDbEntity
  8
Modules
100
AcDbCircle
 10
201.4281614209135
 20
283.2174508352697
 30
0.0
 40
1.6
  0
CIRCLE
  5
2A431
102
{ACAD_REACTORS
330
2A5D9
102
}
330
18
100
AcDbEntity
  8
Modules
100
AcDbCircle
 10
196.4281614209134
 20
283.2174508352698
 30
0.0
 40
1.6
  0
CIRCLE
  5
2A432
102
{ACAD_REACTORS
330
2A5D9
102
}
330
18
100
AcDbEntity
  8
Modules
100
AcDbCircle
 10
197.1281614209133
 20
354.1174668352699
 30
0.0
 40
2.45
  0
LWPOLYLINE
  5
2A433
102
{ACAD_REACTORS
330
2A5D9
102
}
330
18
100
AcDbEntity
  8
Modules
100
AcDbPolyline
 90
        6
 70
     1
 43
0.0
 10
196.4930761248047
 20
355.2174668352698
 10
195.8579908286962
 20
354.1174668352699
 10
196.4930761248047
 20
353.0174668352697
 10
197.7632467170219
 20
353.0174668352697
 10
198.3983320131305
 20
354.1174668352699
 10
197.7632467170219
 20
355.2174668352698
  0
CIRCLE
  5
2A434
102
{ACAD_REACTORS
330
2A5D9
102
}
330
18
100
AcDbEntity
  8
Modules
100
AcDbCircle
 10
197.1281614209133
 20
342.4174668352698
 30
0.0
 40
2.45
  0
LWPOLYLINE
  5
2A435
102
{ACAD_REACTORS
330
2A5D9
102
}
330
18
100
AcDbEntity
  8
Modules
100
AcDbPolyline
 90
        6
 70
     1
 43
0.0
 10
196.4930761248047
 20
343.5174668352698
 10
195.8579908286962
 20
342.4174668352698
 10
196.4930761248047
 20
341.3174668352698
 10
197.7632467170219
 20
341.3174668352698
 10
198.3983320131305
 20
342.4174668352698
 10
197.7632467170219
 20
343.5174668352698
  0
CIRCLE
  5
2A436
102
{ACAD_REACTORS
330
2A5D9
102
}
330
18
100
AcDbEntity
  8
Modules
100
AcDbCircle
 10
197.1281614209133
 20
243.4174668352698
 30
0.0
 40
2.45
  0
LWPOLYLINE
  5
2A437
102
{ACAD_REACTORS
330
2A5D9
102
}
330
18
100
AcDbEntity
  8
Modules
100
AcDbPolyline
 90
        6
 70
     1
 43
0.0
 10
196.4930761248047
 20
244.5174668352698
 10
195.8579908286962
 20
243.4174668352698
 10
196.4930761248047
 20
242.3174668352698
 10
197.7632467170219
 20
242.3174668352698
 10
198.3983320131305
 20
243.4174668352698
 10
197.7632467170219
 20
244.5174668352698
  0
CIRCLE
  5
2A438
102
{ACAD_REACTORS
330
2A5D9
102
}
330
18
100
AcDbEntity
  8
Modules
100
AcDbCircle
 10
197.1281614209133
 20
231.7174668352698
 30
0.0
 40
2.45
  0
LWPOLYLINE
  5
2A439
102
{ACAD_REACTORS
330
2A5D9
102
}
330
18
100
AcDbEntity
  8
Modules
100
AcDbPolyline
 90
        6
 70
     1
 43
0.0
 10
196.4930761248047
 20
232.8174668352698
 10
195.8579908286962
 20
231.7174668352698
 10
196.4930761248047
 20
230.6174668352698
 10
197.7632467170219
 20
230.6174668352698
 10
198.3983320131305
 20
231.7174668352698
 10
197.7632467170219
 20
232.8174668352698
  0
LWPOLYLINE
  5
2A43A
102
{ACAD_REACTORS
330
2A5D9
102
}
330
18
100
AcDbEntity
  8
Modules
100
AcDbPolyline
 90
        4
 70
     1
 43
0.0
 10
189.6281614209133
 20
357.1174668352699
 10
209.6081614209132
 20
357.1174668352699
 10
209.6081614209132
 20
228.7174668352698
 10
189.6281614209133
 20
228.7174668352698
  0
CIRCLE
  5
2A43B
102
{ACAD_REACTORS
330
2A5D9
102
}
330
18
100
AcDbEntity
  8
Modules
100
AcDbCircle
 10
199.4281614209131
 20
312.1674668352698
 30
0.0
 40
1.75
  0
CIRCLE
  5
2A43C
102
{ACAD_REACTORS
330
2A5D9
102
}
330
18
100
AcDbEntity
  8
Modules
100
AcDbCircle
 10
199.4281614209131
 20
299.4674668352697
 30
0.0
 40
1.75
  0
LWPOLYLINE
  5
2A43D
102
{ACAD_REACTORS
330
2A5D9
102
}
330
18
100
AcDbEntity
  8
Modules
100
AcDbPolyline
 90
        4
 70
     1
 43
0.0
 10
195.2531614209132
 20
317.5174668352697
 10
203.6031614209132
 20
317.5174668352697
 10
203.6031614209132
 20
306.8174668352698
 10
195.2531614209132
 20
306.8174668352698
  0
LWPOLYLINE
  5
2A43E
102
{ACAD_REACTORS
330
2A5D9
102
}
330
18
100
AcDbEntity
  8
Modules
100
AcDbPolyline
 90
        4
 70
     1
 43
0.0
 10
195.2531614209132
 20
304.8174668352697
 10
203.6031614209131
 20
304.8174668352697
 10
203.6031614209131
 20
294.1174668352698
 10
195.2531614209132
 20
294.1174668352698
  0
CIRCLE
  5
2A43F
102
{ACAD_REACTORS
330
2A5D9
102
}
330
18
100
AcDbEntity
  8
Modules
100
AcDbCircle
 10
199.4281614209131
 20
273.5674668352698
 30
0.0
 40
1.75
  0
CIRCLE
  5
2A440
102
{ACAD_REACTORS
330
2A5D9
102
}
330
18
100
AcDbEntity
  8
Modules
100
AcDbCircle
 10
199.4281614209131
 20
260.8674668352697
 30
0.0
 40
1.75
  0
LWPOLYLINE
  5
2A441
102
{ACAD_REACTORS
330
2A5D9
102
}
330
18
100
AcDbEntity
  8
Modules
100
AcDbPolyline
 90
        4
 70
     1
 43
0.0
 10
195.2531614209132
 20
278.9174668352698
 10
203.6031614209132
 20
278.9174668352698
 10
203.6031614209132
 20
268.2174668352697
 10
195.2531614209132
 20
268.2174668352697
  0
LWPOLYLINE
  5
2A442
102
{ACAD_REACTORS
330
2A5D9
102
}
330
18
100
AcDbEntity
  8
Modules
100
AcDbPolyline
 90
        4
 70
     1
 43
0.0
 10
195.2531614209132
 20
266.2174668352697
 10
203.6031614209131
 20
266.2174668352697
 10
203.6031614209131
 20
255.5174668352698
 10
195.2531614209132
 20
255.5174668352698
  0
CIRCLE
  5
2A443
102
{ACAD_REACTORS
330
2A5D9
102
}
330
18
100
AcDbEntity
  8
Modules
100
AcDbCircle
 10
216.7481614209135
 20
331.8174668352698
 30
0.0
 40
1.6
  0
CIRCLE
  5
2A444
102
{ACAD_REACTORS
330
2A5D9
102
}
330
18
100
AcDbEntity
  8
Modules
100
AcDbCircle
 10
221.7481614209134
 20
331.8174668352698
 30
0.0
 40
1.6
  0
CIRCLE
  5
2A445
102
{ACAD_REACTORS
330
2A5D9
102
}
330
18
100
AcDbEntity
  8
Modules
100
AcDbCircle
 10
216.7481614209135
 20
321.8174668352698
 30
0.0
 40
1.6
  0
CIRCLE
  5
2A446
102
{ACAD_REACTORS
330
2A5D9
102
}
330
18
100
AcDbEntity
  8
Modules
100
AcDbCircle
 10
221.7481614209134
 20
321.8174668352698
 30
0.0
 40
1.6
  0
CIRCLE
  5
2A447
102
{ACAD_REACTORS
330
2A5D9
102
}
330
18
100
AcDbEntity
  8
Modules
100
AcDbCircle
 10
216.7481614209135
 20
326.8174668352698
 30
0.0
 40
1.6
  0
CIRCLE
  5
2A448
102
{ACAD_REACTORS
330
2A5D9
102
}
330
18
100
AcDbEntity
  8
Modules
100
AcDbCircle
 10
221.7481614209134
 20
326.8174668352698
 30
0.0
 40
1.6
  0
LWPOLYLINE
  5
2A449
102
{ACAD_REACTORS
330
2A5D9
102
}
330
18
100
AcDbEntity
  8
Modules
100
AcDbPolyline
 90
        4
 70
     1
 43
0.0
 10
214.1481614209132
 20
292.7174668352698
 10
225.3481614209132
 20
292.7174668352698
 10
225.3481614209132
 20
318.9174668352698
 10
214.1481614209132
 20
318.9174668352698
  0
LWPOLYLINE
  5
2A44A
102
{ACAD_REACTORS
330
2A5D9
102
}
330
18
100
AcDbEntity
  8
Modules
100
AcDbPolyline
 90
        4
 70
     1
 43
0.0
 10
214.1481614209132
 20
254.1174668352698
 10
225.3481614209132
 20
254.1174668352698
 10
225.3481614209132
 20
280.3174668352698
 10
214.1481614209132
 20
280.3174668352698
  0
CIRCLE
  5
2A44B
102
{ACAD_REACTORS
330
2A5D9
102
}
330
18
100
AcDbEntity
  8
Modules
100
AcDbCircle
 10
221.7481614209134
 20
288.2175168352698
 30
0.0
 40
1.6
  0
CIRCLE
  5
2A44C
102
{ACAD_REACTORS
330
2A5D9
102
}
330
18
100
AcDbEntity
  8
Modules
100
AcDbCircle
 10
216.7481614209135
 20
288.2175168352698
 30
0.0
 40
1.6
  0
CIRCLE
  5
2A44D
102
{ACAD_REACTORS
330
2A5D9
102
}
330
18
100
AcDbEntity
  8
Modules
100
AcDbCircle
 10
221.7481614209134
 20
283.2174508352697
 30
0.0
 40
1.6
  0
CIRCLE
  5
2A44E
102
{ACAD_REACTORS
330
2A5D9
102
}
330
18
100
AcDbEntity
  8
Modules
100
AcDbCircle
 10
216.7481614209135
 20
283.2174508352698
 30
0.0
 40
1.6
  0
CIRCLE
  5
2A44F
102
{ACAD_REACTORS
330
2A5D9
102
}
330
18
100
AcDbEntity
  8
Modules
100
AcDbCircle
 10
217.4481614209133
 20
354.1174668352699
 30
0.0
 40
2.45
  0
LWPOLYLINE
  5
2A450
102
{ACAD_REACTORS
330
2A5D9
102
}
330
18
100
AcDbEntity
  8
Modules
100
AcDbPolyline
 90
        6
 70
     1
 43
0.0
 10
216.8130761248047
 20
355.2174668352698
 10
216.1779908286962
 20
354.1174668352699
 10
216.8130761248047
 20
353.0174668352697
 10
218.0832467170219
 20
353.0174668352697
 10
218.7183320131305
 20
354.1174668352699
 10
218.0832467170219
 20
355.2174668352698
  0
CIRCLE
  5
2A451
102
{ACAD_REACTORS
330
2A5D9
102
}
330
18
100
AcDbEntity
  8
Modules
100
AcDbCircle
 10
217.4481614209133
 20
342.4174668352698
 30
0.0
 40
2.45
  0
LWPOLYLINE
  5
2A452
102
{ACAD_REACTORS
330
2A5D9
102
}
330
18
100
AcDbEntity
  8
Modules
100
AcDbPolyline
 90
        6
 70
     1
 43
0.0
 10
216.8130761248047
 20
343.5174668352698
 10
216.1779908286962
 20
342.4174668352698
 10
216.8130761248047
 20
341.3174668352698
 10
218.0832467170219
 20
341.3174668352698
 10
218.7183320131305
 20
342.4174668352698
 10
218.0832467170219
 20
343.5174668352698
  0
CIRCLE
  5
2A453
102
{ACAD_REACTORS
330
2A5D9
102
}
330
18
100
AcDbEntity
  8
Modules
100
AcDbCircle
 10
217.4481614209133
 20
243.4174668352698
 30
0.0
 40
2.45
  0
LWPOLYLINE
  5
2A454
102
{ACAD_REACTORS
330
2A5D9
102
}
330
18
100
AcDbEntity
  8
Modules
100
AcDbPolyline
 90
        6
 70
     1
 43
0.0
 10
216.8130761248047
 20
244.5174668352698
 10
216.1779908286962
 20
243.4174668352698
 10
216.8130761248047
 20
242.3174668352698
 10
218.0832467170219
 20
242.3174668352698
 10
218.7183320131305
 20
243.4174668352698
 10
218.0832467170219
 20
244.5174668352698
  0
CIRCLE
  5
2A455
102
{ACAD_REACTORS
330
2A5D9
102
}
330
18
100
AcDbEntity
  8
Modules
100
AcDbCircle
 10
217.4481614209133
 20
231.7174668352698
 30
0.0
 40
2.45
  0
LWPOLYLINE
  5
2A456
102
{ACAD_REACTORS
330
2A5D9
102
}
330
18
100
AcDbEntity
  8
Modules
100
AcDbPolyline
 90
        6
 70
     1
 43
0.0
 10
216.8130761248047
 20
232.8174668352698
 10
216.1779908286962
 20
231.7174668352698
 10
216.8130761248047
 20
230.6174668352698
 10
218.0832467170219
 20
230.6174668352698
 10
218.7183320131305
 20
231.7174668352698
 10
218.0832467170219
 20
232.8174668352698
  0
LWPOLYLINE
  5
2A457
102
{ACAD_REACTORS
330
2A5D9
102
}
330
18
100
AcDbEntity
  8
Modules
100
AcDbPolyline
 90
        4
 70
     1
 43
0.0
 10
209.9481614209133
 20
357.1174668352699
 10
229.9281614209132
 20
357.1174668352699
 10
229.9281614209132
 20
228.7174668352698
 10
209.9481614209133
 20
228.7174668352698
  0
CIRCLE
  5
2A458
102
{ACAD_REACTORS
330
2A5D9
102
}
330
18
100
AcDbEntity
  8
Modules
100
AcDbCircle
 10
219.7481614209131
 20
312.1674668352698
 30
0.0
 40
1.75
  0
CIRCLE
  5
2A459
102
{ACAD_REACTORS
330
2A5D9
102
}
330
18
100
AcDbEntity
  8
Modules
100
AcDbCircle
 10
219.7481614209131
 20
299.4674668352697
 30
0.0
 40
1.75
  0
LWPOLYLINE
  5
2A45A
102
{ACAD_REACTORS
330
2A5D9
102
}
330
18
100
AcDbEntity
  8
Modules
100
AcDbPolyline
 90
        4
 70
     1
 43
0.0
 10
215.5731614209132
 20
317.5174668352697
 10
223.9231614209132
 20
317.5174668352697
 10
223.9231614209132
 20
306.8174668352698
 10
215.5731614209132
 20
306.8174668352698
  0
LWPOLYLINE
  5
2A45B
102
{ACAD_REACTORS
330
2A5D9
102
}
330
18
100
AcDbEntity
  8
Modules
100
AcDbPolyline
 90
        4
 70
     1
 43
0.0
 10
215.5731614209132
 20
304.8174668352697
 10
223.9231614209131
 20
304.8174668352697
 10
223.9231614209131
 20
294.1174668352698
 10
215.5731614209132
 20
294.1174668352698
  0
CIRCLE
  5
2A45C
102
{ACAD_REACTORS
330
2A5D9
102
}
330
18
100
AcDbEntity
  8
Modules
100
AcDbCircle
 10
219.7481614209131
 20
273.5674668352698
 30
0.0
 40
1.75
  0
CIRCLE
  5
2A45D
102
{ACAD_REACTORS
330
2A5D9
102
}
330
18
100
AcDbEntity
  8
Modules
100
AcDbCircle
 10
219.7481614209131
 20
260.8674668352697
 30
0.0
 40
1.75
  0
LWPOLYLINE
  5
2A45E
102
{ACAD_REACTORS
330
2A5D9
102
}
330
18
100
AcDbEntity
  8
Modules
100
AcDbPolyline
 90
        4
 70
     1
 43
0.0
 10
215.5731614209132
 20
278.9174668352698
 10
223.9231614209132
 20
278.9174668352698
 10
223.9231614209132
 20
268.2174668352697
 10
215.5731614209132
 20
268.2174668352697
  0
LWPOLYLINE
  5
2A45F
102
{ACAD_REACTORS
330
2A5D9
102
}
330
18
100
AcDbEntity
  8
Modules
100
AcDbPolyline
 90
        4
 70
     1
 43
0.0
 10
215.5731614209132
 20
266.2174668352697
 10
223.9231614209131
 20
266.2174668352697
 10
223.9231614209131
 20
255.5174668352698
 10
215.5731614209132
 20
255.5174668352698
  0
CIRCLE
  5
2A460
102
{ACAD_REACTORS
330
2A5D9
102
}
330
18
100
AcDbEntity
  8
Modules
100
AcDbCircle
 10
237.0681614209134
 20
331.8174668352698
 30
0.0
 40
1.6
  0
CIRCLE
  5
2A461
102
{ACAD_REACTORS
330
2A5D9
102
}
330
18
100
AcDbEntity
  8
Modules
100
AcDbCircle
 10
242.0681614209134
 20
331.8174668352698
 30
0.0
 40
1.6
  0
CIRCLE
  5
2A462
102
{ACAD_REACTORS
330
2A5D9
102
}
330
18
100
AcDbEntity
  8
Modules
100
AcDbCircle
 10
237.0681614209135
 20
321.8174668352698
 30
0.0
 40
1.6
  0
CIRCLE
  5
2A463
102
{ACAD_REACTORS
330
2A5D9
102
}
330
18
100
AcDbEntity
  8
Modules
100
AcDbCircle
 10
242.0681614209134
 20
321.8174668352698
 30
0.0
 40
1.6
  0
CIRCLE
  5
2A464
102
{ACAD_REACTORS
330
2A5D9
102
}
330
18
100
AcDbEntity
  8
Modules
100
AcDbCircle
 10
237.0681614209135
 20
326.8174668352698
 30
0.0
 40
1.6
  0
CIRCLE
  5
2A465
102
{ACAD_REACTORS
330
2A5D9
102
}
330
18
100
AcDbEntity
  8
Modules
100
AcDbCircle
 10
242.0681614209134
 20
326.8174668352698
 30
0.0
 40
1.6
  0
LWPOLYLINE
  5
2A466
102
{ACAD_REACTORS
330
2A5D9
102
}
330
18
100
AcDbEntity
  8
Modules
100
AcDbPolyline
 90
        4
 70
     1
 43
0.0
 10
234.4681614209132
 20
292.7174668352698
 10
245.6681614209132
 20
292.7174668352698
 10
245.6681614209132
 20
318.9174668352698
 10
234.4681614209132
 20
318.9174668352698
  0
LWPOLYLINE
  5
2A467
102
{ACAD_REACTORS
330
2A5D9
102
}
330
18
100
AcDbEntity
  8
Modules
100
AcDbPolyline
 90
        4
 70
     1
 43
0.0
 10
234.4681614209132
 20
254.1174668352698
 10
245.6681614209132
 20
254.1174668352698
 10
245.6681614209132
 20
280.3174668352698
 10
234.4681614209132
 20
280.3174668352698
  0
CIRCLE
  5
2A468
102
{ACAD_REACTORS
330
2A5D9
102
}
330
18
100
AcDbEntity
  8
Modules
100
AcDbCircle
 10
242.0681614209134
 20
288.2175168352698
 30
0.0
 40
1.6
  0
CIRCLE
  5
2A469
102
{ACAD_REACTORS
330
2A5D9
102
}
330
18
100
AcDbEntity
  8
Modules
100
AcDbCircle
 10
237.0681614209134
 20
288.2175168352698
 30
0.0
 40
1.6
  0
CIRCLE
  5
2A46A
102
{ACAD_REACTORS
330
2A5D9
102
}
330
18
100
AcDbEntity
  8
Modules
100
AcDbCircle
 10
242.0681614209134
 20
283.2174508352697
 30
0.0
 40
1.6
  0
CIRCLE
  5
2A46B
102
{ACAD_REACTORS
330
2A5D9
102
}
330
18
100
AcDbEntity
  8
Modules
100
AcDbCircle
 10
237.0681614209134
 20
283.2174508352698
 30
0.0
 40
1.6
  0
CIRCLE
  5
2A46C
102
{ACAD_REACTORS
330
2A5D9
102
}
330
18
100
AcDbEntity
  8
Modules
100
AcDbCircle
 10
237.7681614209133
 20
354.1174668352699
 30
0.0
 40
2.45
  0
LWPOLYLINE
  5
2A46D
102
{ACAD_REACTORS
330
2A5D9
102
}
330
18
100
AcDbEntity
  8
Modules
100
AcDbPolyline
 90
        6
 70
     1
 43
0.0
 10
237.1330761248047
 20
355.2174668352698
 10
236.4979908286962
 20
354.1174668352699
 10
237.1330761248047
 20
353.0174668352697
 10
238.4032467170219
 20
353.0174668352697
 10
239.0383320131305
 20
354.1174668352699
 10
238.4032467170219
 20
355.2174668352698
  0
CIRCLE
  5
2A46E
102
{ACAD_REACTORS
330
2A5D9
102
}
330
18
100
AcDbEntity
  8
Modules
100
AcDbCircle
 10
237.7681614209133
 20
342.4174668352698
 30
0.0
 40
2.45
  0
LWPOLYLINE
  5
2A46F
102
{ACAD_REACTORS
330
2A5D9
102
}
330
18
100
AcDbEntity
  8
Modules
100
AcDbPolyline
 90
        6
 70
     1
 43
0.0
 10
237.1330761248047
 20
343.5174668352698
 10
236.4979908286962
 20
342.4174668352698
 10
237.1330761248047
 20
341.3174668352698
 10
238.4032467170219
 20
341.3174668352698
 10
239.0383320131305
 20
342.4174668352698
 10
238.4032467170219
 20
343.5174668352698
  0
CIRCLE
  5
2A470
102
{ACAD_REACTORS
330
2A5D9
102
}
330
18
100
AcDbEntity
  8
Modules
100
AcDbCircle
 10
237.7681614209133
 20
243.4174668352698
 30
0.0
 40
2.45
  0
LWPOLYLINE
  5
2A471
102
{ACAD_REACTORS
330
2A5D9
102
}
330
18
100
AcDbEntity
  8
Modules
100
AcDbPolyline
 90
        6
 70
     1
 43
0.0
 10
237.1330761248047
 20
244.5174668352698
 10
236.4979908286962
 20
243.4174668352698
 10
237.1330761248047
 20
242.3174668352698
 10
238.4032467170219
 20
242.3174668352698
 10
239.0383320131305
 20
243.4174668352698
 10
238.4032467170219
 20
244.5174668352698
  0
CIRCLE
  5
2A472
102
{ACAD_REACTORS
330
2A5D9
102
}
330
18
100
AcDbEntity
  8
Modules
100
AcDbCircle
 10
237.7681614209133
 20
231.7174668352698
 30
0.0
 40
2.45
  0
LWPOLYLINE
  5
2A473
102
{ACAD_REACTORS
330
2A5D9
102
}
330
18
100
AcDbEntity
  8
Modules
100
AcDbPolyline
 90
        6
 70
     1
 43
0.0
 10
237.1330761248047
 20
232.8174668352698
 10
236.4979908286962
 20
231.7174668352698
 10
237.1330761248047
 20
230.6174668352698
 10
238.4032467170219
 20
230.6174668352698
 10
239.0383320131305
 20
231.7174668352698
 10
238.4032467170219
 20
232.8174668352698
  0
LWPOLYLINE
  5
2A474
102
{ACAD_REACTORS
330
2A5D9
102
}
330
18
100
AcDbEntity
  8
Modules
100
AcDbPolyline
 90
        4
 70
     1
 43
0.0
 10
230.2681614209133
 20
357.1174668352699
 10
250.2481614209132
 20
357.1174668352699
 10
250.2481614209132
 20
228.7174668352698
 10
230.2681614209133
 20
228.7174668352698
  0
CIRCLE
  5
2A475
102
{ACAD_REACTORS
330
2A5D9
102
}
330
18
100
AcDbEntity
  8
Modules
100
AcDbCircle
 10
240.0681614209131
 20
312.1674668352698
 30
0.0
 40
1.75
  0
CIRCLE
  5
2A476
102
{ACAD_REACTORS
330
2A5D9
102
}
330
18
100
AcDbEntity
  8
Modules
100
AcDbCircle
 10
240.0681614209131
 20
299.4674668352697
 30
0.0
 40
1.75
  0
LWPOLYLINE
  5
2A477
102
{ACAD_REACTORS
330
2A5D9
102
}
330
18
100
AcDbEntity
  8
Modules
100
AcDbPolyline
 90
        4
 70
     1
 43
0.0
 10
235.8931614209132
 20
317.5174668352697
 10
244.2431614209132
 20
317.5174668352697
 10
244.2431614209132
 20
306.8174668352698
 10
235.8931614209132
 20
306.8174668352698
  0
LWPOLYLINE
  5
2A478
102
{ACAD_REACTORS
330
2A5D9
102
}
330
18
100
AcDbEntity
  8
Modules
100
AcDbPolyline
 90
        4
 70
     1
 43
0.0
 10
235.8931614209132
 20
304.8174668352697
 10
244.2431614209132
 20
304.8174668352697
 10
244.2431614209132
 20
294.1174668352698
 10
235.8931614209132
 20
294.1174668352698
  0
CIRCLE
  5
2A479
102
{ACAD_REACTORS
330
2A5D9
102
}
330
18
100
AcDbEntity
  8
Modules
100
AcDbCircle
 10
240.0681614209131
 20
273.5674668352698
 30
0.0
 40
1.75
  0
CIRCLE
  5
2A47A
102
{ACAD_REACTORS
330
2A5D9
102
}
330
18
100
AcDbEntity
  8
Modules
100
AcDbCircle
 10
240.0681614209131
 20
260.8674668352697
 30
0.0
 40
1.75
  0
LWPOLYLINE
  5
2A47B
102
{ACAD_REACTORS
330
2A5D9
102
}
330
18
100
AcDbEntity
  8
Modules
100
AcDbPolyline
 90
        4
 70
     1
 43
0.0
 10
235.8931614209132
 20
278.9174668352698
 10
244.2431614209132
 20
278.9174668352698
 10
244.2431614209132
 20
268.2174668352697
 10
235.8931614209132
 20
268.2174668352697
  0
LWPOLYLINE
  5
2A47C
102
{ACAD_REACTORS
330
2A5D9
102
}
330
18
100
AcDbEntity
  8
Modules
100
AcDbPolyline
 90
        4
 70
     1
 43
0.0
 10
235.8931614209132
 20
266.2174668352697
 10
244.2431614209132
 20
266.2174668352697
 10
244.2431614209132
 20
255.5174668352698
 10
235.8931614209132
 20
255.5174668352698
  0
CIRCLE
  5
2A47D
102
{ACAD_REACTORS
330
2A5D9
102
}
330
18
100
AcDbEntity
  8
Modules
100
AcDbCircle
 10
257.3881614209134
 20
331.8174668352698
 30
0.0
 40
1.6
  0
CIRCLE
  5
2A47E
102
{ACAD_REACTORS
330
2A5D9
102
}
330
18
100
AcDbEntity
  8
Modules
100
AcDbCircle
 10
262.3881614209134
 20
331.8174668352698
 30
0.0
 40
1.6
  0
CIRCLE
  5
2A47F
102
{ACAD_REACTORS
330
2A5D9
102
}
330
18
100
AcDbEntity
  8
Modules
100
AcDbCircle
 10
262.3881614209134
 20
326.8174668352698
 30
0.0
 40
1.6
  0
CIRCLE
  5
2A480
102
{ACAD_REACTORS
330
2A5D9
102
}
330
18
100
AcDbEntity
  8
Modules
100
AcDbCircle
 10
257.3881614209134
 20
326.8174668352698
 30
0.0
 40
1.6
  0
CIRCLE
  5
2A481
102
{ACAD_REACTORS
330
2A5D9
102
}
330
18
100
AcDbEntity
  8
Modules
100
AcDbCircle
 10
262.3881614209134
 20
321.8174668352698
 30
0.0
 40
1.6
  0
CIRCLE
  5
2A482
102
{ACAD_REACTORS
330
2A5D9
102
}
330
18
100
AcDbEntity
  8
Modules
100
AcDbCircle
 10
257.3881614209134
 20
321.8174668352698
 30
0.0
 40
1.6
  0
CIRCLE
  5
2A483
102
{ACAD_REACTORS
330
2A5D9
102
}
330
18
100
AcDbEntity
  8
Modules
100
AcDbCircle
 10
258.0881614209133
 20
354.1174668352699
 30
0.0
 40
2.45
  0
LWPOLYLINE
  5
2A484
102
{ACAD_REACTORS
330
2A5D9
102
}
330
18
100
AcDbEntity
  8
Modules
100
AcDbPolyline
 90
        6
 70
     1
 43
0.0
 10
257.4530761248047
 20
355.2174668352698
 10
256.8179908286961
 20
354.1174668352699
 10
257.4530761248047
 20
353.0174668352697
 10
258.7232467170219
 20
353.0174668352697
 10
259.3583320131305
 20
354.1174668352699
 10
258.7232467170219
 20
355.2174668352698
  0
CIRCLE
  5
2A485
102
{ACAD_REACTORS
330
2A5D9
102
}
330
18
100
AcDbEntity
  8
Modules
100
AcDbCircle
 10
258.0881614209133
 20
342.4174668352698
 30
0.0
 40
2.45
  0
LWPOLYLINE
  5
2A486
102
{ACAD_REACTORS
330
2A5D9
102
}
330
18
100
AcDbEntity
  8
Modules
100
AcDbPolyline
 90
        6
 70
     1
 43
0.0
 10
257.4530761248047
 20
343.5174668352698
 10
256.8179908286961
 20
342.4174668352698
 10
257.4530761248047
 20
341.3174668352698
 10
258.7232467170219
 20
341.3174668352698
 10
259.3583320131305
 20
342.4174668352698
 10
258.7232467170219
 20
343.5174668352698
  0
CIRCLE
  5
2A487
102
{ACAD_REACTORS
330
2A5D9
102
}
330
18
100
AcDbEntity
  8
Modules
100
AcDbCircle
 10
258.0881614209133
 20
243.4174668352698
 30
0.0
 40
2.45
  0
LWPOLYLINE
  5
2A488
102
{ACAD_REACTORS
330
2A5D9
102
}
330
18
100
AcDbEntity
  8
Modules
100
AcDbPolyline
 90
        6
 70
     1
 43
0.0
 10
257.4530761248047
 20
244.5174668352698
 10
256.8179908286961
 20
243.4174668352698
 10
257.4530761248047
 20
242.3174668352698
 10
258.7232467170219
 20
242.3174668352698
 10
259.3583320131305
 20
243.4174668352698
 10
258.7232467170219
 20
244.5174668352698
  0
CIRCLE
  5
2A489
102
{ACAD_REACTORS
330
2A5D9
102
}
330
18
100
AcDbEntity
  8
Modules
100
AcDbCircle
 10
258.0881614209133
 20
231.7174668352698
 30
0.0
 40
2.45
  0
LWPOLYLINE
  5
2A48A
102
{ACAD_REACTORS
330
2A5D9
102
}
330
18
100
AcDbEntity
  8
Modules
100
AcDbPolyline
 90
        6
 70
     1
 43
0.0
 10
257.4530761248047
 20
232.8174668352698
 10
256.8179908286961
 20
231.7174668352698
 10
257.4530761248047
 20
230.6174668352698
 10
258.7232467170219
 20
230.6174668352698
 10
259.3583320131305
 20
231.7174668352698
 10
258.7232467170219
 20
232.8174668352698
  0
LWPOLYLINE
  5
2A48B
102
{ACAD_REACTORS
330
2A5D9
102
}
330
18
100
AcDbEntity
  8
Modules
100
AcDbPolyline
 90
        4
 70
     1
 43
0.0
 10
250.5881614209133
 20
357.1174668352699
 10
270.5681614209132
 20
357.1174668352699
 10
270.5681614209132
 20
228.7174668352698
 10
250.5881614209133
 20
228.7174668352698
  0
CIRCLE
  5
2A48C
102
{ACAD_REACTORS
330
2A5D9
102
}
330
18
100
AcDbEntity
  8
Modules
100
AcDbCircle
 10
275.2081614209135
 20
331.8174986703914
 30
0.0
 40
1.0
  0
LINE
  5
2A48D
102
{ACAD_REACTORS
330
2A5D9
102
}
330
18
100
AcDbEntity
  8
Modules
100
AcDbLine
 10
286.4690614209132
 20
320.26758110686
 30
0.0
 11
286.4690614209132
 21
307.5727331317011
 31
0.0
  0
LINE
  5
2A48E
102
{ACAD_REACTORS
330
2A5D9
102
}
330
18
100
AcDbEntity
  8
Modules
100
AcDbLine
 10
277.9690614209131
 20
319.5905966048192
 30
0.0
 11
277.9690614209131
 21
308.2445370657203
 31
0.0
  0
LINE
  5
2A48F
102
{ACAD_REACTORS
330
2A5D9
102
}
330
18
100
AcDbEntity
  8
Modules
100
AcDbLine
 10
279.9936233856292
 20
322.0033755996991
 30
0.0
 11
284.1266572978946
 21
322.7321409906147
 31
0.0
  0
ARC
  5
2A490
102
{ACAD_REACTORS
330
2A5D9
102
}
330
18
100
AcDbEntity
  8
Modules
100
AcDbCircle
 10
284.0190614209133
 20
320.26758110686
 30
0.0
 40
2.45
100
AcDbArc
 50
0.0
 51
91.09702878244865
  0
ARC
  5
2A491
102
{ACAD_REACTORS
330
2A5D9
102
}
330
18
100
AcDbEntity
  8
Modules
100
AcDbCircle
 10
280.4190614209131
 20
319.5905966048192
 30
0.0
 40
2.45
100
AcDbArc
 50
100.0000000000018
 51
180.0
  0
ARC
  5
2A492
102
{ACAD_REACTORS
330
2A5D9
102
}
330
18
100
AcDbEntity
  8
Modules
100
AcDbCircle
 10
280.4190614209131
 20
308.2445370657203
 30
0.0
 40
2.45
100
AcDbArc
 50
180.0
 51
259.9999999999982
  0
ARC
  5
2A493
102
{ACAD_REACTORS
330
2A5D9
102
}
330
18
100
AcDbEntity
  8
Modules
100
AcDbCircle
 10
284.0190614209133
 20
307.5727331317011
 30
0.0
 40
2.45
100
AcDbArc
 50
268.9029712175513
 51
0.0
  0
LINE
  5
2A494
102
{ACAD_REACTORS
330
2A5D9
102
}
330
18
100
AcDbEntity
  8
Modules
100
AcDbLine
 10
279.9936233856292
 20
305.836938638862
 30
0.0
 11
284.1266572978946
 21
305.1081732479465
 31
0.0
  0
CIRCLE
  5
2A495
102
{ACAD_REACTORS
330
2A5D9
102
}
330
18
100
AcDbEntity
  8
Modules
100
AcDbCircle
 10
275.2081614209135
 20
292.9082753352698
 30
0.0
 40
1.0
  0
CIRCLE
  5
2A496
102
{ACAD_REACTORS
330
2A5D9
102
}
330
18
100
AcDbEntity
  8
Modules
100
AcDbCircle
 10
278.4081614209133
 20
354.1174668352699
 30
0.0
 40
2.45
  0
LWPOLYLINE
  5
2A497
102
{ACAD_REACTORS
330
2A5D9
102
}
330
18
100
AcDbEntity
  8
Modules
100
AcDbPolyline
 90
        6
 70
     1
 43
0.0
 10
277.7730761248047
 20
355.2174668352698
 10
277.1379908286962
 20
354.1174668352699
 10
277.7730761248047
 20
353.0174668352697
 10
279.0432467170219
 20
353.0174668352697
 10
279.6783320131305
 20
354.1174668352699
 10
279.0432467170219
 20
355.2174668352698
  0
CIRCLE
  5
2A498
102
{ACAD_REACTORS
330
2A5D9
102
}
330
18
100
AcDbEntity
  8
Modules
100
AcDbCircle
 10
278.4081614209133
 20
342.4174668352698
 30
0.0
 40
2.45
  0
LWPOLYLINE
  5
2A499
102
{ACAD_REACTORS
330
2A5D9
102
}
330
18
100
AcDbEntity
  8
Modules
100
AcDbPolyline
 90
        6
 70
     1
 43
0.0
 10
277.7730761248047
 20
343.5174668352698
 10
277.1379908286962
 20
342.4174668352698
 10
277.7730761248047
 20
341.3174668352698
 10
279.0432467170219
 20
341.3174668352698
 10
279.6783320131305
 20
342.4174668352698
 10
279.0432467170219
 20
343.5174668352698
  0
CIRCLE
  5
2A49A
102
{ACAD_REACTORS
330
2A5D9
102
}
330
18
100
AcDbEntity
  8
Modules
100
AcDbCircle
 10
278.4081614209133
 20
243.4174668352698
 30
0.0
 40
2.45
  0
LWPOLYLINE
  5
2A49B
102
{ACAD_REACTORS
330
2A5D9
102
}
330
18
100
AcDbEntity
  8
Modules
100
AcDbPolyline
 90
        6
 70
     1
 43
0.0
 10
277.7730761248047
 20
244.5174668352698
 10
277.1379908286962
 20
243.4174668352698
 10
277.7730761248047
 20
242.3174668352698
 10
279.0432467170219
 20
242.3174668352698
 10
279.6783320131305
 20
243.4174668352698
 10
279.0432467170219
 20
244.5174668352698
  0
CIRCLE
  5
2A49C
102
{ACAD_REACTORS
330
2A5D9
102
}
330
18
100
AcDbEntity
  8
Modules
100
AcDbCircle
 10
278.4081614209133
 20
231.7174668352698
 30
0.0
 40
2.45
  0
LWPOLYLINE
  5
2A49D
102
{ACAD_REACTORS
330
2A5D9
102
}
330
18
100
AcDbEntity
  8
Modules
100
AcDbPolyline
 90
        6
 70
     1
 43
0.0
 10
277.7730761248047
 20
232.8174668352698
 10
277.1379908286962
 20
231.7174668352698
 10
277.7730761248047
 20
230.6174668352698
 10
279.0432467170219
 20
230.6174668352698
 10
279.6783320131305
 20
231.7174668352698
 10
279.0432467170219
 20
232.8174668352698
  0
LWPOLYLINE
  5
2A49E
102
{ACAD_REACTORS
330
2A5D9
102
}
330
18
100
AcDbEntity
  8
Modules
100
AcDbPolyline
 90
        4
 70
     1
 43
0.0
 10
270.9081614209133
 20
357.1174668352699
 10
290.8881614209132
 20
357.1174668352699
 10
290.8881614209132
 20
228.7174668352698
 10
270.9081614209133
 20
228.7174668352698
  0
CIRCLE
  5
2A49F
102
{ACAD_REACTORS
330
2A5D9
102
}
330
18
100
AcDbEntity
  8
Modules
100
AcDbCircle
 10
282.2190614209132
 20
326.4201071192805
 30
0.0
 40
2.45
  0
LWPOLYLINE
  5
2A4A0
102
{ACAD_REACTORS
330
2A5D9
102
}
330
18
100
AcDbEntity
  8
Modules
100
AcDbPolyline
 90
        6
 70
     1
 43
0.0
 10
281.5839761248046
 20
327.5201071192805
 10
280.9488908286961
 20
326.4201071192805
 10
281.5839761248046
 20
325.3201071192805
 10
282.8541467170218
 20
325.3201071192805
 10
283.4892320131303
 20
326.4201071192805
 10
282.8541467170218
 20
327.5201071192805
  0
CIRCLE
  5
2A4A1
102
{ACAD_REACTORS
330
2A5D9
102
}
330
18
100
AcDbEntity
  8
Modules
100
AcDbCircle
 10
282.2190614209132
 20
301.4201071192805
 30
0.0
 40
2.45
  0
LWPOLYLINE
  5
2A4A2
102
{ACAD_REACTORS
330
2A5D9
102
}
330
18
100
AcDbEntity
  8
Modules
100
AcDbPolyline
 90
        6
 70
     1
 43
0.0
 10
281.5839761248046
 20
302.5201071192805
 10
280.9488908286961
 20
301.4201071192805
 10
281.5839761248046
 20
300.3201071192805
 10
282.8541467170218
 20
300.3201071192805
 10
283.4892320131303
 20
301.4201071192805
 10
282.8541467170218
 20
302.5201071192805
  0
CIRCLE
  5
2A4A3
102
{ACAD_REACTORS
330
2A5D9
102
}
330
18
100
AcDbEntity
  8
Modules
100
AcDbCircle
 10
282.2081614209132
 20
284.4201071192805
 30
0.0
 40
2.45
  0
LWPOLYLINE
  5
2A4A4
102
{ACAD_REACTORS
330
2A5D9
102
}
330
18
100
AcDbEntity
  8
Modules
100
AcDbPolyline
 90
        6
 70
     1
 43
0.0
 10
281.5730761248046
 20
285.5201071192805
 10
280.9379908286961
 20
284.4201071192805
 10
281.5730761248046
 20
283.3201071192805
 10
282.8432467170218
 20
283.3201071192805
 10
283.4783320131304
 20
284.4201071192805
 10
282.8432467170218
 20
285.5201071192805
  0
CIRCLE
  5
2A4A5
102
{ACAD_REACTORS
330
2A5D9
102
}
330
18
100
AcDbEntity
  8
Modules
100
AcDbCircle
 10
282.2081614209132
 20
259.4201071192805
 30
0.0
 40
2.45
  0
LWPOLYLINE
  5
2A4A6
102
{ACAD_REACTORS
330
2A5D9
102
}
330
18
100
AcDbEntity
  8
Modules
100
AcDbPolyline
 90
        6
 70
     1
 43
0.0
 10
281.5730761248046
 20
260.5201071192805
 10
280.9379908286961
 20
259.4201071192805
 10
281.5730761248046
 20
258.3201071192805
 10
282.8432467170218
 20
258.3201071192805
 10
283.4783320131304
 20
259.4201071192805
 10
282.8432467170218
 20
260.5201071192805
  0
LINE
  5
2A4A7
102
{ACAD_REACTORS
330
2A5D9
102
}
330
18
100
AcDbEntity
  8
Modules
100
AcDbLine
 10
286.4581614209132
 20
278.26758110686
 30
0.0
 11
286.4581614209132
 21
265.572733131701
 31
0.0
  0
LINE
  5
2A4A8
102
{ACAD_REACTORS
330
2A5D9
102
}
330
18
100
AcDbEntity
  8
Modules
100
AcDbLine
 10
277.9581614209131
 20
277.5905966048192
 30
0.0
 11
277.9581614209131
 21
266.2445370657203
 31
0.0
  0
LINE
  5
2A4A9
102
{ACAD_REACTORS
330
2A5D9
102
}
330
18
100
AcDbEntity
  8
Modules
100
AcDbLine
 10
279.9827233856292
 20
280.0033755996991
 30
0.0
 11
284.1157572978946
 21
280.7321409906146
 31
0.0
  0
ARC
  5
2A4AA
102
{ACAD_REACTORS
330
2A5D9
102
}
330
18
100
AcDbEntity
  8
Modules
100
AcDbCircle
 10
284.0081614209132
 20
278.26758110686
 30
0.0
 40
2.45
100
AcDbArc
 50
0.0
 51
91.09702878244865
  0
ARC
  5
2A4AB
102
{ACAD_REACTORS
330
2A5D9
102
}
330
18
100
AcDbEntity
  8
Modules
100
AcDbCircle
 10
280.4081614209131
 20
277.5905966048191
 30
0.0
 40
2.45
100
AcDbArc
 50
100.0000000000018
 51
180.0
  0
ARC
  5
2A4AC
102
{ACAD_REACTORS
330
2A5D9
102
}
330
18
100
AcDbEntity
  8
Modules
100
AcDbCircle
 10
280.4081614209131
 20
266.2445370657203
 30
0.0
 40
2.45
100
AcDbArc
 50
180.0
 51
259.9999999999982
  0
ARC
  5
2A4AD
102
{ACAD_REACTORS
330
2A5D9
102
}
330
18
100
AcDbEntity
  8
Modules
100
AcDbCircle
 10
284.0081614209132
 20
265.572733131701
 30
0.0
 40
2.45
100
AcDbArc
 50
268.9029712175513
 51
0.0
  0
LINE
  5
2A4AE
102
{ACAD_REACTORS
330
2A5D9
102
}
330
18
100
AcDbEntity
  8
Modules
100
AcDbLine
 10
279.9827233856292
 20
263.836938638862
 30
0.0
 11
284.1157572978946
 21
263.1081732479465
 31
0.0
  0
CIRCLE
  5
2A4AF
102
{ACAD_REACTORS
330
2A5D9
102
}
330
18
100
AcDbEntity
  8
Modules
100
AcDbCircle
 10
298.0281614209134
 20
331.8174668352698
 30
0.0
 40
1.6
  0
CIRCLE
  5
2A4B0
102
{ACAD_REACTORS
330
2A5D9
102
}
330
18
100
AcDbEntity
  8
Modules
100
AcDbCircle
 10
303.0281614209134
 20
331.8174668352698
 30
0.0
 40
1.6
  0
CIRCLE
  5
2A4B1
102
{ACAD_REACTORS
330
2A5D9
102
}
330
18
100
AcDbEntity
  8
Modules
100
AcDbCircle
 10
303.0281614209134
 20
326.8174668352698
 30
0.0
 40
1.6
  0
CIRCLE
  5
2A4B2
102
{ACAD_REACTORS
330
2A5D9
102
}
330
18
100
AcDbEntity
  8
Modules
100
AcDbCircle
 10
298.0281614209134
 20
326.8174668352698
 30
0.0
 40
1.6
  0
CIRCLE
  5
2A4B3
102
{ACAD_REACTORS
330
2A5D9
102
}
330
18
100
AcDbEntity
  8
Modules
100
AcDbCircle
 10
303.0281614209134
 20
321.8174668352698
 30
0.0
 40
1.6
  0
CIRCLE
  5
2A4B4
102
{ACAD_REACTORS
330
2A5D9
102
}
330
18
100
AcDbEntity
  8
Modules
100
AcDbCircle
 10
298.0281614209134
 20
321.8174668352698
 30
0.0
 40
1.6
  0
CIRCLE
  5
2A4B5
102
{ACAD_REACTORS
330
2A5D9
102
}
330
18
100
AcDbEntity
  8
Modules
100
AcDbCircle
 10
298.7281614209133
 20
354.1174668352699
 30
0.0
 40
2.45
  0
LWPOLYLINE
  5
2A4B6
102
{ACAD_REACTORS
330
2A5D9
102
}
330
18
100
AcDbEntity
  8
Modules
100
AcDbPolyline
 90
        6
 70
     1
 43
0.0
 10
298.0930761248047
 20
355.2174668352698
 10
297.4579908286962
 20
354.1174668352699
 10
298.0930761248047
 20
353.0174668352697
 10
299.3632467170219
 20
353.0174668352697
 10
299.9983320131305
 20
354.1174668352699
 10
299.3632467170219
 20
355.2174668352698
  0
CIRCLE
  5
2A4B7
102
{ACAD_REACTORS
330
2A5D9
102
}
330
18
100
AcDbEntity
  8
Modules
100
AcDbCircle
 10
298.7281614209133
 20
342.4174668352698
 30
0.0
 40
2.45
  0
LWPOLYLINE
  5
2A4B8
102
{ACAD_REACTORS
330
2A5D9
102
}
330
18
100
AcDbEntity
  8
Modules
100
AcDbPolyline
 90
        6
 70
     1
 43
0.0
 10
298.0930761248047
 20
343.5174668352698
 10
297.4579908286962
 20
342.4174668352698
 10
298.0930761248047
 20
341.3174668352698
 10
299.3632467170219
 20
341.3174668352698
 10
299.9983320131305
 20
342.4174668352698
 10
299.3632467170219
 20
343.5174668352698
  0
CIRCLE
  5
2A4B9
102
{ACAD_REACTORS
330
2A5D9
102
}
330
18
100
AcDbEntity
  8
Modules
100
AcDbCircle
 10
298.7281614209133
 20
243.4174668352698
 30
0.0
 40
2.45
  0
LWPOLYLINE
  5
2A4BA
102
{ACAD_REACTORS
330
2A5D9
102
}
330
18
100
AcDbEntity
  8
Modules
100
AcDbPolyline
 90
        6
 70
     1
 43
0.0
 10
298.0930761248047
 20
244.5174668352698
 10
297.4579908286962
 20
243.4174668352698
 10
298.0930761248047
 20
242.3174668352698
 10
299.3632467170219
 20
242.3174668352698
 10
299.9983320131305
 20
243.4174668352698
 10
299.3632467170219
 20
244.5174668352698
  0
CIRCLE
  5
2A4BB
102
{ACAD_REACTORS
330
2A5D9
102
}
330
18
100
AcDbEntity
  8
Modules
100
AcDbCircle
 10
298.7281614209133
 20
231.7174668352698
 30
0.0
 40
2.45
  0
LWPOLYLINE
  5
2A4BC
102
{ACAD_REACTORS
330
2A5D9
102
}
330
18
100
AcDbEntity
  8
Modules
100
AcDbPolyline
 90
        6
 70
     1
 43
0.0
 10
298.0930761248047
 20
232.8174668352698
 10
297.4579908286962
 20
231.7174668352698
 10
298.0930761248047
 20
230.6174668352698
 10
299.3632467170219
 20
230.6174668352698
 10
299.9983320131305
 20
231.7174668352698
 10
299.3632467170219
 20
232.8174668352698
  0
LWPOLYLINE
  5
2A4BD
102
{ACAD_REACTORS
330
2A5D9
102
}
330
18
100
AcDbEntity
  8
Modules
100
AcDbPolyline
 90
        4
 70
     1
 43
0.0
 10
291.2281614209133
 20
357.1174668352699
 10
311.2081614209133
 20
357.1174668352699
 10
311.2081614209133
 20
228.7174668352698
 10
291.2281614209133
 20
228.7174668352698
  0
CIRCLE
  5
2A4BE
102
{ACAD_REACTORS
330
2A5D9
102
}
330
18
100
AcDbEntity
  8
Modules
100
AcDbCircle
 10
315.8481614209135
 20
331.8174986703914
 30
0.0
 40
1.0
  0
LINE
  5
2A4BF
102
{ACAD_REACTORS
330
2A5D9
102
}
330
18
100
AcDbEntity
  8
Modules
100
AcDbLine
 10
327.1090614209132
 20
320.26758110686
 30
0.0
 11
327.1090614209132
 21
307.5727331317011
 31
0.0
  0
LINE
  5
2A4C0
102
{ACAD_REACTORS
330
2A5D9
102
}
330
18
100
AcDbEntity
  8
Modules
100
AcDbLine
 10
318.6090614209131
 20
319.5905966048192
 30
0.0
 11
318.6090614209131
 21
308.2445370657203
 31
0.0
  0
LINE
  5
2A4C1
102
{ACAD_REACTORS
330
2A5D9
102
}
330
18
100
AcDbEntity
  8
Modules
100
AcDbLine
 10
320.6336233856292
 20
322.0033755996991
 30
0.0
 11
324.7666572978947
 21
322.7321409906147
 31
0.0
  0
ARC
  5
2A4C2
102
{ACAD_REACTORS
330
2A5D9
102
}
330
18
100
AcDbEntity
  8
Modules
100
AcDbCircle
 10
324.6590614209133
 20
320.26758110686
 30
0.0
 40
2.45
100
AcDbArc
 50
0.0
 51
91.09702878244865
  0
ARC
  5
2A4C3
102
{ACAD_REACTORS
330
2A5D9
102
}
330
18
100
AcDbEntity
  8
Modules
100
AcDbCircle
 10
321.0590614209132
 20
319.5905966048192
 30
0.0
 40
2.45
100
AcDbArc
 50
100.0000000000018
 51
180.0
  0
ARC
  5
2A4C4
102
{ACAD_REACTORS
330
2A5D9
102
}
330
18
100
AcDbEntity
  8
Modules
100
AcDbCircle
 10
321.0590614209132
 20
308.2445370657203
 30
0.0
 40
2.45
100
AcDbArc
 50
180.0
 51
259.9999999999982
  0
ARC
  5
2A4C5
102
{ACAD_REACTORS
330
2A5D9
102
}
330
18
100
AcDbEntity
  8
Modules
100
AcDbCircle
 10
324.6590614209133
 20
307.5727331317011
 30
0.0
 40
2.45
100
AcDbArc
 50
268.9029712175513
 51
0.0
  0
LINE
  5
2A4C6
102
{ACAD_REACTORS
330
2A5D9
102
}
330
18
100
AcDbEntity
  8
Modules
100
AcDbLine
 10
320.6336233856292
 20
305.836938638862
 30
0.0
 11
324.7666572978947
 21
305.1081732479465
 31
0.0
  0
CIRCLE
  5
2A4C7
102
{ACAD_REACTORS
330
2A5D9
102
}
330
18
100
AcDbEntity
  8
Modules
100
AcDbCircle
 10
315.8481614209135
 20
292.9082753352698
 30
0.0
 40
1.0
  0
CIRCLE
  5
2A4C8
102
{ACAD_REACTORS
330
2A5D9
102
}
330
18
100
AcDbEntity
  8
Modules
100
AcDbCircle
 10
319.0481614209133
 20
354.1174668352699
 30
0.0
 40
2.45
  0
LWPOLYLINE
  5
2A4C9
102
{ACAD_REACTORS
330
2A5D9
102
}
330
18
100
AcDbEntity
  8
Modules
100
AcDbPolyline
 90
        6
 70
     1
 43
0.0
 10
318.4130761248046
 20
355.2174668352698
 10
317.7779908286961
 20
354.1174668352699
 10
318.4130761248046
 20
353.0174668352697
 10
319.6832467170219
 20
353.0174668352697
 10
320.3183320131304
 20
354.1174668352699
 10
319.6832467170219
 20
355.2174668352698
  0
CIRCLE
  5
2A4CA
102
{ACAD_REACTORS
330
2A5D9
102
}
330
18
100
AcDbEntity
  8
Modules
100
AcDbCircle
 10
319.0481614209133
 20
342.4174668352698
 30
0.0
 40
2.45
  0
LWPOLYLINE
  5
2A4CB
102
{ACAD_REACTORS
330
2A5D9
102
}
330
18
100
AcDbEntity
  8
Modules
100
AcDbPolyline
 90
        6
 70
     1
 43
0.0
 10
318.4130761248046
 20
343.5174668352698
 10
317.7779908286961
 20
342.4174668352698
 10
318.4130761248046
 20
341.3174668352698
 10
319.6832467170219
 20
341.3174668352698
 10
320.3183320131304
 20
342.4174668352698
 10
319.6832467170219
 20
343.5174668352698
  0
CIRCLE
  5
2A4CC
102
{ACAD_REACTORS
330
2A5D9
102
}
330
18
100
AcDbEntity
  8
Modules
100
AcDbCircle
 10
319.0481614209133
 20
243.4174668352698
 30
0.0
 40
2.45
  0
LWPOLYLINE
  5
2A4CD
102
{ACAD_REACTORS
330
2A5D9
102
}
330
18
100
AcDbEntity
  8
Modules
100
AcDbPolyline
 90
        6
 70
     1
 43
0.0
 10
318.4130761248046
 20
244.5174668352698
 10
317.7779908286961
 20
243.4174668352698
 10
318.4130761248046
 20
242.3174668352698
 10
319.6832467170219
 20
242.3174668352698
 10
320.3183320131304
 20
243.4174668352698
 10
319.6832467170219
 20
244.5174668352698
  0
CIRCLE
  5
2A4CE
102
{ACAD_REACTORS
330
2A5D9
102
}
330
18
100
AcDbEntity
  8
Modules
100
AcDbCircle
 10
319.0481614209133
 20
231.7174668352698
 30
0.0
 40
2.45
  0
LWPOLYLINE
  5
2A4CF
102
{ACAD_REACTORS
330
2A5D9
102
}
330
18
100
AcDbEntity
  8
Modules
100
AcDbPolyline
 90
        6
 70
     1
 43
0.0
 10
318.4130761248046
 20
232.8174668352698
 10
317.7779908286961
 20
231.7174668352698
 10
318.4130761248046
 20
230.6174668352698
 10
319.6832467170219
 20
230.6174668352698
 10
320.3183320131304
 20
231.7174668352698
 10
319.6832467170219
 20
232.8174668352698
  0
LWPOLYLINE
  5
2A4D0
102
{ACAD_REACTORS
330
2A5D9
102
}
330
18
100
AcDbEntity
  8
Modules
100
AcDbPolyline
 90
        4
 70
     1
 43
0.0
 10
311.5481614209133
 20
357.1174668352699
 10
331.5281614209132
 20
357.1174668352699
 10
331.5281614209132
 20
228.7174668352698
 10
311.5481614209133
 20
228.7174668352698
  0
CIRCLE
  5
2A4D1
102
{ACAD_REACTORS
330
2A5D9
102
}
330
18
100
AcDbEntity
  8
Modules
100
AcDbCircle
 10
322.8590614209132
 20
326.4201071192805
 30
0.0
 40
2.45
  0
LWPOLYLINE
  5
2A4D2
102
{ACAD_REACTORS
330
2A5D9
102
}
330
18
100
AcDbEntity
  8
Modules
100
AcDbPolyline
 90
        6
 70
     1
 43
0.0
 10
322.2239761248046
 20
327.5201071192805
 10
321.5888908286961
 20
326.4201071192805
 10
322.2239761248046
 20
325.3201071192805
 10
323.4941467170219
 20
325.3201071192805
 10
324.1292320131304
 20
326.4201071192805
 10
323.4941467170219
 20
327.5201071192805
  0
CIRCLE
  5
2A4D3
102
{ACAD_REACTORS
330
2A5D9
102
}
330
18
100
AcDbEntity
  8
Modules
100
AcDbCircle
 10
322.8590614209132
 20
301.4201071192805
 30
0.0
 40
2.45
  0
LWPOLYLINE
  5
2A4D4
102
{ACAD_REACTORS
330
2A5D9
102
}
330
18
100
AcDbEntity
  8
Modules
100
AcDbPolyline
 90
        6
 70
     1
 43
0.0
 10
322.2239761248046
 20
302.5201071192805
 10
321.5888908286961
 20
301.4201071192805
 10
322.2239761248046
 20
300.3201071192805
 10
323.4941467170219
 20
300.3201071192805
 10
324.1292320131304
 20
301.4201071192805
 10
323.4941467170219
 20
302.5201071192805
  0
CIRCLE
  5
2A4D5
102
{ACAD_REACTORS
330
2A5D9
102
}
330
18
100
AcDbEntity
  8
Modules
100
AcDbCircle
 10
322.8481614209132
 20
284.4201071192805
 30
0.0
 40
2.45
  0
LWPOLYLINE
  5
2A4D6
102
{ACAD_REACTORS
330
2A5D9
102
}
330
18
100
AcDbEntity
  8
Modules
100
AcDbPolyline
 90
        6
 70
     1
 43
0.0
 10
322.2130761248046
 20
285.5201071192805
 10
321.5779908286961
 20
284.4201071192805
 10
322.2130761248046
 20
283.3201071192805
 10
323.4832467170219
 20
283.3201071192805
 10
324.1183320131304
 20
284.4201071192805
 10
323.4832467170219
 20
285.5201071192805
  0
CIRCLE
  5
2A4D7
102
{ACAD_REACTORS
330
2A5D9
102
}
330
18
100
AcDbEntity
  8
Modules
100
AcDbCircle
 10
322.8481614209132
 20
259.4201071192805
 30
0.0
 40
2.45
  0
LWPOLYLINE
  5
2A4D8
102
{ACAD_REACTORS
330
2A5D9
102
}
330
18
100
AcDbEntity
  8
Modules
100
AcDbPolyline
 90
        6
 70
     1
 43
0.0
 10
322.2130761248046
 20
260.5201071192805
 10
321.5779908286961
 20
259.4201071192805
 10
322.2130761248046
 20
258.3201071192805
 10
323.4832467170219
 20
258.3201071192805
 10
324.1183320131304
 20
259.4201071192805
 10
323.4832467170219
 20
260.5201071192805
  0
LINE
  5
2A4D9
102
{ACAD_REACTORS
330
2A5D9
102
}
330
18
100
AcDbEntity
  8
Modules
100
AcDbLine
 10
327.0981614209132
 20
278.26758110686
 30
0.0
 11
327.0981614209132
 21
265.572733131701
 31
0.0
  0
LINE
  5
2A4DA
102
{ACAD_REACTORS
330
2A5D9
102
}
330
18
100
AcDbEntity
  8
Modules
100
AcDbLine
 10
318.5981614209131
 20
277.5905966048192
 30
0.0
 11
318.5981614209131
 21
266.2445370657203
 31
0.0
  0
LINE
  5
2A4DB
102
{ACAD_REACTORS
330
2A5D9
102
}
330
18
100
AcDbEntity
  8
Modules
100
AcDbLine
 10
320.6227233856292
 20
280.0033755996991
 30
0.0
 11
324.7557572978946
 21
280.7321409906146
 31
0.0
  0
ARC
  5
2A4DC
102
{ACAD_REACTORS
330
2A5D9
102
}
330
18
100
AcDbEntity
  8
Modules
100
AcDbCircle
 10
324.6481614209133
 20
278.26758110686
 30
0.0
 40
2.45
100
AcDbArc
 50
0.0
 51
91.09702878244865
  0
ARC
  5
2A4DD
102
{ACAD_REACTORS
330
2A5D9
102
}
330
18
100
AcDbEntity
  8
Modules
100
AcDbCircle
 10
321.0481614209132
 20
277.5905966048191
 30
0.0
 40
2.45
100
AcDbArc
 50
100.0000000000018
 51
180.0
  0
ARC
  5
2A4DE
102
{ACAD_REACTORS
330
2A5D9
102
}
330
18
100
AcDbEntity
  8
Modules
100
AcDbCircle
 10
321.0481614209132
 20
266.2445370657203
 30
0.0
 40
2.45
100
AcDbArc
 50
180.0
 51
259.9999999999982
  0
ARC
  5
2A4DF
102
{ACAD_REACTORS
330
2A5D9
102
}
330
18
100
AcDbEntity
  8
Modules
100
AcDbCircle
 10
324.6481614209133
 20
265.572733131701
 30
0.0
 40
2.45
100
AcDbArc
 50
268.9029712175513
 51
0.0
  0
LINE
  5
2A4E0
102
{ACAD_REACTORS
330
2A5D9
102
}
330
18
100
AcDbEntity
  8
Modules
100
AcDbLine
 10
320.6227233856292
 20
263.836938638862
 30
0.0
 11
324.7557572978946
 21
263.1081732479465
 31
0.0
  0
CIRCLE
  5
2A4E1
102
{ACAD_REACTORS
330
2A5D9
102
}
330
18
100
AcDbEntity
  8
Modules
100
AcDbCircle
 10
338.6681614209134
 20
331.8174668352698
 30
0.0
 40
1.6
  0
CIRCLE
  5
2A4E2
102
{ACAD_REACTORS
330
2A5D9
102
}
330
18
100
AcDbEntity
  8
Modules
100
AcDbCircle
 10
343.6681614209134
 20
331.8174668352698
 30
0.0
 40
1.6
  0
CIRCLE
  5
2A4E3
102
{ACAD_REACTORS
330
2A5D9
102
}
330
18
100
AcDbEntity
  8
Modules
100
AcDbCircle
 10
338.6681614209135
 20
321.8174668352698
 30
0.0
 40
1.6
  0
CIRCLE
  5
2A4E4
102
{ACAD_REACTORS
330
2A5D9
102
}
330
18
100
AcDbEntity
  8
Modules
100
AcDbCircle
 10
343.6681614209134
 20
321.8174668352698
 30
0.0
 40
1.6
  0
CIRCLE
  5
2A4E5
102
{ACAD_REACTORS
330
2A5D9
102
}
330
18
100
AcDbEntity
  8
Modules
100
AcDbCircle
 10
338.6681614209135
 20
326.8174668352698
 30
0.0
 40
1.6
  0
CIRCLE
  5
2A4E6
102
{ACAD_REACTORS
330
2A5D9
102
}
330
18
100
AcDbEntity
  8
Modules
100
AcDbCircle
 10
343.6681614209134
 20
326.8174668352698
 30
0.0
 40
1.6
  0
LWPOLYLINE
  5
2A4E7
102
{ACAD_REACTORS
330
2A5D9
102
}
330
18
100
AcDbEntity
  8
Modules
100
AcDbPolyline
 90
        4
 70
     1
 43
0.0
 10
336.0681614209132
 20
292.7174668352698
 10
347.2681614209132
 20
292.7174668352698
 10
347.2681614209132
 20
318.9174668352698
 10
336.0681614209132
 20
318.9174668352698
  0
LWPOLYLINE
  5
2A4E8
102
{ACAD_REACTORS
330
2A5D9
102
}
330
18
100
AcDbEntity
  8
Modules
100
AcDbPolyline
 90
        4
 70
     1
 43
0.0
 10
336.0681614209132
 20
254.1174668352698
 10
347.2681614209132
 20
254.1174668352698
 10
347.2681614209132
 20
280.3174668352698
 10
336.0681614209132
 20
280.3174668352698
  0
CIRCLE
  5
2A4E9
102
{ACAD_REACTORS
330
2A5D9
102
}
330
18
100
AcDbEntity
  8
Modules
100
AcDbCircle
 10
343.6681614209134
 20
288.2175168352698
 30
0.0
 40
1.6
  0
CIRCLE
  5
2A4EA
102
{ACAD_REACTORS
330
2A5D9
102
}
330
18
100
AcDbEntity
  8
Modules
100
AcDbCircle
 10
338.6681614209134
 20
288.2175168352698
 30
0.0
 40
1.6
  0
CIRCLE
  5
2A4EB
102
{ACAD_REACTORS
330
2A5D9
102
}
330
18
100
AcDbEntity
  8
Modules
100
AcDbCircle
 10
343.6681614209134
 20
283.2174508352697
 30
0.0
 40
1.6
  0
CIRCLE
  5
2A4EC
102
{ACAD_REACTORS
330
2A5D9
102
}
330
18
100
AcDbEntity
  8
Modules
100
AcDbCircle
 10
338.6681614209134
 20
283.2174508352698
 30
0.0
 40
1.6
  0
CIRCLE
  5
2A4ED
102
{ACAD_REACTORS
330
2A5D9
102
}
330
18
100
AcDbEntity
  8
Modules
100
AcDbCircle
 10
339.3681614209133
 20
354.1174668352699
 30
0.0
 40
2.45
  0
LWPOLYLINE
  5
2A4EE
102
{ACAD_REACTORS
330
2A5D9
102
}
330
18
100
AcDbEntity
  8
Modules
100
AcDbPolyline
 90
        6
 70
     1
 43
0.0
 10
338.7330761248047
 20
355.2174668352698
 10
338.0979908286962
 20
354.1174668352699
 10
338.7330761248047
 20
353.0174668352697
 10
340.0032467170218
 20
353.0174668352697
 10
340.6383320131305
 20
354.1174668352699
 10
340.0032467170218
 20
355.2174668352698
  0
CIRCLE
  5
2A4EF
102
{ACAD_REACTORS
330
2A5D9
102
}
330
18
100
AcDbEntity
  8
Modules
100
AcDbCircle
 10
339.3681614209133
 20
342.4174668352698
 30
0.0
 40
2.45
  0
LWPOLYLINE
  5
2A4F0
102
{ACAD_REACTORS
330
2A5D9
102
}
330
18
100
AcDbEntity
  8
Modules
100
AcDbPolyline
 90
        6
 70
     1
 43
0.0
 10
338.7330761248047
 20
343.5174668352698
 10
338.0979908286962
 20
342.4174668352698
 10
338.7330761248047
 20
341.3174668352698
 10
340.0032467170218
 20
341.3174668352698
 10
340.6383320131305
 20
342.4174668352698
 10
340.0032467170218
 20
343.5174668352698
  0
CIRCLE
  5
2A4F1
102
{ACAD_REACTORS
330
2A5D9
102
}
330
18
100
AcDbEntity
  8
Modules
100
AcDbCircle
 10
339.3681614209133
 20
243.4174668352698
 30
0.0
 40
2.45
  0
LWPOLYLINE
  5
2A4F2
102
{ACAD_REACTORS
330
2A5D9
102
}
330
18
100
AcDbEntity
  8
Modules
100
AcDbPolyline
 90
        6
 70
     1
 43
0.0
 10
338.7330761248047
 20
244.5174668352698
 10
338.0979908286962
 20
243.4174668352698
 10
338.7330761248047
 20
242.3174668352698
 10
340.0032467170218
 20
242.3174668352698
 10
340.6383320131305
 20
243.4174668352698
 10
340.0032467170218
 20
244.5174668352698
  0
CIRCLE
  5
2A4F3
102
{ACAD_REACTORS
330
2A5D9
102
}
330
18
100
AcDbEntity
  8
Modules
100
AcDbCircle
 10
339.3681614209133
 20
231.7174668352698
 30
0.0
 40
2.45
  0
LWPOLYLINE
  5
2A4F4
102
{ACAD_REACTORS
330
2A5D9
102
}
330
18
100
AcDbEntity
  8
Modules
100
AcDbPolyline
 90
        6
 70
     1
 43
0.0
 10
338.7330761248047
 20
232.8174668352698
 10
338.0979908286962
 20
231.7174668352698
 10
338.7330761248047
 20
230.6174668352698
 10
340.0032467170218
 20
230.6174668352698
 10
340.6383320131305
 20
231.7174668352698
 10
340.0032467170218
 20
232.8174668352698
  0
LWPOLYLINE
  5
2A4F5
102
{ACAD_REACTORS
330
2A5D9
102
}
330
18
100
AcDbEntity
  8
Modules
100
AcDbPolyline
 90
        4
 70
     1
 43
0.0
 10
331.8681614209133
 20
357.1174668352699
 10
351.8481614209132
 20
357.1174668352699
 10
351.8481614209132
 20
228.7174668352698
 10
331.8681614209133
 20
228.7174668352698
  0
CIRCLE
  5
2A4F6
102
{ACAD_REACTORS
330
2A5D9
102
}
330
18
100
AcDbEntity
  8
Modules
100
AcDbCircle
 10
341.6681614209131
 20
312.1674668352698
 30
0.0
 40
1.75
  0
CIRCLE
  5
2A4F7
102
{ACAD_REACTORS
330
2A5D9
102
}
330
18
100
AcDbEntity
  8
Modules
100
AcDbCircle
 10
341.6681614209131
 20
299.4674668352697
 30
0.0
 40
1.75
  0
LWPOLYLINE
  5
2A4F8
102
{ACAD_REACTORS
330
2A5D9
102
}
330
18
100
AcDbEntity
  8
Modules
100
AcDbPolyline
 90
        4
 70
     1
 43
0.0
 10
337.4931614209132
 20
317.5174668352697
 10
345.8431614209132
 20
317.5174668352697
 10
345.8431614209132
 20
306.8174668352698
 10
337.4931614209132
 20
306.8174668352698
  0
LWPOLYLINE
  5
2A4F9
102
{ACAD_REACTORS
330
2A5D9
102
}
330
18
100
AcDbEntity
  8
Modules
100
AcDbPolyline
 90
        4
 70
     1
 43
0.0
 10
337.4931614209132
 20
304.8174668352697
 10
345.8431614209132
 20
304.8174668352697
 10
345.8431614209132
 20
294.1174668352698
 10
337.4931614209132
 20
294.1174668352698
  0
CIRCLE
  5
2A4FA
102
{ACAD_REACTORS
330
2A5D9
102
}
330
18
100
AcDbEntity
  8
Modules
100
AcDbCircle
 10
341.6681614209131
 20
273.5674668352698
 30
0.0
 40
1.75
  0
CIRCLE
  5
2A4FB
102
{ACAD_REACTORS
330
2A5D9
102
}
330
18
100
AcDbEntity
  8
Modules
100
AcDbCircle
 10
341.6681614209131
 20
260.8674668352697
 30
0.0
 40
1.75
  0
LWPOLYLINE
  5
2A4FC
102
{ACAD_REACTORS
330
2A5D9
102
}
330
18
100
AcDbEntity
  8
Modules
100
AcDbPolyline
 90
        4
 70
     1
 43
0.0
 10
337.4931614209132
 20
278.9174668352698
 10
345.8431614209132
 20
278.9174668352698
 10
345.8431614209132
 20
268.2174668352697
 10
337.4931614209132
 20
268.2174668352697
  0
LWPOLYLINE
  5
2A4FD
102
{ACAD_REACTORS
330
2A5D9
102
}
330
18
100
AcDbEntity
  8
Modules
100
AcDbPolyline
 90
        4
 70
     1
 43
0.0
 10
337.4931614209132
 20
266.2174668352697
 10
345.8431614209132
 20
266.2174668352697
 10
345.8431614209132
 20
255.5174668352698
 10
337.4931614209132
 20
255.5174668352698
  0
CIRCLE
  5
2A4FE
102
{ACAD_REACTORS
330
2A5D9
102
}
330
18
100
AcDbEntity
  8
Modules
100
AcDbCircle
 10
358.9881614209135
 20
331.8174668352698
 30
0.0
 40
1.6
  0
CIRCLE
  5
2A4FF
102
{ACAD_REACTORS
330
2A5D9
102
}
330
18
100
AcDbEntity
  8
Modules
100
AcDbCircle
 10
363.9881614209135
 20
331.8174668352698
 30
0.0
 40
1.6
  0
CIRCLE
  5
2A500
102
{ACAD_REACTORS
330
2A5D9
102
}
330
18
100
AcDbEntity
  8
Modules
100
AcDbCircle
 10
358.9881614209135
 20
321.8174668352698
 30
0.0
 40
1.6
  0
CIRCLE
  5
2A501
102
{ACAD_REACTORS
330
2A5D9
102
}
330
18
100
AcDbEntity
  8
Modules
100
AcDbCircle
 10
363.9881614209135
 20
321.8174668352698
 30
0.0
 40
1.6
  0
CIRCLE
  5
2A502
102
{ACAD_REACTORS
330
2A5D9
102
}
330
18
100
AcDbEntity
  8
Modules
100
AcDbCircle
 10
358.9881614209135
 20
326.8174668352698
 30
0.0
 40
1.6
  0
CIRCLE
  5
2A503
102
{ACAD_REACTORS
330
2A5D9
102
}
330
18
100
AcDbEntity
  8
Modules
100
AcDbCircle
 10
363.9881614209135
 20
326.8174668352698
 30
0.0
 40
1.6
  0
LWPOLYLINE
  5
2A504
102
{ACAD_REACTORS
330
2A5D9
102
}
330
18
100
AcDbEntity
  8
Modules
100
AcDbPolyline
 90
        4
 70
     1
 43
0.0
 10
356.3881614209131
 20
292.7174668352698
 10
367.5881614209131
 20
292.7174668352698
 10
367.5881614209131
 20
318.9174668352698
 10
356.3881614209131
 20
318.9174668352698
  0
LWPOLYLINE
  5
2A505
102
{ACAD_REACTORS
330
2A5D9
102
}
330
18
100
AcDbEntity
  8
Modules
100
AcDbPolyline
 90
        4
 70
     1
 43
0.0
 10
356.3881614209131
 20
254.1174668352698
 10
367.5881614209131
 20
254.1174668352698
 10
367.5881614209131
 20
280.3174668352698
 10
356.3881614209131
 20
280.3174668352698
  0
CIRCLE
  5
2A506
102
{ACAD_REACTORS
330
2A5D9
102
}
330
18
100
AcDbEntity
  8
Modules
100
AcDbCircle
 10
363.9881614209135
 20
288.2175168352698
 30
0.0
 40
1.6
  0
CIRCLE
  5
2A507
102
{ACAD_REACTORS
330
2A5D9
102
}
330
18
100
AcDbEntity
  8
Modules
100
AcDbCircle
 10
358.9881614209135
 20
288.2175168352698
 30
0.0
 40
1.6
  0
CIRCLE
  5
2A508
102
{ACAD_REACTORS
330
2A5D9
102
}
330
18
100
AcDbEntity
  8
Modules
100
AcDbCircle
 10
363.9881614209135
 20
283.2174508352697
 30
0.0
 40
1.6
  0
CIRCLE
  5
2A509
102
{ACAD_REACTORS
330
2A5D9
102
}
330
18
100
AcDbEntity
  8
Modules
100
AcDbCircle
 10
358.9881614209135
 20
283.2174508352698
 30
0.0
 40
1.6
  0
CIRCLE
  5
2A50A
102
{ACAD_REACTORS
330
2A5D9
102
}
330
18
100
AcDbEntity
  8
Modules
100
AcDbCircle
 10
359.6881614209133
 20
354.1174668352699
 30
0.0
 40
2.45
  0
LWPOLYLINE
  5
2A50B
102
{ACAD_REACTORS
330
2A5D9
102
}
330
18
100
AcDbEntity
  8
Modules
100
AcDbPolyline
 90
        6
 70
     1
 43
0.0
 10
359.0530761248047
 20
355.2174668352698
 10
358.4179908286961
 20
354.1174668352699
 10
359.0530761248047
 20
353.0174668352697
 10
360.3232467170219
 20
353.0174668352697
 10
360.9583320131305
 20
354.1174668352699
 10
360.3232467170219
 20
355.2174668352698
  0
CIRCLE
  5
2A50C
102
{ACAD_REACTORS
330
2A5D9
102
}
330
18
100
AcDbEntity
  8
Modules
100
AcDbCircle
 10
359.6881614209133
 20
342.4174668352698
 30
0.0
 40
2.45
  0
LWPOLYLINE
  5
2A50D
102
{ACAD_REACTORS
330
2A5D9
102
}
330
18
100
AcDbEntity
  8
Modules
100
AcDbPolyline
 90
        6
 70
     1
 43
0.0
 10
359.0530761248047
 20
343.5174668352698
 10
358.4179908286961
 20
342.4174668352698
 10
359.0530761248047
 20
341.3174668352698
 10
360.3232467170219
 20
341.3174668352698
 10
360.9583320131305
 20
342.4174668352698
 10
360.3232467170219
 20
343.5174668352698
  0
CIRCLE
  5
2A50E
102
{ACAD_REACTORS
330
2A5D9
102
}
330
18
100
AcDbEntity
  8
Modules
100
AcDbCircle
 10
359.6881614209133
 20
243.4174668352698
 30
0.0
 40
2.45
  0
LWPOLYLINE
  5
2A50F
102
{ACAD_REACTORS
330
2A5D9
102
}
330
18
100
AcDbEntity
  8
Modules
100
AcDbPolyline
 90
        6
 70
     1
 43
0.0
 10
359.0530761248047
 20
244.5174668352698
 10
358.4179908286961
 20
243.4174668352698
 10
359.0530761248047
 20
242.3174668352698
 10
360.3232467170219
 20
242.3174668352698
 10
360.9583320131305
 20
243.4174668352698
 10
360.3232467170219
 20
244.5174668352698
  0
CIRCLE
  5
2A510
102
{ACAD_REACTORS
330
2A5D9
102
}
330
18
100
AcDbEntity
  8
Modules
100
AcDbCircle
 10
359.6881614209133
 20
231.7174668352698
 30
0.0
 40
2.45
  0
LWPOLYLINE
  5
2A511
102
{ACAD_REACTORS
330
2A5D9
102
}
330
18
100
AcDbEntity
  8
Modules
100
AcDbPolyline
 90
        6
 70
     1
 43
0.0
 10
359.0530761248047
 20
232.8174668352698
 10
358.4179908286961
 20
231.7174668352698
 10
359.0530761248047
 20
230.6174668352698
 10
360.3232467170219
 20
230.6174668352698
 10
360.9583320131305
 20
231.7174668352698
 10
360.3232467170219
 20
232.8174668352698
  0
LWPOLYLINE
  5
2A512
102
{ACAD_REACTORS
330
2A5D9
102
}
330
18
100
AcDbEntity
  8
Modules
100
AcDbPolyline
 90
        4
 70
     1
 43
0.0
 10
352.1881614209133
 20
357.1174668352699
 10
372.1681614209132
 20
357.1174668352699
 10
372.1681614209132
 20
228.7174668352698
 10
352.1881614209133
 20
228.7174668352698
  0
CIRCLE
  5
2A513
102
{ACAD_REACTORS
330
2A5D9
102
}
330
18
100
AcDbEntity
  8
Modules
100
AcDbCircle
 10
361.9881614209131
 20
312.1674668352698
 30
0.0
 40
1.75
  0
CIRCLE
  5
2A514
102
{ACAD_REACTORS
330
2A5D9
102
}
330
18
100
AcDbEntity
  8
Modules
100
AcDbCircle
 10
361.9881614209131
 20
299.4674668352697
 30
0.0
 40
1.75
  0
LWPOLYLINE
  5
2A515
102
{ACAD_REACTORS
330
2A5D9
102
}
330
18
100
AcDbEntity
  8
Modules
100
AcDbPolyline
 90
        4
 70
     1
 43
0.0
 10
357.8131614209131
 20
317.5174668352697
 10
366.1631614209132
 20
317.5174668352697
 10
366.1631614209132
 20
306.8174668352698
 10
357.8131614209131
 20
306.8174668352698
  0
LWPOLYLINE
  5
2A516
102
{ACAD_REACTORS
330
2A5D9
102
}
330
18
100
AcDbEntity
  8
Modules
100
AcDbPolyline
 90
        4
 70
     1
 43
0.0
 10
357.8131614209131
 20
304.8174668352697
 10
366.1631614209131
 20
304.8174668352697
 10
366.1631614209131
 20
294.1174668352698
 10
357.8131614209131
 20
294.1174668352698
  0
CIRCLE
  5
2A517
102
{ACAD_REACTORS
330
2A5D9
102
}
330
18
100
AcDbEntity
  8
Modules
100
AcDbCircle
 10
361.9881614209131
 20
273.5674668352698
 30
0.0
 40
1.75
  0
CIRCLE
  5
2A518
102
{ACAD_REACTORS
330
2A5D9
102
}
330
18
100
AcDbEntity
  8
Modules
100
AcDbCircle
 10
361.9881614209131
 20
260.8674668352697
 30
0.0
 40
1.75
  0
LWPOLYLINE
  5
2A519
102
{ACAD_REACTORS
330
2A5D9
102
}
330
18
100
AcDbEntity
  8
Modules
100
AcDbPolyline
 90
        4
 70
     1
 43
0.0
 10
357.8131614209131
 20
278.9174668352698
 10
366.1631614209132
 20
278.9174668352698
 10
366.1631614209132
 20
268.2174668352697
 10
357.8131614209131
 20
268.2174668352697
  0
LWPOLYLINE
  5
2A51A
102
{ACAD_REACTORS
330
2A5D9
102
}
330
18
100
AcDbEntity
  8
Modules
100
AcDbPolyline
 90
        4
 70
     1
 43
0.0
 10
357.8131614209131
 20
266.2174668352697
 10
366.1631614209131
 20
266.2174668352697
 10
366.1631614209131
 20
255.5174668352698
 10
357.8131614209131
 20
255.5174668352698
  0
CIRCLE
  5
2A51B
102
{ACAD_REACTORS
330
2A5D9
102
}
330
18
100
AcDbEntity
  8
Modules
100
AcDbCircle
 10
379.3081614209135
 20
331.8174668352698
 30
0.0
 40
1.6
  0
CIRCLE
  5
2A51C
102
{ACAD_REACTORS
330
2A5D9
102
}
330
18
100
AcDbEntity
  8
Modules
100
AcDbCircle
 10
384.3081614209134
 20
331.8174668352698
 30
0.0
 40
1.6
  0
CIRCLE
  5
2A51D
102
{ACAD_REACTORS
330
2A5D9
102
}
330
18
100
AcDbEntity
  8
Modules
100
AcDbCircle
 10
379.3081614209135
 20
321.8174668352698
 30
0.0
 40
1.6
  0
CIRCLE
  5
2A51E
102
{ACAD_REACTORS
330
2A5D9
102
}
330
18
100
AcDbEntity
  8
Modules
100
AcDbCircle
 10
384.3081614209134
 20
321.8174668352698
 30
0.0
 40
1.6
  0
CIRCLE
  5
2A51F
102
{ACAD_REACTORS
330
2A5D9
102
}
330
18
100
AcDbEntity
  8
Modules
100
AcDbCircle
 10
379.3081614209135
 20
326.8174668352698
 30
0.0
 40
1.6
  0
CIRCLE
  5
2A520
102
{ACAD_REACTORS
330
2A5D9
102
}
330
18
100
AcDbEntity
  8
Modules
100
AcDbCircle
 10
384.3081614209134
 20
326.8174668352698
 30
0.0
 40
1.6
  0
LWPOLYLINE
  5
2A521
102
{ACAD_REACTORS
330
2A5D9
102
}
330
18
100
AcDbEntity
  8
Modules
100
AcDbPolyline
 90
        4
 70
     1
 43
0.0
 10
376.7081614209132
 20
292.7174668352698
 10
387.9081614209131
 20
292.7174668352698
 10
387.9081614209131
 20
318.9174668352698
 10
376.7081614209132
 20
318.9174668352698
  0
LWPOLYLINE
  5
2A522
102
{ACAD_REACTORS
330
2A5D9
102
}
330
18
100
AcDbEntity
  8
Modules
100
AcDbPolyline
 90
        4
 70
     1
 43
0.0
 10
376.7081614209132
 20
254.1174668352698
 10
387.9081614209131
 20
254.1174668352698
 10
387.9081614209131
 20
280.3174668352698
 10
376.7081614209132
 20
280.3174668352698
  0
CIRCLE
  5
2A523
102
{ACAD_REACTORS
330
2A5D9
102
}
330
18
100
AcDbEntity
  8
Modules
100
AcDbCircle
 10
384.3081614209134
 20
288.2175168352698
 30
0.0
 40
1.6
  0
CIRCLE
  5
2A524
102
{ACAD_REACTORS
330
2A5D9
102
}
330
18
100
AcDbEntity
  8
Modules
100
AcDbCircle
 10
379.3081614209135
 20
288.2175168352698
 30
0.0
 40
1.6
  0
CIRCLE
  5
2A525
102
{ACAD_REACTORS
330
2A5D9
102
}
330
18
100
AcDbEntity
  8
Modules
100
AcDbCircle
 10
384.3081614209134
 20
283.2174508352697
 30
0.0
 40
1.6
  0
CIRCLE
  5
2A526
102
{ACAD_REACTORS
330
2A5D9
102
}
330
18
100
AcDbEntity
  8
Modules
100
AcDbCircle
 10
379.3081614209135
 20
283.2174508352698
 30
0.0
 40
1.6
  0
CIRCLE
  5
2A527
102
{ACAD_REACTORS
330
2A5D9
102
}
330
18
100
AcDbEntity
  8
Modules
100
AcDbCircle
 10
380.0081614209133
 20
354.1174668352699
 30
0.0
 40
2.45
  0
LWPOLYLINE
  5
2A528
102
{ACAD_REACTORS
330
2A5D9
102
}
330
18
100
AcDbEntity
  8
Modules
100
AcDbPolyline
 90
        6
 70
     1
 43
0.0
 10
379.3730761248047
 20
355.2174668352698
 10
378.7379908286961
 20
354.1174668352699
 10
379.3730761248047
 20
353.0174668352697
 10
380.6432467170219
 20
353.0174668352697
 10
381.2783320131305
 20
354.1174668352699
 10
380.6432467170219
 20
355.2174668352698
  0
CIRCLE
  5
2A529
102
{ACAD_REACTORS
330
2A5D9
102
}
330
18
100
AcDbEntity
  8
Modules
100
AcDbCircle
 10
380.0081614209133
 20
342.4174668352698
 30
0.0
 40
2.45
  0
LWPOLYLINE
  5
2A52A
102
{ACAD_REACTORS
330
2A5D9
102
}
330
18
100
AcDbEntity
  8
Modules
100
AcDbPolyline
 90
        6
 70
     1
 43
0.0
 10
379.3730761248047
 20
343.5174668352698
 10
378.7379908286961
 20
342.4174668352698
 10
379.3730761248047
 20
341.3174668352698
 10
380.6432467170219
 20
341.3174668352698
 10
381.2783320131305
 20
342.4174668352698
 10
380.6432467170219
 20
343.5174668352698
  0
CIRCLE
  5
2A52B
102
{ACAD_REACTORS
330
2A5D9
102
}
330
18
100
AcDbEntity
  8
Modules
100
AcDbCircle
 10
380.0081614209133
 20
243.4174668352698
 30
0.0
 40
2.45
  0
LWPOLYLINE
  5
2A52C
102
{ACAD_REACTORS
330
2A5D9
102
}
330
18
100
AcDbEntity
  8
Modules
100
AcDbPolyline
 90
        6
 70
     1
 43
0.0
 10
379.3730761248047
 20
244.5174668352698
 10
378.7379908286961
 20
243.4174668352698
 10
379.3730761248047
 20
242.3174668352698
 10
380.6432467170219
 20
242.3174668352698
 10
381.2783320131305
 20
243.4174668352698
 10
380.6432467170219
 20
244.5174668352698
  0
CIRCLE
  5
2A52D
102
{ACAD_REACTORS
330
2A5D9
102
}
330
18
100
AcDbEntity
  8
Modules
100
AcDbCircle
 10
380.0081614209133
 20
231.7174668352698
 30
0.0
 40
2.45
  0
LWPOLYLINE
  5
2A52E
102
{ACAD_REACTORS
330
2A5D9
102
}
330
18
100
AcDbEntity
  8
Modules
100
AcDbPolyline
 90
        6
 70
     1
 43
0.0
 10
379.3730761248047
 20
232.8174668352698
 10
378.7379908286961
 20
231.7174668352698
 10
379.3730761248047
 20
230.6174668352698
 10
380.6432467170219
 20
230.6174668352698
 10
381.2783320131305
 20
231.7174668352698
 10
380.6432467170219
 20
232.8174668352698
  0
LWPOLYLINE
  5
2A52F
102
{ACAD_REACTORS
330
2A5D9
102
}
330
18
100
AcDbEntity
  8
Modules
100
AcDbPolyline
 90
        4
 70
     1
 43
0.0
 10
372.5081614209133
 20
357.1174668352699
 10
392.4881614209132
 20
357.1174668352699
 10
392.4881614209132
 20
228.7174668352698
 10
372.5081614209133
 20
228.7174668352698
  0
CIRCLE
  5
2A530
102
{ACAD_REACTORS
330
2A5D9
102
}
330
18
100
AcDbEntity
  8
Modules
100
AcDbCircle
 10
382.3081614209131
 20
312.1674668352698
 30
0.0
 40
1.75
  0
CIRCLE
  5
2A531
102
{ACAD_REACTORS
330
2A5D9
102
}
330
18
100
AcDbEntity
  8
Modules
100
AcDbCircle
 10
382.3081614209131
 20
299.4674668352697
 30
0.0
 40
1.75
  0
LWPOLYLINE
  5
2A532
102
{ACAD_REACTORS
330
2A5D9
102
}
330
18
100
AcDbEntity
  8
Modules
100
AcDbPolyline
 90
        4
 70
     1
 43
0.0
 10
378.1331614209132
 20
317.5174668352697
 10
386.4831614209132
 20
317.5174668352697
 10
386.4831614209132
 20
306.8174668352698
 10
378.1331614209132
 20
306.8174668352698
  0
LWPOLYLINE
  5
2A533
102
{ACAD_REACTORS
330
2A5D9
102
}
330
18
100
AcDbEntity
  8
Modules
100
AcDbPolyline
 90
        4
 70
     1
 43
0.0
 10
378.1331614209132
 20
304.8174668352697
 10
386.4831614209131
 20
304.8174668352697
 10
386.4831614209131
 20
294.1174668352698
 10
378.1331614209132
 20
294.1174668352698
  0
CIRCLE
  5
2A534
102
{ACAD_REACTORS
330
2A5D9
102
}
330
18
100
AcDbEntity
  8
Modules
100
AcDbCircle
 10
382.3081614209131
 20
273.5674668352698
 30
0.0
 40
1.75
  0
CIRCLE
  5
2A535
102
{ACAD_REACTORS
330
2A5D9
102
}
330
18
100
AcDbEntity
  8
Modules
100
AcDbCircle
 10
382.3081614209131
 20
260.8674668352697
 30
0.0
 40
1.75
  0
LWPOLYLINE
  5
2A536
102
{ACAD_REACTORS
330
2A5D9
102
}
330
18
100
AcDbEntity
  8
Modules
100
AcDbPolyline
 90
        4
 70
     1
 43
0.0
 10
378.1331614209132
 20
278.9174668352698
 10
386.4831614209132
 20
278.9174668352698
 10
386.4831614209132
 20
268.2174668352697
 10
378.1331614209132
 20
268.2174668352697
  0
LWPOLYLINE
  5
2A537
102
{ACAD_REACTORS
330
2A5D9
102
}
330
18
100
AcDbEntity
  8
Modules
100
AcDbPolyline
 90
        4
 70
     1
 43
0.0
 10
378.1331614209132
 20
266.2174668352697
 10
386.4831614209131
 20
266.2174668352697
 10
386.4831614209131
 20
255.5174668352698
 10
378.1331614209132
 20
255.5174668352698
  0
CIRCLE
  5
2A538
102
{ACAD_REACTORS
330
2A5D9
102
}
330
18
100
AcDbEntity
  8
Modules
100
AcDbCircle
 10
399.6281614209134
 20
331.8174668352698
 30
0.0
 40
1.6
  0
CIRCLE
  5
2A539
102
{ACAD_REACTORS
330
2A5D9
102
}
330
18
100
AcDbEntity
  8
Modules
100
AcDbCircle
 10
404.6281614209134
 20
331.8174668352698
 30
0.0
 40
1.6
  0
CIRCLE
  5
2A53A
102
{ACAD_REACTORS
330
2A5D9
102
}
330
18
100
AcDbEntity
  8
Modules
100
AcDbCircle
 10
399.6281614209135
 20
321.8174668352698
 30
0.0
 40
1.6
  0
CIRCLE
  5
2A53B
102
{ACAD_REACTORS
330
2A5D9
102
}
330
18
100
AcDbEntity
  8
Modules
100
AcDbCircle
 10
404.6281614209134
 20
321.8174668352698
 30
0.0
 40
1.6
  0
CIRCLE
  5
2A53C
102
{ACAD_REACTORS
330
2A5D9
102
}
330
18
100
AcDbEntity
  8
Modules
100
AcDbCircle
 10
399.6281614209135
 20
326.8174668352698
 30
0.0
 40
1.6
  0
CIRCLE
  5
2A53D
102
{ACAD_REACTORS
330
2A5D9
102
}
330
18
100
AcDbEntity
  8
Modules
100
AcDbCircle
 10
404.6281614209134
 20
326.8174668352698
 30
0.0
 40
1.6
  0
LWPOLYLINE
  5
2A53E
102
{ACAD_REACTORS
330
2A5D9
102
}
330
18
100
AcDbEntity
  8
Modules
100
AcDbPolyline
 90
        4
 70
     1
 43
0.0
 10
397.0281614209132
 20
292.7174668352698
 10
408.2281614209131
 20
292.7174668352698
 10
408.2281614209131
 20
318.9174668352698
 10
397.0281614209132
 20
318.9174668352698
  0
LWPOLYLINE
  5
2A53F
102
{ACAD_REACTORS
330
2A5D9
102
}
330
18
100
AcDbEntity
  8
Modules
100
AcDbPolyline
 90
        4
 70
     1
 43
0.0
 10
397.0281614209132
 20
254.1174668352698
 10
408.2281614209131
 20
254.1174668352698
 10
408.2281614209131
 20
280.3174668352698
 10
397.0281614209132
 20
280.3174668352698
  0
CIRCLE
  5
2A540
102
{ACAD_REACTORS
330
2A5D9
102
}
330
18
100
AcDbEntity
  8
Modules
100
AcDbCircle
 10
404.6281614209134
 20
288.2175168352698
 30
0.0
 40
1.6
  0
CIRCLE
  5
2A541
102
{ACAD_REACTORS
330
2A5D9
102
}
330
18
100
AcDbEntity
  8
Modules
100
AcDbCircle
 10
399.6281614209134
 20
288.2175168352698
 30
0.0
 40
1.6
  0
CIRCLE
  5
2A542
102
{ACAD_REACTORS
330
2A5D9
102
}
330
18
100
AcDbEntity
  8
Modules
100
AcDbCircle
 10
404.6281614209134
 20
283.2174508352697
 30
0.0
 40
1.6
  0
CIRCLE
  5
2A543
102
{ACAD_REACTORS
330
2A5D9
102
}
330
18
100
AcDbEntity
  8
Modules
100
AcDbCircle
 10
399.6281614209134
 20
283.2174508352698
 30
0.0
 40
1.6
  0
CIRCLE
  5
2A544
102
{ACAD_REACTORS
330
2A5D9
102
}
330
18
100
AcDbEntity
  8
Modules
100
AcDbCircle
 10
400.3281614209132
 20
354.1174668352699
 30
0.0
 40
2.45
  0
LWPOLYLINE
  5
2A545
102
{ACAD_REACTORS
330
2A5D9
102
}
330
18
100
AcDbEntity
  8
Modules
100
AcDbPolyline
 90
        6
 70
     1
 43
0.0
 10
399.6930761248048
 20
355.2174668352698
 10
399.0579908286961
 20
354.1174668352699
 10
399.6930761248048
 20
353.0174668352697
 10
400.9632467170218
 20
353.0174668352697
 10
401.5983320131304
 20
354.1174668352699
 10
400.9632467170218
 20
355.2174668352698
  0
CIRCLE
  5
2A546
102
{ACAD_REACTORS
330
2A5D9
102
}
330
18
100
AcDbEntity
  8
Modules
100
AcDbCircle
 10
400.3281614209132
 20
342.4174668352698
 30
0.0
 40
2.45
  0
LWPOLYLINE
  5
2A547
102
{ACAD_REACTORS
330
2A5D9
102
}
330
18
100
AcDbEntity
  8
Modules
100
AcDbPolyline
 90
        6
 70
     1
 43
0.0
 10
399.6930761248048
 20
343.5174668352698
 10
399.0579908286961
 20
342.4174668352698
 10
399.6930761248048
 20
341.3174668352698
 10
400.9632467170218
 20
341.3174668352698
 10
401.5983320131304
 20
342.4174668352698
 10
400.9632467170218
 20
343.5174668352698
  0
CIRCLE
  5
2A548
102
{ACAD_REACTORS
330
2A5D9
102
}
330
18
100
AcDbEntity
  8
Modules
100
AcDbCircle
 10
400.3281614209132
 20
243.4174668352698
 30
0.0
 40
2.45
  0
LWPOLYLINE
  5
2A549
102
{ACAD_REACTORS
330
2A5D9
102
}
330
18
100
AcDbEntity
  8
Modules
100
AcDbPolyline
 90
        6
 70
     1
 43
0.0
 10
399.6930761248048
 20
244.5174668352698
 10
399.0579908286961
 20
243.4174668352698
 10
399.6930761248048
 20
242.3174668352698
 10
400.9632467170218
 20
242.3174668352698
 10
401.5983320131304
 20
243.4174668352698
 10
400.9632467170218
 20
244.5174668352698
  0
CIRCLE
  5
2A54A
102
{ACAD_REACTORS
330
2A5D9
102
}
330
18
100
AcDbEntity
  8
Modules
100
AcDbCircle
 10
400.3281614209132
 20
231.7174668352698
 30
0.0
 40
2.45
  0
LWPOLYLINE
  5
2A54B
102
{ACAD_REACTORS
330
2A5D9
102
}
330
18
100
AcDbEntity
  8
Modules
100
AcDbPolyline
 90
        6
 70
     1
 43
0.0
 10
399.6930761248048
 20
232.8174668352698
 10
399.0579908286961
 20
231.7174668352698
 10
399.6930761248048
 20
230.6174668352698
 10
400.9632467170218
 20
230.6174668352698
 10
401.5983320131304
 20
231.7174668352698
 10
400.9632467170218
 20
232.8174668352698
  0
LWPOLYLINE
  5
2A54C
102
{ACAD_REACTORS
330
2A5D9
102
}
330
18
100
AcDbEntity
  8
Modules
100
AcDbPolyline
 90
        4
 70
     1
 43
0.0
 10
392.8281614209133
 20
357.1174668352699
 10
412.8081614209131
 20
357.1174668352699
 10
412.8081614209131
 20
228.7174668352698
 10
392.8281614209133
 20
228.7174668352698
  0
CIRCLE
  5
2A54D
102
{ACAD_REACTORS
330
2A5D9
102
}
330
18
100
AcDbEntity
  8
Modules
100
AcDbCircle
 10
402.628161420913
 20
312.1674668352698
 30
0.0
 40
1.75
  0
CIRCLE
  5
2A54E
102
{ACAD_REACTORS
330
2A5D9
102
}
330
18
100
AcDbEntity
  8
Modules
100
AcDbCircle
 10
402.628161420913
 20
299.4674668352697
 30
0.0
 40
1.75
  0
LWPOLYLINE
  5
2A54F
102
{ACAD_REACTORS
330
2A5D9
102
}
330
18
100
AcDbEntity
  8
Modules
100
AcDbPolyline
 90
        4
 70
     1
 43
0.0
 10
398.4531614209132
 20
317.5174668352697
 10
406.8031614209131
 20
317.5174668352697
 10
406.8031614209131
 20
306.8174668352698
 10
398.4531614209132
 20
306.8174668352698
  0
LWPOLYLINE
  5
2A550
102
{ACAD_REACTORS
330
2A5D9
102
}
330
18
100
AcDbEntity
  8
Modules
100
AcDbPolyline
 90
        4
 70
     1
 43
0.0
 10
398.4531614209132
 20
304.8174668352697
 10
406.8031614209131
 20
304.8174668352697
 10
406.8031614209131
 20
294.1174668352698
 10
398.4531614209132
 20
294.1174668352698
  0
CIRCLE
  5
2A551
102
{ACAD_REACTORS
330
2A5D9
102
}
330
18
100
AcDbEntity
  8
Modules
100
AcDbCircle
 10
402.628161420913
 20
273.5674668352698
 30
0.0
 40
1.75
  0
CIRCLE
  5
2A552
102
{ACAD_REACTORS
330
2A5D9
102
}
330
18
100
AcDbEntity
  8
Modules
100
AcDbCircle
 10
402.628161420913
 20
260.8674668352697
 30
0.0
 40
1.75
  0
LWPOLYLINE
  5
2A553
102
{ACAD_REACTORS
330
2A5D9
102
}
330
18
100
AcDbEntity
  8
Modules
100
AcDbPolyline
 90
        4
 70
     1
 43
0.0
 10
398.4531614209132
 20
278.9174668352698
 10
406.8031614209131
 20
278.9174668352698
 10
406.8031614209131
 20
268.2174668352697
 10
398.4531614209132
 20
268.2174668352697
  0
LWPOLYLINE
  5
2A554
102
{ACAD_REACTORS
330
2A5D9
102
}
330
18
100
AcDbEntity
  8
Modules
100
AcDbPolyline
 90
        4
 70
     1
 43
0.0
 10
398.4531614209132
 20
266.2174668352697
 10
406.8031614209131
 20
266.2174668352697
 10
406.8031614209131
 20
255.5174668352698
 10
398.4531614209132
 20
255.5174668352698
  0
CIRCLE
  5
2A555
102
{ACAD_REACTORS
330
2A5D9
102
}
330
18
100
AcDbEntity
  8
Modules
100
AcDbCircle
 10
419.9481614209134
 20
331.8174668352698
 30
0.0
 40
1.6
  0
CIRCLE
  5
2A556
102
{ACAD_REACTORS
330
2A5D9
102
}
330
18
100
AcDbEntity
  8
Modules
100
AcDbCircle
 10
424.9481614209134
 20
331.8174668352698
 30
0.0
 40
1.6
  0
CIRCLE
  5
2A557
102
{ACAD_REACTORS
330
2A5D9
102
}
330
18
100
AcDbEntity
  8
Modules
100
AcDbCircle
 10
419.9481614209134
 20
321.8174668352698
 30
0.0
 40
1.6
  0
CIRCLE
  5
2A558
102
{ACAD_REACTORS
330
2A5D9
102
}
330
18
100
AcDbEntity
  8
Modules
100
AcDbCircle
 10
424.9481614209134
 20
321.8174668352698
 30
0.0
 40
1.6
  0
CIRCLE
  5
2A559
102
{ACAD_REACTORS
330
2A5D9
102
}
330
18
100
AcDbEntity
  8
Modules
100
AcDbCircle
 10
419.9481614209134
 20
326.8174668352698
 30
0.0
 40
1.6
  0
CIRCLE
  5
2A55A
102
{ACAD_REACTORS
330
2A5D9
102
}
330
18
100
AcDbEntity
  8
Modules
100
AcDbCircle
 10
424.9481614209134
 20
326.8174668352698
 30
0.0
 40
1.6
  0
LWPOLYLINE
  5
2A55B
102
{ACAD_REACTORS
330
2A5D9
102
}
330
18
100
AcDbEntity
  8
Modules
100
AcDbPolyline
 90
        4
 70
     1
 43
0.0
 10
417.3481614209131
 20
292.7174668352698
 10
428.5481614209131
 20
292.7174668352698
 10
428.5481614209131
 20
318.9174668352698
 10
417.3481614209131
 20
318.9174668352698
  0
LWPOLYLINE
  5
2A55C
102
{ACAD_REACTORS
330
2A5D9
102
}
330
18
100
AcDbEntity
  8
Modules
100
AcDbPolyline
 90
        4
 70
     1
 43
0.0
 10
417.3481614209131
 20
254.1174668352698
 10
428.5481614209131
 20
254.1174668352698
 10
428.5481614209131
 20
280.3174668352698
 10
417.3481614209131
 20
280.3174668352698
  0
CIRCLE
  5
2A55D
102
{ACAD_REACTORS
330
2A5D9
102
}
330
18
100
AcDbEntity
  8
Modules
100
AcDbCircle
 10
424.9481614209134
 20
288.2175168352698
 30
0.0
 40
1.6
  0
CIRCLE
  5
2A55E
102
{ACAD_REACTORS
330
2A5D9
102
}
330
18
100
AcDbEntity
  8
Modules
100
AcDbCircle
 10
419.9481614209134
 20
288.2175168352698
 30
0.0
 40
1.6
  0
CIRCLE
  5
2A55F
102
{ACAD_REACTORS
330
2A5D9
102
}
330
18
100
AcDbEntity
  8
Modules
100
AcDbCircle
 10
424.9481614209134
 20
283.2174508352697
 30
0.0
 40
1.6
  0
CIRCLE
  5
2A560
102
{ACAD_REACTORS
330
2A5D9
102
}
330
18
100
AcDbEntity
  8
Modules
100
AcDbCircle
 10
419.9481614209134
 20
283.2174508352698
 30
0.0
 40
1.6
  0
CIRCLE
  5
2A561
102
{ACAD_REACTORS
330
2A5D9
102
}
330
18
100
AcDbEntity
  8
Modules
100
AcDbCircle
 10
420.6481614209133
 20
354.1174668352699
 30
0.0
 40
2.45
  0
LWPOLYLINE
  5
2A562
102
{ACAD_REACTORS
330
2A5D9
102
}
330
18
100
AcDbEntity
  8
Modules
100
AcDbPolyline
 90
        6
 70
     1
 43
0.0
 10
420.0130761248046
 20
355.2174668352698
 10
419.3779908286961
 20
354.1174668352699
 10
420.0130761248046
 20
353.0174668352697
 10
421.2832467170218
 20
353.0174668352697
 10
421.9183320131304
 20
354.1174668352699
 10
421.2832467170218
 20
355.2174668352698
  0
CIRCLE
  5
2A563
102
{ACAD_REACTORS
330
2A5D9
102
}
330
18
100
AcDbEntity
  8
Modules
100
AcDbCircle
 10
420.6481614209133
 20
342.4174668352698
 30
0.0
 40
2.45
  0
LWPOLYLINE
  5
2A564
102
{ACAD_REACTORS
330
2A5D9
102
}
330
18
100
AcDbEntity
  8
Modules
100
AcDbPolyline
 90
        6
 70
     1
 43
0.0
 10
420.0130761248046
 20
343.5174668352698
 10
419.3779908286961
 20
342.4174668352698
 10
420.0130761248046
 20
341.3174668352698
 10
421.2832467170218
 20
341.3174668352698
 10
421.9183320131304
 20
342.4174668352698
 10
421.2832467170218
 20
343.5174668352698
  0
CIRCLE
  5
2A565
102
{ACAD_REACTORS
330
2A5D9
102
}
330
18
100
AcDbEntity
  8
Modules
100
AcDbCircle
 10
420.6481614209133
 20
243.4174668352698
 30
0.0
 40
2.45
  0
LWPOLYLINE
  5
2A566
102
{ACAD_REACTORS
330
2A5D9
102
}
330
18
100
AcDbEntity
  8
Modules
100
AcDbPolyline
 90
        6
 70
     1
 43
0.0
 10
420.0130761248046
 20
244.5174668352698
 10
419.3779908286961
 20
243.4174668352698
 10
420.0130761248046
 20
242.3174668352698
 10
421.2832467170218
 20
242.3174668352698
 10
421.9183320131304
 20
243.4174668352698
 10
421.2832467170218
 20
244.5174668352698
  0
CIRCLE
  5
2A567
102
{ACAD_REACTORS
330
2A5D9
102
}
330
18
100
AcDbEntity
  8
Modules
100
AcDbCircle
 10
420.6481614209133
 20
231.7174668352698
 30
0.0
 40
2.45
  0
LWPOLYLINE
  5
2A568
102
{ACAD_REACTORS
330
2A5D9
102
}
330
18
100
AcDbEntity
  8
Modules
100
AcDbPolyline
 90
        6
 70
     1
 43
0.0
 10
420.0130761248046
 20
232.8174668352698
 10
419.3779908286961
 20
231.7174668352698
 10
420.0130761248046
 20
230.6174668352698
 10
421.2832467170218
 20
230.6174668352698
 10
421.9183320131304
 20
231.7174668352698
 10
421.2832467170218
 20
232.8174668352698
  0
LWPOLYLINE
  5
2A569
102
{ACAD_REACTORS
330
2A5D9
102
}
330
18
100
AcDbEntity
  8
Modules
100
AcDbPolyline
 90
        4
 70
     1
 43
0.0
 10
413.1481614209133
 20
357.1174668352699
 10
433.1281614209132
 20
357.1174668352699
 10
433.1281614209132
 20
228.7174668352698
 10
413.1481614209133
 20
228.7174668352698
  0
CIRCLE
  5
2A56A
102
{ACAD_REACTORS
330
2A5D9
102
}
330
18
100
AcDbEntity
  8
Modules
100
AcDbCircle
 10
422.9481614209131
 20
312.1674668352698
 30
0.0
 40
1.75
  0
CIRCLE
  5
2A56B
102
{ACAD_REACTORS
330
2A5D9
102
}
330
18
100
AcDbEntity
  8
Modules
100
AcDbCircle
 10
422.9481614209131
 20
299.4674668352697
 30
0.0
 40
1.75
  0
LWPOLYLINE
  5
2A56C
102
{ACAD_REACTORS
330
2A5D9
102
}
330
18
100
AcDbEntity
  8
Modules
100
AcDbPolyline
 90
        4
 70
     1
 43
0.0
 10
418.7731614209131
 20
317.5174668352697
 10
427.1231614209132
 20
317.5174668352697
 10
427.1231614209132
 20
306.8174668352698
 10
418.7731614209131
 20
306.8174668352698
  0
LWPOLYLINE
  5
2A56D
102
{ACAD_REACTORS
330
2A5D9
102
}
330
18
100
AcDbEntity
  8
Modules
100
AcDbPolyline
 90
        4
 70
     1
 43
0.0
 10
418.7731614209131
 20
304.8174668352697
 10
427.123161420913
 20
304.8174668352697
 10
427.123161420913
 20
294.1174668352698
 10
418.7731614209131
 20
294.1174668352698
  0
CIRCLE
  5
2A56E
102
{ACAD_REACTORS
330
2A5D9
102
}
330
18
100
AcDbEntity
  8
Modules
100
AcDbCircle
 10
422.9481614209131
 20
273.5674668352698
 30
0.0
 40
1.75
  0
CIRCLE
  5
2A56F
102
{ACAD_REACTORS
330
2A5D9
102
}
330
18
100
AcDbEntity
  8
Modules
100
AcDbCircle
 10
422.9481614209131
 20
260.8674668352697
 30
0.0
 40
1.75
  0
LWPOLYLINE
  5
2A570
102
{ACAD_REACTORS
330
2A5D9
102
}
330
18
100
AcDbEntity
  8
Modules
100
AcDbPolyline
 90
        4
 70
     1
 43
0.0
 10
418.7731614209131
 20
278.9174668352698
 10
427.1231614209132
 20
278.9174668352698
 10
427.1231614209132
 20
268.2174668352697
 10
418.7731614209131
 20
268.2174668352697
  0
LWPOLYLINE
  5
2A571
102
{ACAD_REACTORS
330
2A5D9
102
}
330
18
100
AcDbEntity
  8
Modules
100
AcDbPolyline
 90
        4
 70
     1
 43
0.0
 10
418.7731614209131
 20
266.2174668352697
 10
427.123161420913
 20
266.2174668352697
 10
427.123161420913
 20
255.5174668352698
 10
418.7731614209131
 20
255.5174668352698
  0
CIRCLE
  5
2A572
102
{ACAD_REACTORS
330
2A5D9
102
}
330
18
100
AcDbEntity
  8
Modules
100
AcDbCircle
 10
440.2681614209134
 20
331.8174668352698
 30
0.0
 40
1.6
  0
CIRCLE
  5
2A573
102
{ACAD_REACTORS
330
2A5D9
102
}
330
18
100
AcDbEntity
  8
Modules
100
AcDbCircle
 10
445.2681614209134
 20
331.8174668352698
 30
0.0
 40
1.6
  0
CIRCLE
  5
2A574
102
{ACAD_REACTORS
330
2A5D9
102
}
330
18
100
AcDbEntity
  8
Modules
100
AcDbCircle
 10
440.2681614209135
 20
321.8174668352698
 30
0.0
 40
1.6
  0
CIRCLE
  5
2A575
102
{ACAD_REACTORS
330
2A5D9
102
}
330
18
100
AcDbEntity
  8
Modules
100
AcDbCircle
 10
445.2681614209134
 20
321.8174668352698
 30
0.0
 40
1.6
  0
CIRCLE
  5
2A576
102
{ACAD_REACTORS
330
2A5D9
102
}
330
18
100
AcDbEntity
  8
Modules
100
AcDbCircle
 10
440.2681614209135
 20
326.8174668352698
 30
0.0
 40
1.6
  0
CIRCLE
  5
2A577
102
{ACAD_REACTORS
330
2A5D9
102
}
330
18
100
AcDbEntity
  8
Modules
100
AcDbCircle
 10
445.2681614209134
 20
326.8174668352698
 30
0.0
 40
1.6
  0
LWPOLYLINE
  5
2A578
102
{ACAD_REACTORS
330
2A5D9
102
}
330
18
100
AcDbEntity
  8
Modules
100
AcDbPolyline
 90
        4
 70
     1
 43
0.0
 10
437.6681614209132
 20
292.7174668352698
 10
448.8681614209131
 20
292.7174668352698
 10
448.8681614209131
 20
318.9174668352698
 10
437.6681614209132
 20
318.9174668352698
  0
LWPOLYLINE
  5
2A579
102
{ACAD_REACTORS
330
2A5D9
102
}
330
18
100
AcDbEntity
  8
Modules
100
AcDbPolyline
 90
        4
 70
     1
 43
0.0
 10
437.6681614209132
 20
254.1174668352698
 10
448.8681614209131
 20
254.1174668352698
 10
448.8681614209131
 20
280.3174668352698
 10
437.6681614209132
 20
280.3174668352698
  0
CIRCLE
  5
2A57A
102
{ACAD_REACTORS
330
2A5D9
102
}
330
18
100
AcDbEntity
  8
Modules
100
AcDbCircle
 10
445.2681614209134
 20
288.2175168352698
 30
0.0
 40
1.6
  0
CIRCLE
  5
2A57B
102
{ACAD_REACTORS
330
2A5D9
102
}
330
18
100
AcDbEntity
  8
Modules
100
AcDbCircle
 10
440.2681614209134
 20
288.2175168352698
 30
0.0
 40
1.6
  0
CIRCLE
  5
2A57C
102
{ACAD_REACTORS
330
2A5D9
102
}
330
18
100
AcDbEntity
  8
Modules
100
AcDbCircle
 10
445.2681614209134
 20
283.2174508352697
 30
0.0
 40
1.6
  0
CIRCLE
  5
2A57D
102
{ACAD_REACTORS
330
2A5D9
102
}
330
18
100
AcDbEntity
  8
Modules
100
AcDbCircle
 10
440.2681614209134
 20
283.2174508352698
 30
0.0
 40
1.6
  0
CIRCLE
  5
2A57E
102
{ACAD_REACTORS
330
2A5D9
102
}
330
18
100
AcDbEntity
  8
Modules
100
AcDbCircle
 10
440.9681614209132
 20
354.1174668352699
 30
0.0
 40
2.45
  0
LWPOLYLINE
  5
2A57F
102
{ACAD_REACTORS
330
2A5D9
102
}
330
18
100
AcDbEntity
  8
Modules
100
AcDbPolyline
 90
        6
 70
     1
 43
0.0
 10
440.3330761248047
 20
355.2174668352698
 10
439.6979908286961
 20
354.1174668352699
 10
440.3330761248047
 20
353.0174668352697
 10
441.6032467170218
 20
353.0174668352697
 10
442.2383320131305
 20
354.1174668352699
 10
441.6032467170218
 20
355.2174668352698
  0
CIRCLE
  5
2A580
102
{ACAD_REACTORS
330
2A5D9
102
}
330
18
100
AcDbEntity
  8
Modules
100
AcDbCircle
 10
440.9681614209132
 20
342.4174668352698
 30
0.0
 40
2.45
  0
LWPOLYLINE
  5
2A581
102
{ACAD_REACTORS
330
2A5D9
102
}
330
18
100
AcDbEntity
  8
Modules
100
AcDbPolyline
 90
        6
 70
     1
 43
0.0
 10
440.3330761248047
 20
343.5174668352698
 10
439.6979908286961
 20
342.4174668352698
 10
440.3330761248047
 20
341.3174668352698
 10
441.6032467170218
 20
341.3174668352698
 10
442.2383320131305
 20
342.4174668352698
 10
441.6032467170218
 20
343.5174668352698
  0
CIRCLE
  5
2A582
102
{ACAD_REACTORS
330
2A5D9
102
}
330
18
100
AcDbEntity
  8
Modules
100
AcDbCircle
 10
440.9681614209132
 20
243.4174668352698
 30
0.0
 40
2.45
  0
LWPOLYLINE
  5
2A583
102
{ACAD_REACTORS
330
2A5D9
102
}
330
18
100
AcDbEntity
  8
Modules
100
AcDbPolyline
 90
        6
 70
     1
 43
0.0
 10
440.3330761248047
 20
244.5174668352698
 10
439.6979908286961
 20
243.4174668352698
 10
440.3330761248047
 20
242.3174668352698
 10
441.6032467170218
 20
242.3174668352698
 10
442.2383320131305
 20
243.4174668352698
 10
441.6032467170218
 20
244.5174668352698
  0
CIRCLE
  5
2A584
102
{ACAD_REACTORS
330
2A5D9
102
}
330
18
100
AcDbEntity
  8
Modules
100
AcDbCircle
 10
440.9681614209132
 20
231.7174668352698
 30
0.0
 40
2.45
  0
LWPOLYLINE
  5
2A585
102
{ACAD_REACTORS
330
2A5D9
102
}
330
18
100
AcDbEntity
  8
Modules
100
AcDbPolyline
 90
        6
 70
     1
 43
0.0
 10
440.3330761248047
 20
232.8174668352698
 10
439.6979908286961
 20
231.7174668352698
 10
440.3330761248047
 20
230.6174668352698
 10
441.6032467170218
 20
230.6174668352698
 10
442.2383320131305
 20
231.7174668352698
 10
441.6032467170218
 20
232.8174668352698
  0
LWPOLYLINE
  5
2A586
102
{ACAD_REACTORS
330
2A5D9
102
}
330
18
100
AcDbEntity
  8
Modules
100
AcDbPolyline
 90
        4
 70
     1
 43
0.0
 10
433.4681614209132
 20
357.1174668352699
 10
453.4481614209131
 20
357.1174668352699
 10
453.4481614209131
 20
228.7174668352698
 10
433.4681614209132
 20
228.7174668352698
  0
CIRCLE
  5
2A587
102
{ACAD_REACTORS
330
2A5D9
102
}
330
18
100
AcDbEntity
  8
Modules
100
AcDbCircle
 10
443.2681614209131
 20
312.1674668352698
 30
0.0
 40
1.75
  0
CIRCLE
  5
2A588
102
{ACAD_REACTORS
330
2A5D9
102
}
330
18
100
AcDbEntity
  8
Modules
100
AcDbCircle
 10
443.2681614209131
 20
299.4674668352697
 30
0.0
 40
1.75
  0
LWPOLYLINE
  5
2A589
102
{ACAD_REACTORS
330
2A5D9
102
}
330
18
100
AcDbEntity
  8
Modules
100
AcDbPolyline
 90
        4
 70
     1
 43
0.0
 10
439.0931614209131
 20
317.5174668352697
 10
447.4431614209131
 20
317.5174668352697
 10
447.4431614209131
 20
306.8174668352698
 10
439.0931614209131
 20
306.8174668352698
  0
LWPOLYLINE
  5
2A58A
102
{ACAD_REACTORS
330
2A5D9
102
}
330
18
100
AcDbEntity
  8
Modules
100
AcDbPolyline
 90
        4
 70
     1
 43
0.0
 10
439.0931614209131
 20
304.8174668352697
 10
447.4431614209131
 20
304.8174668352697
 10
447.4431614209131
 20
294.1174668352698
 10
439.0931614209131
 20
294.1174668352698
  0
CIRCLE
  5
2A58B
102
{ACAD_REACTORS
330
2A5D9
102
}
330
18
100
AcDbEntity
  8
Modules
100
AcDbCircle
 10
443.2681614209131
 20
273.5674668352698
 30
0.0
 40
1.75
  0
CIRCLE
  5
2A58C
102
{ACAD_REACTORS
330
2A5D9
102
}
330
18
100
AcDbEntity
  8
Modules
100
AcDbCircle
 10
443.2681614209131
 20
260.8674668352697
 30
0.0
 40
1.75
  0
LWPOLYLINE
  5
2A58D
102
{ACAD_REACTORS
330
2A5D9
102
}
330
18
100
AcDbEntity
  8
Modules
100
AcDbPolyline
 90
        4
 70
     1
 43
0.0
 10
439.0931614209131
 20
278.9174668352698
 10
447.4431614209131
 20
278.9174668352698
 10
447.4431614209131
 20
268.2174668352697
 10
439.0931614209131
 20
268.2174668352697
  0
LWPOLYLINE
  5
2A58E
102
{ACAD_REACTORS
330
2A5D9
102
}
330
18
100
AcDbEntity
  8
Modules
100
AcDbPolyline
 90
        4
 70
     1
 43
0.0
 10
439.0931614209131
 20
266.2174668352697
 10
447.4431614209131
 20
266.2174668352697
 10
447.4431614209131
 20
255.5174668352698
 10
439.0931614209131
 20
255.5174668352698
  0
LWPOLYLINE
  5
2A58F
102
{ACAD_REACTORS
330
2A5D9
102
}
330
18
100
AcDbEntity
  8
Modules
100
AcDbPolyline
 90
        4
 70
     1
 43
0.0
 10
457.1581614209129
 20
255.6674508352699
 10
469.158161420913
 20
255.6674508352699
 10
469.158161420913
 20
268.6674508352699
 10
457.1581614209129
 20
268.6674508352699
  0
LWPOLYLINE
  5
2A590
102
{ACAD_REACTORS
330
2A5D9
102
}
330
18
100
AcDbEntity
  8
Modules
100
AcDbPolyline
 90
        4
 70
     1
 43
0.0
 10
457.4381968317175
 20
312.0175168352698
 10
471.4381968317175
 20
312.0175168352698
 10
471.4381968317175
 20
328.8175168352698
 10
457.4381968317175
 20
328.8175168352698
  0
LWPOLYLINE
  5
2A591
102
{ACAD_REACTORS
330
2A5D9
102
}
330
18
100
AcDbEntity
  8
Modules
100
AcDbPolyline
 90
        4
 70
     1
 43
0.0
 10
457.4381968317175
 20
292.5174838352698
 10
471.4381968317175
 20
292.5174838352698
 10
471.4381968317175
 20
309.3174838352697
 10
457.4381968317175
 20
309.3174838352697
  0
LWPOLYLINE
  5
2A592
102
{ACAD_REACTORS
330
2A5D9
102
}
330
18
100
AcDbEntity
  8
Modules
100
AcDbPolyline
 90
        4
 70
     1
 43
0.0
 10
457.4381968317175
 20
273.0174338352698
 10
471.4381968317175
 20
273.0174338352698
 10
471.4381968317175
 20
289.8174338352698
 10
457.4381968317175
 20
289.8174338352698
  0
CIRCLE
  5
2A593
102
{ACAD_REACTORS
330
2A5D9
102
}
330
18
100
AcDbEntity
  8
Modules
100
AcDbCircle
 10
458.0881614209133
 20
310.6674508352698
 30
0.0
 40
1.0
  0
CIRCLE
  5
2A594
102
{ACAD_REACTORS
330
2A5D9
102
}
330
18
100
AcDbEntity
  8
Modules
100
AcDbCircle
 10
458.0881614209133
 20
291.1675008352698
 30
0.0
 40
1.0
  0
CIRCLE
  5
2A595
102
{ACAD_REACTORS
330
2A5D9
102
}
330
18
100
AcDbEntity
  8
Modules
100
AcDbCircle
 10
458.0881614209133
 20
270.1674508352699
 30
0.0
 40
1.0
  0
CIRCLE
  5
2A596
102
{ACAD_REACTORS
330
2A5D9
102
}
330
18
100
AcDbEntity
  8
Modules
100
AcDbCircle
 10
460.0881614209133
 20
253.9574338352698
 30
0.0
 40
1.1
  0
CIRCLE
  5
2A597
102
{ACAD_REACTORS
330
2A5D9
102
}
330
18
100
AcDbEntity
  8
Modules
100
AcDbCircle
 10
460.5881614209132
 20
331.8174668352698
 30
0.0
 40
1.6
  0
CIRCLE
  5
2A598
102
{ACAD_REACTORS
330
2A5D9
102
}
330
18
100
AcDbEntity
  8
Modules
100
AcDbCircle
 10
465.5881614209132
 20
331.8174668352698
 30
0.0
 40
1.6
  0
CIRCLE
  5
2A599
102
{ACAD_REACTORS
330
2A5D9
102
}
330
18
100
AcDbEntity
  8
Modules
100
AcDbCircle
 10
461.2881614209131
 20
354.1174668352699
 30
0.0
 40
2.45
  0
LWPOLYLINE
  5
2A59A
102
{ACAD_REACTORS
330
2A5D9
102
}
330
18
100
AcDbEntity
  8
Modules
100
AcDbPolyline
 90
        6
 70
     1
 43
0.0
 10
460.6530761248045
 20
355.2174668352698
 10
460.017990828696
 20
354.1174668352699
 10
460.6530761248045
 20
353.0174668352697
 10
461.9232467170217
 20
353.0174668352697
 10
462.5583320131303
 20
354.1174668352699
 10
461.9232467170217
 20
355.2174668352698
  0
CIRCLE
  5
2A59B
102
{ACAD_REACTORS
330
2A5D9
102
}
330
18
100
AcDbEntity
  8
Modules
100
AcDbCircle
 10
461.2881614209131
 20
342.4174668352698
 30
0.0
 40
2.45
  0
LWPOLYLINE
  5
2A59C
102
{ACAD_REACTORS
330
2A5D9
102
}
330
18
100
AcDbEntity
  8
Modules
100
AcDbPolyline
 90
        6
 70
     1
 43
0.0
 10
460.6530761248045
 20
343.5174668352698
 10
460.017990828696
 20
342.4174668352698
 10
460.6530761248045
 20
341.3174668352698
 10
461.9232467170217
 20
341.3174668352698
 10
462.5583320131303
 20
342.4174668352698
 10
461.9232467170217
 20
343.5174668352698
  0
CIRCLE
  5
2A59D
102
{ACAD_REACTORS
330
2A5D9
102
}
330
18
100
AcDbEntity
  8
Modules
100
AcDbCircle
 10
461.2881614209131
 20
243.4174668352698
 30
0.0
 40
2.45
  0
LWPOLYLINE
  5
2A59E
102
{ACAD_REACTORS
330
2A5D9
102
}
330
18
100
AcDbEntity
  8
Modules
100
AcDbPolyline
 90
        6
 70
     1
 43
0.0
 10
460.6530761248045
 20
244.5174668352698
 10
460.017990828696
 20
243.4174668352698
 10
460.6530761248045
 20
242.3174668352698
 10
461.9232467170217
 20
242.3174668352698
 10
462.5583320131303
 20
243.4174668352698
 10
461.9232467170217
 20
244.5174668352698
  0
CIRCLE
  5
2A59F
102
{ACAD_REACTORS
330
2A5D9
102
}
330
18
100
AcDbEntity
  8
Modules
100
AcDbCircle
 10
461.2881614209131
 20
231.7174668352698
 30
0.0
 40
2.45
  0
LWPOLYLINE
  5
2A5A0
102
{ACAD_REACTORS
330
2A5D9
102
}
330
18
100
AcDbEntity
  8
Modules
100
AcDbPolyline
 90
        6
 70
     1
 43
0.0
 10
460.6530761248045
 20
232.8174668352698
 10
460.017990828696
 20
231.7174668352698
 10
460.6530761248045
 20
230.6174668352698
 10
461.9232467170217
 20
230.6174668352698
 10
462.5583320131303
 20
231.7174668352698
 10
461.9232467170217
 20
232.8174668352698
  0
LWPOLYLINE
  5
2A5A1
102
{ACAD_REACTORS
330
2A5D9
102
}
330
18
100
AcDbEntity
  8
Modules
100
AcDbPolyline
 90
        4
 70
     1
 43
0.0
 10
453.7881614209131
 20
357.1174668352699
 10
473.768161420913
 20
357.1174668352699
 10
473.768161420913
 20
228.7174668352698
 10
453.7881614209131
 20
228.7174668352698
  0
LWPOLYLINE
  5
2A5A2
102
{ACAD_REACTORS
330
2A5D9
102
}
330
18
100
AcDbEntity
  8
Modules
100
AcDbPolyline
 90
        7
 70
     0
 43
0.0
 10
459.463161420913
 20
257.9309508352698
 10
459.463161420913
 20
266.3809508352698
 10
465.6131614209129
 20
266.3809508352698
 10
467.243161420913
 20
264.9559508352699
 10
467.243161420913
 20
259.3559508352697
 10
465.6131614209129
 20
257.9309508352698
 10
459.463161420913
 20
257.9309508352698
  0
LWPOLYLINE
  5
2A5A3
102
{ACAD_REACTORS
330
2A5D9
102
}
330
18
100
AcDbEntity
  8
Modules
100
AcDbPolyline
 90
        9
 70
     0
 43
0.0
 10
458.7325428752727
 20
277.2570403752094
 10
458.7325428752727
 20
285.577161205338
 10
461.6485420698396
 20
285.5942984019863
 10
461.6485420698396
 20
287.3465073077521
 10
468.9567509687277
 20
287.3465073077521
 10
468.9567509687277
 20
275.4417933865128
 10
461.6485420698395
 20
275.4417933865128
 10
461.6485420698395
 20
277.2455380148417
 10
458.7325428752727
 20
277.2570403752094
  0
LWPOLYLINE
  5
2A5A4
102
{ACAD_REACTORS
330
2A5D9
102
}
330
18
100
AcDbEntity
  8
Modules
100
AcDbPolyline
 90
        9
 70
     0
 43
0.0
 10
458.7325428752727
 20
296.7570903752093
 10
458.7325428752727
 20
305.077211205338
 10
461.6485420698396
 20
305.0943484019863
 10
461.6485420698396
 20
306.8465573077519
 10
468.9567509687277
 20
306.8465573077519
 10
468.9567509687277
 20
294.9418433865128
 10
461.6485420698395
 20
294.9418433865128
 10
461.6485420698395
 20
296.7455880148417
 10
458.7325428752727
 20
296.7570903752093
  0
LWPOLYLINE
  5
2A5A5
102
{ACAD_REACTORS
330
2A5D9
102
}
330
18
100
AcDbEntity
  8
Modules
100
AcDbPolyline
 90
        9
 70
     0
 43
0.0
 10
458.7325428752727
 20
316.2571233752093
 10
458.7325428752727
 20
324.5772442053379
 10
461.6485420698396
 20
324.5943814019862
 10
461.6485420698396
 20
326.346590307752
 10
468.9567509687277
 20
326.346590307752
 10
468.9567509687277
 20
314.4418763865127
 10
461.6485420698395
 20
314.4418763865127
 10
461.6485420698395
 20
316.2456210148416
 10
458.7325428752727
 20
316.2571233752093
  0
LINE
  5
2A5A6
102
{ACAD_REACTORS
330
2A5D9
102
}
330
18
100
AcDbEntity
  8
Modules
100
AcDbLine
 10
494.088161420913
 20
228.7174668352698
 30
0.0
 11
474.108161420913
 21
228.7174668352697
 31
0.0
  0
CIRCLE
  5
2A5A7
102
{ACAD_REACTORS
330
2A5D9
102
}
330
18
100
AcDbEntity
  8
Modules
100
AcDbCircle
 10
480.9081614209132
 20
331.8174668352698
 30
0.0
 40
1.6
  0
CIRCLE
  5
2A5A8
102
{ACAD_REACTORS
330
2A5D9
102
}
330
18
100
AcDbEntity
  8
Modules
100
AcDbCircle
 10
485.9081614209132
 20
331.8174668352698
 30
0.0
 40
1.6
  0
CIRCLE
  5
2A5A9
102
{ACAD_REACTORS
330
2A5D9
102
}
330
18
100
AcDbEntity
  8
Modules
100
AcDbCircle
 10
485.9081614209132
 20
326.8174668352698
 30
0.0
 40
1.6
  0
CIRCLE
  5
2A5AA
102
{ACAD_REACTORS
330
2A5D9
102
}
330
18
100
AcDbEntity
  8
Modules
100
AcDbCircle
 10
480.9081614209132
 20
326.8174668352698
 30
0.0
 40
1.6
  0
LINE
  5
2A5AB
102
{ACAD_REACTORS
330
2A5D9
102
}
330
18
100
AcDbEntity
  8
Modules
100
AcDbLine
 10
494.088161420913
 20
357.1174668352699
 30
0.0
 11
474.108161420913
 21
357.1174668352699
 31
0.0
  0
LINE
  5
2A5AC
102
{ACAD_REACTORS
330
2A5D9
102
}
330
18
100
AcDbEntity
  8
Modules
100
AcDbLine
 10
494.088161420913
 20
228.7174668352698
 30
0.0
 11
494.088161420913
 21
357.1174668352699
 31
0.0
  0
LINE
  5
2A5AD
102
{ACAD_REACTORS
330
2A5D9
102
}
330
18
100
AcDbEntity
  8
Modules
100
AcDbLine
 10
474.108161420913
 20
228.7174668352697
 30
0.0
 11
474.108161420913
 21
357.1174668352699
 31
0.0
  0
CIRCLE
  5
2A5AE
102
{ACAD_REACTORS
330
2A5D9
102
}
330
18
100
AcDbEntity
  8
Modules
100
AcDbCircle
 10
485.9081614209132
 20
321.8174668352698
 30
0.0
 40
1.6
  0
CIRCLE
  5
2A5AF
102
{ACAD_REACTORS
330
2A5D9
102
}
330
18
100
AcDbEntity
  8
Modules
100
AcDbCircle
 10
480.9081614209132
 20
321.8174668352698
 30
0.0
 40
1.6
  0
CIRCLE
  5
2A5B0
102
{ACAD_REACTORS
330
2A5D9
102
}
330
18
100
AcDbEntity
  8
Modules
100
AcDbCircle
 10
485.9081614209132
 20
273.1674668352698
 30
0.0
 40
1.6
  0
CIRCLE
  5
2A5B1
102
{ACAD_REACTORS
330
2A5D9
102
}
330
18
100
AcDbEntity
  8
Modules
100
AcDbCircle
 10
480.9081614209132
 20
273.1674668352698
 30
0.0
 40
1.6
  0
CIRCLE
  5
2A5B2
102
{ACAD_REACTORS
330
2A5D9
102
}
330
18
100
AcDbEntity
  8
Modules
100
AcDbCircle
 10
481.6081614209131
 20
354.1174668352699
 30
0.0
 40
2.45
  0
LWPOLYLINE
  5
2A5B3
102
{ACAD_REACTORS
330
2A5D9
102
}
330
18
100
AcDbEntity
  8
Modules
100
AcDbPolyline
 90
        6
 70
     1
 43
0.0
 10
480.9730761248045
 20
355.2174668352698
 10
480.3379908286959
 20
354.1174668352699
 10
480.9730761248045
 20
353.0174668352697
 10
482.2432467170217
 20
353.0174668352697
 10
482.8783320131303
 20
354.1174668352699
 10
482.2432467170217
 20
355.2174668352698
  0
CIRCLE
  5
2A5B4
102
{ACAD_REACTORS
330
2A5D9
102
}
330
18
100
AcDbEntity
  8
Modules
100
AcDbCircle
 10
481.6081614209131
 20
342.4174668352698
 30
0.0
 40
2.45
  0
LWPOLYLINE
  5
2A5B5
102
{ACAD_REACTORS
330
2A5D9
102
}
330
18
100
AcDbEntity
  8
Modules
100
AcDbPolyline
 90
        6
 70
     1
 43
0.0
 10
480.9730761248045
 20
343.5174668352698
 10
480.3379908286959
 20
342.4174668352698
 10
480.9730761248045
 20
341.3174668352698
 10
482.2432467170217
 20
341.3174668352698
 10
482.8783320131303
 20
342.4174668352698
 10
482.2432467170217
 20
343.5174668352698
  0
CIRCLE
  5
2A5B6
102
{ACAD_REACTORS
330
2A5D9
102
}
330
18
100
AcDbEntity
  8
Modules
100
AcDbCircle
 10
481.608161420913
 20
231.7174668352698
 30
0.0
 40
2.45
  0
LWPOLYLINE
  5
2A5B7
102
{ACAD_REACTORS
330
2A5D9
102
}
330
18
100
AcDbEntity
  8
Modules
100
AcDbPolyline
 90
        6
 70
     1
 43
0.0
 10
480.9730761248044
 20
232.8174668352698
 10
480.3379908286959
 20
231.7174668352698
 10
480.9730761248044
 20
230.6174668352698
 10
482.2432467170215
 20
230.6174668352698
 10
482.8783320131302
 20
231.7174668352698
 10
482.2432467170215
 20
232.8174668352698
  0
CIRCLE
  5
2A5B8
102
{ACAD_REACTORS
330
2A5D9
102
}
330
18
100
AcDbEntity
  8
Modules
100
AcDbCircle
 10
481.608161420913
 20
243.4174668352698
 30
0.0
 40
2.45
  0
LWPOLYLINE
  5
2A5B9
102
{ACAD_REACTORS
330
2A5D9
102
}
330
18
100
AcDbEntity
  8
Modules
100
AcDbPolyline
 90
        6
 70
     1
 43
0.0
 10
480.9730761248044
 20
244.5174668352698
 10
480.3379908286959
 20
243.4174668352698
 10
480.9730761248044
 20
242.3174668352698
 10
482.2432467170215
 20
242.3174668352698
 10
482.8783320131302
 20
243.4174668352698
 10
482.2432467170215
 20
244.5174668352698
  0
LWPOLYLINE
  5
2A5BA
102
{ACAD_REACTORS
330
2A5D9
102
}
330
18
100
AcDbEntity
  8
Modules
100
AcDbPolyline
 90
        4
 70
     1
 43
0.0
 10
477.7581968317174
 20
253.3673959127089
 10
491.7581968317174
 20
253.3673959127089
 10
491.7581968317175
 20
270.1673959127089
 10
477.7581968317175
 20
270.1673959127089
  0
LWPOLYLINE
  5
2A5BB
102
{ACAD_REACTORS
330
2A5D9
102
}
330
18
100
AcDbEntity
  8
Modules
100
AcDbPolyline
 90
        9
 70
     0
 43
0.0
 10
479.0525428036537
 20
257.6070020473909
 10
479.0525428036537
 20
265.9271228775196
 10
481.9685419982206
 20
265.9442600741678
 10
481.9685419982206
 20
267.6964689799336
 10
489.2767508971088
 20
267.6964689799336
 10
489.2767508971087
 20
255.7917550586943
 10
481.9685419982206
 20
255.7917550586943
 10
481.9685419982206
 20
257.5954996870232
 10
479.0525428036537
 20
257.6070020473909
  0
CIRCLE
  5
2A5BC
102
{ACAD_REACTORS
330
2A5D9
102
}
330
18
100
AcDbEntity
  8
Modules
100
AcDbCircle
 10
484.5081455983502
 20
305.4174508352698
 30
0.0
 40
3.900000000000019
  0
CIRCLE
  5
2A5BD
102
{ACAD_REACTORS
330
2A5D9
102
}
330
18
100
AcDbEntity
  8
Modules
100
AcDbCircle
 10
484.5081455983502
 20
305.4174508352698
 30
0.0
 40
0.9000000000000198
  0
CIRCLE
  5
2A5BE
102
{ACAD_REACTORS
330
2A5D9
102
}
330
18
100
AcDbEntity
  8
Modules
100
AcDbCircle
 10
484.5081455983502
 20
305.4174508352698
 30
0.0
 40
4.900000000000019
  0
CIRCLE
  5
2A5BF
102
{ACAD_REACTORS
330
2A5D9
102
}
330
18
100
AcDbEntity
  8
Modules
100
AcDbCircle
 10
484.5081455983502
 20
285.9175008352698
 30
0.0
 40
3.900000000000019
  0
CIRCLE
  5
2A5C0
102
{ACAD_REACTORS
330
2A5D9
102
}
330
18
100
AcDbEntity
  8
Modules
100
AcDbCircle
 10
484.5081455983502
 20
285.9175008352698
 30
0.0
 40
0.9000000000000198
  0
CIRCLE
  5
2A5C1
102
{ACAD_REACTORS
330
2A5D9
102
}
330
18
100
AcDbEntity
  8
Modules
100
AcDbCircle
 10
484.5081455983502
 20
285.9175008352698
 30
0.0
 40
4.900000000000019
  0
CIRCLE
  5
2A5C2
102
{ACAD_REACTORS
330
2A5D9
102
}
330
18
100
AcDbEntity
  8
Modules
100
AcDbCircle
 10
501.2281614209132
 20
331.8174668352699
 30
0.0
 40
1.6
  0
CIRCLE
  5
2A5C3
102
{ACAD_REACTORS
330
2A5D9
102
}
330
18
100
AcDbEntity
  8
Modules
100
AcDbCircle
 10
506.2281614209131
 20
331.8174668352699
 30
0.0
 40
1.6
  0
LINE
  5
2A5C4
102
{ACAD_REACTORS
330
2A5D9
102
}
330
18
100
AcDbEntity
  8
Modules
100
AcDbLine
 10
510.0881614209128
 20
310.2667568228494
 30
0.0
 11
510.0881614209128
 21
275.5734428476905
 31
0.0
  0
LINE
  5
2A5C5
102
{ACAD_REACTORS
330
2A5D9
102
}
330
18
100
AcDbEntity
  8
Modules
100
AcDbLine
 10
501.5881614209128
 20
309.5897723208086
 30
0.0
 11
501.5881614209127
 21
276.2452467817098
 31
0.0
  0
LINE
  5
2A5C6
102
{ACAD_REACTORS
330
2A5D9
102
}
330
18
100
AcDbEntity
  8
Modules
100
AcDbLine
 10
503.6127233856287
 20
312.0025513156885
 30
0.0
 11
507.7457572978943
 21
312.7313167066041
 31
0.0
  0
ARC
  5
2A5C7
102
{ACAD_REACTORS
330
2A5D9
102
}
330
18
100
AcDbEntity
  8
Modules
100
AcDbCircle
 10
507.6381614209129
 20
310.2667568228494
 30
0.0
 40
2.45
100
AcDbArc
 50
0.0
 51
91.09702878244865
  0
ARC
  5
2A5C8
102
{ACAD_REACTORS
330
2A5D9
102
}
330
18
100
AcDbEntity
  8
Modules
100
AcDbCircle
 10
504.0381614209128
 20
309.5897723208086
 30
0.0
 40
2.45
100
AcDbArc
 50
100.0000000000018
 51
180.0
  0
ARC
  5
2A5C9
102
{ACAD_REACTORS
330
2A5D9
102
}
330
18
100
AcDbEntity
  8
Modules
100
AcDbCircle
 10
504.0381614209128
 20
276.2452467817098
 30
0.0
 40
2.45
100
AcDbArc
 50
180.0
 51
259.9999999999982
  0
ARC
  5
2A5CA
102
{ACAD_REACTORS
330
2A5D9
102
}
330
18
100
AcDbEntity
  8
Modules
100
AcDbCircle
 10
507.6381614209129
 20
275.5734428476905
 30
0.0
 40
2.45
100
AcDbArc
 50
268.9029712175513
 51
0.0
  0
LINE
  5
2A5CB
102
{ACAD_REACTORS
330
2A5D9
102
}
330
18
100
AcDbEntity
  8
Modules
100
AcDbLine
 10
503.6127233856287
 20
273.8376483548515
 30
0.0
 11
507.7457572978943
 21
273.1088829639359
 31
0.0
  0
CIRCLE
  5
2A5CC
102
{ACAD_REACTORS
330
2A5D9
102
}
330
18
100
AcDbEntity
  8
Modules
100
AcDbCircle
 10
501.928161420913
 20
354.1174668352699
 30
0.0
 40
2.45
  0
LWPOLYLINE
  5
2A5CD
102
{ACAD_REACTORS
330
2A5D9
102
}
330
18
100
AcDbEntity
  8
Modules
100
AcDbPolyline
 90
        6
 70
     1
 43
0.0
 10
501.2930761248044
 20
355.2174668352698
 10
500.6579908286958
 20
354.1174668352699
 10
501.2930761248044
 20
353.0174668352697
 10
502.5632467170216
 20
353.0174668352697
 10
503.1983320131302
 20
354.1174668352699
 10
502.5632467170216
 20
355.2174668352698
  0
CIRCLE
  5
2A5CE
102
{ACAD_REACTORS
330
2A5D9
102
}
330
18
100
AcDbEntity
  8
Modules
100
AcDbCircle
 10
501.928161420913
 20
342.4174668352698
 30
0.0
 40
2.45
  0
LWPOLYLINE
  5
2A5CF
102
{ACAD_REACTORS
330
2A5D9
102
}
330
18
100
AcDbEntity
  8
Modules
100
AcDbPolyline
 90
        6
 70
     1
 43
0.0
 10
501.2930761248044
 20
343.5174668352698
 10
500.6579908286958
 20
342.4174668352698
 10
501.2930761248044
 20
341.3174668352698
 10
502.5632467170216
 20
341.3174668352698
 10
503.1983320131302
 20
342.4174668352698
 10
502.5632467170216
 20
343.5174668352698
  0
CIRCLE
  5
2A5D0
102
{ACAD_REACTORS
330
2A5D9
102
}
330
18
100
AcDbEntity
  8
Modules
100
AcDbCircle
 10
501.928161420913
 20
243.4174668352698
 30
0.0
 40
2.45
  0
LWPOLYLINE
  5
2A5D1
102
{ACAD_REACTORS
330
2A5D9
102
}
330
18
100
AcDbEntity
  8
Modules
100
AcDbPolyline
 90
        6
 70
     1
 43
0.0
 10
501.2930761248044
 20
244.5174668352698
 10
500.6579908286958
 20
243.4174668352698
 10
501.2930761248044
 20
242.3174668352698
 10
502.5632467170216
 20
242.3174668352698
 10
503.1983320131302
 20
243.4174668352698
 10
502.5632467170216
 20
244.5174668352698
  0
CIRCLE
  5
2A5D2
102
{ACAD_REACTORS
330
2A5D9
102
}
330
18
100
AcDbEntity
  8
Modules
100
AcDbCircle
 10
501.928161420913
 20
231.7174668352698
 30
0.0
 40
2.45
  0
LWPOLYLINE
  5
2A5D3
102
{ACAD_REACTORS
330
2A5D9
102
}
330
18
100
AcDbEntity
  8
Modules
100
AcDbPolyline
 90
        6
 70
     1
 43
0.0
 10
501.2930761248044
 20
232.8174668352698
 10
500.6579908286958
 20
231.7174668352698
 10
501.2930761248044
 20
230.6174668352698
 10
502.5632467170216
 20
230.6174668352698
 10
503.1983320131302
 20
231.7174668352698
 10
502.5632467170216
 20
232.8174668352698
  0
LWPOLYLINE
  5
2A5D4
102
{ACAD_REACTORS
330
2A5D9
102
}
330
18
100
AcDbEntity
  8
Modules
100
AcDbPolyline
 90
        4
 70
     1
 43
0.0
 10
494.4281614209129
 20
357.1174668352699
 10
514.4081614209128
 20
357.1174668352699
 10
514.4081614209128
 20
228.7174668352698
 10
494.4281614209129
 20
228.7174668352698
  0
CIRCLE
  5
2A5D5
102
{ACAD_REACTORS
330
2A5D9
102
}
330
18
100
AcDbEntity
  8
Modules
100
AcDbCircle
 10
505.8381614209128
 20
316.4192828352699
 30
0.0
 40
2.45
  0
LWPOLYLINE
  5
2A5D6
102
{ACAD_REACTORS
330
2A5D9
102
}
330
18
100
AcDbEntity
  8
Modules
100
AcDbPolyline
 90
        6
 70
     1
 43
0.0
 10
505.2030761248042
 20
317.5192828352699
 10
504.5679908286957
 20
316.4192828352699
 10
505.2030761248042
 20
315.3192828352699
 10
506.4732467170214
 20
315.3192828352699
 10
507.10833201313
 20
316.4192828352699
 10
506.4732467170214
 20
317.5192828352699
  0
CIRCLE
  5
2A5D7
102
{ACAD_REACTORS
330
2A5D9
102
}
330
18
100
AcDbEntity
  8
Modules
100
AcDbCircle
 10
505.8381614209128
 20
269.4064078352699
 30
0.0
 40
2.45
  0
LWPOLYLINE
  5
2A5D8
102
{ACAD_REACTORS
330
2A5D9
102
}
330
18
100
AcDbEntity
  8
Modules
100
AcDbPolyline
 90
        6
 70
     1
 43
0.0
 10
505.2030761248042
 20
270.50640783527
 10
504.5679908286957
 20
269.4064078352699
 10
505.2030761248042
 20
268.3064078352699
 10
506.4732467170214
 20
268.3064078352699
 10
507.10833201313
 20
269.4064078352699
 10
506.4732467170214
 20
270.50640783527
  0
LINE
  5
2A5E0
102
{ACAD_REACTORS
330
2A81E
102
}
330
18
100
AcDbEntity
  8
Modules
100
AcDbLine
 10
108.0081614209133
 20
96.01746683526981
 30
0.0
 11
88.02816142091336
 21
96.01746683526975
 31
0.0
  0
LINE
  5
2A5E5
102
{ACAD_REACTORS
330
2A81E
102
}
330
18
100
AcDbEntity
  8
Modules
100
AcDbLine
 10
108.0081614209133
 20
224.4174668352698
 30
0.0
 11
88.02816142091346
 21
224.4174668352698
 31
0.0
  0
LINE
  5
2A5E6
102
{ACAD_REACTORS
330
2A81E
102
}
330
18
100
AcDbEntity
  8
Modules
100
AcDbLine
 10
108.0081614209133
 20
96.01746683526981
 30
0.0
 11
108.0081614209133
 21
224.4174668352698
 31
0.0
  0
LINE
  5
2A5E7
102
{ACAD_REACTORS
330
2A81E
102
}
330
18
100
AcDbEntity
  8
Modules
100
AcDbLine
 10
88.02816142091344
 20
96.01746683526975
 30
0.0
 11
88.02816142091346
 21
224.4174668352698
 31
0.0
  0
CIRCLE
  5
2A5EC
102
{ACAD_REACTORS
330
2A81E
102
}
330
18
100
AcDbEntity
  8
Modules
100
AcDbCircle
 10
95.52816142091346
 20
221.4174668352698
 30
0.0
 40
2.45
  0
LWPOLYLINE
  5
2A5ED
102
{ACAD_REACTORS
330
2A81E
102
}
330
18
100
AcDbEntity
  8
Modules
100
AcDbPolyline
 90
        6
 70
     1
 43
0.0
 10
94.89307612480489
 20
222.5174668352698
 10
94.25799082869632
 20
221.4174668352698
 10
94.89307612480489
 20
220.3174668352697
 10
96.16324671702207
 20
220.3174668352697
 10
96.79833201313066
 20
221.4174668352698
 10
96.16324671702207
 20
222.5174668352698
  0
CIRCLE
  5
2A5F0
102
{ACAD_REACTORS
330
2A81E
102
}
330
18
100
AcDbEntity
  8
Modules
100
AcDbCircle
 10
95.52816142091336
 20
99.0174668352698
 30
0.0
 40
2.45
  0
LWPOLYLINE
  5
2A5F1
102
{ACAD_REACTORS
330
2A81E
102
}
330
18
100
AcDbEntity
  8
Modules
100
AcDbPolyline
 90
        6
 70
     1
 43
0.0
 10
94.89307612480478
 20
100.1174668352698
 10
94.25799082869621
 20
99.0174668352698
 10
94.89307612480478
 20
97.91746683526978
 10
96.16324671702194
 20
97.91746683526978
 10
96.79833201313055
 20
99.0174668352698
 10
96.16324671702194
 20
100.1174668352698
  0
CIRCLE
  5
2A606
102
{ACAD_REACTORS
330
2A81E
102
}
330
18
100
AcDbEntity
  8
Modules
100
AcDbCircle
 10
115.8481614209133
 20
221.4174668352698
 30
0.0
 40
2.45
  0
LWPOLYLINE
  5
2A607
102
{ACAD_REACTORS
330
2A81E
102
}
330
18
100
AcDbEntity
  8
Modules
100
AcDbPolyline
 90
        6
 70
     1
 43
0.0
 10
115.2130761248048
 20
222.5174668352698
 10
114.5779908286962
 20
221.4174668352698
 10
115.2130761248048
 20
220.3174668352697
 10
116.4832467170219
 20
220.3174668352697
 10
117.1183320131305
 20
221.4174668352698
 10
116.4832467170219
 20
222.5174668352698
  0
CIRCLE
  5
2A60C
102
{ACAD_REACTORS
330
2A81E
102
}
330
18
100
AcDbEntity
  8
Modules
100
AcDbCircle
 10
115.8481614209133
 20
99.0174668352698
 30
0.0
 40
2.45
  0
LWPOLYLINE
  5
2A60D
102
{ACAD_REACTORS
330
2A81E
102
}
330
18
100
AcDbEntity
  8
Modules
100
AcDbPolyline
 90
        6
 70
     1
 43
0.0
 10
115.2130761248048
 20
100.1174668352698
 10
114.5779908286962
 20
99.0174668352698
 10
115.2130761248048
 20
97.91746683526978
 10
116.4832467170219
 20
97.91746683526978
 10
117.1183320131305
 20
99.0174668352698
 10
116.4832467170219
 20
100.1174668352698
  0
LWPOLYLINE
  5
2A60E
102
{ACAD_REACTORS
330
2A81E
102
}
330
18
100
AcDbEntity
  8
Modules
100
AcDbPolyline
 90
        4
 70
     1
 43
0.0
 10
108.3481614209133
 20
224.4174668352698
 10
128.3281614209132
 20
224.4174668352698
 10
128.3281614209132
 20
96.01746683526981
 10
108.3481614209133
 20
96.01746683526981
  0
CIRCLE
  5
2A613
102
{ACAD_REACTORS
330
2A81E
102
}
330
18
100
AcDbEntity
  8
Modules
100
AcDbCircle
 10
135.4681614209134
 20
199.1174668352697
 30
0.0
 40
1.6
  0
CIRCLE
  5
2A614
102
{ACAD_REACTORS
330
2A81E
102
}
330
18
100
AcDbEntity
  8
Modules
100
AcDbCircle
 10
140.4681614209134
 20
199.1174668352697
 30
0.0
 40
1.6
  0
CIRCLE
  5
2A615
102
{ACAD_REACTORS
330
2A81E
102
}
330
18
100
AcDbEntity
  8
Modules
100
AcDbCircle
 10
135.4681614209135
 20
189.1174668352697
 30
0.0
 40
1.6
  0
CIRCLE
  5
2A616
102
{ACAD_REACTORS
330
2A81E
102
}
330
18
100
AcDbEntity
  8
Modules
100
AcDbCircle
 10
140.4681614209134
 20
189.1174668352697
 30
0.0
 40
1.6
  0
CIRCLE
  5
2A617
102
{ACAD_REACTORS
330
2A81E
102
}
330
18
100
AcDbEntity
  8
Modules
100
AcDbCircle
 10
135.4681614209135
 20
194.1174668352697
 30
0.0
 40
1.6
  0
CIRCLE
  5
2A618
102
{ACAD_REACTORS
330
2A81E
102
}
330
18
100
AcDbEntity
  8
Modules
100
AcDbCircle
 10
140.4681614209134
 20
194.1174668352697
 30
0.0
 40
1.6
  0
LWPOLYLINE
  5
2A619
102
{ACAD_REACTORS
330
2A81E
102
}
330
18
100
AcDbEntity
  8
Modules
100
AcDbPolyline
 90
        4
 70
     1
 43
0.0
 10
132.8681614209132
 20
160.0174668352697
 10
144.0681614209132
 20
160.0174668352697
 10
144.0681614209132
 20
186.2174668352698
 10
132.8681614209132
 20
186.2174668352698
  0
LWPOLYLINE
  5
2A61A
102
{ACAD_REACTORS
330
2A81E
102
}
330
18
100
AcDbEntity
  8
Modules
100
AcDbPolyline
 90
        4
 70
     1
 43
0.0
 10
132.8681614209132
 20
121.4174668352697
 10
144.0681614209132
 20
121.4174668352697
 10
144.0681614209132
 20
147.6174668352697
 10
132.8681614209132
 20
147.6174668352697
  0
CIRCLE
  5
2A61B
102
{ACAD_REACTORS
330
2A81E
102
}
330
18
100
AcDbEntity
  8
Modules
100
AcDbCircle
 10
140.4681614209134
 20
155.5175168352697
 30
0.0
 40
1.6
  0
CIRCLE
  5
2A61C
102
{ACAD_REACTORS
330
2A81E
102
}
330
18
100
AcDbEntity
  8
Modules
100
AcDbCircle
 10
135.4681614209134
 20
155.5175168352697
 30
0.0
 40
1.6
  0
CIRCLE
  5
2A61D
102
{ACAD_REACTORS
330
2A81E
102
}
330
18
100
AcDbEntity
  8
Modules
100
AcDbCircle
 10
140.4681614209134
 20
150.5174508352697
 30
0.0
 40
1.6
  0
CIRCLE
  5
2A61E
102
{ACAD_REACTORS
330
2A81E
102
}
330
18
100
AcDbEntity
  8
Modules
100
AcDbCircle
 10
135.4681614209134
 20
150.5174508352698
 30
0.0
 40
1.6
  0
CIRCLE
  5
2A61F
102
{ACAD_REACTORS
330
2A81E
102
}
330
18
100
AcDbEntity
  8
Modules
100
AcDbCircle
 10
136.1681614209133
 20
221.4174668352698
 30
0.0
 40
2.45
  0
LWPOLYLINE
  5
2A620
102
{ACAD_REACTORS
330
2A81E
102
}
330
18
100
AcDbEntity
  8
Modules
100
AcDbPolyline
 90
        6
 70
     1
 43
0.0
 10
135.5330761248048
 20
222.5174668352698
 10
134.8979908286962
 20
221.4174668352698
 10
135.5330761248048
 20
220.3174668352697
 10
136.8032467170219
 20
220.3174668352697
 10
137.4383320131305
 20
221.4174668352698
 10
136.8032467170219
 20
222.5174668352698
  0
CIRCLE
  5
2A621
102
{ACAD_REACTORS
330
2A81E
102
}
330
18
100
AcDbEntity
  8
Modules
100
AcDbCircle
 10
136.1681614209133
 20
209.7174668352698
 30
0.0
 40
2.45
  0
LWPOLYLINE
  5
2A622
102
{ACAD_REACTORS
330
2A81E
102
}
330
18
100
AcDbEntity
  8
Modules
100
AcDbPolyline
 90
        6
 70
     1
 43
0.0
 10
135.5330761248048
 20
210.8174668352698
 10
134.8979908286962
 20
209.7174668352698
 10
135.5330761248048
 20
208.6174668352698
 10
136.8032467170219
 20
208.6174668352698
 10
137.4383320131305
 20
209.7174668352698
 10
136.8032467170219
 20
210.8174668352698
  0
CIRCLE
  5
2A623
102
{ACAD_REACTORS
330
2A81E
102
}
330
18
100
AcDbEntity
  8
Modules
100
AcDbCircle
 10
136.1681614209133
 20
110.7174668352698
 30
0.0
 40
2.45
  0
LWPOLYLINE
  5
2A624
102
{ACAD_REACTORS
330
2A81E
102
}
330
18
100
AcDbEntity
  8
Modules
100
AcDbPolyline
 90
        6
 70
     1
 43
0.0
 10
135.5330761248048
 20
111.8174668352698
 10
134.8979908286962
 20
110.7174668352698
 10
135.5330761248048
 20
109.6174668352697
 10
136.8032467170219
 20
109.6174668352697
 10
137.4383320131305
 20
110.7174668352698
 10
136.8032467170219
 20
111.8174668352698
  0
CIRCLE
  5
2A625
102
{ACAD_REACTORS
330
2A81E
102
}
330
18
100
AcDbEntity
  8
Modules
100
AcDbCircle
 10
136.1681614209133
 20
99.0174668352698
 30
0.0
 40
2.45
  0
LWPOLYLINE
  5
2A626
102
{ACAD_REACTORS
330
2A81E
102
}
330
18
100
AcDbEntity
  8
Modules
100
AcDbPolyline
 90
        6
 70
     1
 43
0.0
 10
135.5330761248048
 20
100.1174668352698
 10
134.8979908286962
 20
99.0174668352698
 10
135.5330761248048
 20
97.91746683526978
 10
136.8032467170219
 20
97.91746683526978
 10
137.4383320131305
 20
99.0174668352698
 10
136.8032467170219
 20
100.1174668352698
  0
LWPOLYLINE
  5
2A627
102
{ACAD_REACTORS
330
2A81E
102
}
330
18
100
AcDbEntity
  8
Modules
100
AcDbPolyline
 90
        4
 70
     1
 43
0.0
 10
128.6681614209133
 20
224.4174668352698
 10
148.6481614209132
 20
224.4174668352698
 10
148.6481614209132
 20
96.01746683526981
 10
128.6681614209133
 20
96.01746683526981
  0
CIRCLE
  5
2A628
102
{ACAD_REACTORS
330
2A81E
102
}
330
18
100
AcDbEntity
  8
Modules
100
AcDbCircle
 10
138.4681614209132
 20
179.4674668352698
 30
0.0
 40
1.75
  0
CIRCLE
  5
2A629
102
{ACAD_REACTORS
330
2A81E
102
}
330
18
100
AcDbEntity
  8
Modules
100
AcDbCircle
 10
138.4681614209132
 20
166.7674668352697
 30
0.0
 40
1.75
  0
LWPOLYLINE
  5
2A62A
102
{ACAD_REACTORS
330
2A81E
102
}
330
18
100
AcDbEntity
  8
Modules
100
AcDbPolyline
 90
        4
 70
     1
 43
0.0
 10
134.2931614209132
 20
184.8174668352697
 10
142.6431614209132
 20
184.8174668352697
 10
142.6431614209132
 20
174.1174668352697
 10
134.2931614209132
 20
174.1174668352697
  0
LWPOLYLINE
  5
2A62B
102
{ACAD_REACTORS
330
2A81E
102
}
330
18
100
AcDbEntity
  8
Modules
100
AcDbPolyline
 90
        4
 70
     1
 43
0.0
 10
134.2931614209132
 20
172.1174668352696
 10
142.6431614209132
 20
172.1174668352696
 10
142.6431614209132
 20
161.4174668352698
 10
134.2931614209132
 20
161.4174668352698
  0
CIRCLE
  5
2A62C
102
{ACAD_REACTORS
330
2A81E
102
}
330
18
100
AcDbEntity
  8
Modules
100
AcDbCircle
 10
138.4681614209132
 20
140.8674668352697
 30
0.0
 40
1.75
  0
CIRCLE
  5
2A62D
102
{ACAD_REACTORS
330
2A81E
102
}
330
18
100
AcDbEntity
  8
Modules
100
AcDbCircle
 10
138.4681614209132
 20
128.1674668352697
 30
0.0
 40
1.75
  0
LWPOLYLINE
  5
2A62E
102
{ACAD_REACTORS
330
2A81E
102
}
330
18
100
AcDbEntity
  8
Modules
100
AcDbPolyline
 90
        4
 70
     1
 43
0.0
 10
134.2931614209132
 20
146.2174668352698
 10
142.6431614209132
 20
146.2174668352698
 10
142.6431614209132
 20
135.5174668352697
 10
134.2931614209132
 20
135.5174668352697
  0
LWPOLYLINE
  5
2A62F
102
{ACAD_REACTORS
330
2A81E
102
}
330
18
100
AcDbEntity
  8
Modules
100
AcDbPolyline
 90
        4
 70
     1
 43
0.0
 10
134.2931614209132
 20
133.5174668352697
 10
142.6431614209132
 20
133.5174668352697
 10
142.6431614209132
 20
122.8174668352698
 10
134.2931614209132
 20
122.8174668352698
  0
CIRCLE
  5
2A630
102
{ACAD_REACTORS
330
2A81E
102
}
330
18
100
AcDbEntity
  8
Modules
100
AcDbCircle
 10
155.7881614209135
 20
199.1174668352697
 30
0.0
 40
1.6
  0
CIRCLE
  5
2A631
102
{ACAD_REACTORS
330
2A81E
102
}
330
18
100
AcDbEntity
  8
Modules
100
AcDbCircle
 10
160.7881614209135
 20
199.1174668352697
 30
0.0
 40
1.6
  0
CIRCLE
  5
2A632
102
{ACAD_REACTORS
330
2A81E
102
}
330
18
100
AcDbEntity
  8
Modules
100
AcDbCircle
 10
155.7881614209135
 20
189.1174668352697
 30
0.0
 40
1.6
  0
CIRCLE
  5
2A633
102
{ACAD_REACTORS
330
2A81E
102
}
330
18
100
AcDbEntity
  8
Modules
100
AcDbCircle
 10
160.7881614209135
 20
189.1174668352697
 30
0.0
 40
1.6
  0
CIRCLE
  5
2A634
102
{ACAD_REACTORS
330
2A81E
102
}
330
18
100
AcDbEntity
  8
Modules
100
AcDbCircle
 10
155.7881614209135
 20
194.1174668352697
 30
0.0
 40
1.6
  0
CIRCLE
  5
2A635
102
{ACAD_REACTORS
330
2A81E
102
}
330
18
100
AcDbEntity
  8
Modules
100
AcDbCircle
 10
160.7881614209135
 20
194.1174668352697
 30
0.0
 40
1.6
  0
LWPOLYLINE
  5
2A636
102
{ACAD_REACTORS
330
2A81E
102
}
330
18
100
AcDbEntity
  8
Modules
100
AcDbPolyline
 90
        4
 70
     1
 43
0.0
 10
153.1881614209132
 20
160.0174668352697
 10
164.3881614209132
 20
160.0174668352697
 10
164.3881614209132
 20
186.2174668352698
 10
153.1881614209132
 20
186.2174668352698
  0
LWPOLYLINE
  5
2A637
102
{ACAD_REACTORS
330
2A81E
102
}
330
18
100
AcDbEntity
  8
Modules
100
AcDbPolyline
 90
        4
 70
     1
 43
0.0
 10
153.1881614209132
 20
121.4174668352697
 10
164.3881614209132
 20
121.4174668352697
 10
164.3881614209132
 20
147.6174668352697
 10
153.1881614209132
 20
147.6174668352697
  0
CIRCLE
  5
2A638
102
{ACAD_REACTORS
330
2A81E
102
}
330
18
100
AcDbEntity
  8
Modules
100
AcDbCircle
 10
160.7881614209135
 20
155.5175168352697
 30
0.0
 40
1.6
  0
CIRCLE
  5
2A639
102
{ACAD_REACTORS
330
2A81E
102
}
330
18
100
AcDbEntity
  8
Modules
100
AcDbCircle
 10
155.7881614209135
 20
155.5175168352697
 30
0.0
 40
1.6
  0
CIRCLE
  5
2A63A
102
{ACAD_REACTORS
330
2A81E
102
}
330
18
100
AcDbEntity
  8
Modules
100
AcDbCircle
 10
160.7881614209135
 20
150.5174508352697
 30
0.0
 40
1.6
  0
CIRCLE
  5
2A63B
102
{ACAD_REACTORS
330
2A81E
102
}
330
18
100
AcDbEntity
  8
Modules
100
AcDbCircle
 10
155.7881614209135
 20
150.5174508352698
 30
0.0
 40
1.6
  0
CIRCLE
  5
2A63C
102
{ACAD_REACTORS
330
2A81E
102
}
330
18
100
AcDbEntity
  8
Modules
100
AcDbCircle
 10
156.4881614209133
 20
221.4174668352698
 30
0.0
 40
2.45
  0
LWPOLYLINE
  5
2A63D
102
{ACAD_REACTORS
330
2A81E
102
}
330
18
100
AcDbEntity
  8
Modules
100
AcDbPolyline
 90
        6
 70
     1
 43
0.0
 10
155.8530761248047
 20
222.5174668352698
 10
155.2179908286962
 20
221.4174668352698
 10
155.8530761248047
 20
220.3174668352697
 10
157.1232467170219
 20
220.3174668352697
 10
157.7583320131305
 20
221.4174668352698
 10
157.1232467170219
 20
222.5174668352698
  0
CIRCLE
  5
2A63E
102
{ACAD_REACTORS
330
2A81E
102
}
330
18
100
AcDbEntity
  8
Modules
100
AcDbCircle
 10
156.4881614209133
 20
209.7174668352698
 30
0.0
 40
2.45
  0
LWPOLYLINE
  5
2A63F
102
{ACAD_REACTORS
330
2A81E
102
}
330
18
100
AcDbEntity
  8
Modules
100
AcDbPolyline
 90
        6
 70
     1
 43
0.0
 10
155.8530761248047
 20
210.8174668352698
 10
155.2179908286962
 20
209.7174668352698
 10
155.8530761248047
 20
208.6174668352698
 10
157.1232467170219
 20
208.6174668352698
 10
157.7583320131305
 20
209.7174668352698
 10
157.1232467170219
 20
210.8174668352698
  0
CIRCLE
  5
2A640
102
{ACAD_REACTORS
330
2A81E
102
}
330
18
100
AcDbEntity
  8
Modules
100
AcDbCircle
 10
156.4881614209133
 20
110.7174668352698
 30
0.0
 40
2.45
  0
LWPOLYLINE
  5
2A641
102
{ACAD_REACTORS
330
2A81E
102
}
330
18
100
AcDbEntity
  8
Modules
100
AcDbPolyline
 90
        6
 70
     1
 43
0.0
 10
155.8530761248047
 20
111.8174668352698
 10
155.2179908286962
 20
110.7174668352698
 10
155.8530761248047
 20
109.6174668352697
 10
157.1232467170219
 20
109.6174668352697
 10
157.7583320131305
 20
110.7174668352698
 10
157.1232467170219
 20
111.8174668352698
  0
CIRCLE
  5
2A642
102
{ACAD_REACTORS
330
2A81E
102
}
330
18
100
AcDbEntity
  8
Modules
100
AcDbCircle
 10
156.4881614209133
 20
99.0174668352698
 30
0.0
 40
2.45
  0
LWPOLYLINE
  5
2A643
102
{ACAD_REACTORS
330
2A81E
102
}
330
18
100
AcDbEntity
  8
Modules
100
AcDbPolyline
 90
        6
 70
     1
 43
0.0
 10
155.8530761248047
 20
100.1174668352698
 10
155.2179908286962
 20
99.0174668352698
 10
155.8530761248047
 20
97.91746683526978
 10
157.1232467170219
 20
97.91746683526978
 10
157.7583320131305
 20
99.0174668352698
 10
157.1232467170219
 20
100.1174668352698
  0
LWPOLYLINE
  5
2A644
102
{ACAD_REACTORS
330
2A81E
102
}
330
18
100
AcDbEntity
  8
Modules
100
AcDbPolyline
 90
        4
 70
     1
 43
0.0
 10
148.9881614209133
 20
224.4174668352698
 10
168.9681614209132
 20
224.4174668352698
 10
168.9681614209132
 20
96.01746683526981
 10
148.9881614209133
 20
96.01746683526981
  0
CIRCLE
  5
2A645
102
{ACAD_REACTORS
330
2A81E
102
}
330
18
100
AcDbEntity
  8
Modules
100
AcDbCircle
 10
158.7881614209132
 20
179.4674668352698
 30
0.0
 40
1.75
  0
CIRCLE
  5
2A646
102
{ACAD_REACTORS
330
2A81E
102
}
330
18
100
AcDbEntity
  8
Modules
100
AcDbCircle
 10
158.7881614209132
 20
166.7674668352697
 30
0.0
 40
1.75
  0
LWPOLYLINE
  5
2A647
102
{ACAD_REACTORS
330
2A81E
102
}
330
18
100
AcDbEntity
  8
Modules
100
AcDbPolyline
 90
        4
 70
     1
 43
0.0
 10
154.6131614209132
 20
184.8174668352697
 10
162.9631614209132
 20
184.8174668352697
 10
162.9631614209132
 20
174.1174668352697
 10
154.6131614209132
 20
174.1174668352697
  0
LWPOLYLINE
  5
2A648
102
{ACAD_REACTORS
330
2A81E
102
}
330
18
100
AcDbEntity
  8
Modules
100
AcDbPolyline
 90
        4
 70
     1
 43
0.0
 10
154.6131614209132
 20
172.1174668352696
 10
162.9631614209132
 20
172.1174668352696
 10
162.9631614209132
 20
161.4174668352698
 10
154.6131614209132
 20
161.4174668352698
  0
CIRCLE
  5
2A649
102
{ACAD_REACTORS
330
2A81E
102
}
330
18
100
AcDbEntity
  8
Modules
100
AcDbCircle
 10
158.7881614209132
 20
140.8674668352697
 30
0.0
 40
1.75
  0
CIRCLE
  5
2A64A
102
{ACAD_REACTORS
330
2A81E
102
}
330
18
100
AcDbEntity
  8
Modules
100
AcDbCircle
 10
158.7881614209132
 20
128.1674668352697
 30
0.0
 40
1.75
  0
LWPOLYLINE
  5
2A64B
102
{ACAD_REACTORS
330
2A81E
102
}
330
18
100
AcDbEntity
  8
Modules
100
AcDbPolyline
 90
        4
 70
     1
 43
0.0
 10
154.6131614209132
 20
146.2174668352698
 10
162.9631614209132
 20
146.2174668352698
 10
162.9631614209132
 20
135.5174668352697
 10
154.6131614209132
 20
135.5174668352697
  0
LWPOLYLINE
  5
2A64C
102
{ACAD_REACTORS
330
2A81E
102
}
330
18
100
AcDbEntity
  8
Modules
100
AcDbPolyline
 90
        4
 70
     1
 43
0.0
 10
154.6131614209132
 20
133.5174668352697
 10
162.9631614209132
 20
133.5174668352697
 10
162.9631614209132
 20
122.8174668352698
 10
154.6131614209132
 20
122.8174668352698
  0
CIRCLE
  5
2A64D
102
{ACAD_REACTORS
330
2A81E
102
}
330
18
100
AcDbEntity
  8
Modules
100
AcDbCircle
 10
176.1081614209135
 20
199.1174668352697
 30
0.0
 40
1.6
  0
CIRCLE
  5
2A64E
102
{ACAD_REACTORS
330
2A81E
102
}
330
18
100
AcDbEntity
  8
Modules
100
AcDbCircle
 10
181.1081614209135
 20
199.1174668352697
 30
0.0
 40
1.6
  0
CIRCLE
  5
2A64F
102
{ACAD_REACTORS
330
2A81E
102
}
330
18
100
AcDbEntity
  8
Modules
100
AcDbCircle
 10
176.1081614209136
 20
189.1174668352697
 30
0.0
 40
1.6
  0
CIRCLE
  5
2A650
102
{ACAD_REACTORS
330
2A81E
102
}
330
18
100
AcDbEntity
  8
Modules
100
AcDbCircle
 10
181.1081614209135
 20
189.1174668352697
 30
0.0
 40
1.6
  0
CIRCLE
  5
2A651
102
{ACAD_REACTORS
330
2A81E
102
}
330
18
100
AcDbEntity
  8
Modules
100
AcDbCircle
 10
176.1081614209136
 20
194.1174668352697
 30
0.0
 40
1.6
  0
CIRCLE
  5
2A652
102
{ACAD_REACTORS
330
2A81E
102
}
330
18
100
AcDbEntity
  8
Modules
100
AcDbCircle
 10
181.1081614209135
 20
194.1174668352697
 30
0.0
 40
1.6
  0
LWPOLYLINE
  5
2A653
102
{ACAD_REACTORS
330
2A81E
102
}
330
18
100
AcDbEntity
  8
Modules
100
AcDbPolyline
 90
        4
 70
     1
 43
0.0
 10
173.5081614209132
 20
160.0174668352697
 10
184.7081614209132
 20
160.0174668352697
 10
184.7081614209132
 20
186.2174668352698
 10
173.5081614209132
 20
186.2174668352698
  0
LWPOLYLINE
  5
2A654
102
{ACAD_REACTORS
330
2A81E
102
}
330
18
100
AcDbEntity
  8
Modules
100
AcDbPolyline
 90
        4
 70
     1
 43
0.0
 10
173.5081614209132
 20
121.4174668352697
 10
184.7081614209132
 20
121.4174668352697
 10
184.7081614209132
 20
147.6174668352697
 10
173.5081614209132
 20
147.6174668352697
  0
CIRCLE
  5
2A655
102
{ACAD_REACTORS
330
2A81E
102
}
330
18
100
AcDbEntity
  8
Modules
100
AcDbCircle
 10
181.1081614209135
 20
155.5175168352697
 30
0.0
 40
1.6
  0
CIRCLE
  5
2A656
102
{ACAD_REACTORS
330
2A81E
102
}
330
18
100
AcDbEntity
  8
Modules
100
AcDbCircle
 10
176.1081614209135
 20
155.5175168352697
 30
0.0
 40
1.6
  0
CIRCLE
  5
2A657
102
{ACAD_REACTORS
330
2A81E
102
}
330
18
100
AcDbEntity
  8
Modules
100
AcDbCircle
 10
181.1081614209135
 20
150.5174508352697
 30
0.0
 40
1.6
  0
CIRCLE
  5
2A658
102
{ACAD_REACTORS
330
2A81E
102
}
330
18
100
AcDbEntity
  8
Modules
100
AcDbCircle
 10
176.1081614209135
 20
150.5174508352698
 30
0.0
 40
1.6
  0
CIRCLE
  5
2A659
102
{ACAD_REACTORS
330
2A81E
102
}
330
18
100
AcDbEntity
  8
Modules
100
AcDbCircle
 10
176.8081614209133
 20
221.4174668352698
 30
0.0
 40
2.45
  0
LWPOLYLINE
  5
2A65A
102
{ACAD_REACTORS
330
2A81E
102
}
330
18
100
AcDbEntity
  8
Modules
100
AcDbPolyline
 90
        6
 70
     1
 43
0.0
 10
176.1730761248047
 20
222.5174668352698
 10
175.5379908286962
 20
221.4174668352698
 10
176.1730761248047
 20
220.3174668352697
 10
177.4432467170219
 20
220.3174668352697
 10
178.0783320131305
 20
221.4174668352698
 10
177.4432467170219
 20
222.5174668352698
  0
CIRCLE
  5
2A65B
102
{ACAD_REACTORS
330
2A81E
102
}
330
18
100
AcDbEntity
  8
Modules
100
AcDbCircle
 10
176.8081614209133
 20
209.7174668352698
 30
0.0
 40
2.45
  0
LWPOLYLINE
  5
2A65C
102
{ACAD_REACTORS
330
2A81E
102
}
330
18
100
AcDbEntity
  8
Modules
100
AcDbPolyline
 90
        6
 70
     1
 43
0.0
 10
176.1730761248047
 20
210.8174668352698
 10
175.5379908286962
 20
209.7174668352698
 10
176.1730761248047
 20
208.6174668352698
 10
177.4432467170219
 20
208.6174668352698
 10
178.0783320131305
 20
209.7174668352698
 10
177.4432467170219
 20
210.8174668352698
  0
CIRCLE
  5
2A65D
102
{ACAD_REACTORS
330
2A81E
102
}
330
18
100
AcDbEntity
  8
Modules
100
AcDbCircle
 10
176.8081614209133
 20
110.7174668352698
 30
0.0
 40
2.45
  0
LWPOLYLINE
  5
2A65E
102
{ACAD_REACTORS
330
2A81E
102
}
330
18
100
AcDbEntity
  8
Modules
100
AcDbPolyline
 90
        6
 70
     1
 43
0.0
 10
176.1730761248047
 20
111.8174668352698
 10
175.5379908286962
 20
110.7174668352698
 10
176.1730761248047
 20
109.6174668352697
 10
177.4432467170219
 20
109.6174668352697
 10
178.0783320131305
 20
110.7174668352698
 10
177.4432467170219
 20
111.8174668352698
  0
CIRCLE
  5
2A65F
102
{ACAD_REACTORS
330
2A81E
102
}
330
18
100
AcDbEntity
  8
Modules
100
AcDbCircle
 10
176.8081614209133
 20
99.0174668352698
 30
0.0
 40
2.45
  0
LWPOLYLINE
  5
2A660
102
{ACAD_REACTORS
330
2A81E
102
}
330
18
100
AcDbEntity
  8
Modules
100
AcDbPolyline
 90
        6
 70
     1
 43
0.0
 10
176.1730761248047
 20
100.1174668352698
 10
175.5379908286962
 20
99.0174668352698
 10
176.1730761248047
 20
97.91746683526978
 10
177.4432467170219
 20
97.91746683526978
 10
178.0783320131305
 20
99.0174668352698
 10
177.4432467170219
 20
100.1174668352698
  0
LWPOLYLINE
  5
2A661
102
{ACAD_REACTORS
330
2A81E
102
}
330
18
100
AcDbEntity
  8
Modules
100
AcDbPolyline
 90
        4
 70
     1
 43
0.0
 10
169.3081614209133
 20
224.4174668352698
 10
189.2881614209132
 20
224.4174668352698
 10
189.2881614209132
 20
96.01746683526981
 10
169.3081614209133
 20
96.01746683526981
  0
CIRCLE
  5
2A662
102
{ACAD_REACTORS
330
2A81E
102
}
330
18
100
AcDbEntity
  8
Modules
100
AcDbCircle
 10
179.1081614209131
 20
179.4674668352698
 30
0.0
 40
1.75
  0
CIRCLE
  5
2A663
102
{ACAD_REACTORS
330
2A81E
102
}
330
18
100
AcDbEntity
  8
Modules
100
AcDbCircle
 10
179.1081614209131
 20
166.7674668352697
 30
0.0
 40
1.75
  0
LWPOLYLINE
  5
2A664
102
{ACAD_REACTORS
330
2A81E
102
}
330
18
100
AcDbEntity
  8
Modules
100
AcDbPolyline
 90
        4
 70
     1
 43
0.0
 10
174.9331614209132
 20
184.8174668352697
 10
183.2831614209132
 20
184.8174668352697
 10
183.2831614209132
 20
174.1174668352697
 10
174.9331614209132
 20
174.1174668352697
  0
LWPOLYLINE
  5
2A665
102
{ACAD_REACTORS
330
2A81E
102
}
330
18
100
AcDbEntity
  8
Modules
100
AcDbPolyline
 90
        4
 70
     1
 43
0.0
 10
174.9331614209132
 20
172.1174668352696
 10
183.2831614209132
 20
172.1174668352696
 10
183.2831614209132
 20
161.4174668352698
 10
174.9331614209132
 20
161.4174668352698
  0
CIRCLE
  5
2A666
102
{ACAD_REACTORS
330
2A81E
102
}
330
18
100
AcDbEntity
  8
Modules
100
AcDbCircle
 10
179.1081614209131
 20
140.8674668352697
 30
0.0
 40
1.75
  0
CIRCLE
  5
2A667
102
{ACAD_REACTORS
330
2A81E
102
}
330
18
100
AcDbEntity
  8
Modules
100
AcDbCircle
 10
179.1081614209131
 20
128.1674668352697
 30
0.0
 40
1.75
  0
LWPOLYLINE
  5
2A668
102
{ACAD_REACTORS
330
2A81E
102
}
330
18
100
AcDbEntity
  8
Modules
100
AcDbPolyline
 90
        4
 70
     1
 43
0.0
 10
174.9331614209132
 20
146.2174668352698
 10
183.2831614209132
 20
146.2174668352698
 10
183.2831614209132
 20
135.5174668352697
 10
174.9331614209132
 20
135.5174668352697
  0
LWPOLYLINE
  5
2A669
102
{ACAD_REACTORS
330
2A81E
102
}
330
18
100
AcDbEntity
  8
Modules
100
AcDbPolyline
 90
        4
 70
     1
 43
0.0
 10
174.9331614209132
 20
133.5174668352697
 10
183.2831614209132
 20
133.5174668352697
 10
183.2831614209132
 20
122.8174668352698
 10
174.9331614209132
 20
122.8174668352698
  0
CIRCLE
  5
2A66A
102
{ACAD_REACTORS
330
2A81E
102
}
330
18
100
AcDbEntity
  8
Modules
100
AcDbCircle
 10
196.4281614209135
 20
199.1174668352697
 30
0.0
 40
1.6
  0
CIRCLE
  5
2A66B
102
{ACAD_REACTORS
330
2A81E
102
}
330
18
100
AcDbEntity
  8
Modules
100
AcDbCircle
 10
201.4281614209135
 20
199.1174668352697
 30
0.0
 40
1.6
  0
CIRCLE
  5
2A66C
102
{ACAD_REACTORS
330
2A81E
102
}
330
18
100
AcDbEntity
  8
Modules
100
AcDbCircle
 10
196.4281614209135
 20
189.1174668352697
 30
0.0
 40
1.6
  0
CIRCLE
  5
2A66D
102
{ACAD_REACTORS
330
2A81E
102
}
330
18
100
AcDbEntity
  8
Modules
100
AcDbCircle
 10
201.4281614209135
 20
189.1174668352697
 30
0.0
 40
1.6
  0
CIRCLE
  5
2A66E
102
{ACAD_REACTORS
330
2A81E
102
}
330
18
100
AcDbEntity
  8
Modules
100
AcDbCircle
 10
196.4281614209135
 20
194.1174668352697
 30
0.0
 40
1.6
  0
CIRCLE
  5
2A66F
102
{ACAD_REACTORS
330
2A81E
102
}
330
18
100
AcDbEntity
  8
Modules
100
AcDbCircle
 10
201.4281614209135
 20
194.1174668352697
 30
0.0
 40
1.6
  0
LWPOLYLINE
  5
2A670
102
{ACAD_REACTORS
330
2A81E
102
}
330
18
100
AcDbEntity
  8
Modules
100
AcDbPolyline
 90
        4
 70
     1
 43
0.0
 10
193.8281614209132
 20
160.0174668352697
 10
205.0281614209132
 20
160.0174668352697
 10
205.0281614209132
 20
186.2174668352698
 10
193.8281614209132
 20
186.2174668352698
  0
LWPOLYLINE
  5
2A671
102
{ACAD_REACTORS
330
2A81E
102
}
330
18
100
AcDbEntity
  8
Modules
100
AcDbPolyline
 90
        4
 70
     1
 43
0.0
 10
193.8281614209132
 20
121.4174668352697
 10
205.0281614209132
 20
121.4174668352697
 10
205.0281614209132
 20
147.6174668352697
 10
193.8281614209132
 20
147.6174668352697
  0
CIRCLE
  5
2A672
102
{ACAD_REACTORS
330
2A81E
102
}
330
18
100
AcDbEntity
  8
Modules
100
AcDbCircle
 10
201.4281614209135
 20
155.5175168352697
 30
0.0
 40
1.6
  0
CIRCLE
  5
2A673
102
{ACAD_REACTORS
330
2A81E
102
}
330
18
100
AcDbEntity
  8
Modules
100
AcDbCircle
 10
196.4281614209135
 20
155.5175168352697
 30
0.0
 40
1.6
  0
CIRCLE
  5
2A674
102
{ACAD_REACTORS
330
2A81E
102
}
330
18
100
AcDbEntity
  8
Modules
100
AcDbCircle
 10
201.4281614209135
 20
150.5174508352697
 30
0.0
 40
1.6
  0
CIRCLE
  5
2A675
102
{ACAD_REACTORS
330
2A81E
102
}
330
18
100
AcDbEntity
  8
Modules
100
AcDbCircle
 10
196.4281614209135
 20
150.5174508352698
 30
0.0
 40
1.6
  0
CIRCLE
  5
2A676
102
{ACAD_REACTORS
330
2A81E
102
}
330
18
100
AcDbEntity
  8
Modules
100
AcDbCircle
 10
197.1281614209133
 20
221.4174668352698
 30
0.0
 40
2.45
  0
LWPOLYLINE
  5
2A677
102
{ACAD_REACTORS
330
2A81E
102
}
330
18
100
AcDbEntity
  8
Modules
100
AcDbPolyline
 90
        6
 70
     1
 43
0.0
 10
196.4930761248047
 20
222.5174668352698
 10
195.8579908286962
 20
221.4174668352698
 10
196.4930761248047
 20
220.3174668352697
 10
197.7632467170219
 20
220.3174668352697
 10
198.3983320131305
 20
221.4174668352698
 10
197.7632467170219
 20
222.5174668352698
  0
CIRCLE
  5
2A678
102
{ACAD_REACTORS
330
2A81E
102
}
330
18
100
AcDbEntity
  8
Modules
100
AcDbCircle
 10
197.1281614209133
 20
209.7174668352698
 30
0.0
 40
2.45
  0
LWPOLYLINE
  5
2A679
102
{ACAD_REACTORS
330
2A81E
102
}
330
18
100
AcDbEntity
  8
Modules
100
AcDbPolyline
 90
        6
 70
     1
 43
0.0
 10
196.4930761248047
 20
210.8174668352698
 10
195.8579908286962
 20
209.7174668352698
 10
196.4930761248047
 20
208.6174668352698
 10
197.7632467170219
 20
208.6174668352698
 10
198.3983320131305
 20
209.7174668352698
 10
197.7632467170219
 20
210.8174668352698
  0
CIRCLE
  5
2A67A
102
{ACAD_REACTORS
330
2A81E
102
}
330
18
100
AcDbEntity
  8
Modules
100
AcDbCircle
 10
197.1281614209133
 20
110.7174668352698
 30
0.0
 40
2.45
  0
LWPOLYLINE
  5
2A67B
102
{ACAD_REACTORS
330
2A81E
102
}
330
18
100
AcDbEntity
  8
Modules
100
AcDbPolyline
 90
        6
 70
     1
 43
0.0
 10
196.4930761248047
 20
111.8174668352698
 10
195.8579908286962
 20
110.7174668352698
 10
196.4930761248047
 20
109.6174668352697
 10
197.7632467170219
 20
109.6174668352697
 10
198.3983320131305
 20
110.7174668352698
 10
197.7632467170219
 20
111.8174668352698
  0
CIRCLE
  5
2A67C
102
{ACAD_REACTORS
330
2A81E
102
}
330
18
100
AcDbEntity
  8
Modules
100
AcDbCircle
 10
197.1281614209133
 20
99.0174668352698
 30
0.0
 40
2.45
  0
LWPOLYLINE
  5
2A67D
102
{ACAD_REACTORS
330
2A81E
102
}
330
18
100
AcDbEntity
  8
Modules
100
AcDbPolyline
 90
        6
 70
     1
 43
0.0
 10
196.4930761248047
 20
100.1174668352698
 10
195.8579908286962
 20
99.0174668352698
 10
196.4930761248047
 20
97.91746683526978
 10
197.7632467170219
 20
97.91746683526978
 10
198.3983320131305
 20
99.0174668352698
 10
197.7632467170219
 20
100.1174668352698
  0
LWPOLYLINE
  5
2A67E
102
{ACAD_REACTORS
330
2A81E
102
}
330
18
100
AcDbEntity
  8
Modules
100
AcDbPolyline
 90
        4
 70
     1
 43
0.0
 10
189.6281614209133
 20
224.4174668352698
 10
209.6081614209132
 20
224.4174668352698
 10
209.6081614209132
 20
96.01746683526981
 10
189.6281614209133
 20
96.01746683526981
  0
CIRCLE
  5
2A67F
102
{ACAD_REACTORS
330
2A81E
102
}
330
18
100
AcDbEntity
  8
Modules
100
AcDbCircle
 10
199.4281614209132
 20
179.4674668352698
 30
0.0
 40
1.75
  0
CIRCLE
  5
2A680
102
{ACAD_REACTORS
330
2A81E
102
}
330
18
100
AcDbEntity
  8
Modules
100
AcDbCircle
 10
199.4281614209132
 20
166.7674668352697
 30
0.0
 40
1.75
  0
LWPOLYLINE
  5
2A681
102
{ACAD_REACTORS
330
2A81E
102
}
330
18
100
AcDbEntity
  8
Modules
100
AcDbPolyline
 90
        4
 70
     1
 43
0.0
 10
195.2531614209132
 20
184.8174668352697
 10
203.6031614209132
 20
184.8174668352697
 10
203.6031614209132
 20
174.1174668352697
 10
195.2531614209132
 20
174.1174668352697
  0
LWPOLYLINE
  5
2A682
102
{ACAD_REACTORS
330
2A81E
102
}
330
18
100
AcDbEntity
  8
Modules
100
AcDbPolyline
 90
        4
 70
     1
 43
0.0
 10
195.2531614209132
 20
172.1174668352696
 10
203.6031614209132
 20
172.1174668352696
 10
203.6031614209132
 20
161.4174668352698
 10
195.2531614209132
 20
161.4174668352698
  0
CIRCLE
  5
2A683
102
{ACAD_REACTORS
330
2A81E
102
}
330
18
100
AcDbEntity
  8
Modules
100
AcDbCircle
 10
199.4281614209132
 20
140.8674668352697
 30
0.0
 40
1.75
  0
CIRCLE
  5
2A684
102
{ACAD_REACTORS
330
2A81E
102
}
330
18
100
AcDbEntity
  8
Modules
100
AcDbCircle
 10
199.4281614209132
 20
128.1674668352697
 30
0.0
 40
1.75
  0
LWPOLYLINE
  5
2A685
102
{ACAD_REACTORS
330
2A81E
102
}
330
18
100
AcDbEntity
  8
Modules
100
AcDbPolyline
 90
        4
 70
     1
 43
0.0
 10
195.2531614209132
 20
146.2174668352698
 10
203.6031614209132
 20
146.2174668352698
 10
203.6031614209132
 20
135.5174668352697
 10
195.2531614209132
 20
135.5174668352697
  0
LWPOLYLINE
  5
2A686
102
{ACAD_REACTORS
330
2A81E
102
}
330
18
100
AcDbEntity
  8
Modules
100
AcDbPolyline
 90
        4
 70
     1
 43
0.0
 10
195.2531614209132
 20
133.5174668352697
 10
203.6031614209132
 20
133.5174668352697
 10
203.6031614209132
 20
122.8174668352698
 10
195.2531614209132
 20
122.8174668352698
  0
CIRCLE
  5
2A687
102
{ACAD_REACTORS
330
2A81E
102
}
330
18
100
AcDbEntity
  8
Modules
100
AcDbCircle
 10
216.7481614209135
 20
199.1174668352697
 30
0.0
 40
1.6
  0
CIRCLE
  5
2A688
102
{ACAD_REACTORS
330
2A81E
102
}
330
18
100
AcDbEntity
  8
Modules
100
AcDbCircle
 10
221.7481614209135
 20
199.1174668352697
 30
0.0
 40
1.6
  0
CIRCLE
  5
2A689
102
{ACAD_REACTORS
330
2A81E
102
}
330
18
100
AcDbEntity
  8
Modules
100
AcDbCircle
 10
216.7481614209135
 20
189.1174668352697
 30
0.0
 40
1.6
  0
CIRCLE
  5
2A68A
102
{ACAD_REACTORS
330
2A81E
102
}
330
18
100
AcDbEntity
  8
Modules
100
AcDbCircle
 10
221.7481614209135
 20
189.1174668352697
 30
0.0
 40
1.6
  0
CIRCLE
  5
2A68B
102
{ACAD_REACTORS
330
2A81E
102
}
330
18
100
AcDbEntity
  8
Modules
100
AcDbCircle
 10
216.7481614209135
 20
194.1174668352697
 30
0.0
 40
1.6
  0
CIRCLE
  5
2A68C
102
{ACAD_REACTORS
330
2A81E
102
}
330
18
100
AcDbEntity
  8
Modules
100
AcDbCircle
 10
221.7481614209135
 20
194.1174668352697
 30
0.0
 40
1.6
  0
LWPOLYLINE
  5
2A68D
102
{ACAD_REACTORS
330
2A81E
102
}
330
18
100
AcDbEntity
  8
Modules
100
AcDbPolyline
 90
        4
 70
     1
 43
0.0
 10
214.1481614209132
 20
160.0174668352697
 10
225.3481614209132
 20
160.0174668352697
 10
225.3481614209132
 20
186.2174668352698
 10
214.1481614209132
 20
186.2174668352698
  0
LWPOLYLINE
  5
2A68E
102
{ACAD_REACTORS
330
2A81E
102
}
330
18
100
AcDbEntity
  8
Modules
100
AcDbPolyline
 90
        4
 70
     1
 43
0.0
 10
214.1481614209132
 20
121.4174668352697
 10
225.3481614209132
 20
121.4174668352697
 10
225.3481614209132
 20
147.6174668352697
 10
214.1481614209132
 20
147.6174668352697
  0
CIRCLE
  5
2A68F
102
{ACAD_REACTORS
330
2A81E
102
}
330
18
100
AcDbEntity
  8
Modules
100
AcDbCircle
 10
221.7481614209135
 20
155.5175168352697
 30
0.0
 40
1.6
  0
CIRCLE
  5
2A690
102
{ACAD_REACTORS
330
2A81E
102
}
330
18
100
AcDbEntity
  8
Modules
100
AcDbCircle
 10
216.7481614209135
 20
155.5175168352697
 30
0.0
 40
1.6
  0
CIRCLE
  5
2A691
102
{ACAD_REACTORS
330
2A81E
102
}
330
18
100
AcDbEntity
  8
Modules
100
AcDbCircle
 10
221.7481614209135
 20
150.5174508352697
 30
0.0
 40
1.6
  0
CIRCLE
  5
2A692
102
{ACAD_REACTORS
330
2A81E
102
}
330
18
100
AcDbEntity
  8
Modules
100
AcDbCircle
 10
216.7481614209135
 20
150.5174508352698
 30
0.0
 40
1.6
  0
CIRCLE
  5
2A693
102
{ACAD_REACTORS
330
2A81E
102
}
330
18
100
AcDbEntity
  8
Modules
100
AcDbCircle
 10
217.4481614209133
 20
221.4174668352698
 30
0.0
 40
2.45
  0
LWPOLYLINE
  5
2A694
102
{ACAD_REACTORS
330
2A81E
102
}
330
18
100
AcDbEntity
  8
Modules
100
AcDbPolyline
 90
        6
 70
     1
 43
0.0
 10
216.8130761248047
 20
222.5174668352698
 10
216.1779908286962
 20
221.4174668352698
 10
216.8130761248047
 20
220.3174668352697
 10
218.0832467170219
 20
220.3174668352697
 10
218.7183320131305
 20
221.4174668352698
 10
218.0832467170219
 20
222.5174668352698
  0
CIRCLE
  5
2A695
102
{ACAD_REACTORS
330
2A81E
102
}
330
18
100
AcDbEntity
  8
Modules
100
AcDbCircle
 10
217.4481614209133
 20
209.7174668352698
 30
0.0
 40
2.45
  0
LWPOLYLINE
  5
2A696
102
{ACAD_REACTORS
330
2A81E
102
}
330
18
100
AcDbEntity
  8
Modules
100
AcDbPolyline
 90
        6
 70
     1
 43
0.0
 10
216.8130761248047
 20
210.8174668352698
 10
216.1779908286962
 20
209.7174668352698
 10
216.8130761248047
 20
208.6174668352698
 10
218.0832467170219
 20
208.6174668352698
 10
218.7183320131305
 20
209.7174668352698
 10
218.0832467170219
 20
210.8174668352698
  0
CIRCLE
  5
2A697
102
{ACAD_REACTORS
330
2A81E
102
}
330
18
100
AcDbEntity
  8
Modules
100
AcDbCircle
 10
217.4481614209133
 20
110.7174668352698
 30
0.0
 40
2.45
  0
LWPOLYLINE
  5
2A698
102
{ACAD_REACTORS
330
2A81E
102
}
330
18
100
AcDbEntity
  8
Modules
100
AcDbPolyline
 90
        6
 70
     1
 43
0.0
 10
216.8130761248047
 20
111.8174668352698
 10
216.1779908286962
 20
110.7174668352698
 10
216.8130761248047
 20
109.6174668352697
 10
218.0832467170219
 20
109.6174668352697
 10
218.7183320131305
 20
110.7174668352698
 10
218.0832467170219
 20
111.8174668352698
  0
CIRCLE
  5
2A699
102
{ACAD_REACTORS
330
2A81E
102
}
330
18
100
AcDbEntity
  8
Modules
100
AcDbCircle
 10
217.4481614209133
 20
99.0174668352698
 30
0.0
 40
2.45
  0
LWPOLYLINE
  5
2A69A
102
{ACAD_REACTORS
330
2A81E
102
}
330
18
100
AcDbEntity
  8
Modules
100
AcDbPolyline
 90
        6
 70
     1
 43
0.0
 10
216.8130761248047
 20
100.1174668352698
 10
216.1779908286962
 20
99.0174668352698
 10
216.8130761248047
 20
97.91746683526978
 10
218.0832467170219
 20
97.91746683526978
 10
218.7183320131305
 20
99.0174668352698
 10
218.0832467170219
 20
100.1174668352698
  0
LWPOLYLINE
  5
2A69B
102
{ACAD_REACTORS
330
2A81E
102
}
330
18
100
AcDbEntity
  8
Modules
100
AcDbPolyline
 90
        4
 70
     1
 43
0.0
 10
209.9481614209133
 20
224.4174668352698
 10
229.9281614209132
 20
224.4174668352698
 10
229.9281614209132
 20
96.01746683526981
 10
209.9481614209133
 20
96.01746683526981
  0
CIRCLE
  5
2A69C
102
{ACAD_REACTORS
330
2A81E
102
}
330
18
100
AcDbEntity
  8
Modules
100
AcDbCircle
 10
219.7481614209132
 20
179.4674668352698
 30
0.0
 40
1.75
  0
CIRCLE
  5
2A69D
102
{ACAD_REACTORS
330
2A81E
102
}
330
18
100
AcDbEntity
  8
Modules
100
AcDbCircle
 10
219.7481614209132
 20
166.7674668352697
 30
0.0
 40
1.75
  0
LWPOLYLINE
  5
2A69E
102
{ACAD_REACTORS
330
2A81E
102
}
330
18
100
AcDbEntity
  8
Modules
100
AcDbPolyline
 90
        4
 70
     1
 43
0.0
 10
215.5731614209132
 20
184.8174668352697
 10
223.9231614209132
 20
184.8174668352697
 10
223.9231614209132
 20
174.1174668352697
 10
215.5731614209132
 20
174.1174668352697
  0
LWPOLYLINE
  5
2A69F
102
{ACAD_REACTORS
330
2A81E
102
}
330
18
100
AcDbEntity
  8
Modules
100
AcDbPolyline
 90
        4
 70
     1
 43
0.0
 10
215.5731614209132
 20
172.1174668352696
 10
223.9231614209132
 20
172.1174668352696
 10
223.9231614209132
 20
161.4174668352698
 10
215.5731614209132
 20
161.4174668352698
  0
CIRCLE
  5
2A6A0
102
{ACAD_REACTORS
330
2A81E
102
}
330
18
100
AcDbEntity
  8
Modules
100
AcDbCircle
 10
219.7481614209132
 20
140.8674668352697
 30
0.0
 40
1.75
  0
CIRCLE
  5
2A6A1
102
{ACAD_REACTORS
330
2A81E
102
}
330
18
100
AcDbEntity
  8
Modules
100
AcDbCircle
 10
219.7481614209132
 20
128.1674668352697
 30
0.0
 40
1.75
  0
LWPOLYLINE
  5
2A6A2
102
{ACAD_REACTORS
330
2A81E
102
}
330
18
100
AcDbEntity
  8
Modules
100
AcDbPolyline
 90
        4
 70
     1
 43
0.0
 10
215.5731614209132
 20
146.2174668352698
 10
223.9231614209132
 20
146.2174668352698
 10
223.9231614209132
 20
135.5174668352697
 10
215.5731614209132
 20
135.5174668352697
  0
LWPOLYLINE
  5
2A6A3
102
{ACAD_REACTORS
330
2A81E
102
}
330
18
100
AcDbEntity
  8
Modules
100
AcDbPolyline
 90
        4
 70
     1
 43
0.0
 10
215.5731614209132
 20
133.5174668352697
 10
223.9231614209132
 20
133.5174668352697
 10
223.9231614209132
 20
122.8174668352698
 10
215.5731614209132
 20
122.8174668352698
  0
CIRCLE
  5
2A6A4
102
{ACAD_REACTORS
330
2A81E
102
}
330
18
100
AcDbEntity
  8
Modules
100
AcDbCircle
 10
237.0681614209135
 20
199.1174668352697
 30
0.0
 40
1.6
  0
CIRCLE
  5
2A6A5
102
{ACAD_REACTORS
330
2A81E
102
}
330
18
100
AcDbEntity
  8
Modules
100
AcDbCircle
 10
242.0681614209135
 20
199.1174668352697
 30
0.0
 40
1.6
  0
CIRCLE
  5
2A6A6
102
{ACAD_REACTORS
330
2A81E
102
}
330
18
100
AcDbEntity
  8
Modules
100
AcDbCircle
 10
237.0681614209136
 20
189.1174668352697
 30
0.0
 40
1.6
  0
CIRCLE
  5
2A6A7
102
{ACAD_REACTORS
330
2A81E
102
}
330
18
100
AcDbEntity
  8
Modules
100
AcDbCircle
 10
242.0681614209135
 20
189.1174668352697
 30
0.0
 40
1.6
  0
CIRCLE
  5
2A6A8
102
{ACAD_REACTORS
330
2A81E
102
}
330
18
100
AcDbEntity
  8
Modules
100
AcDbCircle
 10
237.0681614209136
 20
194.1174668352697
 30
0.0
 40
1.6
  0
CIRCLE
  5
2A6A9
102
{ACAD_REACTORS
330
2A81E
102
}
330
18
100
AcDbEntity
  8
Modules
100
AcDbCircle
 10
242.0681614209135
 20
194.1174668352697
 30
0.0
 40
1.6
  0
LWPOLYLINE
  5
2A6AA
102
{ACAD_REACTORS
330
2A81E
102
}
330
18
100
AcDbEntity
  8
Modules
100
AcDbPolyline
 90
        4
 70
     1
 43
0.0
 10
234.4681614209132
 20
160.0174668352697
 10
245.6681614209132
 20
160.0174668352697
 10
245.6681614209132
 20
186.2174668352698
 10
234.4681614209132
 20
186.2174668352698
  0
LWPOLYLINE
  5
2A6AB
102
{ACAD_REACTORS
330
2A81E
102
}
330
18
100
AcDbEntity
  8
Modules
100
AcDbPolyline
 90
        4
 70
     1
 43
0.0
 10
234.4681614209132
 20
121.4174668352697
 10
245.6681614209132
 20
121.4174668352697
 10
245.6681614209132
 20
147.6174668352697
 10
234.4681614209132
 20
147.6174668352697
  0
CIRCLE
  5
2A6AC
102
{ACAD_REACTORS
330
2A81E
102
}
330
18
100
AcDbEntity
  8
Modules
100
AcDbCircle
 10
242.0681614209135
 20
155.5175168352697
 30
0.0
 40
1.6
  0
CIRCLE
  5
2A6AD
102
{ACAD_REACTORS
330
2A81E
102
}
330
18
100
AcDbEntity
  8
Modules
100
AcDbCircle
 10
237.0681614209135
 20
155.5175168352697
 30
0.0
 40
1.6
  0
CIRCLE
  5
2A6AE
102
{ACAD_REACTORS
330
2A81E
102
}
330
18
100
AcDbEntity
  8
Modules
100
AcDbCircle
 10
242.0681614209135
 20
150.5174508352697
 30
0.0
 40
1.6
  0
CIRCLE
  5
2A6AF
102
{ACAD_REACTORS
330
2A81E
102
}
330
18
100
AcDbEntity
  8
Modules
100
AcDbCircle
 10
237.0681614209135
 20
150.5174508352698
 30
0.0
 40
1.6
  0
CIRCLE
  5
2A6B0
102
{ACAD_REACTORS
330
2A81E
102
}
330
18
100
AcDbEntity
  8
Modules
100
AcDbCircle
 10
237.7681614209133
 20
221.4174668352698
 30
0.0
 40
2.45
  0
LWPOLYLINE
  5
2A6B1
102
{ACAD_REACTORS
330
2A81E
102
}
330
18
100
AcDbEntity
  8
Modules
100
AcDbPolyline
 90
        6
 70
     1
 43
0.0
 10
237.1330761248048
 20
222.5174668352698
 10
236.4979908286962
 20
221.4174668352698
 10
237.1330761248048
 20
220.3174668352697
 10
238.4032467170219
 20
220.3174668352697
 10
239.0383320131305
 20
221.4174668352698
 10
238.4032467170219
 20
222.5174668352698
  0
CIRCLE
  5
2A6B2
102
{ACAD_REACTORS
330
2A81E
102
}
330
18
100
AcDbEntity
  8
Modules
100
AcDbCircle
 10
237.7681614209133
 20
209.7174668352698
 30
0.0
 40
2.45
  0
LWPOLYLINE
  5
2A6B3
102
{ACAD_REACTORS
330
2A81E
102
}
330
18
100
AcDbEntity
  8
Modules
100
AcDbPolyline
 90
        6
 70
     1
 43
0.0
 10
237.1330761248048
 20
210.8174668352698
 10
236.4979908286962
 20
209.7174668352698
 10
237.1330761248048
 20
208.6174668352698
 10
238.4032467170219
 20
208.6174668352698
 10
239.0383320131305
 20
209.7174668352698
 10
238.4032467170219
 20
210.8174668352698
  0
CIRCLE
  5
2A6B4
102
{ACAD_REACTORS
330
2A81E
102
}
330
18
100
AcDbEntity
  8
Modules
100
AcDbCircle
 10
237.7681614209133
 20
110.7174668352698
 30
0.0
 40
2.45
  0
LWPOLYLINE
  5
2A6B5
102
{ACAD_REACTORS
330
2A81E
102
}
330
18
100
AcDbEntity
  8
Modules
100
AcDbPolyline
 90
        6
 70
     1
 43
0.0
 10
237.1330761248048
 20
111.8174668352698
 10
236.4979908286962
 20
110.7174668352698
 10
237.1330761248048
 20
109.6174668352697
 10
238.4032467170219
 20
109.6174668352697
 10
239.0383320131305
 20
110.7174668352698
 10
238.4032467170219
 20
111.8174668352698
  0
CIRCLE
  5
2A6B6
102
{ACAD_REACTORS
330
2A81E
102
}
330
18
100
AcDbEntity
  8
Modules
100
AcDbCircle
 10
237.7681614209133
 20
99.0174668352698
 30
0.0
 40
2.45
  0
LWPOLYLINE
  5
2A6B7
102
{ACAD_REACTORS
330
2A81E
102
}
330
18
100
AcDbEntity
  8
Modules
100
AcDbPolyline
 90
        6
 70
     1
 43
0.0
 10
237.1330761248048
 20
100.1174668352698
 10
236.4979908286962
 20
99.0174668352698
 10
237.1330761248048
 20
97.91746683526978
 10
238.4032467170219
 20
97.91746683526978
 10
239.0383320131305
 20
99.0174668352698
 10
238.4032467170219
 20
100.1174668352698
  0
LWPOLYLINE
  5
2A6B8
102
{ACAD_REACTORS
330
2A81E
102
}
330
18
100
AcDbEntity
  8
Modules
100
AcDbPolyline
 90
        4
 70
     1
 43
0.0
 10
230.2681614209133
 20
224.4174668352698
 10
250.2481614209132
 20
224.4174668352698
 10
250.2481614209132
 20
96.01746683526981
 10
230.2681614209133
 20
96.01746683526981
  0
CIRCLE
  5
2A6B9
102
{ACAD_REACTORS
330
2A81E
102
}
330
18
100
AcDbEntity
  8
Modules
100
AcDbCircle
 10
240.0681614209132
 20
179.4674668352698
 30
0.0
 40
1.75
  0
CIRCLE
  5
2A6BA
102
{ACAD_REACTORS
330
2A81E
102
}
330
18
100
AcDbEntity
  8
Modules
100
AcDbCircle
 10
240.0681614209132
 20
166.7674668352697
 30
0.0
 40
1.75
  0
LWPOLYLINE
  5
2A6BB
102
{ACAD_REACTORS
330
2A81E
102
}
330
18
100
AcDbEntity
  8
Modules
100
AcDbPolyline
 90
        4
 70
     1
 43
0.0
 10
235.8931614209132
 20
184.8174668352697
 10
244.2431614209132
 20
184.8174668352697
 10
244.2431614209132
 20
174.1174668352697
 10
235.8931614209132
 20
174.1174668352697
  0
LWPOLYLINE
  5
2A6BC
102
{ACAD_REACTORS
330
2A81E
102
}
330
18
100
AcDbEntity
  8
Modules
100
AcDbPolyline
 90
        4
 70
     1
 43
0.0
 10
235.8931614209132
 20
172.1174668352696
 10
244.2431614209132
 20
172.1174668352696
 10
244.2431614209132
 20
161.4174668352698
 10
235.8931614209132
 20
161.4174668352698
  0
CIRCLE
  5
2A6BD
102
{ACAD_REACTORS
330
2A81E
102
}
330
18
100
AcDbEntity
  8
Modules
100
AcDbCircle
 10
240.0681614209132
 20
140.8674668352697
 30
0.0
 40
1.75
  0
CIRCLE
  5
2A6BE
102
{ACAD_REACTORS
330
2A81E
102
}
330
18
100
AcDbEntity
  8
Modules
100
AcDbCircle
 10
240.0681614209132
 20
128.1674668352697
 30
0.0
 40
1.75
  0
LWPOLYLINE
  5
2A6BF
102
{ACAD_REACTORS
330
2A81E
102
}
330
18
100
AcDbEntity
  8
Modules
100
AcDbPolyline
 90
        4
 70
     1
 43
0.0
 10
235.8931614209132
 20
146.2174668352698
 10
244.2431614209132
 20
146.2174668352698
 10
244.2431614209132
 20
135.5174668352697
 10
235.8931614209132
 20
135.5174668352697
  0
LWPOLYLINE
  5
2A6C0
102
{ACAD_REACTORS
330
2A81E
102
}
330
18
100
AcDbEntity
  8
Modules
100
AcDbPolyline
 90
        4
 70
     1
 43
0.0
 10
235.8931614209132
 20
133.5174668352697
 10
244.2431614209132
 20
133.5174668352697
 10
244.2431614209132
 20
122.8174668352698
 10
235.8931614209132
 20
122.8174668352698
  0
CIRCLE
  5
2A6C1
102
{ACAD_REACTORS
330
2A81E
102
}
330
18
100
AcDbEntity
  8
Modules
100
AcDbCircle
 10
257.3881614209135
 20
199.1174668352697
 30
0.0
 40
1.6
  0
CIRCLE
  5
2A6C2
102
{ACAD_REACTORS
330
2A81E
102
}
330
18
100
AcDbEntity
  8
Modules
100
AcDbCircle
 10
262.3881614209135
 20
199.1174668352697
 30
0.0
 40
1.6
  0
CIRCLE
  5
2A6C3
102
{ACAD_REACTORS
330
2A81E
102
}
330
18
100
AcDbEntity
  8
Modules
100
AcDbCircle
 10
262.3881614209135
 20
194.1174668352697
 30
0.0
 40
1.6
  0
CIRCLE
  5
2A6C4
102
{ACAD_REACTORS
330
2A81E
102
}
330
18
100
AcDbEntity
  8
Modules
100
AcDbCircle
 10
257.3881614209135
 20
194.1174668352697
 30
0.0
 40
1.6
  0
CIRCLE
  5
2A6C5
102
{ACAD_REACTORS
330
2A81E
102
}
330
18
100
AcDbEntity
  8
Modules
100
AcDbCircle
 10
262.3881614209135
 20
189.1174668352697
 30
0.0
 40
1.6
  0
CIRCLE
  5
2A6C6
102
{ACAD_REACTORS
330
2A81E
102
}
330
18
100
AcDbEntity
  8
Modules
100
AcDbCircle
 10
257.3881614209135
 20
189.1174668352697
 30
0.0
 40
1.6
  0
CIRCLE
  5
2A6C7
102
{ACAD_REACTORS
330
2A81E
102
}
330
18
100
AcDbEntity
  8
Modules
100
AcDbCircle
 10
258.0881614209133
 20
221.4174668352698
 30
0.0
 40
2.45
  0
LWPOLYLINE
  5
2A6C8
102
{ACAD_REACTORS
330
2A81E
102
}
330
18
100
AcDbEntity
  8
Modules
100
AcDbPolyline
 90
        6
 70
     1
 43
0.0
 10
257.4530761248048
 20
222.5174668352698
 10
256.8179908286962
 20
221.4174668352698
 10
257.4530761248048
 20
220.3174668352697
 10
258.723246717022
 20
220.3174668352697
 10
259.3583320131306
 20
221.4174668352698
 10
258.723246717022
 20
222.5174668352698
  0
CIRCLE
  5
2A6C9
102
{ACAD_REACTORS
330
2A81E
102
}
330
18
100
AcDbEntity
  8
Modules
100
AcDbCircle
 10
258.0881614209133
 20
209.7174668352698
 30
0.0
 40
2.45
  0
LWPOLYLINE
  5
2A6CA
102
{ACAD_REACTORS
330
2A81E
102
}
330
18
100
AcDbEntity
  8
Modules
100
AcDbPolyline
 90
        6
 70
     1
 43
0.0
 10
257.4530761248048
 20
210.8174668352698
 10
256.8179908286962
 20
209.7174668352698
 10
257.4530761248048
 20
208.6174668352698
 10
258.723246717022
 20
208.6174668352698
 10
259.3583320131306
 20
209.7174668352698
 10
258.723246717022
 20
210.8174668352698
  0
CIRCLE
  5
2A6CB
102
{ACAD_REACTORS
330
2A81E
102
}
330
18
100
AcDbEntity
  8
Modules
100
AcDbCircle
 10
258.0881614209133
 20
110.7174668352698
 30
0.0
 40
2.45
  0
LWPOLYLINE
  5
2A6CC
102
{ACAD_REACTORS
330
2A81E
102
}
330
18
100
AcDbEntity
  8
Modules
100
AcDbPolyline
 90
        6
 70
     1
 43
0.0
 10
257.4530761248048
 20
111.8174668352698
 10
256.8179908286962
 20
110.7174668352698
 10
257.4530761248048
 20
109.6174668352697
 10
258.723246717022
 20
109.6174668352697
 10
259.3583320131306
 20
110.7174668352698
 10
258.723246717022
 20
111.8174668352698
  0
CIRCLE
  5
2A6CD
102
{ACAD_REACTORS
330
2A81E
102
}
330
18
100
AcDbEntity
  8
Modules
100
AcDbCircle
 10
258.0881614209133
 20
99.0174668352698
 30
0.0
 40
2.45
  0
LWPOLYLINE
  5
2A6CE
102
{ACAD_REACTORS
330
2A81E
102
}
330
18
100
AcDbEntity
  8
Modules
100
AcDbPolyline
 90
        6
 70
     1
 43
0.0
 10
257.4530761248048
 20
100.1174668352698
 10
256.8179908286962
 20
99.0174668352698
 10
257.4530761248048
 20
97.91746683526978
 10
258.723246717022
 20
97.91746683526978
 10
259.3583320131306
 20
99.0174668352698
 10
258.723246717022
 20
100.1174668352698
  0
LWPOLYLINE
  5
2A6CF
102
{ACAD_REACTORS
330
2A81E
102
}
330
18
100
AcDbEntity
  8
Modules
100
AcDbPolyline
 90
        4
 70
     1
 43
0.0
 10
250.5881614209133
 20
224.4174668352698
 10
270.5681614209133
 20
224.4174668352698
 10
270.5681614209133
 20
96.01746683526981
 10
250.5881614209133
 20
96.01746683526981
  0
CIRCLE
  5
2A6DA
102
{ACAD_REACTORS
330
2A81E
102
}
330
18
100
AcDbEntity
  8
Modules
100
AcDbCircle
 10
278.4081614209134
 20
221.4174668352698
 30
0.0
 40
2.45
  0
LWPOLYLINE
  5
2A6DB
102
{ACAD_REACTORS
330
2A81E
102
}
330
18
100
AcDbEntity
  8
Modules
100
AcDbPolyline
 90
        6
 70
     1
 43
0.0
 10
277.7730761248047
 20
222.5174668352698
 10
277.1379908286962
 20
221.4174668352698
 10
277.7730761248047
 20
220.3174668352697
 10
279.043246717022
 20
220.3174668352697
 10
279.6783320131305
 20
221.4174668352698
 10
279.043246717022
 20
222.5174668352698
  0
CIRCLE
  5
2A6E0
102
{ACAD_REACTORS
330
2A81E
102
}
330
18
100
AcDbEntity
  8
Modules
100
AcDbCircle
 10
278.4081614209134
 20
99.0174668352698
 30
0.0
 40
2.45
  0
LWPOLYLINE
  5
2A6E1
102
{ACAD_REACTORS
330
2A81E
102
}
330
18
100
AcDbEntity
  8
Modules
100
AcDbPolyline
 90
        6
 70
     1
 43
0.0
 10
277.7730761248047
 20
100.1174668352698
 10
277.1379908286962
 20
99.0174668352698
 10
277.7730761248047
 20
97.91746683526978
 10
279.043246717022
 20
97.91746683526978
 10
279.6783320131305
 20
99.0174668352698
 10
279.043246717022
 20
100.1174668352698
  0
LWPOLYLINE
  5
2A6E2
102
{ACAD_REACTORS
330
2A81E
102
}
330
18
100
AcDbEntity
  8
Modules
100
AcDbPolyline
 90
        4
 70
     1
 43
0.0
 10
270.9081614209134
 20
224.4174668352698
 10
290.8881614209132
 20
224.4174668352698
 10
290.8881614209132
 20
96.01746683526981
 10
270.9081614209134
 20
96.01746683526981
  0
CIRCLE
  5
2A6F3
102
{ACAD_REACTORS
330
2A81E
102
}
330
18
100
AcDbEntity
  8
Modules
100
AcDbCircle
 10
298.0281614209135
 20
199.1174668352697
 30
0.0
 40
1.6
  0
CIRCLE
  5
2A6F4
102
{ACAD_REACTORS
330
2A81E
102
}
330
18
100
AcDbEntity
  8
Modules
100
AcDbCircle
 10
303.0281614209135
 20
199.1174668352697
 30
0.0
 40
1.6
  0
CIRCLE
  5
2A6F5
102
{ACAD_REACTORS
330
2A81E
102
}
330
18
100
AcDbEntity
  8
Modules
100
AcDbCircle
 10
303.0281614209135
 20
194.1174668352697
 30
0.0
 40
1.6
  0
CIRCLE
  5
2A6F6
102
{ACAD_REACTORS
330
2A81E
102
}
330
18
100
AcDbEntity
  8
Modules
100
AcDbCircle
 10
298.0281614209135
 20
194.1174668352697
 30
0.0
 40
1.6
  0
CIRCLE
  5
2A6F7
102
{ACAD_REACTORS
330
2A81E
102
}
330
18
100
AcDbEntity
  8
Modules
100
AcDbCircle
 10
303.0281614209135
 20
189.1174668352697
 30
0.0
 40
1.6
  0
CIRCLE
  5
2A6F8
102
{ACAD_REACTORS
330
2A81E
102
}
330
18
100
AcDbEntity
  8
Modules
100
AcDbCircle
 10
298.0281614209135
 20
189.1174668352697
 30
0.0
 40
1.6
  0
CIRCLE
  5
2A6F9
102
{ACAD_REACTORS
330
2A81E
102
}
330
18
100
AcDbEntity
  8
Modules
100
AcDbCircle
 10
298.7281614209134
 20
221.4174668352698
 30
0.0
 40
2.45
  0
LWPOLYLINE
  5
2A6FA
102
{ACAD_REACTORS
330
2A81E
102
}
330
18
100
AcDbEntity
  8
Modules
100
AcDbPolyline
 90
        6
 70
     1
 43
0.0
 10
298.0930761248048
 20
222.5174668352698
 10
297.4579908286962
 20
221.4174668352698
 10
298.0930761248048
 20
220.3174668352697
 10
299.3632467170219
 20
220.3174668352697
 10
299.9983320131306
 20
221.4174668352698
 10
299.3632467170219
 20
222.5174668352698
  0
CIRCLE
  5
2A6FB
102
{ACAD_REACTORS
330
2A81E
102
}
330
18
100
AcDbEntity
  8
Modules
100
AcDbCircle
 10
298.7281614209134
 20
209.7174668352698
 30
0.0
 40
2.45
  0
LWPOLYLINE
  5
2A6FC
102
{ACAD_REACTORS
330
2A81E
102
}
330
18
100
AcDbEntity
  8
Modules
100
AcDbPolyline
 90
        6
 70
     1
 43
0.0
 10
298.0930761248048
 20
210.8174668352698
 10
297.4579908286962
 20
209.7174668352698
 10
298.0930761248048
 20
208.6174668352698
 10
299.3632467170219
 20
208.6174668352698
 10
299.9983320131306
 20
209.7174668352698
 10
299.3632467170219
 20
210.8174668352698
  0
CIRCLE
  5
2A6FD
102
{ACAD_REACTORS
330
2A81E
102
}
330
18
100
AcDbEntity
  8
Modules
100
AcDbCircle
 10
298.7281614209134
 20
110.7174668352698
 30
0.0
 40
2.45
  0
LWPOLYLINE
  5
2A6FE
102
{ACAD_REACTORS
330
2A81E
102
}
330
18
100
AcDbEntity
  8
Modules
100
AcDbPolyline
 90
        6
 70
     1
 43
0.0
 10
298.0930761248048
 20
111.8174668352698
 10
297.4579908286962
 20
110.7174668352698
 10
298.0930761248048
 20
109.6174668352697
 10
299.3632467170219
 20
109.6174668352697
 10
299.9983320131306
 20
110.7174668352698
 10
299.3632467170219
 20
111.8174668352698
  0
CIRCLE
  5
2A6FF
102
{ACAD_REACTORS
330
2A81E
102
}
330
18
100
AcDbEntity
  8
Modules
100
AcDbCircle
 10
298.7281614209134
 20
99.0174668352698
 30
0.0
 40
2.45
  0
LWPOLYLINE
  5
2A700
102
{ACAD_REACTORS
330
2A81E
102
}
330
18
100
AcDbEntity
  8
Modules
100
AcDbPolyline
 90
        6
 70
     1
 43
0.0
 10
298.0930761248048
 20
100.1174668352698
 10
297.4579908286962
 20
99.0174668352698
 10
298.0930761248048
 20
97.91746683526978
 10
299.3632467170219
 20
97.91746683526978
 10
299.9983320131306
 20
99.0174668352698
 10
299.3632467170219
 20
100.1174668352698
  0
LWPOLYLINE
  5
2A701
102
{ACAD_REACTORS
330
2A81E
102
}
330
18
100
AcDbEntity
  8
Modules
100
AcDbPolyline
 90
        4
 70
     1
 43
0.0
 10
291.2281614209133
 20
224.4174668352698
 10
311.2081614209133
 20
224.4174668352698
 10
311.2081614209133
 20
96.01746683526981
 10
291.2281614209133
 20
96.01746683526981
  0
CIRCLE
  5
2A70C
102
{ACAD_REACTORS
330
2A81E
102
}
330
18
100
AcDbEntity
  8
Modules
100
AcDbCircle
 10
319.0481614209133
 20
221.4174668352698
 30
0.0
 40
2.45
  0
LWPOLYLINE
  5
2A70D
102
{ACAD_REACTORS
330
2A81E
102
}
330
18
100
AcDbEntity
  8
Modules
100
AcDbPolyline
 90
        6
 70
     1
 43
0.0
 10
318.4130761248047
 20
222.5174668352698
 10
317.7779908286962
 20
221.4174668352698
 10
318.4130761248047
 20
220.3174668352697
 10
319.683246717022
 20
220.3174668352697
 10
320.3183320131305
 20
221.4174668352698
 10
319.683246717022
 20
222.5174668352698
  0
CIRCLE
  5
2A712
102
{ACAD_REACTORS
330
2A81E
102
}
330
18
100
AcDbEntity
  8
Modules
100
AcDbCircle
 10
319.0481614209133
 20
99.0174668352698
 30
0.0
 40
2.45
  0
LWPOLYLINE
  5
2A713
102
{ACAD_REACTORS
330
2A81E
102
}
330
18
100
AcDbEntity
  8
Modules
100
AcDbPolyline
 90
        6
 70
     1
 43
0.0
 10
318.4130761248047
 20
100.1174668352698
 10
317.7779908286962
 20
99.0174668352698
 10
318.4130761248047
 20
97.91746683526978
 10
319.683246717022
 20
97.91746683526978
 10
320.3183320131305
 20
99.0174668352698
 10
319.683246717022
 20
100.1174668352698
  0
LWPOLYLINE
  5
2A714
102
{ACAD_REACTORS
330
2A81E
102
}
330
18
100
AcDbEntity
  8
Modules
100
AcDbPolyline
 90
        4
 70
     1
 43
0.0
 10
311.5481614209134
 20
224.4174668352698
 10
331.5281614209133
 20
224.4174668352698
 10
331.5281614209133
 20
96.01746683526981
 10
311.5481614209134
 20
96.01746683526981
  0
CIRCLE
  5
2A725
102
{ACAD_REACTORS
330
2A81E
102
}
330
18
100
AcDbEntity
  8
Modules
100
AcDbCircle
 10
338.6681614209134
 20
199.1174668352697
 30
0.0
 40
1.6
  0
CIRCLE
  5
2A726
102
{ACAD_REACTORS
330
2A81E
102
}
330
18
100
AcDbEntity
  8
Modules
100
AcDbCircle
 10
343.6681614209135
 20
199.1174668352697
 30
0.0
 40
1.6
  0
CIRCLE
  5
2A727
102
{ACAD_REACTORS
330
2A81E
102
}
330
18
100
AcDbEntity
  8
Modules
100
AcDbCircle
 10
338.6681614209136
 20
189.1174668352697
 30
0.0
 40
1.6
  0
CIRCLE
  5
2A728
102
{ACAD_REACTORS
330
2A81E
102
}
330
18
100
AcDbEntity
  8
Modules
100
AcDbCircle
 10
343.6681614209135
 20
189.1174668352697
 30
0.0
 40
1.6
  0
CIRCLE
  5
2A729
102
{ACAD_REACTORS
330
2A81E
102
}
330
18
100
AcDbEntity
  8
Modules
100
AcDbCircle
 10
338.6681614209136
 20
194.1174668352697
 30
0.0
 40
1.6
  0
CIRCLE
  5
2A72A
102
{ACAD_REACTORS
330
2A81E
102
}
330
18
100
AcDbEntity
  8
Modules
100
AcDbCircle
 10
343.6681614209135
 20
194.1174668352697
 30
0.0
 40
1.6
  0
LWPOLYLINE
  5
2A72B
102
{ACAD_REACTORS
330
2A81E
102
}
330
18
100
AcDbEntity
  8
Modules
100
AcDbPolyline
 90
        4
 70
     1
 43
0.0
 10
336.0681614209132
 20
160.0174668352697
 10
347.2681614209132
 20
160.0174668352697
 10
347.2681614209132
 20
186.2174668352698
 10
336.0681614209132
 20
186.2174668352698
  0
LWPOLYLINE
  5
2A72C
102
{ACAD_REACTORS
330
2A81E
102
}
330
18
100
AcDbEntity
  8
Modules
100
AcDbPolyline
 90
        4
 70
     1
 43
0.0
 10
336.0681614209132
 20
121.4174668352697
 10
347.2681614209132
 20
121.4174668352697
 10
347.2681614209132
 20
147.6174668352697
 10
336.0681614209132
 20
147.6174668352697
  0
CIRCLE
  5
2A72D
102
{ACAD_REACTORS
330
2A81E
102
}
330
18
100
AcDbEntity
  8
Modules
100
AcDbCircle
 10
343.6681614209135
 20
155.5175168352697
 30
0.0
 40
1.6
  0
CIRCLE
  5
2A72E
102
{ACAD_REACTORS
330
2A81E
102
}
330
18
100
AcDbEntity
  8
Modules
100
AcDbCircle
 10
338.6681614209134
 20
155.5175168352697
 30
0.0
 40
1.6
  0
CIRCLE
  5
2A72F
102
{ACAD_REACTORS
330
2A81E
102
}
330
18
100
AcDbEntity
  8
Modules
100
AcDbCircle
 10
343.6681614209135
 20
150.5174508352697
 30
0.0
 40
1.6
  0
CIRCLE
  5
2A730
102
{ACAD_REACTORS
330
2A81E
102
}
330
18
100
AcDbEntity
  8
Modules
100
AcDbCircle
 10
338.6681614209134
 20
150.5174508352698
 30
0.0
 40
1.6
  0
CIRCLE
  5
2A731
102
{ACAD_REACTORS
330
2A81E
102
}
330
18
100
AcDbEntity
  8
Modules
100
AcDbCircle
 10
339.3681614209133
 20
221.4174668352698
 30
0.0
 40
2.45
  0
LWPOLYLINE
  5
2A732
102
{ACAD_REACTORS
330
2A81E
102
}
330
18
100
AcDbEntity
  8
Modules
100
AcDbPolyline
 90
        6
 70
     1
 43
0.0
 10
338.7330761248048
 20
222.5174668352698
 10
338.0979908286962
 20
221.4174668352698
 10
338.7330761248048
 20
220.3174668352697
 10
340.0032467170219
 20
220.3174668352697
 10
340.6383320131305
 20
221.4174668352698
 10
340.0032467170219
 20
222.5174668352698
  0
CIRCLE
  5
2A733
102
{ACAD_REACTORS
330
2A81E
102
}
330
18
100
AcDbEntity
  8
Modules
100
AcDbCircle
 10
339.3681614209133
 20
209.7174668352698
 30
0.0
 40
2.45
  0
LWPOLYLINE
  5
2A734
102
{ACAD_REACTORS
330
2A81E
102
}
330
18
100
AcDbEntity
  8
Modules
100
AcDbPolyline
 90
        6
 70
     1
 43
0.0
 10
338.7330761248048
 20
210.8174668352698
 10
338.0979908286962
 20
209.7174668352698
 10
338.7330761248048
 20
208.6174668352698
 10
340.0032467170219
 20
208.6174668352698
 10
340.6383320131305
 20
209.7174668352698
 10
340.0032467170219
 20
210.8174668352698
  0
CIRCLE
  5
2A735
102
{ACAD_REACTORS
330
2A81E
102
}
330
18
100
AcDbEntity
  8
Modules
100
AcDbCircle
 10
339.3681614209133
 20
110.7174668352698
 30
0.0
 40
2.45
  0
LWPOLYLINE
  5
2A736
102
{ACAD_REACTORS
330
2A81E
102
}
330
18
100
AcDbEntity
  8
Modules
100
AcDbPolyline
 90
        6
 70
     1
 43
0.0
 10
338.7330761248048
 20
111.8174668352698
 10
338.0979908286962
 20
110.7174668352698
 10
338.7330761248048
 20
109.6174668352697
 10
340.0032467170219
 20
109.6174668352697
 10
340.6383320131305
 20
110.7174668352698
 10
340.0032467170219
 20
111.8174668352698
  0
CIRCLE
  5
2A737
102
{ACAD_REACTORS
330
2A81E
102
}
330
18
100
AcDbEntity
  8
Modules
100
AcDbCircle
 10
339.3681614209133
 20
99.0174668352698
 30
0.0
 40
2.45
  0
LWPOLYLINE
  5
2A738
102
{ACAD_REACTORS
330
2A81E
102
}
330
18
100
AcDbEntity
  8
Modules
100
AcDbPolyline
 90
        6
 70
     1
 43
0.0
 10
338.7330761248048
 20
100.1174668352698
 10
338.0979908286962
 20
99.0174668352698
 10
338.7330761248048
 20
97.91746683526978
 10
340.0032467170219
 20
97.91746683526978
 10
340.6383320131305
 20
99.0174668352698
 10
340.0032467170219
 20
100.1174668352698
  0
LWPOLYLINE
  5
2A739
102
{ACAD_REACTORS
330
2A81E
102
}
330
18
100
AcDbEntity
  8
Modules
100
AcDbPolyline
 90
        4
 70
     1
 43
0.0
 10
331.8681614209133
 20
224.4174668352698
 10
351.8481614209132
 20
224.4174668352698
 10
351.8481614209132
 20
96.01746683526981
 10
331.8681614209133
 20
96.01746683526981
  0
CIRCLE
  5
2A73A
102
{ACAD_REACTORS
330
2A81E
102
}
330
18
100
AcDbEntity
  8
Modules
100
AcDbCircle
 10
341.6681614209132
 20
179.4674668352698
 30
0.0
 40
1.75
  0
CIRCLE
  5
2A73B
102
{ACAD_REACTORS
330
2A81E
102
}
330
18
100
AcDbEntity
  8
Modules
100
AcDbCircle
 10
341.6681614209132
 20
166.7674668352697
 30
0.0
 40
1.75
  0
LWPOLYLINE
  5
2A73C
102
{ACAD_REACTORS
330
2A81E
102
}
330
18
100
AcDbEntity
  8
Modules
100
AcDbPolyline
 90
        4
 70
     1
 43
0.0
 10
337.4931614209132
 20
184.8174668352697
 10
345.8431614209132
 20
184.8174668352697
 10
345.8431614209132
 20
174.1174668352697
 10
337.4931614209132
 20
174.1174668352697
  0
LWPOLYLINE
  5
2A73D
102
{ACAD_REACTORS
330
2A81E
102
}
330
18
100
AcDbEntity
  8
Modules
100
AcDbPolyline
 90
        4
 70
     1
 43
0.0
 10
337.4931614209132
 20
172.1174668352696
 10
345.8431614209132
 20
172.1174668352696
 10
345.8431614209132
 20
161.4174668352698
 10
337.4931614209132
 20
161.4174668352698
  0
CIRCLE
  5
2A73E
102
{ACAD_REACTORS
330
2A81E
102
}
330
18
100
AcDbEntity
  8
Modules
100
AcDbCircle
 10
341.6681614209132
 20
140.8674668352697
 30
0.0
 40
1.75
  0
CIRCLE
  5
2A73F
102
{ACAD_REACTORS
330
2A81E
102
}
330
18
100
AcDbEntity
  8
Modules
100
AcDbCircle
 10
341.6681614209132
 20
128.1674668352697
 30
0.0
 40
1.75
  0
LWPOLYLINE
  5
2A740
102
{ACAD_REACTORS
330
2A81E
102
}
330
18
100
AcDbEntity
  8
Modules
100
AcDbPolyline
 90
        4
 70
     1
 43
0.0
 10
337.4931614209132
 20
146.2174668352698
 10
345.8431614209132
 20
146.2174668352698
 10
345.8431614209132
 20
135.5174668352697
 10
337.4931614209132
 20
135.5174668352697
  0
LWPOLYLINE
  5
2A741
102
{ACAD_REACTORS
330
2A81E
102
}
330
18
100
AcDbEntity
  8
Modules
100
AcDbPolyline
 90
        4
 70
     1
 43
0.0
 10
337.4931614209132
 20
133.5174668352697
 10
345.8431614209132
 20
133.5174668352697
 10
345.8431614209132
 20
122.8174668352698
 10
337.4931614209132
 20
122.8174668352698
  0
CIRCLE
  5
2A742
102
{ACAD_REACTORS
330
2A81E
102
}
330
18
100
AcDbEntity
  8
Modules
100
AcDbCircle
 10
358.9881614209135
 20
199.1174668352697
 30
0.0
 40
1.6
  0
CIRCLE
  5
2A743
102
{ACAD_REACTORS
330
2A81E
102
}
330
18
100
AcDbEntity
  8
Modules
100
AcDbCircle
 10
363.9881614209135
 20
199.1174668352697
 30
0.0
 40
1.6
  0
CIRCLE
  5
2A744
102
{ACAD_REACTORS
330
2A81E
102
}
330
18
100
AcDbEntity
  8
Modules
100
AcDbCircle
 10
358.9881614209135
 20
189.1174668352697
 30
0.0
 40
1.6
  0
CIRCLE
  5
2A745
102
{ACAD_REACTORS
330
2A81E
102
}
330
18
100
AcDbEntity
  8
Modules
100
AcDbCircle
 10
363.9881614209135
 20
189.1174668352697
 30
0.0
 40
1.6
  0
CIRCLE
  5
2A746
102
{ACAD_REACTORS
330
2A81E
102
}
330
18
100
AcDbEntity
  8
Modules
100
AcDbCircle
 10
358.9881614209135
 20
194.1174668352697
 30
0.0
 40
1.6
  0
CIRCLE
  5
2A747
102
{ACAD_REACTORS
330
2A81E
102
}
330
18
100
AcDbEntity
  8
Modules
100
AcDbCircle
 10
363.9881614209135
 20
194.1174668352697
 30
0.0
 40
1.6
  0
LWPOLYLINE
  5
2A748
102
{ACAD_REACTORS
330
2A81E
102
}
330
18
100
AcDbEntity
  8
Modules
100
AcDbPolyline
 90
        4
 70
     1
 43
0.0
 10
356.3881614209132
 20
160.0174668352697
 10
367.5881614209132
 20
160.0174668352697
 10
367.5881614209132
 20
186.2174668352698
 10
356.3881614209132
 20
186.2174668352698
  0
LWPOLYLINE
  5
2A749
102
{ACAD_REACTORS
330
2A81E
102
}
330
18
100
AcDbEntity
  8
Modules
100
AcDbPolyline
 90
        4
 70
     1
 43
0.0
 10
356.3881614209132
 20
121.4174668352697
 10
367.5881614209132
 20
121.4174668352697
 10
367.5881614209132
 20
147.6174668352697
 10
356.3881614209132
 20
147.6174668352697
  0
CIRCLE
  5
2A74A
102
{ACAD_REACTORS
330
2A81E
102
}
330
18
100
AcDbEntity
  8
Modules
100
AcDbCircle
 10
363.9881614209135
 20
155.5175168352697
 30
0.0
 40
1.6
  0
CIRCLE
  5
2A74B
102
{ACAD_REACTORS
330
2A81E
102
}
330
18
100
AcDbEntity
  8
Modules
100
AcDbCircle
 10
358.9881614209135
 20
155.5175168352697
 30
0.0
 40
1.6
  0
CIRCLE
  5
2A74C
102
{ACAD_REACTORS
330
2A81E
102
}
330
18
100
AcDbEntity
  8
Modules
100
AcDbCircle
 10
363.9881614209135
 20
150.5174508352697
 30
0.0
 40
1.6
  0
CIRCLE
  5
2A74D
102
{ACAD_REACTORS
330
2A81E
102
}
330
18
100
AcDbEntity
  8
Modules
100
AcDbCircle
 10
358.9881614209135
 20
150.5174508352698
 30
0.0
 40
1.6
  0
CIRCLE
  5
2A74E
102
{ACAD_REACTORS
330
2A81E
102
}
330
18
100
AcDbEntity
  8
Modules
100
AcDbCircle
 10
359.6881614209133
 20
221.4174668352698
 30
0.0
 40
2.45
  0
LWPOLYLINE
  5
2A74F
102
{ACAD_REACTORS
330
2A81E
102
}
330
18
100
AcDbEntity
  8
Modules
100
AcDbPolyline
 90
        6
 70
     1
 43
0.0
 10
359.0530761248047
 20
222.5174668352698
 10
358.4179908286962
 20
221.4174668352698
 10
359.0530761248047
 20
220.3174668352697
 10
360.323246717022
 20
220.3174668352697
 10
360.9583320131305
 20
221.4174668352698
 10
360.323246717022
 20
222.5174668352698
  0
CIRCLE
  5
2A750
102
{ACAD_REACTORS
330
2A81E
102
}
330
18
100
AcDbEntity
  8
Modules
100
AcDbCircle
 10
359.6881614209133
 20
209.7174668352698
 30
0.0
 40
2.45
  0
LWPOLYLINE
  5
2A751
102
{ACAD_REACTORS
330
2A81E
102
}
330
18
100
AcDbEntity
  8
Modules
100
AcDbPolyline
 90
        6
 70
     1
 43
0.0
 10
359.0530761248047
 20
210.8174668352698
 10
358.4179908286962
 20
209.7174668352698
 10
359.0530761248047
 20
208.6174668352698
 10
360.323246717022
 20
208.6174668352698
 10
360.9583320131305
 20
209.7174668352698
 10
360.323246717022
 20
210.8174668352698
  0
CIRCLE
  5
2A752
102
{ACAD_REACTORS
330
2A81E
102
}
330
18
100
AcDbEntity
  8
Modules
100
AcDbCircle
 10
359.6881614209133
 20
110.7174668352698
 30
0.0
 40
2.45
  0
LWPOLYLINE
  5
2A753
102
{ACAD_REACTORS
330
2A81E
102
}
330
18
100
AcDbEntity
  8
Modules
100
AcDbPolyline
 90
        6
 70
     1
 43
0.0
 10
359.0530761248047
 20
111.8174668352698
 10
358.4179908286962
 20
110.7174668352698
 10
359.0530761248047
 20
109.6174668352697
 10
360.323246717022
 20
109.6174668352697
 10
360.9583320131305
 20
110.7174668352698
 10
360.323246717022
 20
111.8174668352698
  0
CIRCLE
  5
2A754
102
{ACAD_REACTORS
330
2A81E
102
}
330
18
100
AcDbEntity
  8
Modules
100
AcDbCircle
 10
359.6881614209133
 20
99.0174668352698
 30
0.0
 40
2.45
  0
LWPOLYLINE
  5
2A755
102
{ACAD_REACTORS
330
2A81E
102
}
330
18
100
AcDbEntity
  8
Modules
100
AcDbPolyline
 90
        6
 70
     1
 43
0.0
 10
359.0530761248047
 20
100.1174668352698
 10
358.4179908286962
 20
99.0174668352698
 10
359.0530761248047
 20
97.91746683526978
 10
360.323246717022
 20
97.91746683526978
 10
360.9583320131305
 20
99.0174668352698
 10
360.323246717022
 20
100.1174668352698
  0
LWPOLYLINE
  5
2A756
102
{ACAD_REACTORS
330
2A81E
102
}
330
18
100
AcDbEntity
  8
Modules
100
AcDbPolyline
 90
        4
 70
     1
 43
0.0
 10
352.1881614209133
 20
224.4174668352698
 10
372.1681614209132
 20
224.4174668352698
 10
372.1681614209132
 20
96.01746683526981
 10
352.1881614209133
 20
96.01746683526981
  0
CIRCLE
  5
2A757
102
{ACAD_REACTORS
330
2A81E
102
}
330
18
100
AcDbEntity
  8
Modules
100
AcDbCircle
 10
361.9881614209132
 20
179.4674668352698
 30
0.0
 40
1.75
  0
CIRCLE
  5
2A758
102
{ACAD_REACTORS
330
2A81E
102
}
330
18
100
AcDbEntity
  8
Modules
100
AcDbCircle
 10
361.9881614209132
 20
166.7674668352697
 30
0.0
 40
1.75
  0
LWPOLYLINE
  5
2A759
102
{ACAD_REACTORS
330
2A81E
102
}
330
18
100
AcDbEntity
  8
Modules
100
AcDbPolyline
 90
        4
 70
     1
 43
0.0
 10
357.8131614209132
 20
184.8174668352697
 10
366.1631614209132
 20
184.8174668352697
 10
366.1631614209132
 20
174.1174668352697
 10
357.8131614209132
 20
174.1174668352697
  0
LWPOLYLINE
  5
2A75A
102
{ACAD_REACTORS
330
2A81E
102
}
330
18
100
AcDbEntity
  8
Modules
100
AcDbPolyline
 90
        4
 70
     1
 43
0.0
 10
357.8131614209132
 20
172.1174668352696
 10
366.1631614209132
 20
172.1174668352696
 10
366.1631614209132
 20
161.4174668352698
 10
357.8131614209132
 20
161.4174668352698
  0
CIRCLE
  5
2A75B
102
{ACAD_REACTORS
330
2A81E
102
}
330
18
100
AcDbEntity
  8
Modules
100
AcDbCircle
 10
361.9881614209132
 20
140.8674668352697
 30
0.0
 40
1.75
  0
CIRCLE
  5
2A75C
102
{ACAD_REACTORS
330
2A81E
102
}
330
18
100
AcDbEntity
  8
Modules
100
AcDbCircle
 10
361.9881614209132
 20
128.1674668352697
 30
0.0
 40
1.75
  0
LWPOLYLINE
  5
2A75D
102
{ACAD_REACTORS
330
2A81E
102
}
330
18
100
AcDbEntity
  8
Modules
100
AcDbPolyline
 90
        4
 70
     1
 43
0.0
 10
357.8131614209132
 20
146.2174668352698
 10
366.1631614209132
 20
146.2174668352698
 10
366.1631614209132
 20
135.5174668352697
 10
357.8131614209132
 20
135.5174668352697
  0
LWPOLYLINE
  5
2A75E
102
{ACAD_REACTORS
330
2A81E
102
}
330
18
100
AcDbEntity
  8
Modules
100
AcDbPolyline
 90
        4
 70
     1
 43
0.0
 10
357.8131614209132
 20
133.5174668352697
 10
366.1631614209132
 20
133.5174668352697
 10
366.1631614209132
 20
122.8174668352698
 10
357.8131614209132
 20
122.8174668352698
  0
CIRCLE
  5
2A75F
102
{ACAD_REACTORS
330
2A81E
102
}
330
18
100
AcDbEntity
  8
Modules
100
AcDbCircle
 10
379.3081614209135
 20
199.1174668352697
 30
0.0
 40
1.6
  0
CIRCLE
  5
2A760
102
{ACAD_REACTORS
330
2A81E
102
}
330
18
100
AcDbEntity
  8
Modules
100
AcDbCircle
 10
384.3081614209135
 20
199.1174668352697
 30
0.0
 40
1.6
  0
CIRCLE
  5
2A761
102
{ACAD_REACTORS
330
2A81E
102
}
330
18
100
AcDbEntity
  8
Modules
100
AcDbCircle
 10
379.3081614209136
 20
189.1174668352697
 30
0.0
 40
1.6
  0
CIRCLE
  5
2A762
102
{ACAD_REACTORS
330
2A81E
102
}
330
18
100
AcDbEntity
  8
Modules
100
AcDbCircle
 10
384.3081614209135
 20
189.1174668352697
 30
0.0
 40
1.6
  0
CIRCLE
  5
2A763
102
{ACAD_REACTORS
330
2A81E
102
}
330
18
100
AcDbEntity
  8
Modules
100
AcDbCircle
 10
379.3081614209136
 20
194.1174668352697
 30
0.0
 40
1.6
  0
CIRCLE
  5
2A764
102
{ACAD_REACTORS
330
2A81E
102
}
330
18
100
AcDbEntity
  8
Modules
100
AcDbCircle
 10
384.3081614209135
 20
194.1174668352697
 30
0.0
 40
1.6
  0
LWPOLYLINE
  5
2A765
102
{ACAD_REACTORS
330
2A81E
102
}
330
18
100
AcDbEntity
  8
Modules
100
AcDbPolyline
 90
        4
 70
     1
 43
0.0
 10
376.7081614209132
 20
160.0174668352697
 10
387.9081614209132
 20
160.0174668352697
 10
387.9081614209132
 20
186.2174668352698
 10
376.7081614209132
 20
186.2174668352698
  0
LWPOLYLINE
  5
2A766
102
{ACAD_REACTORS
330
2A81E
102
}
330
18
100
AcDbEntity
  8
Modules
100
AcDbPolyline
 90
        4
 70
     1
 43
0.0
 10
376.7081614209132
 20
121.4174668352697
 10
387.9081614209132
 20
121.4174668352697
 10
387.9081614209132
 20
147.6174668352697
 10
376.7081614209132
 20
147.6174668352697
  0
CIRCLE
  5
2A767
102
{ACAD_REACTORS
330
2A81E
102
}
330
18
100
AcDbEntity
  8
Modules
100
AcDbCircle
 10
384.3081614209135
 20
155.5175168352697
 30
0.0
 40
1.6
  0
CIRCLE
  5
2A768
102
{ACAD_REACTORS
330
2A81E
102
}
330
18
100
AcDbEntity
  8
Modules
100
AcDbCircle
 10
379.3081614209135
 20
155.5175168352697
 30
0.0
 40
1.6
  0
CIRCLE
  5
2A769
102
{ACAD_REACTORS
330
2A81E
102
}
330
18
100
AcDbEntity
  8
Modules
100
AcDbCircle
 10
384.3081614209135
 20
150.5174508352697
 30
0.0
 40
1.6
  0
CIRCLE
  5
2A76A
102
{ACAD_REACTORS
330
2A81E
102
}
330
18
100
AcDbEntity
  8
Modules
100
AcDbCircle
 10
379.3081614209135
 20
150.5174508352698
 30
0.0
 40
1.6
  0
CIRCLE
  5
2A76B
102
{ACAD_REACTORS
330
2A81E
102
}
330
18
100
AcDbEntity
  8
Modules
100
AcDbCircle
 10
380.0081614209133
 20
221.4174668352698
 30
0.0
 40
2.45
  0
LWPOLYLINE
  5
2A76C
102
{ACAD_REACTORS
330
2A81E
102
}
330
18
100
AcDbEntity
  8
Modules
100
AcDbPolyline
 90
        6
 70
     1
 43
0.0
 10
379.3730761248048
 20
222.5174668352698
 10
378.7379908286962
 20
221.4174668352698
 10
379.3730761248048
 20
220.3174668352697
 10
380.6432467170219
 20
220.3174668352697
 10
381.2783320131305
 20
221.4174668352698
 10
380.6432467170219
 20
222.5174668352698
  0
CIRCLE
  5
2A76D
102
{ACAD_REACTORS
330
2A81E
102
}
330
18
100
AcDbEntity
  8
Modules
100
AcDbCircle
 10
380.0081614209133
 20
209.7174668352698
 30
0.0
 40
2.45
  0
LWPOLYLINE
  5
2A76E
102
{ACAD_REACTORS
330
2A81E
102
}
330
18
100
AcDbEntity
  8
Modules
100
AcDbPolyline
 90
        6
 70
     1
 43
0.0
 10
379.3730761248048
 20
210.8174668352698
 10
378.7379908286962
 20
209.7174668352698
 10
379.3730761248048
 20
208.6174668352698
 10
380.6432467170219
 20
208.6174668352698
 10
381.2783320131305
 20
209.7174668352698
 10
380.6432467170219
 20
210.8174668352698
  0
CIRCLE
  5
2A76F
102
{ACAD_REACTORS
330
2A81E
102
}
330
18
100
AcDbEntity
  8
Modules
100
AcDbCircle
 10
380.0081614209133
 20
110.7174668352698
 30
0.0
 40
2.45
  0
LWPOLYLINE
  5
2A770
102
{ACAD_REACTORS
330
2A81E
102
}
330
18
100
AcDbEntity
  8
Modules
100
AcDbPolyline
 90
        6
 70
     1
 43
0.0
 10
379.3730761248048
 20
111.8174668352698
 10
378.7379908286962
 20
110.7174668352698
 10
379.3730761248048
 20
109.6174668352697
 10
380.6432467170219
 20
109.6174668352697
 10
381.2783320131305
 20
110.7174668352698
 10
380.6432467170219
 20
111.8174668352698
  0
CIRCLE
  5
2A771
102
{ACAD_REACTORS
330
2A81E
102
}
330
18
100
AcDbEntity
  8
Modules
100
AcDbCircle
 10
380.0081614209133
 20
99.0174668352698
 30
0.0
 40
2.45
  0
LWPOLYLINE
  5
2A772
102
{ACAD_REACTORS
330
2A81E
102
}
330
18
100
AcDbEntity
  8
Modules
100
AcDbPolyline
 90
        6
 70
     1
 43
0.0
 10
379.3730761248048
 20
100.1174668352698
 10
378.7379908286962
 20
99.0174668352698
 10
379.3730761248048
 20
97.91746683526978
 10
380.6432467170219
 20
97.91746683526978
 10
381.2783320131305
 20
99.0174668352698
 10
380.6432467170219
 20
100.1174668352698
  0
LWPOLYLINE
  5
2A773
102
{ACAD_REACTORS
330
2A81E
102
}
330
18
100
AcDbEntity
  8
Modules
100
AcDbPolyline
 90
        4
 70
     1
 43
0.0
 10
372.5081614209133
 20
224.4174668352698
 10
392.4881614209132
 20
224.4174668352698
 10
392.4881614209132
 20
96.01746683526981
 10
372.5081614209133
 20
96.01746683526981
  0
CIRCLE
  5
2A774
102
{ACAD_REACTORS
330
2A81E
102
}
330
18
100
AcDbEntity
  8
Modules
100
AcDbCircle
 10
382.3081614209132
 20
179.4674668352698
 30
0.0
 40
1.75
  0
CIRCLE
  5
2A775
102
{ACAD_REACTORS
330
2A81E
102
}
330
18
100
AcDbEntity
  8
Modules
100
AcDbCircle
 10
382.3081614209132
 20
166.7674668352697
 30
0.0
 40
1.75
  0
LWPOLYLINE
  5
2A776
102
{ACAD_REACTORS
330
2A81E
102
}
330
18
100
AcDbEntity
  8
Modules
100
AcDbPolyline
 90
        4
 70
     1
 43
0.0
 10
378.1331614209132
 20
184.8174668352697
 10
386.4831614209133
 20
184.8174668352697
 10
386.4831614209133
 20
174.1174668352697
 10
378.1331614209132
 20
174.1174668352697
  0
LWPOLYLINE
  5
2A777
102
{ACAD_REACTORS
330
2A81E
102
}
330
18
100
AcDbEntity
  8
Modules
100
AcDbPolyline
 90
        4
 70
     1
 43
0.0
 10
378.1331614209132
 20
172.1174668352696
 10
386.4831614209132
 20
172.1174668352696
 10
386.4831614209132
 20
161.4174668352698
 10
378.1331614209132
 20
161.4174668352698
  0
CIRCLE
  5
2A778
102
{ACAD_REACTORS
330
2A81E
102
}
330
18
100
AcDbEntity
  8
Modules
100
AcDbCircle
 10
382.3081614209132
 20
140.8674668352697
 30
0.0
 40
1.75
  0
CIRCLE
  5
2A779
102
{ACAD_REACTORS
330
2A81E
102
}
330
18
100
AcDbEntity
  8
Modules
100
AcDbCircle
 10
382.3081614209132
 20
128.1674668352697
 30
0.0
 40
1.75
  0
LWPOLYLINE
  5
2A77A
102
{ACAD_REACTORS
330
2A81E
102
}
330
18
100
AcDbEntity
  8
Modules
100
AcDbPolyline
 90
        4
 70
     1
 43
0.0
 10
378.1331614209132
 20
146.2174668352698
 10
386.4831614209133
 20
146.2174668352698
 10
386.4831614209133
 20
135.5174668352697
 10
378.1331614209132
 20
135.5174668352697
  0
LWPOLYLINE
  5
2A77B
102
{ACAD_REACTORS
330
2A81E
102
}
330
18
100
AcDbEntity
  8
Modules
100
AcDbPolyline
 90
        4
 70
     1
 43
0.0
 10
378.1331614209132
 20
133.5174668352697
 10
386.4831614209132
 20
133.5174668352697
 10
386.4831614209132
 20
122.8174668352698
 10
378.1331614209132
 20
122.8174668352698
  0
CIRCLE
  5
2A77C
102
{ACAD_REACTORS
330
2A81E
102
}
330
18
100
AcDbEntity
  8
Modules
100
AcDbCircle
 10
399.6281614209135
 20
199.1174668352697
 30
0.0
 40
1.6
  0
CIRCLE
  5
2A77D
102
{ACAD_REACTORS
330
2A81E
102
}
330
18
100
AcDbEntity
  8
Modules
100
AcDbCircle
 10
404.6281614209134
 20
199.1174668352697
 30
0.0
 40
1.6
  0
CIRCLE
  5
2A77E
102
{ACAD_REACTORS
330
2A81E
102
}
330
18
100
AcDbEntity
  8
Modules
100
AcDbCircle
 10
399.6281614209136
 20
189.1174668352697
 30
0.0
 40
1.6
  0
CIRCLE
  5
2A77F
102
{ACAD_REACTORS
330
2A81E
102
}
330
18
100
AcDbEntity
  8
Modules
100
AcDbCircle
 10
404.6281614209134
 20
189.1174668352697
 30
0.0
 40
1.6
  0
CIRCLE
  5
2A780
102
{ACAD_REACTORS
330
2A81E
102
}
330
18
100
AcDbEntity
  8
Modules
100
AcDbCircle
 10
399.6281614209136
 20
194.1174668352697
 30
0.0
 40
1.6
  0
CIRCLE
  5
2A781
102
{ACAD_REACTORS
330
2A81E
102
}
330
18
100
AcDbEntity
  8
Modules
100
AcDbCircle
 10
404.6281614209134
 20
194.1174668352697
 30
0.0
 40
1.6
  0
LWPOLYLINE
  5
2A782
102
{ACAD_REACTORS
330
2A81E
102
}
330
18
100
AcDbEntity
  8
Modules
100
AcDbPolyline
 90
        4
 70
     1
 43
0.0
 10
397.0281614209132
 20
160.0174668352697
 10
408.2281614209131
 20
160.0174668352697
 10
408.2281614209131
 20
186.2174668352698
 10
397.0281614209132
 20
186.2174668352698
  0
LWPOLYLINE
  5
2A783
102
{ACAD_REACTORS
330
2A81E
102
}
330
18
100
AcDbEntity
  8
Modules
100
AcDbPolyline
 90
        4
 70
     1
 43
0.0
 10
397.0281614209132
 20
121.4174668352697
 10
408.2281614209131
 20
121.4174668352697
 10
408.2281614209131
 20
147.6174668352697
 10
397.0281614209132
 20
147.6174668352697
  0
CIRCLE
  5
2A784
102
{ACAD_REACTORS
330
2A81E
102
}
330
18
100
AcDbEntity
  8
Modules
100
AcDbCircle
 10
404.6281614209134
 20
155.5175168352697
 30
0.0
 40
1.6
  0
CIRCLE
  5
2A785
102
{ACAD_REACTORS
330
2A81E
102
}
330
18
100
AcDbEntity
  8
Modules
100
AcDbCircle
 10
399.6281614209135
 20
155.5175168352697
 30
0.0
 40
1.6
  0
CIRCLE
  5
2A786
102
{ACAD_REACTORS
330
2A81E
102
}
330
18
100
AcDbEntity
  8
Modules
100
AcDbCircle
 10
404.6281614209134
 20
150.5174508352697
 30
0.0
 40
1.6
  0
CIRCLE
  5
2A787
102
{ACAD_REACTORS
330
2A81E
102
}
330
18
100
AcDbEntity
  8
Modules
100
AcDbCircle
 10
399.6281614209135
 20
150.5174508352698
 30
0.0
 40
1.6
  0
CIRCLE
  5
2A788
102
{ACAD_REACTORS
330
2A81E
102
}
330
18
100
AcDbEntity
  8
Modules
100
AcDbCircle
 10
400.3281614209133
 20
221.4174668352698
 30
0.0
 40
2.45
  0
LWPOLYLINE
  5
2A789
102
{ACAD_REACTORS
330
2A81E
102
}
330
18
100
AcDbEntity
  8
Modules
100
AcDbPolyline
 90
        6
 70
     1
 43
0.0
 10
399.6930761248048
 20
222.5174668352698
 10
399.0579908286962
 20
221.4174668352698
 10
399.6930761248048
 20
220.3174668352697
 10
400.9632467170219
 20
220.3174668352697
 10
401.5983320131305
 20
221.4174668352698
 10
400.9632467170219
 20
222.5174668352698
  0
CIRCLE
  5
2A78A
102
{ACAD_REACTORS
330
2A81E
102
}
330
18
100
AcDbEntity
  8
Modules
100
AcDbCircle
 10
400.3281614209133
 20
209.7174668352698
 30
0.0
 40
2.45
  0
LWPOLYLINE
  5
2A78B
102
{ACAD_REACTORS
330
2A81E
102
}
330
18
100
AcDbEntity
  8
Modules
100
AcDbPolyline
 90
        6
 70
     1
 43
0.0
 10
399.6930761248048
 20
210.8174668352698
 10
399.0579908286962
 20
209.7174668352698
 10
399.6930761248048
 20
208.6174668352698
 10
400.9632467170219
 20
208.6174668352698
 10
401.5983320131305
 20
209.7174668352698
 10
400.9632467170219
 20
210.8174668352698
  0
CIRCLE
  5
2A78C
102
{ACAD_REACTORS
330
2A81E
102
}
330
18
100
AcDbEntity
  8
Modules
100
AcDbCircle
 10
400.3281614209133
 20
110.7174668352698
 30
0.0
 40
2.45
  0
LWPOLYLINE
  5
2A78D
102
{ACAD_REACTORS
330
2A81E
102
}
330
18
100
AcDbEntity
  8
Modules
100
AcDbPolyline
 90
        6
 70
     1
 43
0.0
 10
399.6930761248048
 20
111.8174668352698
 10
399.0579908286962
 20
110.7174668352698
 10
399.6930761248048
 20
109.6174668352697
 10
400.9632467170219
 20
109.6174668352697
 10
401.5983320131305
 20
110.7174668352698
 10
400.9632467170219
 20
111.8174668352698
  0
CIRCLE
  5
2A78E
102
{ACAD_REACTORS
330
2A81E
102
}
330
18
100
AcDbEntity
  8
Modules
100
AcDbCircle
 10
400.3281614209133
 20
99.0174668352698
 30
0.0
 40
2.45
  0
LWPOLYLINE
  5
2A78F
102
{ACAD_REACTORS
330
2A81E
102
}
330
18
100
AcDbEntity
  8
Modules
100
AcDbPolyline
 90
        6
 70
     1
 43
0.0
 10
399.6930761248048
 20
100.1174668352698
 10
399.0579908286962
 20
99.0174668352698
 10
399.6930761248048
 20
97.91746683526978
 10
400.9632467170219
 20
97.91746683526978
 10
401.5983320131305
 20
99.0174668352698
 10
400.9632467170219
 20
100.1174668352698
  0
LWPOLYLINE
  5
2A790
102
{ACAD_REACTORS
330
2A81E
102
}
330
18
100
AcDbEntity
  8
Modules
100
AcDbPolyline
 90
        4
 70
     1
 43
0.0
 10
392.8281614209133
 20
224.4174668352698
 10
412.8081614209132
 20
224.4174668352698
 10
412.8081614209132
 20
96.01746683526981
 10
392.8281614209133
 20
96.01746683526981
  0
CIRCLE
  5
2A791
102
{ACAD_REACTORS
330
2A81E
102
}
330
18
100
AcDbEntity
  8
Modules
100
AcDbCircle
 10
402.6281614209131
 20
179.4674668352698
 30
0.0
 40
1.75
  0
CIRCLE
  5
2A792
102
{ACAD_REACTORS
330
2A81E
102
}
330
18
100
AcDbEntity
  8
Modules
100
AcDbCircle
 10
402.6281614209131
 20
166.7674668352697
 30
0.0
 40
1.75
  0
LWPOLYLINE
  5
2A793
102
{ACAD_REACTORS
330
2A81E
102
}
330
18
100
AcDbEntity
  8
Modules
100
AcDbPolyline
 90
        4
 70
     1
 43
0.0
 10
398.4531614209132
 20
184.8174668352697
 10
406.8031614209131
 20
184.8174668352697
 10
406.8031614209131
 20
174.1174668352697
 10
398.4531614209132
 20
174.1174668352697
  0
LWPOLYLINE
  5
2A794
102
{ACAD_REACTORS
330
2A81E
102
}
330
18
100
AcDbEntity
  8
Modules
100
AcDbPolyline
 90
        4
 70
     1
 43
0.0
 10
398.4531614209132
 20
172.1174668352696
 10
406.8031614209131
 20
172.1174668352696
 10
406.8031614209131
 20
161.4174668352698
 10
398.4531614209132
 20
161.4174668352698
  0
CIRCLE
  5
2A795
102
{ACAD_REACTORS
330
2A81E
102
}
330
18
100
AcDbEntity
  8
Modules
100
AcDbCircle
 10
402.6281614209131
 20
140.8674668352697
 30
0.0
 40
1.75
  0
CIRCLE
  5
2A796
102
{ACAD_REACTORS
330
2A81E
102
}
330
18
100
AcDbEntity
  8
Modules
100
AcDbCircle
 10
402.6281614209131
 20
128.1674668352697
 30
0.0
 40
1.75
  0
LWPOLYLINE
  5
2A797
102
{ACAD_REACTORS
330
2A81E
102
}
330
18
100
AcDbEntity
  8
Modules
100
AcDbPolyline
 90
        4
 70
     1
 43
0.0
 10
398.4531614209132
 20
146.2174668352698
 10
406.8031614209131
 20
146.2174668352698
 10
406.8031614209131
 20
135.5174668352697
 10
398.4531614209132
 20
135.5174668352697
  0
LWPOLYLINE
  5
2A798
102
{ACAD_REACTORS
330
2A81E
102
}
330
18
100
AcDbEntity
  8
Modules
100
AcDbPolyline
 90
        4
 70
     1
 43
0.0
 10
398.4531614209132
 20
133.5174668352697
 10
406.8031614209131
 20
133.5174668352697
 10
406.8031614209131
 20
122.8174668352698
 10
398.4531614209132
 20
122.8174668352698
  0
CIRCLE
  5
2A799
102
{ACAD_REACTORS
330
2A81E
102
}
330
18
100
AcDbEntity
  8
Modules
100
AcDbCircle
 10
419.9481614209134
 20
199.1174668352697
 30
0.0
 40
1.6
  0
CIRCLE
  5
2A79A
102
{ACAD_REACTORS
330
2A81E
102
}
330
18
100
AcDbEntity
  8
Modules
100
AcDbCircle
 10
424.9481614209135
 20
199.1174668352697
 30
0.0
 40
1.6
  0
CIRCLE
  5
2A79B
102
{ACAD_REACTORS
330
2A81E
102
}
330
18
100
AcDbEntity
  8
Modules
100
AcDbCircle
 10
419.9481614209135
 20
189.1174668352697
 30
0.0
 40
1.6
  0
CIRCLE
  5
2A79C
102
{ACAD_REACTORS
330
2A81E
102
}
330
18
100
AcDbEntity
  8
Modules
100
AcDbCircle
 10
424.9481614209135
 20
189.1174668352697
 30
0.0
 40
1.6
  0
CIRCLE
  5
2A79D
102
{ACAD_REACTORS
330
2A81E
102
}
330
18
100
AcDbEntity
  8
Modules
100
AcDbCircle
 10
419.9481614209135
 20
194.1174668352697
 30
0.0
 40
1.6
  0
CIRCLE
  5
2A79E
102
{ACAD_REACTORS
330
2A81E
102
}
330
18
100
AcDbEntity
  8
Modules
100
AcDbCircle
 10
424.9481614209135
 20
194.1174668352697
 30
0.0
 40
1.6
  0
LWPOLYLINE
  5
2A79F
102
{ACAD_REACTORS
330
2A81E
102
}
330
18
100
AcDbEntity
  8
Modules
100
AcDbPolyline
 90
        4
 70
     1
 43
0.0
 10
417.3481614209132
 20
160.0174668352697
 10
428.5481614209132
 20
160.0174668352697
 10
428.5481614209132
 20
186.2174668352698
 10
417.3481614209132
 20
186.2174668352698
  0
LWPOLYLINE
  5
2A7A0
102
{ACAD_REACTORS
330
2A81E
102
}
330
18
100
AcDbEntity
  8
Modules
100
AcDbPolyline
 90
        4
 70
     1
 43
0.0
 10
417.3481614209132
 20
121.4174668352697
 10
428.5481614209132
 20
121.4174668352697
 10
428.5481614209132
 20
147.6174668352697
 10
417.3481614209132
 20
147.6174668352697
  0
CIRCLE
  5
2A7A1
102
{ACAD_REACTORS
330
2A81E
102
}
330
18
100
AcDbEntity
  8
Modules
100
AcDbCircle
 10
424.9481614209135
 20
155.5175168352697
 30
0.0
 40
1.6
  0
CIRCLE
  5
2A7A2
102
{ACAD_REACTORS
330
2A81E
102
}
330
18
100
AcDbEntity
  8
Modules
100
AcDbCircle
 10
419.9481614209134
 20
155.5175168352697
 30
0.0
 40
1.6
  0
CIRCLE
  5
2A7A3
102
{ACAD_REACTORS
330
2A81E
102
}
330
18
100
AcDbEntity
  8
Modules
100
AcDbCircle
 10
424.9481614209135
 20
150.5174508352697
 30
0.0
 40
1.6
  0
CIRCLE
  5
2A7A4
102
{ACAD_REACTORS
330
2A81E
102
}
330
18
100
AcDbEntity
  8
Modules
100
AcDbCircle
 10
419.9481614209134
 20
150.5174508352698
 30
0.0
 40
1.6
  0
CIRCLE
  5
2A7A5
102
{ACAD_REACTORS
330
2A81E
102
}
330
18
100
AcDbEntity
  8
Modules
100
AcDbCircle
 10
420.6481614209133
 20
221.4174668352698
 30
0.0
 40
2.45
  0
LWPOLYLINE
  5
2A7A6
102
{ACAD_REACTORS
330
2A81E
102
}
330
18
100
AcDbEntity
  8
Modules
100
AcDbPolyline
 90
        6
 70
     1
 43
0.0
 10
420.0130761248047
 20
222.5174668352698
 10
419.3779908286962
 20
221.4174668352698
 10
420.0130761248047
 20
220.3174668352697
 10
421.2832467170219
 20
220.3174668352697
 10
421.9183320131305
 20
221.4174668352698
 10
421.2832467170219
 20
222.5174668352698
  0
CIRCLE
  5
2A7A7
102
{ACAD_REACTORS
330
2A81E
102
}
330
18
100
AcDbEntity
  8
Modules
100
AcDbCircle
 10
420.6481614209133
 20
209.7174668352698
 30
0.0
 40
2.45
  0
LWPOLYLINE
  5
2A7A8
102
{ACAD_REACTORS
330
2A81E
102
}
330
18
100
AcDbEntity
  8
Modules
100
AcDbPolyline
 90
        6
 70
     1
 43
0.0
 10
420.0130761248047
 20
210.8174668352698
 10
419.3779908286962
 20
209.7174668352698
 10
420.0130761248047
 20
208.6174668352698
 10
421.2832467170219
 20
208.6174668352698
 10
421.9183320131305
 20
209.7174668352698
 10
421.2832467170219
 20
210.8174668352698
  0
CIRCLE
  5
2A7A9
102
{ACAD_REACTORS
330
2A81E
102
}
330
18
100
AcDbEntity
  8
Modules
100
AcDbCircle
 10
420.6481614209133
 20
110.7174668352698
 30
0.0
 40
2.45
  0
LWPOLYLINE
  5
2A7AA
102
{ACAD_REACTORS
330
2A81E
102
}
330
18
100
AcDbEntity
  8
Modules
100
AcDbPolyline
 90
        6
 70
     1
 43
0.0
 10
420.0130761248047
 20
111.8174668352698
 10
419.3779908286962
 20
110.7174668352698
 10
420.0130761248047
 20
109.6174668352697
 10
421.2832467170219
 20
109.6174668352697
 10
421.9183320131305
 20
110.7174668352698
 10
421.2832467170219
 20
111.8174668352698
  0
CIRCLE
  5
2A7AB
102
{ACAD_REACTORS
330
2A81E
102
}
330
18
100
AcDbEntity
  8
Modules
100
AcDbCircle
 10
420.6481614209133
 20
99.0174668352698
 30
0.0
 40
2.45
  0
LWPOLYLINE
  5
2A7AC
102
{ACAD_REACTORS
330
2A81E
102
}
330
18
100
AcDbEntity
  8
Modules
100
AcDbPolyline
 90
        6
 70
     1
 43
0.0
 10
420.0130761248047
 20
100.1174668352698
 10
419.3779908286962
 20
99.0174668352698
 10
420.0130761248047
 20
97.91746683526978
 10
421.2832467170219
 20
97.91746683526978
 10
421.9183320131305
 20
99.0174668352698
 10
421.2832467170219
 20
100.1174668352698
  0
LWPOLYLINE
  5
2A7AD
102
{ACAD_REACTORS
330
2A81E
102
}
330
18
100
AcDbEntity
  8
Modules
100
AcDbPolyline
 90
        4
 70
     1
 43
0.0
 10
413.1481614209134
 20
224.4174668352698
 10
433.1281614209133
 20
224.4174668352698
 10
433.1281614209133
 20
96.01746683526981
 10
413.1481614209134
 20
96.01746683526981
  0
CIRCLE
  5
2A7AE
102
{ACAD_REACTORS
330
2A81E
102
}
330
18
100
AcDbEntity
  8
Modules
100
AcDbCircle
 10
422.9481614209132
 20
179.4674668352698
 30
0.0
 40
1.75
  0
CIRCLE
  5
2A7AF
102
{ACAD_REACTORS
330
2A81E
102
}
330
18
100
AcDbEntity
  8
Modules
100
AcDbCircle
 10
422.9481614209132
 20
166.7674668352697
 30
0.0
 40
1.75
  0
LWPOLYLINE
  5
2A7B0
102
{ACAD_REACTORS
330
2A81E
102
}
330
18
100
AcDbEntity
  8
Modules
100
AcDbPolyline
 90
        4
 70
     1
 43
0.0
 10
418.7731614209132
 20
184.8174668352697
 10
427.1231614209132
 20
184.8174668352697
 10
427.1231614209132
 20
174.1174668352697
 10
418.7731614209132
 20
174.1174668352697
  0
LWPOLYLINE
  5
2A7B1
102
{ACAD_REACTORS
330
2A81E
102
}
330
18
100
AcDbEntity
  8
Modules
100
AcDbPolyline
 90
        4
 70
     1
 43
0.0
 10
418.7731614209132
 20
172.1174668352696
 10
427.1231614209131
 20
172.1174668352696
 10
427.1231614209131
 20
161.4174668352698
 10
418.7731614209132
 20
161.4174668352698
  0
CIRCLE
  5
2A7B2
102
{ACAD_REACTORS
330
2A81E
102
}
330
18
100
AcDbEntity
  8
Modules
100
AcDbCircle
 10
422.9481614209132
 20
140.8674668352697
 30
0.0
 40
1.75
  0
CIRCLE
  5
2A7B3
102
{ACAD_REACTORS
330
2A81E
102
}
330
18
100
AcDbEntity
  8
Modules
100
AcDbCircle
 10
422.9481614209132
 20
128.1674668352697
 30
0.0
 40
1.75
  0
LWPOLYLINE
  5
2A7B4
102
{ACAD_REACTORS
330
2A81E
102
}
330
18
100
AcDbEntity
  8
Modules
100
AcDbPolyline
 90
        4
 70
     1
 43
0.0
 10
418.7731614209132
 20
146.2174668352698
 10
427.1231614209132
 20
146.2174668352698
 10
427.1231614209132
 20
135.5174668352697
 10
418.7731614209132
 20
135.5174668352697
  0
LWPOLYLINE
  5
2A7B5
102
{ACAD_REACTORS
330
2A81E
102
}
330
18
100
AcDbEntity
  8
Modules
100
AcDbPolyline
 90
        4
 70
     1
 43
0.0
 10
418.7731614209132
 20
133.5174668352697
 10
427.1231614209131
 20
133.5174668352697
 10
427.1231614209131
 20
122.8174668352698
 10
418.7731614209132
 20
122.8174668352698
  0
CIRCLE
  5
2A7B6
102
{ACAD_REACTORS
330
2A81E
102
}
330
18
100
AcDbEntity
  8
Modules
100
AcDbCircle
 10
440.2681614209135
 20
199.1174668352697
 30
0.0
 40
1.6
  0
CIRCLE
  5
2A7B7
102
{ACAD_REACTORS
330
2A81E
102
}
330
18
100
AcDbEntity
  8
Modules
100
AcDbCircle
 10
445.2681614209135
 20
199.1174668352697
 30
0.0
 40
1.6
  0
CIRCLE
  5
2A7B8
102
{ACAD_REACTORS
330
2A81E
102
}
330
18
100
AcDbEntity
  8
Modules
100
AcDbCircle
 10
440.2681614209135
 20
189.1174668352697
 30
0.0
 40
1.6
  0
CIRCLE
  5
2A7B9
102
{ACAD_REACTORS
330
2A81E
102
}
330
18
100
AcDbEntity
  8
Modules
100
AcDbCircle
 10
445.2681614209135
 20
189.1174668352697
 30
0.0
 40
1.6
  0
CIRCLE
  5
2A7BA
102
{ACAD_REACTORS
330
2A81E
102
}
330
18
100
AcDbEntity
  8
Modules
100
AcDbCircle
 10
440.2681614209135
 20
194.1174668352697
 30
0.0
 40
1.6
  0
CIRCLE
  5
2A7BB
102
{ACAD_REACTORS
330
2A81E
102
}
330
18
100
AcDbEntity
  8
Modules
100
AcDbCircle
 10
445.2681614209135
 20
194.1174668352697
 30
0.0
 40
1.6
  0
LWPOLYLINE
  5
2A7BC
102
{ACAD_REACTORS
330
2A81E
102
}
330
18
100
AcDbEntity
  8
Modules
100
AcDbPolyline
 90
        4
 70
     1
 43
0.0
 10
437.6681614209132
 20
160.0174668352697
 10
448.8681614209132
 20
160.0174668352697
 10
448.8681614209132
 20
186.2174668352698
 10
437.6681614209132
 20
186.2174668352698
  0
LWPOLYLINE
  5
2A7BD
102
{ACAD_REACTORS
330
2A81E
102
}
330
18
100
AcDbEntity
  8
Modules
100
AcDbPolyline
 90
        4
 70
     1
 43
0.0
 10
437.6681614209132
 20
121.4174668352697
 10
448.8681614209132
 20
121.4174668352697
 10
448.8681614209132
 20
147.6174668352697
 10
437.6681614209132
 20
147.6174668352697
  0
CIRCLE
  5
2A7BE
102
{ACAD_REACTORS
330
2A81E
102
}
330
18
100
AcDbEntity
  8
Modules
100
AcDbCircle
 10
445.2681614209135
 20
155.5175168352697
 30
0.0
 40
1.6
  0
CIRCLE
  5
2A7BF
102
{ACAD_REACTORS
330
2A81E
102
}
330
18
100
AcDbEntity
  8
Modules
100
AcDbCircle
 10
440.2681614209135
 20
155.5175168352697
 30
0.0
 40
1.6
  0
CIRCLE
  5
2A7C0
102
{ACAD_REACTORS
330
2A81E
102
}
330
18
100
AcDbEntity
  8
Modules
100
AcDbCircle
 10
445.2681614209135
 20
150.5174508352697
 30
0.0
 40
1.6
  0
CIRCLE
  5
2A7C1
102
{ACAD_REACTORS
330
2A81E
102
}
330
18
100
AcDbEntity
  8
Modules
100
AcDbCircle
 10
440.2681614209135
 20
150.5174508352698
 30
0.0
 40
1.6
  0
CIRCLE
  5
2A7C2
102
{ACAD_REACTORS
330
2A81E
102
}
330
18
100
AcDbEntity
  8
Modules
100
AcDbCircle
 10
440.9681614209133
 20
221.4174668352698
 30
0.0
 40
2.45
  0
LWPOLYLINE
  5
2A7C3
102
{ACAD_REACTORS
330
2A81E
102
}
330
18
100
AcDbEntity
  8
Modules
100
AcDbPolyline
 90
        6
 70
     1
 43
0.0
 10
440.3330761248048
 20
222.5174668352698
 10
439.6979908286962
 20
221.4174668352698
 10
440.3330761248048
 20
220.3174668352697
 10
441.6032467170219
 20
220.3174668352697
 10
442.2383320131305
 20
221.4174668352698
 10
441.6032467170219
 20
222.5174668352698
  0
CIRCLE
  5
2A7C4
102
{ACAD_REACTORS
330
2A81E
102
}
330
18
100
AcDbEntity
  8
Modules
100
AcDbCircle
 10
440.9681614209133
 20
209.7174668352698
 30
0.0
 40
2.45
  0
LWPOLYLINE
  5
2A7C5
102
{ACAD_REACTORS
330
2A81E
102
}
330
18
100
AcDbEntity
  8
Modules
100
AcDbPolyline
 90
        6
 70
     1
 43
0.0
 10
440.3330761248048
 20
210.8174668352698
 10
439.6979908286962
 20
209.7174668352698
 10
440.3330761248048
 20
208.6174668352698
 10
441.6032467170219
 20
208.6174668352698
 10
442.2383320131305
 20
209.7174668352698
 10
441.6032467170219
 20
210.8174668352698
  0
CIRCLE
  5
2A7C6
102
{ACAD_REACTORS
330
2A81E
102
}
330
18
100
AcDbEntity
  8
Modules
100
AcDbCircle
 10
440.9681614209133
 20
110.7174668352698
 30
0.0
 40
2.45
  0
LWPOLYLINE
  5
2A7C7
102
{ACAD_REACTORS
330
2A81E
102
}
330
18
100
AcDbEntity
  8
Modules
100
AcDbPolyline
 90
        6
 70
     1
 43
0.0
 10
440.3330761248048
 20
111.8174668352698
 10
439.6979908286962
 20
110.7174668352698
 10
440.3330761248048
 20
109.6174668352697
 10
441.6032467170219
 20
109.6174668352697
 10
442.2383320131305
 20
110.7174668352698
 10
441.6032467170219
 20
111.8174668352698
  0
CIRCLE
  5
2A7C8
102
{ACAD_REACTORS
330
2A81E
102
}
330
18
100
AcDbEntity
  8
Modules
100
AcDbCircle
 10
440.9681614209133
 20
99.0174668352698
 30
0.0
 40
2.45
  0
LWPOLYLINE
  5
2A7C9
102
{ACAD_REACTORS
330
2A81E
102
}
330
18
100
AcDbEntity
  8
Modules
100
AcDbPolyline
 90
        6
 70
     1
 43
0.0
 10
440.3330761248048
 20
100.1174668352698
 10
439.6979908286962
 20
99.0174668352698
 10
440.3330761248048
 20
97.91746683526978
 10
441.6032467170219
 20
97.91746683526978
 10
442.2383320131305
 20
99.0174668352698
 10
441.6032467170219
 20
100.1174668352698
  0
LWPOLYLINE
  5
2A7CA
102
{ACAD_REACTORS
330
2A81E
102
}
330
18
100
AcDbEntity
  8
Modules
100
AcDbPolyline
 90
        4
 70
     1
 43
0.0
 10
433.4681614209133
 20
224.4174668352698
 10
453.4481614209131
 20
224.4174668352698
 10
453.4481614209131
 20
96.01746683526981
 10
433.4681614209133
 20
96.01746683526981
  0
CIRCLE
  5
2A7CB
102
{ACAD_REACTORS
330
2A81E
102
}
330
18
100
AcDbEntity
  8
Modules
100
AcDbCircle
 10
443.2681614209131
 20
179.4674668352698
 30
0.0
 40
1.75
  0
CIRCLE
  5
2A7CC
102
{ACAD_REACTORS
330
2A81E
102
}
330
18
100
AcDbEntity
  8
Modules
100
AcDbCircle
 10
443.2681614209131
 20
166.7674668352697
 30
0.0
 40
1.75
  0
LWPOLYLINE
  5
2A7CD
102
{ACAD_REACTORS
330
2A81E
102
}
330
18
100
AcDbEntity
  8
Modules
100
AcDbPolyline
 90
        4
 70
     1
 43
0.0
 10
439.0931614209131
 20
184.8174668352697
 10
447.4431614209132
 20
184.8174668352697
 10
447.4431614209132
 20
174.1174668352697
 10
439.0931614209131
 20
174.1174668352697
  0
LWPOLYLINE
  5
2A7CE
102
{ACAD_REACTORS
330
2A81E
102
}
330
18
100
AcDbEntity
  8
Modules
100
AcDbPolyline
 90
        4
 70
     1
 43
0.0
 10
439.0931614209131
 20
172.1174668352696
 10
447.4431614209132
 20
172.1174668352696
 10
447.4431614209132
 20
161.4174668352698
 10
439.0931614209131
 20
161.4174668352698
  0
CIRCLE
  5
2A7CF
102
{ACAD_REACTORS
330
2A81E
102
}
330
18
100
AcDbEntity
  8
Modules
100
AcDbCircle
 10
443.2681614209131
 20
140.8674668352697
 30
0.0
 40
1.75
  0
CIRCLE
  5
2A7D0
102
{ACAD_REACTORS
330
2A81E
102
}
330
18
100
AcDbEntity
  8
Modules
100
AcDbCircle
 10
443.2681614209131
 20
128.1674668352697
 30
0.0
 40
1.75
  0
LWPOLYLINE
  5
2A7D1
102
{ACAD_REACTORS
330
2A81E
102
}
330
18
100
AcDbEntity
  8
Modules
100
AcDbPolyline
 90
        4
 70
     1
 43
0.0
 10
439.0931614209131
 20
146.2174668352698
 10
447.4431614209132
 20
146.2174668352698
 10
447.4431614209132
 20
135.5174668352697
 10
439.0931614209131
 20
135.5174668352697
  0
LWPOLYLINE
  5
2A7D2
102
{ACAD_REACTORS
330
2A81E
102
}
330
18
100
AcDbEntity
  8
Modules
100
AcDbPolyline
 90
        4
 70
     1
 43
0.0
 10
439.0931614209131
 20
133.5174668352697
 10
447.4431614209132
 20
133.5174668352697
 10
447.4431614209132
 20
122.8174668352698
 10
439.0931614209131
 20
122.8174668352698
  0
CIRCLE
  5
2A7DD
102
{ACAD_REACTORS
330
2A81E
102
}
330
18
100
AcDbEntity
  8
Modules
100
AcDbCircle
 10
461.2881614209132
 20
221.4174668352698
 30
0.0
 40
2.45
  0
LWPOLYLINE
  5
2A7DE
102
{ACAD_REACTORS
330
2A81E
102
}
330
18
100
AcDbEntity
  8
Modules
100
AcDbPolyline
 90
        6
 70
     1
 43
0.0
 10
460.6530761248046
 20
222.5174668352698
 10
460.017990828696
 20
221.4174668352698
 10
460.6530761248046
 20
220.3174668352697
 10
461.9232467170217
 20
220.3174668352697
 10
462.5583320131304
 20
221.4174668352698
 10
461.9232467170217
 20
222.5174668352698
  0
CIRCLE
  5
2A7E3
102
{ACAD_REACTORS
330
2A81E
102
}
330
18
100
AcDbEntity
  8
Modules
100
AcDbCircle
 10
461.2881614209132
 20
99.0174668352698
 30
0.0
 40
2.45
  0
LWPOLYLINE
  5
2A7E4
102
{ACAD_REACTORS
330
2A81E
102
}
330
18
100
AcDbEntity
  8
Modules
100
AcDbPolyline
 90
        6
 70
     1
 43
0.0
 10
460.6530761248046
 20
100.1174668352698
 10
460.017990828696
 20
99.0174668352698
 10
460.6530761248046
 20
97.91746683526978
 10
461.9232467170217
 20
97.91746683526978
 10
462.5583320131304
 20
99.0174668352698
 10
461.9232467170217
 20
100.1174668352698
  0
LWPOLYLINE
  5
2A7E5
102
{ACAD_REACTORS
330
2A81E
102
}
330
18
100
AcDbEntity
  8
Modules
100
AcDbPolyline
 90
        4
 70
     1
 43
0.0
 10
453.7881614209132
 20
224.4174668352698
 10
473.768161420913
 20
224.4174668352698
 10
473.768161420913
 20
96.01746683526981
 10
453.7881614209132
 20
96.01746683526981
  0
LINE
  5
2A7EA
102
{ACAD_REACTORS
330
2A81E
102
}
330
18
100
AcDbEntity
  8
Modules
100
AcDbLine
 10
494.088161420913
 20
96.01746683526981
 30
0.0
 11
474.108161420913
 21
96.01746683526975
 31
0.0
  0
LINE
  5
2A7EF
102
{ACAD_REACTORS
330
2A81E
102
}
330
18
100
AcDbEntity
  8
Modules
100
AcDbLine
 10
494.088161420913
 20
224.4174668352698
 30
0.0
 11
474.1081614209131
 21
224.4174668352698
 31
0.0
  0
LINE
  5
2A7F0
102
{ACAD_REACTORS
330
2A81E
102
}
330
18
100
AcDbEntity
  8
Modules
100
AcDbLine
 10
494.088161420913
 20
96.01746683526981
 30
0.0
 11
494.088161420913
 21
224.4174668352698
 31
0.0
  0
LINE
  5
2A7F1
102
{ACAD_REACTORS
330
2A81E
102
}
330
18
100
AcDbEntity
  8
Modules
100
AcDbLine
 10
474.1081614209131
 20
96.01746683526975
 30
0.0
 11
474.1081614209131
 21
224.4174668352698
 31
0.0
  0
CIRCLE
  5
2A7F6
102
{ACAD_REACTORS
330
2A81E
102
}
330
18
100
AcDbEntity
  8
Modules
100
AcDbCircle
 10
481.6081614209132
 20
221.4174668352698
 30
0.0
 40
2.45
  0
LWPOLYLINE
  5
2A7F7
102
{ACAD_REACTORS
330
2A81E
102
}
330
18
100
AcDbEntity
  8
Modules
100
AcDbPolyline
 90
        6
 70
     1
 43
0.0
 10
480.9730761248045
 20
222.5174668352698
 10
480.337990828696
 20
221.4174668352698
 10
480.9730761248045
 20
220.3174668352697
 10
482.2432467170217
 20
220.3174668352697
 10
482.8783320131304
 20
221.4174668352698
 10
482.2432467170217
 20
222.5174668352698
  0
CIRCLE
  5
2A7FA
102
{ACAD_REACTORS
330
2A81E
102
}
330
18
100
AcDbEntity
  8
Modules
100
AcDbCircle
 10
481.6081614209131
 20
99.0174668352698
 30
0.0
 40
2.45
  0
LWPOLYLINE
  5
2A7FB
102
{ACAD_REACTORS
330
2A81E
102
}
330
18
100
AcDbEntity
  8
Modules
100
AcDbPolyline
 90
        6
 70
     1
 43
0.0
 10
480.9730761248045
 20
100.1174668352698
 10
480.3379908286959
 20
99.0174668352698
 10
480.9730761248045
 20
97.91746683526978
 10
482.2432467170216
 20
97.91746683526978
 10
482.8783320131302
 20
99.0174668352698
 10
482.2432467170216
 20
100.1174668352698
  0
CIRCLE
  5
2A810
102
{ACAD_REACTORS
330
2A81E
102
}
330
18
100
AcDbEntity
  8
Modules
100
AcDbCircle
 10
501.928161420913
 20
221.4174668352698
 30
0.0
 40
2.45
  0
LWPOLYLINE
  5
2A811
102
{ACAD_REACTORS
330
2A81E
102
}
330
18
100
AcDbEntity
  8
Modules
100
AcDbPolyline
 90
        6
 70
     1
 43
0.0
 10
501.2930761248044
 20
222.5174668352698
 10
500.6579908286958
 20
221.4174668352698
 10
501.2930761248044
 20
220.3174668352697
 10
502.5632467170217
 20
220.3174668352697
 10
503.1983320131302
 20
221.4174668352698
 10
502.5632467170217
 20
222.5174668352698
  0
CIRCLE
  5
2A816
102
{ACAD_REACTORS
330
2A81E
102
}
330
18
100
AcDbEntity
  8
Modules
100
AcDbCircle
 10
501.928161420913
 20
99.0174668352698
 30
0.0
 40
2.45
  0
LWPOLYLINE
  5
2A817
102
{ACAD_REACTORS
330
2A81E
102
}
330
18
100
AcDbEntity
  8
Modules
100
AcDbPolyline
 90
        6
 70
     1
 43
0.0
 10
501.2930761248044
 20
100.1174668352698
 10
500.6579908286958
 20
99.0174668352698
 10
501.2930761248044
 20
97.91746683526978
 10
502.5632467170217
 20
97.91746683526978
 10
503.1983320131302
 20
99.0174668352698
 10
502.5632467170217
 20
100.1174668352698
  0
LWPOLYLINE
  5
2A818
102
{ACAD_REACTORS
330
2A81E
102
}
330
18
100
AcDbEntity
  8
Modules
100
AcDbPolyline
 90
        4
 70
     1
 43
0.0
 10
494.428161420913
 20
224.4174668352698
 10
514.4081614209128
 20
224.4174668352698
 10
514.4081614209128
 20
96.01746683526981
 10
494.428161420913
 20
96.01746683526981
  0
LINE
  5
2A855
330
18
100
AcDbEntity
  8
TEXTFELD
100
AcDbLine
 10
589.0
 20
21.80000000000018
 30
0.0
 11
379.905891162972
 21
21.80000000000018
 31
0.0
  0
LINE
  5
2A856
330
18
100
AcDbEntity
  8
TEXTFELD
100
AcDbLine
 10
469.000000000001
 20
13.40000000000054
 30
0.0
 11
389.0000000000001
 21
13.40000000000054
 31
0.0
  0
LINE
  5
2A857
330
18
100
AcDbEntity
  8
TEXTFELD
100
AcDbLine
 10
589.0
 20
38.40000000000055
 30
0.0
 11
469.000000000001
 21
38.40000000000055
 31
0.0
  0
LINE
  5
2A858
330
18
100
AcDbEntity
  8
TEXTFELD
100
AcDbLine
 10
567.9617500899949
 20
5.0
 30
0.0
 11
567.9617500899958
 21
21.80000000000018
 31
0.0
  0
LINE
  5
2A859
330
18
100
AcDbEntity
  8
TEXTFELD
100
AcDbLine
 10
589.0
 20
13.40000000000054
 30
0.0
 11
567.9617500899949
 21
13.40000000000054
 31
0.0
  0
TEXT
  5
2A85A
330
18
100
AcDbEntity
  8
TEXTFELD
100
AcDbText
 10
570.1557668242243
 20
15.59377413430138
 30
0.0
 40
3.476425511656998
  1
Page:
100
AcDbText
  0
TEXT
  5
2A85B
330
18
100
AcDbEntity
  8
TEXTFELD
100
AcDbText
 10
570.1557668242243
 20
7.256695164528537
 30
0.0
 40
3.476425511656998
  1
1 / 1
100
AcDbText
  0
LINE
  5
2A85C
330
18
100
AcDbEntity
  8
TEXTFELD
100
AcDbLine
 10
469.0000000000001
 20
5.000000000000909
 30
0.0
 11
469.0000000000001
 21
55.00000000000091
 31
0.0
  0
TEXT
  5
2A85D
330
18
100
AcDbEntity
  8
TEXTFELD
100
AcDbText
 10
421.3100100949848
 20
15.59377413430138
 30
0.0
 40
3.476425511656998
  1
Date:
100
AcDbText
  0
LINE
  5
2A85E
330
18
100
AcDbEntity
  8
TEXTFELD
100
AcDbLine
 10
418.3971173822312
 20
21.80000000000018
 30
0.0
 11
418.3971173822303
 21
13.40000000000054
 31
0.0
  0
TEXT
  5
2A85F
330
18
100
AcDbEntity
  8
TEXTFELD
100
AcDbText
 10
380.5201699836723
 20
15.59377413430138
 30
0.0
 40
3.476425511656998
  1
Name:
100
AcDbText
  0
TEXT
  5
2A860
330
18
100
AcDbEntity
  8
TEXTFELD
100
AcDbText
 10
380.5201699836723
 20
7.256695164528537
 30
0.0
 40
3.476425511656998
  1
File: 
100
AcDbText
  0
TEXT
  5
2A861
330
18
100
AcDbEntity
  8
TEXTFELD
100
AcDbText
 10
471.9209941166032
 20
44.66562196635959
 30
0.0
 40
3.476425511656998
  1
Scale 1:1 (DIN A2)
100
AcDbText
  0
LINE
  5
2A862
330
18
100
AcDbEntity
  8
TEXTFELD
100
AcDbLine
 10
567.9617500899951
 20
38.40000000000055
 30
0.0
 11
567.961750089996
 21
55.00000000000011
 31
0.0
  0
LINE
  5
2A863
330
18
100
AcDbEntity
  8
TEXTFELD
100
AcDbLine
 10
589.0
 20
5.0
 30
0.0
 11
379.905891162972
 21
5.000000000000966
 31
0.0
  0
LINE
  5
2A864
330
18
100
AcDbEntity
  8
TEXTFELD
100
AcDbLine
 10
379.905891162972
 20
5.000000000000909
 30
0.0
 11
379.905891162972
 21
55.00000000000091
 31
0.0
  0
LINE
  5
2A865
330
18
100
AcDbEntity
  8
TEXTFELD
100
AcDbLine
 10
379.905891162972
 20
55.00000000000096
 30
0.0
 11
589.0
 21
55.0
 31
0.0
  0
LINE
  5
2A866
330
18
100
AcDbEntity
  8
TEXTFELD
100
AcDbLine
 10
589.0
 20
55.0
 30
0.0
 11
589.0
 21
5.0
 31
0.0
  0
LINE
  5
2A867
330
18
100
AcDbEntity
  8
TEXTFELD
100
AcDbLine
 10
469.0000000000001
 20
5.000000000000568
 30
0.0
 11
469.0000000000001
 21
55.00000000000056
 31
0.0
  0
TEXT
  5
2A868
330
18
100
AcDbEntity
  8
TEXTFELD
100
AcDbText
 10
397.5497206017919
 20
15.63053387341154
 30
0.0
 40
3.0
  1
Miethling
100
AcDbText
  0
TEXT
  5
2A869
330
18
100
AcDbEntity
  8
TEXTFELD
100
AcDbText
 10
381.8294790513039
 20
24.72697290493272
 30
0.0
 40
3.0
  1
Fax:
100
AcDbText
  0
TEXT
  5
2A86A
330
18
100
AcDbEntity
  8
TEXTFELD
100
AcDbText
 10
381.8294790513039
 20
47.10386991868756
 30
0.0
 40
3.0
  1
DHD GmbH
100
AcDbText
  0
TEXT
  5
2A86B
330
18
100
AcDbEntity
  8
TEXTFELD
100
AcDbText
 10
381.8294790513039
 20
41.75480612721446
 30
0.0
 40
3.0
  1
Haferkornstraße 5
100
AcDbText
  0
TEXT
  5
2A86C
330
18
100
AcDbEntity
  8
TEXTFELD
100
AcDbText
 10
381.8294790513039
 20
36.29477517264729
 30
0.0
 40
3.0
  1
04129 Leipzig / Germany
100
AcDbText
  0
TEXT
  5
2A86D
330
18
100
AcDbEntity
  8
TEXTFELD
100
AcDbText
 10
398.4805527305628
 20
24.53217067856315
 30
0.0
 40
3.0
  1
+ 49  341  5897022
100
AcDbText
  0
LINE
  5
2A86E
330
18
100
AcDbEntity
  8
TEXTFELD
100
AcDbLine
 10
469.000000000001
 20
13.4000000000002
 30
0.0
 11
379.9058911629721
 21
13.4000000000002
 31
0.0
  0
TEXT
  5
2A86F
330
18
100
AcDbEntity
  8
TEXTFELD
100
AcDbText
 10
381.8294790513039
 20
29.58568776218852
 30
0.0
 40
3.0
  1
Phone: + 49  341  5897020
100
AcDbText
  0
TEXT
  5
2A870
330
18
100
AcDbEntity
  8
TEXTFELD
100
AcDbText
 10
394.8409816184467
 20
7.469098588154338
 30
0.0
 40
3.0
  1
52-6066_frontview.dwg
100
AcDbText
  0
TEXT
  5
2A871
330
18
100
AcDbEntity
  8
TEXTFELD
100
AcDbText
 10
474.7569833410441
 20
31.0110865885473
 30
0.0
 40
5.0
  1
XR Router/DSP Frame 6U
100
AcDbText
  0
TEXT
  5
2A872
330
18
100
AcDbEntity
  8
TEXTFELD
100
AcDbText
 10
437.749650981688
 20
15.81476326692919
 30
0.0
 40
3.0
  1
02.03.2007
100
AcDbText
  0
TEXT
  5
2A873
330
18
100
AcDbEntity
  8
TEXTFELD
100
AcDbText
 10
502.6275544891631
 20
9.994346401232292
 30
0.0
 40
5.259814435336018
  1
52-6066
100
AcDbText
  0
TEXT
  5
2A874
330
18
100
AcDbEntity
  8
TEXTFELD
100
AcDbText
 10
504.2148919073593
 20
23.04543142521016
 30
0.0
 40
5.0
  1
Frontview
100
AcDbText
  0
LINE
  5
2A893
330
18
100
AcDbEntity
  8
Rahmen
100
AcDbLine
 10
60.21816142091342
 20
93.9174668352698
 30
0.0
 11
542.2181614209135
 21
93.9174668352698
 31
0.0
  0
LINE
  5
2A894
330
18
100
AcDbEntity
  8
Rahmen
  6
VERDECKT2
 62
     8
100
AcDbLine
 10
81.21816142091342
 20
93.9174668352698
 30
0.0
 11
81.21816142091342
 21
358.9174668352698
 31
0.0
  0
LINE
  5
2A895
330
18
100
AcDbEntity
  8
Rahmen
100
AcDbLine
 10
542.2181614209135
 20
358.9174668352698
 30
0.0
 11
60.21816142091342
 21
358.9174668352698
 31
0.0
  0
LINE
  5
2A896
330
18
100
AcDbEntity
  8
Rahmen
100
AcDbLine
 10
60.21816142091342
 20
358.9174668352698
 30
0.0
 11
60.21816142091342
 21
93.9174668352698
 31
0.0
  0
LINE
  5
2A898
330
18
100
AcDbEntity
  8
Rahmen
  6
VERDECKT2
 62
     8
100
AcDbLine
 10
521.2181614209135
 20
93.9174668352698
 30
0.0
 11
521.2181614209135
 21
358.9174668352698
 31
0.0
  0
LINE
  5
2A89A
330
18
100
AcDbEntity
  8
Rahmen
100
AcDbLine
 10
542.2181614209135
 20
358.9174668352698
 30
0.0
 11
542.2181614209135
 21
93.9174668352698
 31
0.0
  0
LINE
  5
2A89B
330
18
100
AcDbEntity
  8
Rahmen
100
AcDbLine
 10
514.7181614209134
 20
358.9174668352698
 30
0.0
 11
514.7181614209134
 21
93.9174668352698
 31
0.0
  0
LINE
  5
2A89C
330
18
100
AcDbEntity
  8
Rahmen
100
AcDbLine
 10
87.71816142091342
 20
358.9174668352698
 30
0.0
 11
87.71816142091342
 21
93.9174668352698
 31
0.0
  0
LINE
  5
2A8A0
330
18
100
AcDbEntity
  8
Rahmen
100
AcDbLine
 10
514.7181614209134
 20
357.4174668352697
 30
0.0
 11
87.7181614209134
 21
357.4174668352697
 31
0.0
  0
LINE
  5
2A8A1
330
18
100
AcDbEntity
  8
Rahmen
100
AcDbLine
 10
87.7181614209134
 20
95.41746683526978
 30
0.0
 11
514.7181614209134
 21
95.4174668352698
 31
0.0
  0
LINE
  5
2A8A2
330
18
100
AcDbEntity
  8
Rahmen
100
AcDbLine
 10
514.7181614209134
 20
228.4174668352699
 30
0.0
 11
87.7181614209134
 21
228.4174668352699
 31
0.0
  0
LINE
  5
2A8A3
330
18
100
AcDbEntity
  8
Rahmen
100
AcDbLine
 10
514.7181614209134
 20
226.9174668352698
 30
0.0
 11
87.7181614209134
 21
226.9174668352698
 31
0.0
  0
LINE
  5
2A8A4
330
18
100
AcDbEntity
  8
Rahmen
100
AcDbLine
 10
87.7181614209134
 20
225.0174668352698
 30
0.0
 11
514.7181614209134
 21
225.0174668352698
 31
0.0
  0
LINE
  5
2A8A5
330
18
100
AcDbEntity
  8
Rahmen
100
AcDbLine
 10
87.7181614209134
 20
226.5174668352698
 30
0.0
 11
514.7181614209134
 21
226.5174668352698
 31
0.0
  0
ENDSEC
  0
SECTION
  2
OBJECTS
  0
DICTIONARY
  5
C
330
0
100
AcDbDictionary
281
     1
  3
ACAD_COLOR
350
2971E
  3
ACAD_GROUP
350
D
  3
ACAD_LAYOUT
350
1B1E4
  3
ACAD_MATERIAL
350
2971D
  3
ACAD_MLINESTYLE
350
1B
  3
ACAD_PLOTSETTINGS
350
1B1E5
  3
ACAD_PLOTSTYLENAME
350
1B1E2
  3
ACAD_TABLESTYLE
350
2971F
  3
ACDBHEADERROUNDTRIPXREC
350
2A8A7
  3
ACDBVARIABLEDICTIONARY
350
9820
  0
DICTIONARY
  5
2A82D
330
2
100
AcDbDictionary
280
     1
281
     1
  3
ACAD_LAYERSTATES
360
2A82E
  0
DICTIONARY
  5
9822
330
18
100
AcDbDictionary
280
     1
281
     1
  3
ACAD_LAYOUTSELFREF
360
296FC
  3
ACAD_SORTENTS
360
9823
  0
DICTIONARY
  5
2663A
330
15
100
AcDbDictionary
280
     1
281
     1
  3
ACAD_LAYOUTSELFREF
360
296FB
  0
DICTIONARY
  5
2971E
102
{ACAD_REACTORS
330
C
102
}
330
C
100
AcDbDictionary
281
     1
  0
DICTIONARY
  5
D
102
{ACAD_REACTORS
330
C
102
}
330
C
100
AcDbDictionary
281
     1
  3
*A1
350
981F
  3
*A10
350
27FE5
  3
*A100
350
281C5
  3
*A101
350
27BC6
  3
*A102
350
281C6
  3
*A103
350
281DE
  3
*A104
350
281DF
  3
*A105
350
28D75
  3
*A106
350
281E0
  3
*A107
350
28D90
  3
*A108
350
281E1
  3
*A109
350
1FC80
  3
*A11
350
27FE6
  3
*A110
350
27FD2
  3
*A111
350
282CF
  3
*A112
350
281B5
  3
*A113
350
194F6
  3
*A114
350
1BD8B
  3
*A115
350
282D0
  3
*A116
350
282D1
  3
*A117
350
282D3
  3
*A118
350
281B0
  3
*A119
350
282D4
  3
*A12
350
27FE7
  3
*A120
350
282D5
  3
*A121
350
282DB
  3
*A122
350
2601B
  3
*A123
350
282DC
  3
*A124
350
27BD4
  3
*A125
350
282DF
  3
*A126
350
1BD85
  3
*A127
350
27D2E
  3
*A128
350
27FD5
  3
*A129
350
28D91
  3
*A13
350
27B8A
  3
*A130
350
281B1
  3
*A131
350
28D92
  3
*A132
350
28D93
  3
*A133
350
28D94
  3
*A134
350
28D95
  3
*A135
350
27BF3
  3
*A136
350
282EA
  3
*A137
350
28DAA
  3
*A138
350
28DAB
  3
*A139
350
28DAC
  3
*A14
350
28D6E
  3
*A140
350
1BD86
  3
*A141
350
28DAD
  3
*A142
350
281B2
  3
*A143
350
28DAE
  3
*A144
350
194F8
  3
*A145
350
1BD87
  3
*A146
350
27BF4
  3
*A147
350
28DAF
  3
*A148
350
28DC4
  3
*A149
350
28DC5
  3
*A15
350
27FE8
  3
*A150
350
282EB
  3
*A151
350
28DC6
  3
*A152
350
28DC7
  3
*A153
350
27FDC
  3
*A154
350
281B3
  3
*A155
350
28DC8
  3
*A156
350
28DC9
  3
*A157
350
281B7
  3
*A158
350
28DDE
  3
*A159
350
28DDF
  3
*A16
350
27D06
  3
*A160
350
27FD6
  3
*A161
350
28DE0
  3
*A162
350
1BD88
  3
*A163
350
28DE1
  3
*A164
350
282F1
  3
*A165
350
28DE2
  3
*A166
350
281B4
  3
*A167
350
27D2F
  3
*A168
350
27BF5
  3
*A169
350
28DE3
  3
*A17
350
281BA
  3
*A170
350
28DEA
  3
*A171
350
28DEF
  3
*A172
350
28DF8
  3
*A173
350
28DF9
  3
*A174
350
28E03
  3
*A175
350
27FD7
  3
*A176
350
28E04
  3
*A177
350
265C2
  3
*A178
350
2A5D9
  3
*A179
350
27BFB
  3
*A18
350
27CDE
  3
*A180
350
2A81E
  3
*A181
350
1BD83
  3
*A182
350
27BFC
  3
*A183
350
27D31
  3
*A184
350
282F4
  3
*A185
350
27FD9
  3
*A186
350
282FA
  3
*A187
350
27C38
  3
*A188
350
27C39
  3
*A189
350
27C3A
  3
*A19
350
27FE9
  3
*A190
350
27D07
  3
*A191
350
27C3B
  3
*A192
350
1BD89
  3
*A193
350
27C61
  3
*A194
350
27C62
  3
*A195
350
A49B
  3
*A196
350
27C63
  3
*A197
350
27D7C
  3
*A198
350
27C64
  3
*A199
350
A22E
  3
*A2
350
21E84
  3
*A20
350
9D4A
  3
*A200
350
28D02
  3
*A201
350
27FDA
  3
*A202
350
1BD84
  3
*A203
350
27C8A
  3
*A204
350
27C8B
  3
*A205
350
27C8C
  3
*A206
350
27B51
  3
*A207
350
27C8D
  3
*A208
350
27CB3
  3
*A209
350
27CB4
  3
*A21
350
27FEA
  3
*A210
350
27D7D
  3
*A211
350
1BD8A
  3
*A212
350
27CB5
  3
*A213
350
27CB6
  3
*A214
350
281B8
  3
*A215
350
28D65
  3
*A216
350
27D7E
  3
*A217
350
27B54
  3
*A218
350
1FC8F
  3
*A219
350
1BD8C
  3
*A22
350
2819B
  3
*A220
350
27DBB
  3
*A221
350
27FDD
  3
*A222
350
27CDC
  3
*A223
350
27DBC
  3
*A224
350
194F7
  3
*A225
350
27DBD
  3
*A226
350
27FD3
  3
*A227
350
27DBE
  3
*A228
350
27B57
  3
*A229
350
27DBF
  3
*A23
350
2819C
  3
*A230
350
27FD4
  3
*A231
350
27E11
  3
*A232
350
27E12
  3
*A233
350
27E13
  3
*A234
350
27E14
  3
*A235
350
27FDB
  3
*A236
350
27FBF
  3
*A237
350
27FDE
  3
*A238
350
28D76
  3
*A239
350
27B88
  3
*A24
350
27B8B
  3
*A240
350
27FC0
  3
*A241
350
27FC1
  3
*A242
350
194F5
  3
*A243
350
27FC2
  3
*A244
350
28D66
  3
*A245
350
27FC3
  3
*A246
350
27FC4
  3
*A247
350
27FC5
  3
*A248
350
A49A
  3
*A249
350
27FC6
  3
*A25
350
2819D
  3
*A250
350
27B89
  3
*A251
350
27FD0
  3
*A252
350
27FC7
  3
*A253
350
27FC8
  3
*A254
350
27FDF
  3
*A255
350
27FC9
  3
*A256
350
27FCA
  3
*A257
350
27FCB
  3
*A258
350
28D67
  3
*A259
350
A22D
  3
*A26
350
27FCD
  3
*A260
350
27FE0
  3
*A27
350
2819E
  3
*A28
350
2819F
  3
*A29
350
281BB
  3
*A3
350
27CDD
  3
*A30
350
28D6F
  3
*A31
350
27CDF
  3
*A32
350
281A0
  3
*A33
350
281A1
  3
*A34
350
281A2
  3
*A35
350
281B6
  3
*A36
350
281A3
  3
*A37
350
9FC0
  3
*A38
350
281A4
  3
*A39
350
281A5
  3
*A4
350
281B9
  3
*A40
350
281A6
  3
*A41
350
281BC
  3
*A42
350
27FCE
  3
*A43
350
281A7
  3
*A44
350
27D05
  3
*A45
350
28D70
  3
*A46
350
27FD8
  3
*A47
350
281A8
  3
*A48
350
281A9
  3
*A49
350
281AA
  3
*A5
350
27FE1
  3
*A50
350
281AB
  3
*A51
350
281AC
  3
*A52
350
281AD
  3
*A53
350
281BD
  3
*A54
350
9FC1
  3
*A55
350
281AE
  3
*A56
350
281AF
  3
*A57
350
27BC5
  3
*A58
350
29C92
  3
*A59
350
29CD1
  3
*A6
350
27FE2
  3
*A60
350
29D03
  3
*A61
350
29D35
  3
*A62
350
29D67
  3
*A63
350
29D99
  3
*A64
350
29DCB
  3
*A65
350
27D08
  3
*A66
350
29DFD
  3
*A67
350
29DFE
  3
*A68
350
9D2A
  3
*A69
350
29DFF
  3
*A7
350
27FE3
  3
*A70
350
29E32
  3
*A71
350
29E65
  3
*A72
350
29E98
  3
*A73
350
29ECB
  3
*A74
350
29EFE
  3
*A75
350
29F31
  3
*A76
350
29F64
  3
*A77
350
281BE
  3
*A78
350
29F97
  3
*A79
350
27D30
  3
*A8
350
27FE4
  3
*A80
350
29FCA
  3
*A81
350
29FFD
  3
*A82
350
2A030
  3
*A83
350
2A063
  3
*A84
350
2A096
  3
*A85
350
2A0E0
  3
*A86
350
2A13C
  3
*A87
350
2A14A
  3
*A88
350
281BF
  3
*A89
350
281C0
  3
*A9
350
27FCC
  3
*A90
350
282F7
  3
*A91
350
281C1
  3
*A92
350
28D7B
  3
*A93
350
27FCF
  3
*A94
350
1BD82
  3
*A95
350
27FD1
  3
*A96
350
281C2
  3
*A97
350
281C3
  3
*A98
350
281C4
  3
*A99
350
2601A
  0
DICTIONARY
  5
1B1E4
102
{ACAD_REACTORS
330
C
102
}
330
C
100
AcDbDictionary
281
     1
  3
Layout1
350
1B1E7
  3
Model
350
1B1E6
  0
DICTIONARY
  5
2971D
102
{ACAD_REACTORS
330
C
102
}
330
C
100
AcDbDictionary
281
     1
  0
DICTIONARY
  5
1B
102
{ACAD_REACTORS
330
C
102
}
330
C
100
AcDbDictionary
281
     1
  3
STANDARD
350
1C
  0
DICTIONARY
  5
1B1E5
102
{ACAD_REACTORS
330
C
102
}
330
C
100
AcDbDictionary
281
     1
  0
ACDBDICTIONARYWDFLT
  5
1B1E2
102
{ACAD_REACTORS
330
C
102
}
330
C
100
AcDbDictionary
281
     1
  3
Normal
350
1B1E3
100
AcDbDictionaryWithDefault
340
1B1E3
1001
ACAD
1000
TREAT_AS_HARD
1070
     0
  0
DICTIONARY
  5
2971F
102
{ACAD_REACTORS
330
C
102
}
330
C
100
AcDbDictionary
281
     1
  3
Standard
350
29720
  0
DICTIONARY
  5
2A8A7
102
{ACAD_REACTORS
330
C
102
}
330
C
100
AcDbDictionary
281
     1
  0
DICTIONARY
  5
9820
102
{ACAD_REACTORS
330
C
102
}
330
C
100
AcDbDictionary
281
     1
  3
CTABLESTYLE
350
29728
  3
DIMASSOC
350
1FD3B
  3
PROJECTNAME
350
2A151
  3
SORTENTS
350
9821
  0
DICTIONARY
  5
2A82E
102
{ACAD_REACTORS
330
2A82D
102
}
330
2A82D
100
AcDbDictionary
281
     1
  0
XRECORD
  5
296FC
102
{ACAD_REACTORS
330
9822
102
}
330
9822
100
AcDbXrecord
280
     1
340
18
  0
SORTENTSTABLE
  5
9823
102
{ACAD_REACTORS
330
9822
102
}
330
9822
100
AcDbSortentsTable
330
18
331
2A3FF
  5
2A40B
331
2A5E5
  5
2A613
331
2A3C0
  5
2A3CC
331
2A5A6
  5
2A5B2
331
28DFE
  5
2A3A0
331
2A56F
  5
2A57B
331
2A530
  5
2A53C
331
2A4F9
  5
2A505
331
2A4BA
  5
2A4C6
331
2A483
  5
2A48F
331
2A444
  5
2A450
331
2A407
  5
2A413
331
2A5ED
  5
2A617
331
2A3C8
  5
2A3D4
331
2A5AE
  5
2A5BA
331
2A577
  5
2A583
331
2A538
  5
2A544
331
2A4C2
  5
2A4CE
331
2A44C
  5
2A458
331
2A40F
  5
2A41B
331
2A5B6
  5
2A5C2
331
2A3D0
  5
2A3DC
331
2A867
  5
2A873
331
2A86F
  5
2A899
331
2A692
  5
2A69E
331
2A65B
  5
2A667
331
2A61C
  5
2A628
331
2A7DD
  5
2A7FB
331
2A79E
  5
2A7AA
331
2A767
  5
2A773
331
2A728
  5
2A734
331
2A6E1
  5
2A6FD
331
2A69A
  5
2A6A6
331
2A663
  5
2A66F
331
2A624
  5
2A630
331
2A7E5
  5
2A817
331
2A7A6
  5
2A7B2
331
2A76F
  5
2A77B
331
2A730
  5
2A73C
331
2A6A2
  5
2A6AE
331
2A66B
  5
2A677
331
2A62C
  5
2A638
331
2A7AE
  5
2A7BA
331
2A777
  5
2A783
331
2A738
  5
2A744
331
2A6AA
  5
2A6B6
331
2A634
  5
2A640
331
2A7B6
  5
2A7C2
331
2A540
  5
2A54C
331
2A501
  5
2A50D
331
2A4CA
  5
2A4D6
331
2A48B
  5
2A497
331
2A454
  5
2A460
331
2A415
  5
2A421
331
2A5BE
  5
2A5CA
331
2A3D8
  5
2A3E4
331
2A57F
  5
2A58B
331
2A548
  5
2A554
331
2A509
  5
2A515
331
2A4D2
  5
2A4DE
331
2A493
  5
2A49F
331
2A45C
  5
2A468
331
2A41D
  5
2A429
331
2A3E0
  5
2A3EC
331
2A5C6
  5
2A5D2
331
2A3A1
  5
2A3AD
331
2A587
  5
2A593
331
2A550
  5
2A55C
331
2A511
  5
2A51D
331
2A4DA
  5
2A4E6
331
2A49B
  5
2A4A7
331
2A425
  5
2A431
331
2A464
  5
2A470
331
2A3E8
  5
2A3F4
331
2A5CE
  5
2A5E5
331
2A3A9
  5
2A3B5
331
2A58F
  5
2A59B
331
2A558
  5
2A564
331
2A519
  5
2A525
331
2A4E2
  5
2A4EE
331
2A4A3
  5
2A4AF
331
2A42D
  5
2A439
331
2A46C
  5
2A478
331
2A3F0
  5
2A3FC
331
2A5D6
  5
2A607
331
2A3B1
  5
2A3BD
331
2A597
  5
2A5A3
331
2A7F1
  5
2A857
331
2A811
  5
2A85D
331
266D8
  5
266D8
331
2A858
  5
2A864
331
2A740
  5
2A74C
331
2A6F9
  5
2A713
331
2A6B2
  5
2A6BE
331
2A673
  5
2A67F
331
2A63C
  5
2A648
331
2A7BE
  5
2A7CA
331
2A77F
  5
2A78B
331
2A748
  5
2A754
331
2A701
  5
2A72B
331
2A6BA
  5
2A6C6
331
2A67B
  5
2A687
331
2A644
  5
2A650
331
2A7C6
  5
2A7D2
331
2A787
  5
2A793
331
2A750
  5
2A75C
331
2A6C2
  5
2A6CE
331
2A683
  5
2A68F
331
2A64C
  5
2A658
331
2A60D
  5
2A61D
331
2A7CE
  5
2A7F0
331
2A78F
  5
2A79B
331
2A758
  5
2A764
331
2A6CA
  5
2A6F4
331
2A68B
  5
2A697
331
2A654
  5
2A660
331
2A615
  5
2A621
331
2A797
  5
2A7A3
331
2A560
  5
2A56C
331
2A521
  5
2A52D
331
2A4EA
  5
2A4F6
331
2A4AB
  5
2A4B7
331
2A474
  5
2A480
331
2A435
  5
2A441
331
2A3F8
  5
2A404
331
2A3B9
  5
2A3C5
331
2A59F
  5
2A5AB
331
28DF7
  5
28E05
331
2A568
  5
2A574
331
2A529
  5
2A535
331
2A4B3
  5
2A4BF
331
2A47C
  5
2A488
331
2A4F2
  5
2A4FE
331
2A43D
  5
2A449
331
2A400
  5
2A40C
331
2A5E6
  5
2A614
331
2A3C1
  5
2A3CD
331
2A5A7
  5
2A5B3
331
28DFF
  5
2A3A1
331
2A570
  5
2A57C
331
2A531
  5
2A53D
331
2A4FA
  5
2A506
331
2A4BB
  5
2A4C7
331
2A484
  5
2A490
331
2A445
  5
2A451
331
2A408
  5
2A414
331
2A5AF
  5
2A5BB
331
2A3C9
  5
2A3D5
331
2A539
  5
2A545
331
2A4C3
  5
2A4CF
331
2A44D
  5
2A459
331
2A5B7
  5
2A5C3
331
2A3D1
  5
2A3DD
331
2A860
  5
2A86C
331
2A868
  5
2A874
331
2A870
  5
2A89A
331
2A760
  5
2A76C
331
2A6DA
  5
2A6FA
331
2A693
  5
2A69F
331
2A65C
  5
2A668
331
2A61D
  5
2A629
331
2A7DE
  5
2A810
331
2A79F
  5
2A7AB
331
2A768
  5
2A774
331
2A729
  5
2A735
331
2A6E2
  5
2A6FE
331
2A69B
  5
2A6A7
331
2A664
  5
2A670
331
2A625
  5
2A631
331
2A7A7
  5
2A7B3
331
2A770
  5
2A77C
331
2A731
  5
2A73D
331
2A6A3
  5
2A6AF
331
2A66C
  5
2A678
331
2A62D
  5
2A639
331
2A7AF
  5
2A7BB
331
2A739
  5
2A745
331
2A6AB
  5
2A6B7
331
2A635
  5
2A641
331
2A7B7
  5
2A7C3
331
2A578
  5
2A584
331
2A541
  5
2A54D
331
2A502
  5
2A50E
331
2A4CB
  5
2A4D7
331
2A48C
  5
2A498
331
2A455
  5
2A461
331
2A416
  5
2A422
331
2A3D9
  5
2A3E5
331
2A5BF
  5
2A5CB
331
28E1F
  5
2A3A7
331
2A580
  5
2A58C
331
2A549
  5
2A555
331
2A50A
  5
2A516
331
2A4D3
  5
2A4DF
331
2A494
  5
2A4A0
331
2A41E
  5
2A42A
331
2A45D
  5
2A469
331
2A3E1
  5
2A3ED
331
2A5C7
  5
2A5D3
331
2A3A2
  5
2A3AE
331
2A588
  5
2A594
331
2A551
  5
2A55D
331
2A512
  5
2A51E
331
2A4DB
  5
2A4E7
331
2A49C
  5
2A4A8
331
2A426
  5
2A432
331
2A465
  5
2A471
331
2A3E9
  5
2A3F5
331
2A5CF
  5
2A5E6
331
2A3AA
  5
2A3B6
331
2A590
  5
2A59C
331
2A559
  5
2A565
331
2A51A
  5
2A526
331
2A4E3
  5
2A4EF
331
2A4A4
  5
2A4B0
331
2A42E
  5
2A43A
331
2A46D
  5
2A479
331
2A3F1
  5
2A3FD
331
2A5D7
  5
2A60C
331
2A3B2
  5
2A3BE
331
2A7FA
  5
2A85A
331
266D9
  5
266D9
331
2A859
  5
2A865
331
2A778
  5
2A784
331
2A741
  5
2A74D
331
2A6FA
  5
2A714
331
2A6B3
  5
2A6BF
331
2A674
  5
2A680
331
2A63D
  5
2A649
331
2A7BF
  5
2A7CB
331
2A780
  5
2A78C
331
2A749
  5
2A755
331
2A6BB
  5
2A6C7
331
2A67C
  5
2A688
331
2A645
  5
2A651
331
2A606
  5
2A61A
331
2A7C7
  5
2A7DD
331
2A788
  5
2A794
331
2A751
  5
2A75D
331
2A6C3
  5
2A6CF
331
2A684
  5
2A690
331
2A64D
  5
2A659
331
2A60E
  5
2A61E
331
2A7CF
  5
2A7F1
331
2A790
  5
2A79C
331
2A759
  5
2A765
331
2A712
  5
2A72E
331
2A6CB
  5
2A6F5
331
2A68C
  5
2A698
331
2A655
  5
2A661
331
2A616
  5
2A622
331
2A598
  5
2A5A4
331
28DF0
  5
28DF7
331
2A561
  5
2A56D
331
2A522
  5
2A52E
331
2A4EB
  5
2A4F7
331
2A4AC
  5
2A4B8
331
2A475
  5
2A481
331
2A436
  5
2A442
331
2A3F9
  5
2A405
331
2A5A0
  5
2A5AC
331
2A3BA
  5
2A3C6
331
2A569
  5
2A575
331
2A52A
  5
2A536
331
2A4F3
  5
2A4FF
331
2A4B4
  5
2A4C0
331
2A47D
  5
2A489
331
2A43E
  5
2A44A
331
2A401
  5
2A40D
331
2A5E7
  5
2A615
331
2A3C2
  5
2A3CE
331
2A5A8
  5
2A5B4
331
28E00
  5
2A3A2
331
2A571
  5
2A57D
331
2A532
  5
2A53E
331
2A4FB
  5
2A507
331
2A4BC
  5
2A4C8
331
2A485
  5
2A491
331
2A446
  5
2A452
331
2A409
  5
2A415
331
2A5B0
  5
2A5BC
331
2A3CA
  5
2A3D6
331
2A53A
  5
2A546
331
2A4C4
  5
2A4D0
331
2A44E
  5
2A45A
331
2A3D2
  5
2A3DE
331
2A861
  5
2A86D
331
2A898
  5
28E12
331
2A869
  5
2A893
331
2A8A0
  5
28DF4
331
2A871
  5
2A89B
331
2A798
  5
2A7A4
331
2A761
  5
2A76D
331
2A6DB
  5
2A6FB
331
2A694
  5
2A6A0
331
2A65D
  5
2A669
331
2A61E
  5
2A62A
331
2A7A0
  5
2A7AC
331
2A769
  5
2A775
331
2A72A
  5
2A736
331
2A69C
  5
2A6A8
331
2A665
  5
2A671
331
2A626
  5
2A632
331
2A7A8
  5
2A7B4
331
2A771
  5
2A77D
331
2A732
  5
2A73E
331
2A6F3
  5
2A6FF
331
2A6A4
  5
2A6B0
331
2A66D
  5
2A679
331
2A62E
  5
2A63A
331
2A7EF
  5
2A855
331
2A7B0
  5
2A7BC
331
2A73A
  5
2A746
331
2A6AC
  5
2A6B8
331
2A636
  5
2A642
331
2A5B8
  5
2A5C4
331
2A579
  5
2A585
331
2A542
  5
2A54E
331
2A503
  5
2A50F
331
2A4CC
  5
2A4D8
331
2A48D
  5
2A499
331
2A456
  5
2A462
331
2A417
  5
2A423
331
2A5C0
  5
2A5CC
331
2A3DA
  5
2A3E6
331
2A581
  5
2A58D
331
2A54A
  5
2A556
331
2A50B
  5
2A517
331
2A4D4
  5
2A4E0
331
2A495
  5
2A4A1
331
2A45E
  5
2A46A
331
2A41F
  5
2A42B
331
2A3E2
  5
2A3EE
331
2A5C8
  5
2A5D4
331
2A3A3
  5
2A3AF
331
2A589
  5
2A595
331
2A552
  5
2A55E
331
2A513
  5
2A51F
331
2A4DC
  5
2A4E8
331
2A49D
  5
2A4A9
331
2A427
  5
2A433
331
2A466
  5
2A472
331
2A3EA
  5
2A3F6
331
2A5D0
  5
2A5E7
331
2A3AB
  5
2A3B7
331
2A591
  5
2A59D
331
2A55A
  5
2A566
331
2A51B
  5
2A527
331
2A4E4
  5
2A4F0
331
2A4A5
  5
2A4B1
331
2A42F
  5
2A43B
331
2A46E
  5
2A47A
331
2A3F2
  5
2A3FE
331
2A3B3
  5
2A3BF
331
2A7FB
  5
2A85B
331
266DA
  5
266DA
331
2A85A
  5
2A866
331
2A7B8
  5
2A7C4
331
2A779
  5
2A785
331
2A742
  5
2A74E
331
2A6FB
  5
2A725
331
2A6B4
  5
2A6C0
331
2A675
  5
2A681
331
2A63E
  5
2A64A
331
2A7C0
  5
2A7CC
331
2A781
  5
2A78D
331
2A74A
  5
2A756
331
2A6BC
  5
2A6C8
331
2A67D
  5
2A689
331
2A646
  5
2A652
331
2A607
  5
2A61B
331
2A7C8
  5
2A7DE
331
2A789
  5
2A795
331
2A752
  5
2A75E
331
2A6C4
  5
2A6DA
331
2A685
  5
2A691
331
2A64E
  5
2A65A
331
2A7D0
  5
2A7F6
331
2A791
  5
2A79D
331
2A75A
  5
2A766
331
2A713
  5
2A72F
331
2A6CC
  5
2A6F6
331
2A68D
  5
2A699
331
2A656
  5
2A662
331
2A617
  5
2A623
331
2A5D8
  5
2A60D
331
2A599
  5
2A5A5
331
28DF1
  5
28DFA
331
2A562
  5
2A56E
331
2A523
  5
2A52F
331
2A4AD
  5
2A4B9
331
2A476
  5
2A482
331
2A4EC
  5
2A4F8
331
2A437
  5
2A443
331
2A3FA
  5
2A406
331
2A5E0
  5
2A60E
331
2A3BB
  5
2A3C7
331
2A5A1
  5
2A5AD
331
2A56A
  5
2A576
331
2A52B
  5
2A537
331
2A4F4
  5
2A500
331
2A4B5
  5
2A4C1
331
2A43F
  5
2A44B
331
2A47E
  5
2A48A
331
2A402
  5
2A40E
331
2A3C3
  5
2A3CF
331
2A5A9
  5
2A5B5
331
28E01
  5
2A3A3
331
2A572
  5
2A57E
331
2A533
  5
2A53F
331
2A4FC
  5
2A508
331
2A4BD
  5
2A4C9
331
2A486
  5
2A492
331
2A447
  5
2A453
331
2A40A
  5
2A416
331
2A5B1
  5
2A5BD
331
2A3CB
  5
2A3D7
331
2A53B
  5
2A547
331
2A4C5
  5
2A4D1
331
2A44F
  5
2A45B
331
2A3D3
  5
2A3DF
331
2A862
  5
2A86E
331
2A86A
  5
2A894
331
2A8A1
  5
28DF1
331
2A872
  5
2A89C
331
2A799
  5
2A7A5
331
2A762
  5
2A76E
331
2A695
  5
2A6A1
331
2A65E
  5
2A66A
331
2A61F
  5
2A62B
331
2A7A1
  5
2A7AD
331
2A76A
  5
2A776
331
2A72B
  5
2A737
331
2A69D
  5
2A6A9
331
2A666
  5
2A672
331
2A627
  5
2A633
331
2A7A9
  5
2A7B5
331
2A772
  5
2A77E
331
2A733
  5
2A73F
331
2A6F4
  5
2A700
331
2A6A5
  5
2A6B1
331
2A66E
  5
2A67A
331
2A62F
  5
2A63B
331
2A7B1
  5
2A7BD
331
2A73B
  5
2A747
331
2A6AD
  5
2A6B9
331
2A637
  5
2A643
331
2A410
  5
2A41C
331
2A5B9
  5
2A5C5
331
2A57A
  5
2A586
331
2A543
  5
2A54F
331
2A504
  5
2A510
331
2A4CD
  5
2A4D9
331
2A48E
  5
2A49A
331
2A457
  5
2A463
331
2A418
  5
2A424
331
2A3DB
  5
2A3E7
331
2A5C1
  5
2A5CD
331
2A39C
  5
2A3A8
331
2A582
  5
2A58E
331
2A54B
  5
2A557
331
2A50C
  5
2A518
331
2A4D5
  5
2A4E1
331
2A496
  5
2A4A2
331
2A420
  5
2A42C
331
2A45F
  5
2A46B
331
2A3E3
  5
2A3EF
331
2A5C9
  5
2A5D5
331
2A3A4
  5
2A3B0
331
2A58A
  5
2A596
331
2A553
  5
2A55F
331
2A514
  5
2A520
331
2A4DD
  5
2A4E9
331
2A49E
  5
2A4AA
331
2A428
  5
2A434
331
2A467
  5
2A473
331
2A3EB
  5
2A3F7
331
2A5D1
  5
2A5EC
331
2A3AC
  5
2A3B8
331
2A592
  5
2A59E
331
2A55B
  5
2A567
331
2A51C
  5
2A528
331
2A4E5
  5
2A4F1
331
2A4A6
  5
2A4B2
331
2A46F
  5
2A47B
331
2A3F3
  5
2A3FF
331
2A3B4
  5
2A3C0
331
266DB
  5
266DB
331
2A85B
  5
2A867
331
2A5F0
  5
2A618
331
2A7B9
  5
2A7C5
331
2A77A
  5
2A786
331
2A743
  5
2A74F
331
2A6FC
  5
2A726
331
2A6B5
  5
2A6C1
331
2A676
  5
2A682
331
2A63F
  5
2A64B
331
2A7C1
  5
2A7CD
331
2A782
  5
2A78E
331
2A74B
  5
2A757
331
2A6BD
  5
2A6C9
331
2A67E
  5
2A68A
331
2A647
  5
2A653
331
2A7C9
  5
2A7E3
331
2A78A
  5
2A796
331
2A753
  5
2A75F
331
2A70C
  5
2A72C
331
2A6C5
  5
2A6DB
331
2A686
  5
2A692
331
2A64F
  5
2A65B
331
2A7D1
  5
2A7F7
331
2A792
  5
2A79E
331
2A75B
  5
2A767
331
2A714
  5
2A730
331
2A6CD
  5
2A6F7
331
2A68E
  5
2A69A
331
2A657
  5
2A663
331
2A430
  5
2A43C
331
2A59A
  5
2A5A6
331
28DF2
  5
28DFB
331
2A563
  5
2A56F
331
2A524
  5
2A530
331
2A4ED
  5
2A4F9
331
2A4AE
  5
2A4BA
331
2A477
  5
2A483
331
2A438
  5
2A444
331
2A3FB
  5
2A407
331
2A5A2
  5
2A5AE
331
2A3BC
  5
2A3C8
331
2A56B
  5
2A577
331
2A52C
  5
2A538
331
2A4F5
  5
2A501
331
2A47F
  5
2A48B
331
2A4B6
  5
2A4C2
331
2A440
  5
2A44C
331
2A403
  5
2A40F
331
2A3C4
  5
2A3D0
331
2A5AA
  5
2A5B6
331
28E02
  5
2A3A4
331
2A573
  5
2A57F
331
2A534
  5
2A540
331
2A4FD
  5
2A509
331
2A4BE
  5
2A4CA
331
2A487
  5
2A493
331
2A448
  5
2A454
331
2A40B
  5
2A417
331
2A3CC
  5
2A3D8
331
2A5B2
  5
2A5BE
331
28E12
  5
2A3A6
331
2A53C
  5
2A548
331
2A4C6
  5
2A4D2
331
2A3D4
  5
2A3E0
331
2A863
  5
2A86F
331
2A89A
  5
28E1F
331
2A8A2
  5
2A8A2
331
2A86B
  5
2A895
331
2A873
  5
2A8A0
331
2A618
  5
2A624
331
2A79A
  5
2A7A6
331
2A763
  5
2A76F
331
2A696
  5
2A6A2
331
2A65F
  5
2A66B
331
2A620
  5
2A62C
331
2A7A2
  5
2A7AE
331
2A76B
  5
2A777
331
2A72C
  5
2A738
331
2A69E
  5
2A6AA
331
2A667
  5
2A673
331
2A628
  5
2A634
331
2A7AA
  5
2A7B6
331
2A773
  5
2A77F
331
2A734
  5
2A740
331
2A6F5
  5
2A701
331
2A6A6
  5
2A6B2
331
2A66F
  5
2A67B
331
2A630
  5
2A63C
331
2A7B2
  5
2A7BE
331
2A73C
  5
2A748
331
2A6AE
  5
2A6BA
331
2A450
  5
2A45C
331
2A411
  5
2A41D
331
2A5BA
  5
2A5C6
331
2A57B
  5
2A587
331
2A544
  5
2A550
331
2A505
  5
2A511
331
2A4CE
  5
2A4DA
331
2A48F
  5
2A49B
331
2A458
  5
2A464
331
2A419
  5
2A425
331
2A3DC
  5
2A3E8
331
2A5C2
  5
2A5CE
331
2A39D
  5
2A3A9
331
2A583
  5
2A58F
331
2A54C
  5
2A558
331
2A50D
  5
2A519
331
2A4D6
  5
2A4E2
331
2A497
  5
2A4A3
331
2A421
  5
2A42D
331
2A460
  5
2A46C
331
2A3E4
  5
2A3F0
331
2A5CA
  5
2A5D6
331
2A3A5
  5
2A3B1
331
2A58B
  5
2A597
331
2A554
  5
2A560
331
2A515
  5
2A521
331
2A4DE
  5
2A4EA
331
2A49F
  5
2A4AB
331
2A429
  5
2A435
331
2A468
  5
2A474
331
2A3EC
  5
2A3F8
331
2A5D2
  5
2A5ED
331
2A3AD
  5
2A3B9
331
2A593
  5
2A59F
331
2A55C
  5
2A568
331
2A51D
  5
2A529
331
2A4E6
  5
2A4F2
331
2A4A7
  5
2A4B3
331
2A3F4
  5
2A400
331
2A3B5
  5
2A3C1
331
266D4
  5
266D4
331
2A638
  5
2A644
331
2A5F1
  5
2A619
331
2A85C
  5
2A868
331
2A893
  5
28DF0
331
2A7BA
  5
2A7C6
331
2A77B
  5
2A787
331
2A744
  5
2A750
331
2A6FD
  5
2A727
331
2A6B6
  5
2A6C2
331
2A677
  5
2A683
331
2A640
  5
2A64C
331
2A7C2
  5
2A7CE
331
2A783
  5
2A78F
331
2A74C
  5
2A758
331
2A6BE
  5
2A6CA
331
2A67F
  5
2A68B
331
2A648
  5
2A654
331
2A7CA
  5
2A7E4
331
2A78B
  5
2A797
331
2A754
  5
2A760
331
2A70D
  5
2A72D
331
2A6C6
  5
2A6E0
331
2A687
  5
2A693
331
2A650
  5
2A65C
331
2A7D2
  5
2A7FA
331
2A793
  5
2A79F
331
2A75C
  5
2A768
331
2A6CE
  5
2A6F8
331
2A68F
  5
2A69B
331
2A470
  5
2A47C
331
2A431
  5
2A43D
331
2A59B
  5
2A5A7
331
28DF3
  5
28DFC
331
2A564
  5
2A570
331
2A525
  5
2A531
331
2A4EE
  5
2A4FA
331
2A4AF
  5
2A4BB
331
2A478
  5
2A484
331
2A439
  5
2A445
331
2A3FC
  5
2A408
331
2A3BD
  5
2A3C9
331
2A5A3
  5
2A5AF
331
28DFB
  5
2A39D
331
2A56C
  5
2A578
331
2A52D
  5
2A539
331
2A4F6
  5
2A502
331
2A4B7
  5
2A4C3
331
2A480
  5
2A48C
331
2A441
  5
2A44D
331
2A404
  5
2A410
331
2A5AB
  5
2A5B7
331
2A3C5
  5
2A3D1
331
2A574
  5
2A580
331
2A535
  5
2A541
331
2A4FE
  5
2A50A
331
2A4BF
  5
2A4CB
331
2A449
  5
2A455
331
2A40C
  5
2A418
331
2A5B3
  5
2A5BF
331
2A3CD
  5
2A3D9
331
2A53D
  5
2A549
331
2A4C7
  5
2A4D3
331
2A3D5
  5
2A3E1
331
2A864
  5
2A870
331
2A89B
  5
2A39C
331
2A8A3
  5
2A8A3
331
2A86C
  5
2A896
331
2A874
  5
2A8A1
331
2A658
  5
2A664
331
2A619
  5
2A625
331
2A79B
  5
2A7A7
331
2A764
  5
2A770
331
2A725
  5
2A731
331
2A697
  5
2A6A3
331
2A660
  5
2A66C
331
2A621
  5
2A62D
331
2A7A3
  5
2A7AF
331
2A76C
  5
2A778
331
2A72D
  5
2A739
331
2A69F
  5
2A6AB
331
2A668
  5
2A674
331
2A629
  5
2A635
331
2A7EA
  5
2A818
331
2A7AB
  5
2A7B7
331
2A774
  5
2A780
331
2A735
  5
2A741
331
2A6F6
  5
2A70C
331
2A6A7
  5
2A6B3
331
2A631
  5
2A63D
331
2A7B3
  5
2A7BF
331
2A73D
  5
2A749
331
2A6AF
  5
2A6BB
331
2A488
  5
2A494
331
2A451
  5
2A45D
331
2A412
  5
2A41E
331
2A5BB
  5
2A5C7
331
2A57C
  5
2A588
331
2A545
  5
2A551
331
2A506
  5
2A512
331
2A4CF
  5
2A4DB
331
2A490
  5
2A49C
331
2A459
  5
2A465
331
2A41A
  5
2A426
331
2A3DD
  5
2A3E9
331
2A5C3
  5
2A5CF
331
2A39E
  5
2A3AA
331
2A584
  5
2A590
331
2A54D
  5
2A559
331
2A50E
  5
2A51A
331
2A4D7
  5
2A4E3
331
2A498
  5
2A4A4
331
2A422
  5
2A42E
331
2A461
  5
2A46D
331
2A3E5
  5
2A3F1
331
2A5CB
  5
2A5D7
331
2A3A6
  5
2A3B2
331
2A58C
  5
2A598
331
2A555
  5
2A561
331
2A516
  5
2A522
331
2A4DF
  5
2A4EB
331
2A4A0
  5
2A4AC
331
2A42A
  5
2A436
331
2A469
  5
2A475
331
2A3ED
  5
2A3F9
331
2A5D3
  5
2A5F0
331
2A3AE
  5
2A3BA
331
2A594
  5
2A5A0
331
2A55D
  5
2A569
331
2A51E
  5
2A52A
331
2A4E7
  5
2A4F3
331
2A3F5
  5
2A401
331
2A3B6
  5
2A3C2
331
2A7F6
  5
2A858
331
266D5
  5
266D5
331
2A855
  5
2A861
331
2A816
  5
2A85E
331
2A670
  5
2A67C
331
2A639
  5
2A645
331
2A85D
  5
2A869
331
2A894
  5
28DF2
331
2A7BB
  5
2A7C7
331
2A77C
  5
2A788
331
2A745
  5
2A751
331
2A6FE
  5
2A728
331
2A6B7
  5
2A6C3
331
2A678
  5
2A684
331
2A641
  5
2A64D
331
2A7C3
  5
2A7CF
331
2A784
  5
2A790
331
2A74D
  5
2A759
331
2A6BF
  5
2A6CB
331
2A680
  5
2A68C
331
2A649
  5
2A655
331
2A7CB
  5
2A7E5
331
2A78C
  5
2A798
331
2A755
  5
2A761
331
2A6C7
  5
2A6E1
331
2A688
  5
2A694
331
2A651
  5
2A65D
331
2A794
  5
2A7A0
331
2A75D
  5
2A769
331
2A6CF
  5
2A6F9
331
2A4A8
  5
2A4B4
331
2A471
  5
2A47D
331
2A432
  5
2A43E
331
2A59C
  5
2A5A8
331
28DF4
  5
28DFD
331
2A565
  5
2A571
331
2A526
  5
2A532
331
2A4EF
  5
2A4FB
331
2A4B0
  5
2A4BC
331
2A479
  5
2A485
331
2A43A
  5
2A446
331
2A3FD
  5
2A409
331
2A3BE
  5
2A3CA
331
2A5A4
  5
2A5B0
331
28DFC
  5
2A39E
331
2A56D
  5
2A579
331
2A52E
  5
2A53A
331
2A4F7
  5
2A503
331
2A4B8
  5
2A4C4
331
2A481
  5
2A48D
331
2A442
  5
2A44E
331
2A405
  5
2A411
331
2A5AC
  5
2A5B8
331
2A3C6
  5
2A3D2
331
2A575
  5
2A581
331
2A536
  5
2A542
331
2A4FF
  5
2A50B
331
2A4C0
  5
2A4CC
331
2A44A
  5
2A456
331
2A40D
  5
2A419
331
2A5B4
  5
2A5C0
331
2A3CE
  5
2A3DA
331
2A53E
  5
2A54A
331
2A3D6
  5
2A3E2
331
2A865
  5
2A871
331
2A89C
  5
28DF6
331
2A8A4
  5
2A8A4
331
2A86D
  5
2A897
331
2A690
  5
2A69C
331
2A659
  5
2A665
331
2A61A
  5
2A626
331
2A79C
  5
2A7A8
331
2A765
  5
2A771
331
2A726
  5
2A732
331
2A698
  5
2A6A4
331
2A661
  5
2A66D
331
2A622
  5
2A62E
331
2A7E3
  5
2A811
331
2A7A4
  5
2A7B0
331
2A76D
  5
2A779
331
2A72E
  5
2A73A
331
2A6A0
  5
2A6AC
331
2A669
  5
2A675
331
2A62A
  5
2A636
331
2A7AC
  5
2A7B8
331
2A775
  5
2A781
331
2A736
  5
2A742
331
2A6F7
  5
2A70D
331
2A6A8
  5
2A6B4
331
2A632
  5
2A63E
331
2A7B4
  5
2A7C0
331
2A73E
  5
2A74A
331
2A4C8
  5
2A4D4
331
2A489
  5
2A495
331
2A452
  5
2A45E
331
2A413
  5
2A41F
331
2A5BC
  5
2A5C8
331
2A57D
  5
2A589
331
2A546
  5
2A552
331
2A507
  5
2A513
331
2A4D0
  5
2A4DC
331
2A491
  5
2A49D
331
2A45A
  5
2A466
331
2A41B
  5
2A427
331
2A3DE
  5
2A3EA
331
2A5C4
  5
2A5D0
331
2A39F
  5
2A3AB
331
2A585
  5
2A591
331
2A54E
  5
2A55A
331
2A50F
  5
2A51B
331
2A4D8
  5
2A4E4
331
2A499
  5
2A4A5
331
2A423
  5
2A42F
331
2A462
  5
2A46E
331
2A3E6
  5
2A3F2
331
2A5CC
  5
2A5D8
331
2A3A7
  5
2A3B3
331
2A58D
  5
2A599
331
2A556
  5
2A562
331
2A517
  5
2A523
331
2A4E0
  5
2A4EC
331
2A4A1
  5
2A4AD
331
2A42B
  5
2A437
331
2A46A
  5
2A476
331
2A3EE
  5
2A3FA
331
2A5D4
  5
2A5F1
331
2A3AF
  5
2A3BB
331
2A595
  5
2A5A1
331
2A55E
  5
2A56A
331
2A51F
  5
2A52B
331
2A3F6
  5
2A402
331
2A3B7
  5
2A3C3
331
2A7F7
  5
2A859
331
266D6
  5
266D6
331
2A856
  5
2A862
331
2A817
  5
2A85F
331
2A6B0
  5
2A6BC
331
2A671
  5
2A67D
331
2A63A
  5
2A646
331
2A85E
  5
2A86A
331
2A895
  5
28DF3
331
2A7BC
  5
2A7C8
331
2A77D
  5
2A789
331
2A746
  5
2A752
331
2A6FF
  5
2A729
331
2A6B8
  5
2A6C4
331
2A679
  5
2A685
331
2A642
  5
2A64E
331
2A7C4
  5
2A7D0
331
2A785
  5
2A791
331
2A74E
  5
2A75A
331
2A6C0
  5
2A6CC
331
2A681
  5
2A68D
331
2A64A
  5
2A656
331
2A7CC
  5
2A7EA
331
2A78D
  5
2A799
331
2A756
  5
2A762
331
2A6C8
  5
2A6E2
331
2A689
  5
2A695
331
2A652
  5
2A65E
331
2A613
  5
2A61F
331
2A795
  5
2A7A1
331
2A75E
  5
2A76A
331
2A4E8
  5
2A4F4
331
2A4A9
  5
2A4B5
331
2A472
  5
2A47E
331
2A433
  5
2A43F
331
2A59D
  5
2A5A9
331
28DF5
  5
28DFF
331
2A566
  5
2A572
331
2A527
  5
2A533
331
2A4F0
  5
2A4FC
331
2A4B1
  5
2A4BD
331
2A47A
  5
2A486
331
2A43B
  5
2A447
331
2A3FE
  5
2A40A
331
2A3BF
  5
2A3CB
331
2A5A5
  5
2A5B1
331
28DFD
  5
2A39F
331
2A56E
  5
2A57A
331
2A52F
  5
2A53B
331
2A4F8
  5
2A504
331
2A4B9
  5
2A4C5
331
2A482
  5
2A48E
331
2A443
  5
2A44F
331
2A406
  5
2A412
331
2A5EC
  5
2A616
331
2A3C7
  5
2A3D3
331
2A5AD
  5
2A5B9
331
28E05
  5
2A3A5
331
2A576
  5
2A582
331
2A537
  5
2A543
331
2A4C1
  5
2A4CD
331
2A44B
  5
2A457
331
2A40E
  5
2A41A
331
2A5B5
  5
2A5C1
331
2A3CF
  5
2A3DB
331
2A53F
  5
2A54B
331
2A3D7
  5
2A3E3
331
2A866
  5
2A872
331
2A8A5
  5
2A8A5
331
2A86E
  5
2A898
331
2A691
  5
2A69D
331
2A65A
  5
2A666
331
2A61B
  5
2A627
331
2A79D
  5
2A7A9
331
2A766
  5
2A772
331
2A727
  5
2A733
331
2A6E0
  5
2A6FC
331
2A699
  5
2A6A5
331
2A662
  5
2A66E
331
2A623
  5
2A62F
331
2A7E4
  5
2A816
331
2A7A5
  5
2A7B1
331
2A76E
  5
2A77A
331
2A72F
  5
2A73B
331
2A6A1
  5
2A6AD
331
2A66A
  5
2A676
331
2A62B
  5
2A637
331
2A7AD
  5
2A7B9
331
2A776
  5
2A782
331
2A737
  5
2A743
331
2A6A9
  5
2A6B5
331
2A633
  5
2A63F
331
2A7B5
  5
2A7C1
331
2A73F
  5
2A74B
331
2A500
  5
2A50C
331
2A4C9
  5
2A4D5
331
2A48A
  5
2A496
331
2A453
  5
2A45F
331
2A414
  5
2A420
331
2A5BD
  5
2A5C9
331
2A57E
  5
2A58A
331
2A547
  5
2A553
331
2A508
  5
2A514
331
2A4D1
  5
2A4DD
331
2A492
  5
2A49E
331
2A45B
  5
2A467
331
2A41C
  5
2A428
331
2A3DF
  5
2A3EB
331
2A5C5
  5
2A5D1
331
2A3A0
  5
2A3AC
331
2A586
  5
2A592
331
2A54F
  5
2A55B
331
2A510
  5
2A51C
331
2A4D9
  5
2A4E5
331
2A49A
  5
2A4A6
331
2A424
  5
2A430
331
2A463
  5
2A46F
331
2A3E7
  5
2A3F3
331
2A5CD
  5
2A5E0
331
2A3A8
  5
2A3B4
331
2A58E
  5
2A59A
331
2A557
  5
2A563
331
2A518
  5
2A524
331
2A4E1
  5
2A4ED
331
2A4A2
  5
2A4AE
331
2A42C
  5
2A438
331
2A46B
  5
2A477
331
2A3EF
  5
2A3FB
331
2A5D5
  5
2A606
331
2A3B0
  5
2A3BC
331
2A596
  5
2A5A2
331
2A55F
  5
2A56B
331
2A3F7
  5
2A403
331
2A7F0
  5
2A856
331
2A810
  5
2A85C
331
266D7
  5
266D7
331
2A857
  5
2A863
331
2A818
  5
2A860
331
2A6F8
  5
2A712
331
2A6B1
  5
2A6BD
331
2A672
  5
2A67E
331
2A63B
  5
2A647
331
2A85F
  5
2A86B
331
2A896
  5
28DF5
331
2A7BD
  5
2A7C9
331
2A77E
  5
2A78A
331
2A747
  5
2A753
331
2A700
  5
2A72A
331
2A6B9
  5
2A6C5
331
2A67A
  5
2A686
331
2A643
  5
2A64F
331
2A7C5
  5
2A7D1
331
2A786
  5
2A792
331
2A74F
  5
2A75B
331
2A6C1
  5
2A6CD
331
2A682
  5
2A68E
331
2A64B
  5
2A657
331
2A60C
  5
2A61C
331
2A7CD
  5
2A7EF
331
2A78E
  5
2A79A
331
2A757
  5
2A763
331
2A6C9
  5
2A6F3
331
2A68A
  5
2A696
331
2A653
  5
2A65F
331
2A614
  5
2A620
331
2A796
  5
2A7A2
331
2A75F
  5
2A76B
331
2A520
  5
2A52C
331
2A4E9
  5
2A4F5
331
2A4AA
  5
2A4B6
331
2A473
  5
2A47F
331
2A434
  5
2A440
331
2A3B8
  5
2A3C4
331
2A59E
  5
2A5AA
331
28DF6
  5
28E01
331
2A567
  5
2A573
331
2A528
  5
2A534
331
2A4B2
  5
2A4BE
331
2A47B
  5
2A487
331
2A4F1
  5
2A4FD
331
2A43C
  5
2A448
  0
XRECORD
  5
296FB
102
{ACAD_REACTORS
330
2663A
102
}
330
2663A
100
AcDbXrecord
280
     1
340
15
  0
GROUP
  5
981F
102
{ACAD_REACTORS
330
D
102
}
330
D
100
AcDbGroup
300

 70
     1
 71
     1
  0
GROUP
  5
27FE5
102
{ACAD_REACTORS
330
D
102
}
330
D
100
AcDbGroup
300

 70
     1
 71
     1
  0
GROUP
  5
281C5
102
{ACAD_REACTORS
330
D
102
}
330
D
100
AcDbGroup
300

 70
     1
 71
     1
  0
GROUP
  5
27BC6
102
{ACAD_REACTORS
330
D
102
}
330
D
100
AcDbGroup
300

 70
     1
 71
     1
  0
GROUP
  5
281C6
102
{ACAD_REACTORS
330
D
102
}
330
D
100
AcDbGroup
300

 70
     1
 71
     1
  0
GROUP
  5
281DE
102
{ACAD_REACTORS
330
D
102
}
330
D
100
AcDbGroup
300

 70
     1
 71
     1
  0
GROUP
  5
281DF
102
{ACAD_REACTORS
330
D
102
}
330
D
100
AcDbGroup
300

 70
     1
 71
     1
  0
GROUP
  5
28D75
102
{ACAD_REACTORS
330
D
102
}
330
D
100
AcDbGroup
300

 70
     1
 71
     1
  0
GROUP
  5
281E0
102
{ACAD_REACTORS
330
D
102
}
330
D
100
AcDbGroup
300

 70
     1
 71
     1
  0
GROUP
  5
28D90
102
{ACAD_REACTORS
330
D
102
}
330
D
100
AcDbGroup
300

 70
     1
 71
     1
  0
GROUP
  5
281E1
102
{ACAD_REACTORS
330
D
102
}
330
D
100
AcDbGroup
300

 70
     1
 71
     1
  0
GROUP
  5
1FC80
102
{ACAD_REACTORS
330
D
102
}
330
D
100
AcDbGroup
300

 70
     1
 71
     1
  0
GROUP
  5
27FE6
102
{ACAD_REACTORS
330
D
102
}
330
D
100
AcDbGroup
300

 70
     1
 71
     1
  0
GROUP
  5
27FD2
102
{ACAD_REACTORS
330
D
102
}
330
D
100
AcDbGroup
300

 70
     1
 71
     1
  0
GROUP
  5
282CF
102
{ACAD_REACTORS
330
D
102
}
330
D
100
AcDbGroup
300

 70
     1
 71
     1
  0
GROUP
  5
281B5
102
{ACAD_REACTORS
330
D
102
}
330
D
100
AcDbGroup
300

 70
     1
 71
     1
  0
GROUP
  5
194F6
102
{ACAD_REACTORS
330
D
102
}
330
D
100
AcDbGroup
300

 70
     1
 71
     1
  0
GROUP
  5
1BD8B
102
{ACAD_REACTORS
330
D
102
}
330
D
100
AcDbGroup
300

 70
     1
 71
     1
  0
GROUP
  5
282D0
102
{ACAD_REACTORS
330
D
102
}
330
D
100
AcDbGroup
300

 70
     1
 71
     1
  0
GROUP
  5
282D1
102
{ACAD_REACTORS
330
D
102
}
330
D
100
AcDbGroup
300

 70
     1
 71
     1
  0
GROUP
  5
282D3
102
{ACAD_REACTORS
330
D
102
}
330
D
100
AcDbGroup
300

 70
     1
 71
     1
  0
GROUP
  5
281B0
102
{ACAD_REACTORS
330
D
102
}
330
D
100
AcDbGroup
300

 70
     1
 71
     1
  0
GROUP
  5
282D4
102
{ACAD_REACTORS
330
D
102
}
330
D
100
AcDbGroup
300

 70
     1
 71
     1
  0
GROUP
  5
27FE7
102
{ACAD_REACTORS
330
D
102
}
330
D
100
AcDbGroup
300

 70
     1
 71
     1
  0
GROUP
  5
282D5
102
{ACAD_REACTORS
330
D
102
}
330
D
100
AcDbGroup
300

 70
     1
 71
     1
  0
GROUP
  5
282DB
102
{ACAD_REACTORS
330
D
102
}
330
D
100
AcDbGroup
300

 70
     1
 71
     1
  0
GROUP
  5
2601B
102
{ACAD_REACTORS
330
D
102
}
330
D
100
AcDbGroup
300

 70
     1
 71
     1
  0
GROUP
  5
282DC
102
{ACAD_REACTORS
330
D
102
}
330
D
100
AcDbGroup
300

 70
     1
 71
     1
  0
GROUP
  5
27BD4
102
{ACAD_REACTORS
330
D
102
}
330
D
100
AcDbGroup
300

 70
     1
 71
     1
  0
GROUP
  5
282DF
102
{ACAD_REACTORS
330
D
102
}
330
D
100
AcDbGroup
300

 70
     1
 71
     1
  0
GROUP
  5
1BD85
102
{ACAD_REACTORS
330
D
102
}
330
D
100
AcDbGroup
300

 70
     1
 71
     1
  0
GROUP
  5
27D2E
102
{ACAD_REACTORS
330
D
102
}
330
D
100
AcDbGroup
300

 70
     1
 71
     1
  0
GROUP
  5
27FD5
102
{ACAD_REACTORS
330
D
102
}
330
D
100
AcDbGroup
300

 70
     1
 71
     1
  0
GROUP
  5
28D91
102
{ACAD_REACTORS
330
D
102
}
330
D
100
AcDbGroup
300

 70
     1
 71
     1
  0
GROUP
  5
27B8A
102
{ACAD_REACTORS
330
D
102
}
330
D
100
AcDbGroup
300

 70
     1
 71
     1
  0
GROUP
  5
281B1
102
{ACAD_REACTORS
330
D
102
}
330
D
100
AcDbGroup
300

 70
     1
 71
     1
  0
GROUP
  5
28D92
102
{ACAD_REACTORS
330
D
102
}
330
D
100
AcDbGroup
300

 70
     1
 71
     1
  0
GROUP
  5
28D93
102
{ACAD_REACTORS
330
D
102
}
330
D
100
AcDbGroup
300

 70
     1
 71
     1
  0
GROUP
  5
28D94
102
{ACAD_REACTORS
330
D
102
}
330
D
100
AcDbGroup
300

 70
     1
 71
     1
  0
GROUP
  5
28D95
102
{ACAD_REACTORS
330
D
102
}
330
D
100
AcDbGroup
300

 70
     1
 71
     1
  0
GROUP
  5
27BF3
102
{ACAD_REACTORS
330
D
102
}
330
D
100
AcDbGroup
300

 70
     1
 71
     1
  0
GROUP
  5
282EA
102
{ACAD_REACTORS
330
D
102
}
330
D
100
AcDbGroup
300

 70
     1
 71
     1
  0
GROUP
  5
28DAA
102
{ACAD_REACTORS
330
D
102
}
330
D
100
AcDbGroup
300

 70
     1
 71
     1
  0
GROUP
  5
28DAB
102
{ACAD_REACTORS
330
D
102
}
330
D
100
AcDbGroup
300

 70
     1
 71
     1
  0
GROUP
  5
28DAC
102
{ACAD_REACTORS
330
D
102
}
330
D
100
AcDbGroup
300

 70
     1
 71
     1
  0
GROUP
  5
28D6E
102
{ACAD_REACTORS
330
D
102
}
330
D
100
AcDbGroup
300

 70
     1
 71
     1
  0
GROUP
  5
1BD86
102
{ACAD_REACTORS
330
D
102
}
330
D
100
AcDbGroup
300

 70
     1
 71
     1
  0
GROUP
  5
28DAD
102
{ACAD_REACTORS
330
D
102
}
330
D
100
AcDbGroup
300

 70
     1
 71
     1
  0
GROUP
  5
281B2
102
{ACAD_REACTORS
330
D
102
}
330
D
100
AcDbGroup
300

 70
     1
 71
     1
  0
GROUP
  5
28DAE
102
{ACAD_REACTORS
330
D
102
}
330
D
100
AcDbGroup
300

 70
     1
 71
     1
  0
GROUP
  5
194F8
102
{ACAD_REACTORS
330
D
102
}
330
D
100
AcDbGroup
300

 70
     1
 71
     1
  0
GROUP
  5
1BD87
102
{ACAD_REACTORS
330
D
102
}
330
D
100
AcDbGroup
300

 70
     1
 71
     1
  0
GROUP
  5
27BF4
102
{ACAD_REACTORS
330
D
102
}
330
D
100
AcDbGroup
300

 70
     1
 71
     1
  0
GROUP
  5
28DAF
102
{ACAD_REACTORS
330
D
102
}
330
D
100
AcDbGroup
300

 70
     1
 71
     1
  0
GROUP
  5
28DC4
102
{ACAD_REACTORS
330
D
102
}
330
D
100
AcDbGroup
300

 70
     1
 71
     1
  0
GROUP
  5
28DC5
102
{ACAD_REACTORS
330
D
102
}
330
D
100
AcDbGroup
300

 70
     1
 71
     1
  0
GROUP
  5
27FE8
102
{ACAD_REACTORS
330
D
102
}
330
D
100
AcDbGroup
300

 70
     1
 71
     1
  0
GROUP
  5
282EB
102
{ACAD_REACTORS
330
D
102
}
330
D
100
AcDbGroup
300

 70
     1
 71
     1
  0
GROUP
  5
28DC6
102
{ACAD_REACTORS
330
D
102
}
330
D
100
AcDbGroup
300

 70
     1
 71
     1
  0
GROUP
  5
28DC7
102
{ACAD_REACTORS
330
D
102
}
330
D
100
AcDbGroup
300

 70
     1
 71
     1
  0
GROUP
  5
27FDC
102
{ACAD_REACTORS
330
D
102
}
330
D
100
AcDbGroup
300

 70
     1
 71
     1
  0
GROUP
  5
281B3
102
{ACAD_REACTORS
330
D
102
}
330
D
100
AcDbGroup
300

 70
     1
 71
     1
  0
GROUP
  5
28DC8
102
{ACAD_REACTORS
330
D
102
}
330
D
100
AcDbGroup
300

 70
     1
 71
     1
  0
GROUP
  5
28DC9
102
{ACAD_REACTORS
330
D
102
}
330
D
100
AcDbGroup
300

 70
     1
 71
     1
  0
GROUP
  5
281B7
102
{ACAD_REACTORS
330
D
102
}
330
D
100
AcDbGroup
300

 70
     1
 71
     1
  0
GROUP
  5
28DDE
102
{ACAD_REACTORS
330
D
102
}
330
D
100
AcDbGroup
300

 70
     1
 71
     1
  0
GROUP
  5
28DDF
102
{ACAD_REACTORS
330
D
102
}
330
D
100
AcDbGroup
300

 70
     1
 71
     1
  0
GROUP
  5
27D06
102
{ACAD_REACTORS
330
D
102
}
330
D
100
AcDbGroup
300

 70
     1
 71
     1
  0
GROUP
  5
27FD6
102
{ACAD_REACTORS
330
D
102
}
330
D
100
AcDbGroup
300

 70
     1
 71
     1
  0
GROUP
  5
28DE0
102
{ACAD_REACTORS
330
D
102
}
330
D
100
AcDbGroup
300

 70
     1
 71
     1
  0
GROUP
  5
1BD88
102
{ACAD_REACTORS
330
D
102
}
330
D
100
AcDbGroup
300

 70
     1
 71
     1
  0
GROUP
  5
28DE1
102
{ACAD_REACTORS
330
D
102
}
330
D
100
AcDbGroup
300

 70
     1
 71
     1
  0
GROUP
  5
282F1
102
{ACAD_REACTORS
330
D
102
}
330
D
100
AcDbGroup
300

 70
     1
 71
     1
  0
GROUP
  5
28DE2
102
{ACAD_REACTORS
330
D
102
}
330
D
100
AcDbGroup
300

 70
     1
 71
     1
  0
GROUP
  5
281B4
102
{ACAD_REACTORS
330
D
102
}
330
D
100
AcDbGroup
300

 70
     1
 71
     1
  0
GROUP
  5
27D2F
102
{ACAD_REACTORS
330
D
102
}
330
D
100
AcDbGroup
300

 70
     1
 71
     1
  0
GROUP
  5
27BF5
102
{ACAD_REACTORS
330
D
102
}
330
D
100
AcDbGroup
300

 70
     1
 71
     1
  0
GROUP
  5
28DE3
102
{ACAD_REACTORS
330
D
102
}
330
D
100
AcDbGroup
300

 70
     1
 71
     1
  0
GROUP
  5
281BA
102
{ACAD_REACTORS
330
D
102
}
330
D
100
AcDbGroup
300

 70
     1
 71
     1
  0
GROUP
  5
28DEA
102
{ACAD_REACTORS
330
D
102
}
330
D
100
AcDbGroup
300

 70
     1
 71
     1
  0
GROUP
  5
28DEF
102
{ACAD_REACTORS
330
D
102
}
330
D
100
AcDbGroup
300

 70
     1
 71
     1
  0
GROUP
  5
28DF8
102
{ACAD_REACTORS
330
D
102
}
330
D
100
AcDbGroup
300

 70
     1
 71
     1
340
28DF3
340
28DF2
340
28DF1
340
28DF0
  0
GROUP
  5
28DF9
102
{ACAD_REACTORS
330
D
102
}
330
D
100
AcDbGroup
300

 70
     1
 71
     1
340
28DF7
340
28DF6
340
28DF5
340
28DF4
  0
GROUP
  5
28E03
102
{ACAD_REACTORS
330
D
102
}
330
D
100
AcDbGroup
300

 70
     1
 71
     1
340
28DFE
340
28DFD
340
28DFC
340
28DFB
  0
GROUP
  5
27FD7
102
{ACAD_REACTORS
330
D
102
}
330
D
100
AcDbGroup
300

 70
     1
 71
     1
  0
GROUP
  5
28E04
102
{ACAD_REACTORS
330
D
102
}
330
D
100
AcDbGroup
300

 70
     1
 71
     1
340
28E02
340
28E01
340
28E00
340
28DFF
  0
GROUP
  5
265C2
102
{ACAD_REACTORS
330
D
102
}
330
D
100
AcDbGroup
300

 70
     1
 71
     1
  0
GROUP
  5
2A5D9
102
{ACAD_REACTORS
330
D
102
}
330
D
100
AcDbGroup
300

 70
     1
 71
     1
340
2A5D8
340
2A5D7
340
2A5D6
340
2A5D5
340
2A5D4
340
2A5D3
340
2A5D2
340
2A5D1
340
2A5D0
340
2A5CF
340
2A5CE
340
2A5CD
340
2A5CC
340
2A5CB
340
2A5CA
340
2A5C9
340
2A5C8
340
2A5C7
340
2A5C6
340
2A5C5
340
2A5C4
340
2A5C3
340
2A5C2
340
2A5C1
340
2A5C0
340
2A5BF
340
2A5BE
340
2A5BD
340
2A5BC
340
2A5BB
340
2A5BA
340
2A5B9
340
2A5B8
340
2A5B7
340
2A5B6
340
2A5B5
340
2A5B4
340
2A5B3
340
2A5B2
340
2A5B1
340
2A5B0
340
2A5AF
340
2A5AE
340
2A5AD
340
2A5AC
340
2A5AB
340
2A5AA
340
2A5A9
340
2A5A8
340
2A5A7
340
2A5A6
340
2A5A5
340
2A5A4
340
2A5A3
340
2A5A2
340
2A5A1
340
2A5A0
340
2A59F
340
2A59E
340
2A59D
340
2A59C
340
2A59B
340
2A59A
340
2A599
340
2A598
340
2A597
340
2A596
340
2A595
340
2A594
340
2A593
340
2A592
340
2A591
340
2A590
340
2A58F
340
2A58E
340
2A58D
340
2A58C
340
2A58B
340
2A58A
340
2A589
340
2A588
340
2A587
340
2A586
340
2A585
340
2A584
340
2A583
340
2A582
340
2A581
340
2A580
340
2A57F
340
2A57E
340
2A57D
340
2A57C
340
2A57B
340
2A57A
340
2A579
340
2A578
340
2A577
340
2A576
340
2A575
340
2A574
340
2A573
340
2A572
340
2A571
340
2A570
340
2A56F
340
2A56E
340
2A56D
340
2A56C
340
2A56B
340
2A56A
340
2A569
340
2A568
340
2A567
340
2A566
340
2A565
340
2A564
340
2A563
340
2A562
340
2A561
340
2A560
340
2A55F
340
2A55E
340
2A55D
340
2A55C
340
2A55B
340
2A55A
340
2A559
340
2A558
340
2A557
340
2A556
340
2A555
340
2A554
340
2A553
340
2A552
340
2A551
340
2A550
340
2A54F
340
2A54E
340
2A54D
340
2A54C
340
2A54B
340
2A54A
340
2A549
340
2A548
340
2A547
340
2A546
340
2A545
340
2A544
340
2A543
340
2A542
340
2A541
340
2A540
340
2A53F
340
2A53E
340
2A53D
340
2A53C
340
2A53B
340
2A53A
340
2A539
340
2A538
340
2A537
340
2A536
340
2A535
340
2A534
340
2A533
340
2A532
340
2A531
340
2A530
340
2A52F
340
2A52E
340
2A52D
340
2A52C
340
2A52B
340
2A52A
340
2A529
340
2A528
340
2A527
340
2A526
340
2A525
340
2A524
340
2A523
340
2A522
340
2A521
340
2A520
340
2A51F
340
2A51E
340
2A51D
340
2A51C
340
2A51B
340
2A51A
340
2A519
340
2A518
340
2A517
340
2A516
340
2A515
340
2A514
340
2A513
340
2A512
340
2A511
340
2A510
340
2A50F
340
2A50E
340
2A50D
340
2A50C
340
2A50B
340
2A50A
340
2A509
340
2A508
340
2A507
340
2A506
340
2A505
340
2A504
340
2A503
340
2A502
340
2A501
340
2A500
340
2A4FF
340
2A4FE
340
2A4FD
340
2A4FC
340
2A4FB
340
2A4FA
340
2A4F9
340
2A4F8
340
2A4F7
340
2A4F6
340
2A4F5
340
2A4F4
340
2A4F3
340
2A4F2
340
2A4F1
340
2A4F0
340
2A4EF
340
2A4EE
340
2A4ED
340
2A4EC
340
2A4EB
340
2A4EA
340
2A4E9
340
2A4E8
340
2A4E7
340
2A4E6
340
2A4E5
340
2A4E4
340
2A4E3
340
2A4E2
340
2A4E1
340
2A4E0
340
2A4DF
340
2A4DE
340
2A4DD
340
2A4DC
340
2A4DB
340
2A4DA
340
2A4D9
340
2A4D8
340
2A4D7
340
2A4D6
340
2A4D5
340
2A4D4
340
2A4D3
340
2A4D2
340
2A4D1
340
2A4D0
340
2A4CF
340
2A4CE
340
2A4CD
340
2A4CC
340
2A4CB
340
2A4CA
340
2A4C9
340
2A4C8
340
2A4C7
340
2A4C6
340
2A4C5
340
2A4C4
340
2A4C3
340
2A4C2
340
2A4C1
340
2A4C0
340
2A4BF
340
2A4BE
340
2A4BD
340
2A4BC
340
2A4BB
340
2A4BA
340
2A4B9
340
2A4B8
340
2A4B7
340
2A4B6
340
2A4B5
340
2A4B4
340
2A4B3
340
2A4B2
340
2A4B1
340
2A4B0
340
2A4AF
340
2A4AE
340
2A4AD
340
2A4AC
340
2A4AB
340
2A4AA
340
2A4A9
340
2A4A8
340
2A4A7
340
2A4A6
340
2A4A5
340
2A4A4
340
2A4A3
340
2A4A2
340
2A4A1
340
2A4A0
340
2A49F
340
2A49E
340
2A49D
340
2A49C
340
2A49B
340
2A49A
340
2A499
340
2A498
340
2A497
340
2A496
340
2A495
340
2A494
340
2A493
340
2A492
340
2A491
340
2A490
340
2A48F
340
2A48E
340
2A48D
340
2A48C
340
2A48B
340
2A48A
340
2A489
340
2A488
340
2A487
340
2A486
340
2A485
340
2A484
340
2A483
340
2A482
340
2A481
340
2A480
340
2A47F
340
2A47E
340
2A47D
340
2A47C
340
2A47B
340
2A47A
340
2A479
340
2A478
340
2A477
340
2A476
340
2A475
340
2A474
340
2A473
340
2A472
340
2A471
340
2A470
340
2A46F
340
2A46E
340
2A46D
340
2A46C
340
2A46B
340
2A46A
340
2A469
340
2A468
340
2A467
340
2A466
340
2A465
340
2A464
340
2A463
340
2A462
340
2A461
340
2A460
340
2A45F
340
2A45E
340
2A45D
340
2A45C
340
2A45B
340
2A45A
340
2A459
340
2A458
340
2A457
340
2A456
340
2A455
340
2A454
340
2A453
340
2A452
340
2A451
340
2A450
340
2A44F
340
2A44E
340
2A44D
340
2A44C
340
2A44B
340
2A44A
340
2A449
340
2A448
340
2A447
340
2A446
340
2A445
340
2A444
340
2A443
340
2A442
340
2A441
340
2A440
340
2A43F
340
2A43E
340
2A43D
340
2A43C
340
2A43B
340
2A43A
340
2A439
340
2A438
340
2A437
340
2A436
340
2A435
340
2A434
340
2A433
340
2A432
340
2A431
340
2A430
340
2A42F
340
2A42E
340
2A42D
340
2A42C
340
2A42B
340
2A42A
340
2A429
340
2A428
340
2A427
340
2A426
340
2A425
340
2A424
340
2A423
340
2A422
340
2A421
340
2A420
340
2A41F
340
2A41E
340
2A41D
340
2A41C
340
2A41B
340
2A41A
340
2A419
340
2A418
340
2A417
340
2A416
340
2A415
340
2A414
340
2A413
340
2A412
340
2A411
340
2A410
340
2A40F
340
2A40E
340
2A40D
340
2A40C
340
2A40B
340
2A40A
340
2A409
340
2A408
340
2A407
340
2A406
340
2A405
340
2A404
340
2A403
340
2A402
340
2A401
340
2A400
340
2A3FF
340
2A3FE
340
2A3FD
340
2A3FC
340
2A3FB
340
2A3FA
340
2A3F9
340
2A3F8
340
2A3F7
340
2A3F6
340
2A3F5
340
2A3F4
340
2A3F3
340
2A3F2
340
2A3F1
340
2A3F0
340
2A3EF
340
2A3EE
340
2A3ED
340
2A3EC
340
2A3EB
340
2A3EA
340
2A3E9
340
2A3E8
340
2A3E7
340
2A3E6
340
2A3E5
340
2A3E4
340
2A3E3
340
2A3E2
340
2A3E1
340
2A3E0
340
2A3DF
340
2A3DE
340
2A3DD
340
2A3DC
340
2A3DB
340
2A3DA
340
2A3D9
340
2A3D8
340
2A3D7
340
2A3D6
340
2A3D5
340
2A3D4
340
2A3D3
340
2A3D2
340
2A3D1
340
2A3D0
340
2A3CF
340
2A3CE
340
2A3CD
340
2A3CC
340
2A3CB
340
2A3CA
340
2A3C9
340
2A3C8
340
2A3C7
340
2A3C6
340
2A3C5
340
2A3C4
340
2A3C3
340
2A3C2
340
2A3C1
340
2A3C0
340
2A3BF
340
2A3BE
340
2A3BD
340
2A3BC
340
2A3BB
340
2A3BA
340
2A3B9
340
2A3B8
340
2A3B7
340
2A3B6
340
2A3B5
340
2A3B4
340
2A3B3
340
2A3B2
340
2A3B1
340
2A3B0
340
2A3AF
340
2A3AE
340
2A3AD
340
2A3AC
340
2A3AB
340
2A3AA
340
2A3A9
340
2A3A8
340
2A3A7
340
2A3A6
340
2A3A5
340
2A3A4
340
2A3A3
340
2A3A2
340
2A3A1
340
2A3A0
340
2A39F
340
2A39E
340
2A39D
340
2A39C
  0
GROUP
  5
27BFB
102
{ACAD_REACTORS
330
D
102
}
330
D
100
AcDbGroup
300

 70
     1
 71
     1
  0
GROUP
  5
27CDE
102
{ACAD_REACTORS
330
D
102
}
330
D
100
AcDbGroup
300

 70
     1
 71
     1
  0
GROUP
  5
2A81E
102
{ACAD_REACTORS
330
D
102
}
330
D
100
AcDbGroup
300

 70
     1
 71
     1
340
2A818
340
2A817
340
2A816
340
2A811
340
2A810
340
2A7FB
340
2A7FA
340
2A7F7
340
2A7F6
340
2A7F1
340
2A7F0
340
2A7EF
340
2A7EA
340
2A7E5
340
2A7E4
340
2A7E3
340
2A7DE
340
2A7DD
340
2A7D2
340
2A7D1
340
2A7D0
340
2A7CF
340
2A7CE
340
2A7CD
340
2A7CC
340
2A7CB
340
2A7CA
340
2A7C9
340
2A7C8
340
2A7C7
340
2A7C6
340
2A7C5
340
2A7C4
340
2A7C3
340
2A7C2
340
2A7C1
340
2A7C0
340
2A7BF
340
2A7BE
340
2A7BD
340
2A7BC
340
2A7BB
340
2A7BA
340
2A7B9
340
2A7B8
340
2A7B7
340
2A7B6
340
2A7B5
340
2A7B4
340
2A7B3
340
2A7B2
340
2A7B1
340
2A7B0
340
2A7AF
340
2A7AE
340
2A7AD
340
2A7AC
340
2A7AB
340
2A7AA
340
2A7A9
340
2A7A8
340
2A7A7
340
2A7A6
340
2A7A5
340
2A7A4
340
2A7A3
340
2A7A2
340
2A7A1
340
2A7A0
340
2A79F
340
2A79E
340
2A79D
340
2A79C
340
2A79B
340
2A79A
340
2A799
340
2A798
340
2A797
340
2A796
340
2A795
340
2A794
340
2A793
340
2A792
340
2A791
340
2A790
340
2A78F
340
2A78E
340
2A78D
340
2A78C
340
2A78B
340
2A78A
340
2A789
340
2A788
340
2A787
340
2A786
340
2A785
340
2A784
340
2A783
340
2A782
340
2A781
340
2A780
340
2A77F
340
2A77E
340
2A77D
340
2A77C
340
2A77B
340
2A77A
340
2A779
340
2A778
340
2A777
340
2A776
340
2A775
340
2A774
340
2A773
340
2A772
340
2A771
340
2A770
340
2A76F
340
2A76E
340
2A76D
340
2A76C
340
2A76B
340
2A76A
340
2A769
340
2A768
340
2A767
340
2A766
340
2A765
340
2A764
340
2A763
340
2A762
340
2A761
340
2A760
340
2A75F
340
2A75E
340
2A75D
340
2A75C
340
2A75B
340
2A75A
340
2A759
340
2A758
340
2A757
340
2A756
340
2A755
340
2A754
340
2A753
340
2A752
340
2A751
340
2A750
340
2A74F
340
2A74E
340
2A74D
340
2A74C
340
2A74B
340
2A74A
340
2A749
340
2A748
340
2A747
340
2A746
340
2A745
340
2A744
340
2A743
340
2A742
340
2A741
340
2A740
340
2A73F
340
2A73E
340
2A73D
340
2A73C
340
2A73B
340
2A73A
340
2A739
340
2A738
340
2A737
340
2A736
340
2A735
340
2A734
340
2A733
340
2A732
340
2A731
340
2A730
340
2A72F
340
2A72E
340
2A72D
340
2A72C
340
2A72B
340
2A72A
340
2A729
340
2A728
340
2A727
340
2A726
340
2A725
340
2A714
340
2A713
340
2A712
340
2A70D
340
2A70C
340
2A701
340
2A700
340
2A6FF
340
2A6FE
340
2A6FD
340
2A6FC
340
2A6FB
340
2A6FA
340
2A6F9
340
2A6F8
340
2A6F7
340
2A6F6
340
2A6F5
340
2A6F4
340
2A6F3
340
2A6E2
340
2A6E1
340
2A6E0
340
2A6DB
340
2A6DA
340
2A6CF
340
2A6CE
340
2A6CD
340
2A6CC
340
2A6CB
340
2A6CA
340
2A6C9
340
2A6C8
340
2A6C7
340
2A6C6
340
2A6C5
340
2A6C4
340
2A6C3
340
2A6C2
340
2A6C1
340
2A6C0
340
2A6BF
340
2A6BE
340
2A6BD
340
2A6BC
340
2A6BB
340
2A6BA
340
2A6B9
340
2A6B8
340
2A6B7
340
2A6B6
340
2A6B5
340
2A6B4
340
2A6B3
340
2A6B2
340
2A6B1
340
2A6B0
340
2A6AF
340
2A6AE
340
2A6AD
340
2A6AC
340
2A6AB
340
2A6AA
340
2A6A9
340
2A6A8
340
2A6A7
340
2A6A6
340
2A6A5
340
2A6A4
340
2A6A3
340
2A6A2
340
2A6A1
340
2A6A0
340
2A69F
340
2A69E
340
2A69D
340
2A69C
340
2A69B
340
2A69A
340
2A699
340
2A698
340
2A697
340
2A696
340
2A695
340
2A694
340
2A693
340
2A692
340
2A691
340
2A690
340
2A68F
340
2A68E
340
2A68D
340
2A68C
340
2A68B
340
2A68A
340
2A689
340
2A688
340
2A687
340
2A686
340
2A685
340
2A684
340
2A683
340
2A682
340
2A681
340
2A680
340
2A67F
340
2A67E
340
2A67D
340
2A67C
340
2A67B
340
2A67A
340
2A679
340
2A678
340
2A677
340
2A676
340
2A675
340
2A674
340
2A673
340
2A672
340
2A671
340
2A670
340
2A66F
340
2A66E
340
2A66D
340
2A66C
340
2A66B
340
2A66A
340
2A669
340
2A668
340
2A667
340
2A666
340
2A665
340
2A664
340
2A663
340
2A662
340
2A661
340
2A660
340
2A65F
340
2A65E
340
2A65D
340
2A65C
340
2A65B
340
2A65A
340
2A659
340
2A658
340
2A657
340
2A656
340
2A655
340
2A654
340
2A653
340
2A652
340
2A651
340
2A650
340
2A64F
340
2A64E
340
2A64D
340
2A64C
340
2A64B
340
2A64A
340
2A649
340
2A648
340
2A647
340
2A646
340
2A645
340
2A644
340
2A643
340
2A642
340
2A641
340
2A640
340
2A63F
340
2A63E
340
2A63D
340
2A63C
340
2A63B
340
2A63A
340
2A639
340
2A638
340
2A637
340
2A636
340
2A635
340
2A634
340
2A633
340
2A632
340
2A631
340
2A630
340
2A62F
340
2A62E
340
2A62D
340
2A62C
340
2A62B
340
2A62A
340
2A629
340
2A628
340
2A627
340
2A626
340
2A625
340
2A624
340
2A623
340
2A622
340
2A621
340
2A620
340
2A61F
340
2A61E
340
2A61D
340
2A61C
340
2A61B
340
2A61A
340
2A619
340
2A618
340
2A617
340
2A616
340
2A615
340
2A614
340
2A613
340
2A60E
340
2A60D
340
2A60C
340
2A607
340
2A606
340
2A5F1
340
2A5F0
340
2A5ED
340
2A5EC
340
2A5E7
340
2A5E6
340
2A5E5
340
2A5E0
  0
GROUP
  5
1BD83
102
{ACAD_REACTORS
330
D
102
}
330
D
100
AcDbGroup
300

 70
     1
 71
     1
  0
GROUP
  5
27BFC
102
{ACAD_REACTORS
330
D
102
}
330
D
100
AcDbGroup
300

 70
     1
 71
     1
  0
GROUP
  5
27D31
102
{ACAD_REACTORS
330
D
102
}
330
D
100
AcDbGroup
300

 70
     1
 71
     1
  0
GROUP
  5
282F4
102
{ACAD_REACTORS
330
D
102
}
330
D
100
AcDbGroup
300

 70
     1
 71
     1
  0
GROUP
  5
27FD9
102
{ACAD_REACTORS
330
D
102
}
330
D
100
AcDbGroup
300

 70
     1
 71
     1
  0
GROUP
  5
282FA
102
{ACAD_REACTORS
330
D
102
}
330
D
100
AcDbGroup
300

 70
     1
 71
     1
  0
GROUP
  5
27C38
102
{ACAD_REACTORS
330
D
102
}
330
D
100
AcDbGroup
300

 70
     1
 71
     1
  0
GROUP
  5
27C39
102
{ACAD_REACTORS
330
D
102
}
330
D
100
AcDbGroup
300

 70
     1
 71
     1
  0
GROUP
  5
27C3A
102
{ACAD_REACTORS
330
D
102
}
330
D
100
AcDbGroup
300

 70
     1
 71
     1
  0
GROUP
  5
27FE9
102
{ACAD_REACTORS
330
D
102
}
330
D
100
AcDbGroup
300

 70
     1
 71
     1
  0
GROUP
  5
27D07
102
{ACAD_REACTORS
330
D
102
}
330
D
100
AcDbGroup
300

 70
     1
 71
     1
  0
GROUP
  5
27C3B
102
{ACAD_REACTORS
330
D
102
}
330
D
100
AcDbGroup
300

 70
     1
 71
     1
  0
GROUP
  5
1BD89
102
{ACAD_REACTORS
330
D
102
}
330
D
100
AcDbGroup
300

 70
     1
 71
     1
  0
GROUP
  5
27C61
102
{ACAD_REACTORS
330
D
102
}
330
D
100
AcDbGroup
300

 70
     1
 71
     1
  0
GROUP
  5
27C62
102
{ACAD_REACTORS
330
D
102
}
330
D
100
AcDbGroup
300

 70
     1
 71
     1
  0
GROUP
  5
A49B
102
{ACAD_REACTORS
330
D
102
}
330
D
100
AcDbGroup
300

 70
     1
 71
     1
  0
GROUP
  5
27C63
102
{ACAD_REACTORS
330
D
102
}
330
D
100
AcDbGroup
300

 70
     1
 71
     1
  0
GROUP
  5
27D7C
102
{ACAD_REACTORS
330
D
102
}
330
D
100
AcDbGroup
300

 70
     1
 71
     1
  0
GROUP
  5
27C64
102
{ACAD_REACTORS
330
D
102
}
330
D
100
AcDbGroup
300

 70
     1
 71
     1
  0
GROUP
  5
A22E
102
{ACAD_REACTORS
330
D
102
}
330
D
100
AcDbGroup
300

 70
     1
 71
     1
  0
GROUP
  5
21E84
102
{ACAD_REACTORS
330
D
102
}
330
D
100
AcDbGroup
300

 70
     1
 71
     1
  0
GROUP
  5
9D4A
102
{ACAD_REACTORS
330
D
102
}
330
D
100
AcDbGroup
300

 70
     1
 71
     1
  0
GROUP
  5
28D02
102
{ACAD_REACTORS
330
D
102
}
330
D
100
AcDbGroup
300

 70
     1
 71
     1
  0
GROUP
  5
27FDA
102
{ACAD_REACTORS
330
D
102
}
330
D
100
AcDbGroup
300

 70
     1
 71
     1
  0
GROUP
  5
1BD84
102
{ACAD_REACTORS
330
D
102
}
330
D
100
AcDbGroup
300

 70
     1
 71
     1
  0
GROUP
  5
27C8A
102
{ACAD_REACTORS
330
D
102
}
330
D
100
AcDbGroup
300

 70
     1
 71
     1
  0
GROUP
  5
27C8B
102
{ACAD_REACTORS
330
D
102
}
330
D
100
AcDbGroup
300

 70
     1
 71
     1
  0
GROUP
  5
27C8C
102
{ACAD_REACTORS
330
D
102
}
330
D
100
AcDbGroup
300

 70
     1
 71
     1
  0
GROUP
  5
27B51
102
{ACAD_REACTORS
330
D
102
}
330
D
100
AcDbGroup
300

 70
     1
 71
     1
  0
GROUP
  5
27C8D
102
{ACAD_REACTORS
330
D
102
}
330
D
100
AcDbGroup
300

 70
     1
 71
     1
  0
GROUP
  5
27CB3
102
{ACAD_REACTORS
330
D
102
}
330
D
100
AcDbGroup
300

 70
     1
 71
     1
  0
GROUP
  5
27CB4
102
{ACAD_REACTORS
330
D
102
}
330
D
100
AcDbGroup
300

 70
     1
 71
     1
  0
GROUP
  5
27FEA
102
{ACAD_REACTORS
330
D
102
}
330
D
100
AcDbGroup
300

 70
     1
 71
     1
  0
GROUP
  5
27D7D
102
{ACAD_REACTORS
330
D
102
}
330
D
100
AcDbGroup
300

 70
     1
 71
     1
  0
GROUP
  5
1BD8A
102
{ACAD_REACTORS
330
D
102
}
330
D
100
AcDbGroup
300

 70
     1
 71
     1
  0
GROUP
  5
27CB5
102
{ACAD_REACTORS
330
D
102
}
330
D
100
AcDbGroup
300

 70
     1
 71
     1
  0
GROUP
  5
27CB6
102
{ACAD_REACTORS
330
D
102
}
330
D
100
AcDbGroup
300

 70
     1
 71
     1
  0
GROUP
  5
281B8
102
{ACAD_REACTORS
330
D
102
}
330
D
100
AcDbGroup
300

 70
     1
 71
     1
  0
GROUP
  5
28D65
102
{ACAD_REACTORS
330
D
102
}
330
D
100
AcDbGroup
300

 70
     1
 71
     1
  0
GROUP
  5
27D7E
102
{ACAD_REACTORS
330
D
102
}
330
D
100
AcDbGroup
300

 70
     1
 71
     1
  0
GROUP
  5
27B54
102
{ACAD_REACTORS
330
D
102
}
330
D
100
AcDbGroup
300

 70
     1
 71
     1
  0
GROUP
  5
1FC8F
102
{ACAD_REACTORS
330
D
102
}
330
D
100
AcDbGroup
300

 70
     1
 71
     1
  0
GROUP
  5
1BD8C
102
{ACAD_REACTORS
330
D
102
}
330
D
100
AcDbGroup
300

 70
     1
 71
     1
  0
GROUP
  5
2819B
102
{ACAD_REACTORS
330
D
102
}
330
D
100
AcDbGroup
300

 70
     1
 71
     1
  0
GROUP
  5
27DBB
102
{ACAD_REACTORS
330
D
102
}
330
D
100
AcDbGroup
300

 70
     1
 71
     1
  0
GROUP
  5
27FDD
102
{ACAD_REACTORS
330
D
102
}
330
D
100
AcDbGroup
300

 70
     1
 71
     1
  0
GROUP
  5
27CDC
102
{ACAD_REACTORS
330
D
102
}
330
D
100
AcDbGroup
300

 70
     1
 71
     1
  0
GROUP
  5
27DBC
102
{ACAD_REACTORS
330
D
102
}
330
D
100
AcDbGroup
300

 70
     1
 71
     1
  0
GROUP
  5
194F7
102
{ACAD_REACTORS
330
D
102
}
330
D
100
AcDbGroup
300

 70
     1
 71
     1
  0
GROUP
  5
27DBD
102
{ACAD_REACTORS
330
D
102
}
330
D
100
AcDbGroup
300

 70
     1
 71
     1
  0
GROUP
  5
27FD3
102
{ACAD_REACTORS
330
D
102
}
330
D
100
AcDbGroup
300

 70
     1
 71
     1
  0
GROUP
  5
27DBE
102
{ACAD_REACTORS
330
D
102
}
330
D
100
AcDbGroup
300

 70
     1
 71
     1
  0
GROUP
  5
27B57
102
{ACAD_REACTORS
330
D
102
}
330
D
100
AcDbGroup
300

 70
     1
 71
     1
  0
GROUP
  5
27DBF
102
{ACAD_REACTORS
330
D
102
}
330
D
100
AcDbGroup
300

 70
     1
 71
     1
  0
GROUP
  5
2819C
102
{ACAD_REACTORS
330
D
102
}
330
D
100
AcDbGroup
300

 70
     1
 71
     1
  0
GROUP
  5
27FD4
102
{ACAD_REACTORS
330
D
102
}
330
D
100
AcDbGroup
300

 70
     1
 71
     1
  0
GROUP
  5
27E11
102
{ACAD_REACTORS
330
D
102
}
330
D
100
AcDbGroup
300

 70
     1
 71
     1
  0
GROUP
  5
27E12
102
{ACAD_REACTORS
330
D
102
}
330
D
100
AcDbGroup
300

 70
     1
 71
     1
  0
GROUP
  5
27E13
102
{ACAD_REACTORS
330
D
102
}
330
D
100
AcDbGroup
300

 70
     1
 71
     1
  0
GROUP
  5
27E14
102
{ACAD_REACTORS
330
D
102
}
330
D
100
AcDbGroup
300

 70
     1
 71
     1
  0
GROUP
  5
27FDB
102
{ACAD_REACTORS
330
D
102
}
330
D
100
AcDbGroup
300

 70
     1
 71
     1
  0
GROUP
  5
27FBF
102
{ACAD_REACTORS
330
D
102
}
330
D
100
AcDbGroup
300

 70
     1
 71
     1
  0
GROUP
  5
27FDE
102
{ACAD_REACTORS
330
D
102
}
330
D
100
AcDbGroup
300

 70
     1
 71
     1
  0
GROUP
  5
28D76
102
{ACAD_REACTORS
330
D
102
}
330
D
100
AcDbGroup
300

 70
     1
 71
     1
  0
GROUP
  5
27B88
102
{ACAD_REACTORS
330
D
102
}
330
D
100
AcDbGroup
300

 70
     1
 71
     1
  0
GROUP
  5
27B8B
102
{ACAD_REACTORS
330
D
102
}
330
D
100
AcDbGroup
300

 70
     1
 71
     1
  0
GROUP
  5
27FC0
102
{ACAD_REACTORS
330
D
102
}
330
D
100
AcDbGroup
300

 70
     1
 71
     1
  0
GROUP
  5
27FC1
102
{ACAD_REACTORS
330
D
102
}
330
D
100
AcDbGroup
300

 70
     1
 71
     1
  0
GROUP
  5
194F5
102
{ACAD_REACTORS
330
D
102
}
330
D
100
AcDbGroup
300

 70
     1
 71
     1
  0
GROUP
  5
27FC2
102
{ACAD_REACTORS
330
D
102
}
330
D
100
AcDbGroup
300

 70
     1
 71
     1
  0
GROUP
  5
28D66
102
{ACAD_REACTORS
330
D
102
}
330
D
100
AcDbGroup
300

 70
     1
 71
     1
  0
GROUP
  5
27FC3
102
{ACAD_REACTORS
330
D
102
}
330
D
100
AcDbGroup
300

 70
     1
 71
     1
  0
GROUP
  5
27FC4
102
{ACAD_REACTORS
330
D
102
}
330
D
100
AcDbGroup
300

 70
     1
 71
     1
  0
GROUP
  5
27FC5
102
{ACAD_REACTORS
330
D
102
}
330
D
100
AcDbGroup
300

 70
     1
 71
     1
  0
GROUP
  5
A49A
102
{ACAD_REACTORS
330
D
102
}
330
D
100
AcDbGroup
300

 70
     1
 71
     1
  0
GROUP
  5
27FC6
102
{ACAD_REACTORS
330
D
102
}
330
D
100
AcDbGroup
300

 70
     1
 71
     1
  0
GROUP
  5
2819D
102
{ACAD_REACTORS
330
D
102
}
330
D
100
AcDbGroup
300

 70
     1
 71
     1
  0
GROUP
  5
27B89
102
{ACAD_REACTORS
330
D
102
}
330
D
100
AcDbGroup
300

 70
     1
 71
     1
  0
GROUP
  5
27FD0
102
{ACAD_REACTORS
330
D
102
}
330
D
100
AcDbGroup
300

 70
     1
 71
     1
  0
GROUP
  5
27FC7
102
{ACAD_REACTORS
330
D
102
}
330
D
100
AcDbGroup
300

 70
     1
 71
     1
  0
GROUP
  5
27FC8
102
{ACAD_REACTORS
330
D
102
}
330
D
100
AcDbGroup
300

 70
     1
 71
     1
  0
GROUP
  5
27FDF
102
{ACAD_REACTORS
330
D
102
}
330
D
100
AcDbGroup
300

 70
     1
 71
     1
  0
GROUP
  5
27FC9
102
{ACAD_REACTORS
330
D
102
}
330
D
100
AcDbGroup
300

 70
     1
 71
     1
  0
GROUP
  5
27FCA
102
{ACAD_REACTORS
330
D
102
}
330
D
100
AcDbGroup
300

 70
     1
 71
     1
  0
GROUP
  5
27FCB
102
{ACAD_REACTORS
330
D
102
}
330
D
100
AcDbGroup
300

 70
     1
 71
     1
  0
GROUP
  5
28D67
102
{ACAD_REACTORS
330
D
102
}
330
D
100
AcDbGroup
300

 70
     1
 71
     1
  0
GROUP
  5
A22D
102
{ACAD_REACTORS
330
D
102
}
330
D
100
AcDbGroup
300

 70
     1
 71
     1
  0
GROUP
  5
27FCD
102
{ACAD_REACTORS
330
D
102
}
330
D
100
AcDbGroup
300

 70
     1
 71
     1
  0
GROUP
  5
27FE0
102
{ACAD_REACTORS
330
D
102
}
330
D
100
AcDbGroup
300

 70
     1
 71
     1
  0
GROUP
  5
2819E
102
{ACAD_REACTORS
330
D
102
}
330
D
100
AcDbGroup
300

 70
     1
 71
     1
  0
GROUP
  5
2819F
102
{ACAD_REACTORS
330
D
102
}
330
D
100
AcDbGroup
300

 70
     1
 71
     1
  0
GROUP
  5
281BB
102
{ACAD_REACTORS
330
D
102
}
330
D
100
AcDbGroup
300

 70
     1
 71
     1
  0
GROUP
  5
27CDD
102
{ACAD_REACTORS
330
D
102
}
330
D
100
AcDbGroup
300

 70
     1
 71
     1
  0
GROUP
  5
28D6F
102
{ACAD_REACTORS
330
D
102
}
330
D
100
AcDbGroup
300

 70
     1
 71
     1
  0
GROUP
  5
27CDF
102
{ACAD_REACTORS
330
D
102
}
330
D
100
AcDbGroup
300

 70
     1
 71
     1
  0
GROUP
  5
281A0
102
{ACAD_REACTORS
330
D
102
}
330
D
100
AcDbGroup
300

 70
     1
 71
     1
  0
GROUP
  5
281A1
102
{ACAD_REACTORS
330
D
102
}
330
D
100
AcDbGroup
300

 70
     1
 71
     1
  0
GROUP
  5
281A2
102
{ACAD_REACTORS
330
D
102
}
330
D
100
AcDbGroup
300

 70
     1
 71
     1
  0
GROUP
  5
281B6
102
{ACAD_REACTORS
330
D
102
}
330
D
100
AcDbGroup
300

 70
     1
 71
     1
  0
GROUP
  5
281A3
102
{ACAD_REACTORS
330
D
102
}
330
D
100
AcDbGroup
300

 70
     1
 71
     1
  0
GROUP
  5
9FC0
102
{ACAD_REACTORS
330
D
102
}
330
D
100
AcDbGroup
300

 70
     1
 71
     1
  0
GROUP
  5
281A4
102
{ACAD_REACTORS
330
D
102
}
330
D
100
AcDbGroup
300

 70
     1
 71
     1
  0
GROUP
  5
281A5
102
{ACAD_REACTORS
330
D
102
}
330
D
100
AcDbGroup
300

 70
     1
 71
     1
  0
GROUP
  5
281B9
102
{ACAD_REACTORS
330
D
102
}
330
D
100
AcDbGroup
300

 70
     1
 71
     1
  0
GROUP
  5
281A6
102
{ACAD_REACTORS
330
D
102
}
330
D
100
AcDbGroup
300

 70
     1
 71
     1
  0
GROUP
  5
281BC
102
{ACAD_REACTORS
330
D
102
}
330
D
100
AcDbGroup
300

 70
     1
 71
     1
  0
GROUP
  5
27FCE
102
{ACAD_REACTORS
330
D
102
}
330
D
100
AcDbGroup
300

 70
     1
 71
     1
  0
GROUP
  5
281A7
102
{ACAD_REACTORS
330
D
102
}
330
D
100
AcDbGroup
300

 70
     1
 71
     1
  0
GROUP
  5
27D05
102
{ACAD_REACTORS
330
D
102
}
330
D
100
AcDbGroup
300

 70
     1
 71
     1
  0
GROUP
  5
28D70
102
{ACAD_REACTORS
330
D
102
}
330
D
100
AcDbGroup
300

 70
     1
 71
     1
  0
GROUP
  5
27FD8
102
{ACAD_REACTORS
330
D
102
}
330
D
100
AcDbGroup
300

 70
     1
 71
     1
  0
GROUP
  5
281A8
102
{ACAD_REACTORS
330
D
102
}
330
D
100
AcDbGroup
300

 70
     1
 71
     1
  0
GROUP
  5
281A9
102
{ACAD_REACTORS
330
D
102
}
330
D
100
AcDbGroup
300

 70
     1
 71
     1
  0
GROUP
  5
281AA
102
{ACAD_REACTORS
330
D
102
}
330
D
100
AcDbGroup
300

 70
     1
 71
     1
  0
GROUP
  5
27FE1
102
{ACAD_REACTORS
330
D
102
}
330
D
100
AcDbGroup
300

 70
     1
 71
     1
  0
GROUP
  5
281AB
102
{ACAD_REACTORS
330
D
102
}
330
D
100
AcDbGroup
300

 70
     1
 71
     1
  0
GROUP
  5
281AC
102
{ACAD_REACTORS
330
D
102
}
330
D
100
AcDbGroup
300

 70
     1
 71
     1
  0
GROUP
  5
281AD
102
{ACAD_REACTORS
330
D
102
}
330
D
100
AcDbGroup
300

 70
     1
 71
     1
  0
GROUP
  5
281BD
102
{ACAD_REACTORS
330
D
102
}
330
D
100
AcDbGroup
300

 70
     1
 71
     1
  0
GROUP
  5
9FC1
102
{ACAD_REACTORS
330
D
102
}
330
D
100
AcDbGroup
300

 70
     1
 71
     1
  0
GROUP
  5
281AE
102
{ACAD_REACTORS
330
D
102
}
330
D
100
AcDbGroup
300

 70
     1
 71
     1
  0
GROUP
  5
281AF
102
{ACAD_REACTORS
330
D
102
}
330
D
100
AcDbGroup
300

 70
     1
 71
     1
  0
GROUP
  5
27BC5
102
{ACAD_REACTORS
330
D
102
}
330
D
100
AcDbGroup
300

 70
     1
 71
     1
  0
GROUP
  5
29C92
102
{ACAD_REACTORS
330
D
102
}
330
D
100
AcDbGroup
300

 70
     1
 71
     1
  0
GROUP
  5
29CD1
102
{ACAD_REACTORS
330
D
102
}
330
D
100
AcDbGroup
300

 70
     1
 71
     1
  0
GROUP
  5
27FE2
102
{ACAD_REACTORS
330
D
102
}
330
D
100
AcDbGroup
300

 70
     1
 71
     1
  0
GROUP
  5
29D03
102
{ACAD_REACTORS
330
D
102
}
330
D
100
AcDbGroup
300

 70
     1
 71
     1
  0
GROUP
  5
29D35
102
{ACAD_REACTORS
330
D
102
}
330
D
100
AcDbGroup
300

 70
     1
 71
     1
  0
GROUP
  5
29D67
102
{ACAD_REACTORS
330
D
102
}
330
D
100
AcDbGroup
300

 70
     1
 71
     1
  0
GROUP
  5
29D99
102
{ACAD_REACTORS
330
D
102
}
330
D
100
AcDbGroup
300

 70
     1
 71
     1
  0
GROUP
  5
29DCB
102
{ACAD_REACTORS
330
D
102
}
330
D
100
AcDbGroup
300

 70
     1
 71
     1
  0
GROUP
  5
27D08
102
{ACAD_REACTORS
330
D
102
}
330
D
100
AcDbGroup
300

 70
     1
 71
     1
  0
GROUP
  5
29DFD
102
{ACAD_REACTORS
330
D
102
}
330
D
100
AcDbGroup
300

 70
     1
 71
     1
  0
GROUP
  5
29DFE
102
{ACAD_REACTORS
330
D
102
}
330
D
100
AcDbGroup
300

 70
     1
 71
     1
  0
GROUP
  5
9D2A
102
{ACAD_REACTORS
330
D
102
}
330
D
100
AcDbGroup
300

 70
     1
 71
     1
  0
GROUP
  5
29DFF
102
{ACAD_REACTORS
330
D
102
}
330
D
100
AcDbGroup
300

 70
     1
 71
     1
  0
GROUP
  5
27FE3
102
{ACAD_REACTORS
330
D
102
}
330
D
100
AcDbGroup
300

 70
     1
 71
     1
  0
GROUP
  5
29E32
102
{ACAD_REACTORS
330
D
102
}
330
D
100
AcDbGroup
300

 70
     1
 71
     1
  0
GROUP
  5
29E65
102
{ACAD_REACTORS
330
D
102
}
330
D
100
AcDbGroup
300

 70
     1
 71
     1
  0
GROUP
  5
29E98
102
{ACAD_REACTORS
330
D
102
}
330
D
100
AcDbGroup
300

 70
     1
 71
     1
  0
GROUP
  5
29ECB
102
{ACAD_REACTORS
330
D
102
}
330
D
100
AcDbGroup
300

 70
     1
 71
     1
  0
GROUP
  5
29EFE
102
{ACAD_REACTORS
330
D
102
}
330
D
100
AcDbGroup
300

 70
     1
 71
     1
  0
GROUP
  5
29F31
102
{ACAD_REACTORS
330
D
102
}
330
D
100
AcDbGroup
300

 70
     1
 71
     1
  0
GROUP
  5
29F64
102
{ACAD_REACTORS
330
D
102
}
330
D
100
AcDbGroup
300

 70
     1
 71
     1
  0
GROUP
  5
281BE
102
{ACAD_REACTORS
330
D
102
}
330
D
100
AcDbGroup
300

 70
     1
 71
     1
  0
GROUP
  5
29F97
102
{ACAD_REACTORS
330
D
102
}
330
D
100
AcDbGroup
300

 70
     1
 71
     1
  0
GROUP
  5
27D30
102
{ACAD_REACTORS
330
D
102
}
330
D
100
AcDbGroup
300

 70
     1
 71
     1
  0
GROUP
  5
27FE4
102
{ACAD_REACTORS
330
D
102
}
330
D
100
AcDbGroup
300

 70
     1
 71
     1
  0
GROUP
  5
29FCA
102
{ACAD_REACTORS
330
D
102
}
330
D
100
AcDbGroup
300

 70
     1
 71
     1
  0
GROUP
  5
29FFD
102
{ACAD_REACTORS
330
D
102
}
330
D
100
AcDbGroup
300

 70
     1
 71
     1
  0
GROUP
  5
2A030
102
{ACAD_REACTORS
330
D
102
}
330
D
100
AcDbGroup
300

 70
     1
 71
     1
  0
GROUP
  5
2A063
102
{ACAD_REACTORS
330
D
102
}
330
D
100
AcDbGroup
300

 70
     1
 71
     1
  0
GROUP
  5
2A096
102
{ACAD_REACTORS
330
D
102
}
330
D
100
AcDbGroup
300

 70
     1
 71
     1
  0
GROUP
  5
2A0E0
102
{ACAD_REACTORS
330
D
102
}
330
D
100
AcDbGroup
300

 70
     1
 71
     1
  0
GROUP
  5
2A13C
102
{ACAD_REACTORS
330
D
102
}
330
D
100
AcDbGroup
300

 70
     1
 71
     1
  0
GROUP
  5
2A14A
102
{ACAD_REACTORS
330
D
102
}
330
D
100
AcDbGroup
300

 70
     1
 71
     1
  0
GROUP
  5
281BF
102
{ACAD_REACTORS
330
D
102
}
330
D
100
AcDbGroup
300

 70
     1
 71
     1
  0
GROUP
  5
281C0
102
{ACAD_REACTORS
330
D
102
}
330
D
100
AcDbGroup
300

 70
     1
 71
     1
  0
GROUP
  5
27FCC
102
{ACAD_REACTORS
330
D
102
}
330
D
100
AcDbGroup
300

 70
     1
 71
     1
  0
GROUP
  5
282F7
102
{ACAD_REACTORS
330
D
102
}
330
D
100
AcDbGroup
300

 70
     1
 71
     1
  0
GROUP
  5
281C1
102
{ACAD_REACTORS
330
D
102
}
330
D
100
AcDbGroup
300

 70
     1
 71
     1
  0
GROUP
  5
28D7B
102
{ACAD_REACTORS
330
D
102
}
330
D
100
AcDbGroup
300

 70
     1
 71
     1
  0
GROUP
  5
27FCF
102
{ACAD_REACTORS
330
D
102
}
330
D
100
AcDbGroup
300

 70
     1
 71
     1
  0
GROUP
  5
1BD82
102
{ACAD_REACTORS
330
D
102
}
330
D
100
AcDbGroup
300

 70
     1
 71
     1
  0
GROUP
  5
27FD1
102
{ACAD_REACTORS
330
D
102
}
330
D
100
AcDbGroup
300

 70
     1
 71
     1
  0
GROUP
  5
281C2
102
{ACAD_REACTORS
330
D
102
}
330
D
100
AcDbGroup
300

 70
     1
 71
     1
  0
GROUP
  5
281C3
102
{ACAD_REACTORS
330
D
102
}
330
D
100
AcDbGroup
300

 70
     1
 71
     1
  0
GROUP
  5
281C4
102
{ACAD_REACTORS
330
D
102
}
330
D
100
AcDbGroup
300

 70
     1
 71
     1
  0
GROUP
  5
2601A
102
{ACAD_REACTORS
330
D
102
}
330
D
100
AcDbGroup
300

 70
     1
 71
     1
  0
LAYOUT
  5
1B1E7
102
{ACAD_XDICTIONARY
360
2A8AA
102
}
102
{ACAD_REACTORS
330
1B1E4
102
}
330
1B1E4
100
AcDbPlotSettings
  1

  2
\\SERVER1\HP Color LaserJet 4500
  4

  6

 40
0.0
 41
0.0
 42
0.0
 43
0.0
 44
0.0
 45
0.0
 46
0.0
 47
0.0
 48
0.0
 49
0.0
140
0.0
141
0.0
142
1.0
143
1.0
 70
   688
 72
     0
 73
     0
 74
     5
  7
monochrome.ctb
 75
    16
147
1.0
148
0.0
149
0.0
100
AcDbLayout
  1
Layout1
 70
     1
 71
     1
 10
0.0
 20
0.0
 11
420.0
 21
297.0
 12
0.0
 22
0.0
 32
0.0
 14
1.000000000000000E+20
 24
1.000000000000000E+20
 34
1.000000000000000E+20
 15
-1.000000000000000E+20
 25
-1.000000000000000E+20
 35
-1.000000000000000E+20
146
0.0
 13
0.0
 23
0.0
 33
0.0
 16
1.0
 26
0.0
 36
0.0
 17
0.0
 27
1.0
 37
0.0
 76
     0
330
15
  0
LAYOUT
  5
1B1E6
102
{ACAD_XDICTIONARY
360
2A8A8
102
}
102
{ACAD_REACTORS
330
1B1E4
102
}
330
1B1E4
100
AcDbPlotSettings
  1

  2
\\SERVER1\HP Color LaserJet 4500
  4
A4
  6

 40
5.365749835968017
 41
5.450419902801513
 42
5.111740112304687
 43
5.069427490234375
 44
209.9733276367187
 45
296.9683227539062
 46
0.0
 47
0.0
 48
0.0
 49
0.0
140
0.0
141
0.0
142
1.0
143
1.0
 70
 11952
 72
     1
 73
     1
 74
     0
  7

 75
     0
147
1.0
148
-128.8221196428741
149
-57.42083115755417
100
AcDbLayout
  1
Model
 70
     1
 71
     0
 10
0.0
 20
0.0
 11
12.0
 21
9.0
 12
0.0
 22
0.0
 32
0.0
 14
0.0
 24
0.0
 34
0.0
 15
0.0
 25
0.0
 35
0.0
146
0.0
 13
0.0
 23
0.0
 33
0.0
 16
1.0
 26
0.0
 36
0.0
 17
0.0
 27
1.0
 37
0.0
 76
     0
330
18
  0
MLINESTYLE
  5
1C
102
{ACAD_REACTORS
330
1B
102
}
330
1B
100
AcDbMlineStyle
  2
STANDARD
 70
     0
  3

 62
   256
 51
90.0
 52
90.0
 71
     2
 49
0.5
 62
   256
  6
BYLAYER
 49
-0.5
 62
   256
  6
BYLAYER
  0
ACDBPLACEHOLDER
  5
1B1E3
102
{ACAD_REACTORS
330
1B1E2
102
}
330
1B1E2
  0
TABLESTYLE
  5
29720
102
{ACAD_REACTORS
330
2971F
102
}
330
2971F
100
AcDbTableStyle
  3
Standard
 70
     0
 71
     0
 40
1.5
 41
1.5
280
     0
281
     0
  7
STANDARD
140
4.5
170
     2
 62
     0
 63
     7
283
     0
274
    -2
284
     1
 64
     0
275
    -2
285
     1
 65
     0
276
    -2
286
     1
 66
     0
277
    -2
287
     1
 67
     0
278
    -2
288
     1
 68
     0
279
    -2
289
     1
 69
     0
  7
STANDARD
140
6.0
170
     5
 62
     0
 63
     7
283
     0
274
    -2
284
     1
 64
     0
275
    -2
285
     1
 65
     0
276
    -2
286
     1
 66
     0
277
    -2
287
     1
 67
     0
278
    -2
288
     1
 68
     0
279
    -2
289
     1
 69
     0
  7
STANDARD
140
4.5
170
     5
 62
     0
 63
     7
283
     0
274
    -2
284
     1
 64
     0
275
    -2
285
     1
 65
     0
276
    -2
286
     1
 66
     0
277
    -2
287
     1
 67
     0
278
    -2
288
     1
 68
     0
279
    -2
289
     1
 69
     0
  0
DICTIONARYVAR
  5
29728
102
{ACAD_REACTORS
330
9820
102
}
330
9820
100
DictionaryVariables
280
     0
  1
STANDARD
  0
DICTIONARYVAR
  5
1FD3B
102
{ACAD_REACTORS
330
9820
102
}
330
9820
100
DictionaryVariables
280
     0
  1
1
  0
DICTIONARYVAR
  5
2A151
102
{ACAD_REACTORS
330
9820
102
}
330
9820
100
DictionaryVariables
280
     0
  1

  0
DICTIONARYVAR
  5
9821
102
{ACAD_REACTORS
330
9820
102
}
330
9820
100
DictionaryVariables
280
     0
  1
127
  0
DICTIONARY
  5
2A8AA
330
1B1E7
100
AcDbDictionary
280
     1
281
     1
  3
ACAD_XREC_ROUNDTRIP
360
2A8AB
  0
DICTIONARY
  5
2A8A8
330
1B1E6
100
AcDbDictionary
280
     1
281
     1
  3
ACAD_XREC_ROUNDTRIP
360
2A8A9
  0
XRECORD
  5
2A8AB
102
{ACAD_REACTORS
330
2A8AA
102
}
330
2A8AA
100
AcDbXrecord
280
     1
102
SHADEPLOT
 70
     0
102
SHADEPLOTRESLEVEL
 70
     2
102
SHADEPLOTCUSTOMDPI
 70
   300
  0
XRECORD
  5
2A8A9
102
{ACAD_REACTORS
330
2A8A8
102
}
330
2A8A8
100
AcDbXrecord
280
     1
102
SHADEPLOT
 70
     0
102
SHADEPLOTRESLEVEL
 70
     2
102
SHADEPLOTCUSTOMDPI
 70
   300
  0
ENDSEC
  0
EOF
