  0
SECTION
  2
HEADER
  9
$ACADVER
  1
AC1015
  9
$ACADMAINTVER
 70
    20
  9
$DWGCODEPAGE
  3
ANSI_1252
  9
$INSBASE
 10
0.0
 20
0.0
 30
0.0
  9
$EXTMIN
 10
-0.0271839699360044
 20
-0.0192209888435855
 30
-0.0000000000000058
  9
$EXTMAX
 10
594.0271950346393
 20
420.0192288123715
 30
0.0000000000000104
  9
$LIMMIN
 10
0.0
 20
0.0
  9
$LIMMAX
 10
420.0
 20
297.0
  9
$ORTHOMODE
 70
     0
  9
$REGENMODE
 70
     1
  9
$FILLMODE
 70
     1
  9
$QTEXTMODE
 70
     0
  9
$MIRRTEXT
 70
     1
  9
$LTSCALE
 40
1.0
  9
$ATTMODE
 70
     1
  9
$TEXTSIZE
 40
2.0
  9
$TRACEWID
 40
1.0
  9
$TEXTSTYLE
  7
TASTENTEXT
  9
$CLAYER
  8
Modules
  9
$CELTYPE
  6
BYLAYER
  9
$CECOLOR
 62
   256
  9
$CELTSCALE
 40
1.0
  9
$DISPSILH
 70
     0
  9
$DIMSCALE
 40
1.0
  9
$DIMASZ
 40
2.5
  9
$DIMEXO
 40
0.625
  9
$DIMDLI
 40
3.75
  9
$DIMRND
 40
0.0
  9
$DIMDLE
 40
0.0
  9
$DIMEXE
 40
1.25
  9
$DIMTP
 40
0.0
  9
$DIMTM
 40
0.0
  9
$DIMTXT
 40
2.5
  9
$DIMCEN
 40
2.5
  9
$DIMTSZ
 40
0.0
  9
$DIMTOL
 70
     0
  9
$DIMLIM
 70
     0
  9
$DIMTIH
 70
     0
  9
$DIMTOH
 70
     0
  9
$DIMSE1
 70
     0
  9
$DIMSE2
 70
     0
  9
$DIMTAD
 70
     1
  9
$DIMZIN
 70
     8
  9
$DIMBLK
  1

  9
$DIMASO
 70
     1
  9
$DIMSHO
 70
     1
  9
$DIMPOST
  1

  9
$DIMAPOST
  1

  9
$DIMALT
 70
     0
  9
$DIMALTD
 70
     4
  9
$DIMALTF
 40
0.0394
  9
$DIMLFAC
 40
1.0
  9
$DIMTOFL
 70
     1
  9
$DIMTVP
 40
0.0
  9
$DIMTIX
 70
     0
  9
$DIMSOXD
 70
     0
  9
$DIMSAH
 70
     0
  9
$DIMBLK1
  1

  9
$DIMBLK2
  1

  9
$DIMSTYLE
  2
STANDARD
  9
$DIMCLRD
 70
     0
  9
$DIMCLRE
 70
     0
  9
$DIMCLRT
 70
     0
  9
$DIMTFAC
 40
1.0
  9
$DIMGAP
 40
0.625
  9
$DIMJUST
 70
     0
  9
$DIMSD1
 70
     0
  9
$DIMSD2
 70
     0
  9
$DIMTOLJ
 70
     1
  9
$DIMTZIN
 70
     0
  9
$DIMALTZ
 70
     0
  9
$DIMALTTZ
 70
     0
  9
$DIMUPT
 70
     0
  9
$DIMDEC
 70
     4
  9
$DIMTDEC
 70
     4
  9
$DIMALTU
 70
     8
  9
$DIMALTTD
 70
     4
  9
$DIMTXSTY
  7
STANDARD
  9
$DIMAUNIT
 70
     0
  9
$DIMADEC
 70
     0
  9
$DIMALTRND
 40
0.0
  9
$DIMAZIN
 70
     0
  9
$DIMDSEP
 70
    46
  9
$DIMATFIT
 70
     3
  9
$DIMFRAC
 70
     0
  9
$DIMLDRBLK
  1

  9
$DIMLUNIT
 70
     6
  9
$DIMLWD
 70
    -2
  9
$DIMLWE
 70
    -2
  9
$DIMTMOVE
 70
     0
  9
$LUNITS
 70
     2
  9
$LUPREC
 70
     4
  9
$SKETCHINC
 40
1.0
  9
$FILLETRAD
 40
1.0
  9
$AUNITS
 70
     0
  9
$AUPREC
 70
     0
  9
$MENU
  1
acad
  9
$ELEVATION
 40
0.0
  9
$PELEVATION
 40
0.0
  9
$THICKNESS
 40
0.0
  9
$LIMCHECK
 70
     0
  9
$CHAMFERA
 40
0.0
  9
$CHAMFERB
 40
0.0
  9
$CHAMFERC
 40
20.0
  9
$CHAMFERD
 40
0.0
  9
$SKPOLY
 70
     0
  9
$TDCREATE
 40
2451774.355798843
  9
$TDUCREATE
 40
2451774.314132176
  9
$TDUPDATE
 40
2454165.438716898
  9
$TDUUPDATE
 40
2454165.397050232
  9
$TDINDWG
 40
0.3685514583
  9
$TDUSRTIMER
 40
0.3685514583
  9
$USRTIMER
 70
     1
  9
$ANGBASE
 50
0.0
  9
$ANGDIR
 70
     0
  9
$PDMODE
 70
     0
  9
$PDSIZE
 40
0.0
  9
$PLINEWID
 40
0.0
  9
$SPLFRAME
 70
     0
  9
$SPLINETYPE
 70
     6
  9
$SPLINESEGS
 70
     8
  9
$HANDSEED
  5
2BBD9
  9
$SURFTAB1
 70
     6
  9
$SURFTAB2
 70
     6
  9
$SURFTYPE
 70
     6
  9
$SURFU
 70
     6
  9
$SURFV
 70
     6
  9
$UCSBASE
  2

  9
$UCSNAME
  2

  9
$UCSORG
 10
0.0
 20
0.0
 30
0.0
  9
$UCSXDIR
 10
1.0
 20
0.0
 30
0.0
  9
$UCSYDIR
 10
0.0
 20
1.0
 30
0.0
  9
$UCSORTHOREF
  2

  9
$UCSORTHOVIEW
 70
     0
  9
$UCSORGTOP
 10
0.0
 20
0.0
 30
0.0
  9
$UCSORGBOTTOM
 10
0.0
 20
0.0
 30
0.0
  9
$UCSORGLEFT
 10
0.0
 20
0.0
 30
0.0
  9
$UCSORGRIGHT
 10
0.0
 20
0.0
 30
0.0
  9
$UCSORGFRONT
 10
0.0
 20
0.0
 30
0.0
  9
$UCSORGBACK
 10
0.0
 20
0.0
 30
0.0
  9
$PUCSBASE
  2

  9
$PUCSNAME
  2

  9
$PUCSORG
 10
0.0
 20
0.0
 30
0.0
  9
$PUCSXDIR
 10
1.0
 20
0.0
 30
0.0
  9
$PUCSYDIR
 10
0.0
 20
1.0
 30
0.0
  9
$PUCSORTHOREF
  2

  9
$PUCSORTHOVIEW
 70
     0
  9
$PUCSORGTOP
 10
0.0
 20
0.0
 30
0.0
  9
$PUCSORGBOTTOM
 10
0.0
 20
0.0
 30
0.0
  9
$PUCSORGLEFT
 10
0.0
 20
0.0
 30
0.0
  9
$PUCSORGRIGHT
 10
0.0
 20
0.0
 30
0.0
  9
$PUCSORGFRONT
 10
0.0
 20
0.0
 30
0.0
  9
$PUCSORGBACK
 10
0.0
 20
0.0
 30
0.0
  9
$USERI1
 70
     0
  9
$USERI2
 70
     0
  9
$USERI3
 70
     0
  9
$USERI4
 70
     0
  9
$USERI5
 70
     0
  9
$USERR1
 40
0.0
  9
$USERR2
 40
0.0
  9
$USERR3
 40
0.0
  9
$USERR4
 40
0.0
  9
$USERR5
 40
0.0
  9
$WORLDVIEW
 70
     1
  9
$SHADEDGE
 70
     3
  9
$SHADEDIF
 70
    70
  9
$TILEMODE
 70
     1
  9
$MAXACTVP
 70
    48
  9
$PINSBASE
 10
0.0
 20
0.0
 30
0.0
  9
$PLIMCHECK
 70
     0
  9
$PEXTMIN
 10
1.000000000000000E+20
 20
1.000000000000000E+20
 30
1.000000000000000E+20
  9
$PEXTMAX
 10
-1.000000000000000E+20
 20
-1.000000000000000E+20
 30
-1.000000000000000E+20
  9
$PLIMMIN
 10
0.0
 20
0.0
  9
$PLIMMAX
 10
420.0
 20
297.0
  9
$UNITMODE
 70
     0
  9
$VISRETAIN
 70
     1
  9
$PLINEGEN
 70
     0
  9
$PSLTSCALE
 70
     1
  9
$TREEDEPTH
 70
  3020
  9
$CMLSTYLE
  2
STANDARD
  9
$CMLJUST
 70
     0
  9
$CMLSCALE
 40
20.0
  9
$PROXYGRAPHICS
 70
     1
  9
$MEASUREMENT
 70
     1
  9
$CELWEIGHT
370
    -1
  9
$ENDCAPS
280
     0
  9
$JOINSTYLE
280
     0
  9
$LWDISPLAY
290
     0
  9
$INSUNITS
 70
     0
  9
$HYPERLINKBASE
  1

  9
$STYLESHEET
  1

  9
$XEDIT
290
     1
  9
$CEPSNTYPE
380
     0
  9
$PSTYLEMODE
290
     1
  9
$FINGERPRINTGUID
  2
{E7552BDC-5169-4F54-A499-2C82C71F1FBB}
  9
$VERSIONGUID
  2
{5D23F936-FB56-4D32-B278-D0FA223B980E}
  9
$EXTNAMES
290
     1
  9
$PSVPSCALE
 40
0.0
  9
$OLESTARTUP
290
     0
  0
ENDSEC
  0
SECTION
  2
CLASSES
  0
CLASS
  1
DICTIONARYVAR
  2
AcDbDictionaryVar
  3
ObjectDBX Classes
 90
        0
280
     0
281
     0
  0
CLASS
  1
SORTENTSTABLE
  2
AcDbSortentsTable
  3
ObjectDBX Classes
 90
        0
280
     0
281
     0
  0
CLASS
  1
ACDBDICTIONARYWDFLT
  2
AcDbDictionaryWithDefault
  3
ObjectDBX Classes
 90
        0
280
     0
281
     0
  0
CLASS
  1
ACDBPLACEHOLDER
  2
AcDbPlaceHolder
  3
ObjectDBX Classes
 90
        0
280
     0
281
     0
  0
CLASS
  1
LAYOUT
  2
AcDbLayout
  3
ObjectDBX Classes
 90
        0
280
     0
281
     0
  0
CLASS
  1
TABLESTYLE
  2
AcDbTableStyle
  3
ObjectDBX Classes
 90
     2047
280
     0
281
     0
  0
ENDSEC
  0
SECTION
  2
TABLES
  0
TABLE
  2
VPORT
  5
8
330
0
100
AcDbSymbolTable
 70
     4
  0
VPORT
  5
2BBD3
330
8
100
AcDbSymbolTableRecord
100
AcDbViewportTableRecord
  2
*Active
 70
     0
 10
0.0
 20
0.0
 11
1.0
 21
1.0
 12
297.0000055323517
 22
210.000003911764
 13
0.0
 23
0.0
 14
10.0
 24
10.0
 15
10.0
 25
10.0
 16
0.0
 26
0.0
 36
1.0
 17
0.0
 27
0.0
 37
0.0
 40
462.0899200526053
 41
1.293715846994535
 42
50.0
 43
0.0
 44
0.0
 50
0.0
 51
0.0
 71
     0
 72
   100
 73
     1
 74
     1
 75
     0
 76
     0
 77
     0
 78
     0
281
     0
 65
     1
110
0.0
120
0.0
130
0.0
111
1.0
121
0.0
131
0.0
112
0.0
122
1.0
132
0.0
 79
     0
146
0.0
  0
ENDTAB
  0
TABLE
  2
LTYPE
  5
5
330
0
100
AcDbSymbolTable
 70
     2
  0
LTYPE
  5
12
330
5
100
AcDbSymbolTableRecord
100
AcDbLinetypeTableRecord
  2
BYBLOCK
 70
     0
  3

 72
    65
 73
     0
 40
0.0
  0
LTYPE
  5
13
330
5
100
AcDbSymbolTableRecord
100
AcDbLinetypeTableRecord
  2
BYLAYER
 70
     0
  3

 72
    65
 73
     0
 40
0.0
  0
LTYPE
  5
14
330
5
100
AcDbSymbolTableRecord
100
AcDbLinetypeTableRecord
  2
CONTINUOUS
 70
     0
  3
Solid line
 72
    65
 73
     0
 40
0.0
  0
LTYPE
  5
2BBB9
330
5
100
AcDbSymbolTableRecord
100
AcDbLinetypeTableRecord
  2
VERDECKT2
 70
     0
  3
Verdeckt (.5x) _ _ _ _ _ _ _ _ _ _ _ _ _ _ _ _ 
 72
    65
 73
     2
 40
4.762499999999999
 49
3.174999999999999
 74
     0
 49
-1.587499999999999
 74
     0
  0
ENDTAB
  0
TABLE
  2
LAYER
  5
2
102
{ACAD_XDICTIONARY
360
2AE1D
102
}
330
0
100
AcDbSymbolTable
 70
     8
  0
LAYER
  5
E
330
2
100
AcDbSymbolTableRecord
100
AcDbLayerTableRecord
  2
0
 70
     0
 62
     7
  6
CONTINUOUS
370
    -3
390
1B1E3
  0
LAYER
  5
143
330
2
100
AcDbSymbolTableRecord
100
AcDbLayerTableRecord
  2
DEFPOINTS
 70
     0
 62
     7
  6
CONTINUOUS
290
     0
370
    -3
390
1B1E3
  0
LAYER
  5
1848A
330
2
100
AcDbSymbolTableRecord
100
AcDbLayerTableRecord
  2
RAHMEN025
 70
     0
 62
     7
  6
CONTINUOUS
370
    -3
390
1B1E3
  0
LAYER
  5
1848B
330
2
100
AcDbSymbolTableRecord
100
AcDbLayerTableRecord
  2
RAHMEN07
 70
     0
 62
     5
  6
CONTINUOUS
370
    -3
390
1B1E3
  0
LAYER
  5
26712
330
2
100
AcDbSymbolTableRecord
100
AcDbLayerTableRecord
  2
Bemassung
 70
     0
 62
     3
  6
CONTINUOUS
370
    -3
390
1B1E3
  0
LAYER
  5
27B66
330
2
100
AcDbSymbolTableRecord
100
AcDbLayerTableRecord
  2
Frame
 70
     0
 62
     7
  6
CONTINUOUS
370
    -3
390
1B1E3
  0
LAYER
  5
299F2
330
2
100
AcDbSymbolTableRecord
100
AcDbLayerTableRecord
  2
Modules
 70
     0
 62
     5
  6
CONTINUOUS
370
    -3
390
1B1E3
  0
LAYER
  5
2BB20
330
2
100
AcDbSymbolTableRecord
100
AcDbLayerTableRecord
  2
TEXTFELD
 70
     0
 62
     7
  6
CONTINUOUS
370
    -3
390
1B1E3
  0
ENDTAB
  0
TABLE
  2
STYLE
  5
3
330
0
100
AcDbSymbolTable
 70
     2
  0
STYLE
  5
F
330
3
100
AcDbSymbolTableRecord
100
AcDbTextStyleTableRecord
  2
STANDARD
 70
     0
 40
0.0
 41
1.0
 50
0.0
 71
     0
 42
2.5
  3
txt
  4

  0
STYLE
  5
220D
330
3
100
AcDbSymbolTableRecord
100
AcDbTextStyleTableRecord
  2
TASTENTEXT
 70
     0
 40
2.0
 41
1.0
 50
0.0
 71
     0
 42
2.0
  3
ARIAL.TTF
  4

1001
ACAD
1000
Arial
1071
       34
  0
ENDTAB
  0
TABLE
  2
VIEW
  5
6
330
0
100
AcDbSymbolTable
 70
     0
  0
ENDTAB
  0
TABLE
  2
UCS
  5
7
330
0
100
AcDbSymbolTable
 70
     0
  0
ENDTAB
  0
TABLE
  2
APPID
  5
9
330
0
100
AcDbSymbolTable
 70
     7
  0
APPID
  5
10
330
9
100
AcDbSymbolTableRecord
100
AcDbRegAppTableRecord
  2
ACAD
 70
     0
  0
APPID
  5
29A02
330
9
100
AcDbSymbolTableRecord
100
AcDbRegAppTableRecord
  2
CONTENTTABDATA
 70
     0
  0
APPID
  5
29A03
330
9
100
AcDbSymbolTableRecord
100
AcDbRegAppTableRecord
  2
CONTENTCURRENTTAB
 70
     0
  0
APPID
  5
29A04
330
9
100
AcDbSymbolTableRecord
100
AcDbRegAppTableRecord
  2
DRAWINGVARIABLESXDATA
 70
     0
  0
APPID
  5
2AE16
330
9
100
AcDbSymbolTableRecord
100
AcDbRegAppTableRecord
  2
ACAD_EXEMPT_FROM_CAD_STANDARDS
 70
     0
  0
APPID
  5
2B642
330
9
100
AcDbSymbolTableRecord
100
AcDbRegAppTableRecord
  2
AcAecLayerStandard
 70
     0
  0
APPID
  5
2BBBA
330
9
100
AcDbSymbolTableRecord
100
AcDbRegAppTableRecord
  2
ACAD_PSEXT
 70
     0
  0
ENDTAB
  0
TABLE
  2
DIMSTYLE
  5
A
330
0
100
AcDbSymbolTable
 70
     1
100
AcDbDimStyleTable
 71
     1
340
1D
  0
DIMSTYLE
105
1D
102
{ACAD_REACTORS
330
280B2
330
280B3
102
}
330
A
100
AcDbSymbolTableRecord
100
AcDbDimStyleTableRecord
  2
STANDARD
 70
     0
340
F
  0
ENDTAB
  0
TABLE
  2
BLOCK_RECORD
  5
1
330
0
100
AcDbSymbolTable
 70
     4
  0
BLOCK_RECORD
  5
18
102
{ACAD_XDICTIONARY
360
9822
102
}
330
1
100
AcDbSymbolTableRecord
100
AcDbBlockTableRecord
  2
*MODEL_SPACE
340
1B1E6
  0
BLOCK_RECORD
  5
15
102
{ACAD_XDICTIONARY
360
2663A
102
}
330
1
100
AcDbSymbolTableRecord
100
AcDbBlockTableRecord
  2
*PAPER_SPACE
340
1B1E7
  0
BLOCK_RECORD
  5
280C0
330
1
100
AcDbSymbolTableRecord
100
AcDbBlockTableRecord
  2
*D0
340
0
  0
BLOCK_RECORD
  5
280CC
330
1
100
AcDbSymbolTableRecord
100
AcDbBlockTableRecord
  2
*D1
340
0
  0
ENDTAB
  0
ENDSEC
  0
SECTION
  2
BLOCKS
  0
BLOCK
  5
19
330
18
100
AcDbEntity
  8
0
100
AcDbBlockBegin
  2
*MODEL_SPACE
 70
     2
 10
0.0
 20
0.0
 30
0.0
  3
*MODEL_SPACE
  1

  0
ENDBLK
  5
1A
330
18
100
AcDbEntity
  8
0
100
AcDbBlockEnd
  0
BLOCK
  5
16
330
15
100
AcDbEntity
 67
     1
  8
0
100
AcDbBlockBegin
  2
*PAPER_SPACE
 70
     0
 10
0.0
 20
0.0
 30
0.0
  3
*PAPER_SPACE
  1

  0
ENDBLK
  5
17
330
15
100
AcDbEntity
 67
     1
  8
0
100
AcDbBlockEnd
  0
BLOCK
  5
280CA
330
280C0
100
AcDbEntity
  8
0
100
AcDbBlockBegin
  2
*D0
 70
     1
 10
0.0
 20
0.0
 30
0.0
  3
*D0
  1

  0
LINE
  5
28593
330
280C0
100
AcDbEntity
  8
Bemassung
 62
     0
100
AcDbLine
 10
77.67850856845661
 20
274.2696408898965
 30
0.0
 11
77.67850856845661
 21
287.9874221704664
 31
0.0
  0
LINE
  5
28594
330
280C0
100
AcDbEntity
  8
Bemassung
 62
     0
100
AcDbLine
 10
517.6785085684566
 20
274.2696408898965
 30
0.0
 11
517.6785085684566
 21
287.9874221704664
 31
0.0
  0
LINE
  5
28595
330
280C0
100
AcDbEntity
  8
Bemassung
 62
     0
100
AcDbLine
 10
80.1785085684566
 20
286.7374221704664
 30
0.0
 11
515.1785085684566
 21
286.7374221704664
 31
0.0
  0
SOLID
  5
28596
330
280C0
100
AcDbEntity
  8
Bemassung
 62
     0
100
AcDbTrace
 10
80.1785085684566
 20
287.1540888371331
 30
0.0
 11
80.1785085684566
 21
286.3207555037997
 31
0.0
 12
77.67850856845661
 22
286.7374221704664
 32
0.0
 13
77.67850856845661
 23
286.7374221704664
 33
0.0
  0
SOLID
  5
28597
330
280C0
100
AcDbEntity
  8
Bemassung
 62
     0
100
AcDbTrace
 10
515.1785085684566
 20
287.1540888371331
 30
0.0
 11
515.1785085684566
 21
286.3207555037997
 31
0.0
 12
517.6785085684566
 22
286.7374221704664
 32
0.0
 13
517.6785085684566
 23
286.7374221704664
 33
0.0
  0
MTEXT
  5
28598
330
280C0
100
AcDbEntity
  8
Bemassung
 62
     0
100
AcDbMText
 10
297.6785085684566
 20
288.6124221704664
 30
0.0
 40
2.5
 41
0.0
 71
     5
 72
     1
  1
\A1;448
 73
     1
 44
1.0
1001
ACAD
1000
MTEXTBEGIN
1070
    73
1070
     1
1070
    44
1040
1.0
1070
    74
1070
     0
1000
MTEXTEND
  0
POINT
  5
28599
330
280C0
100
AcDbEntity
  8
DEFPOINTS
 62
     0
100
AcDbPoint
 10
77.67850856845661
 20
273.6446408898966
 30
0.0
  0
POINT
  5
2859A
330
280C0
100
AcDbEntity
  8
DEFPOINTS
 62
     0
100
AcDbPoint
 10
517.6785085684566
 20
273.6446408898966
 30
0.0
  0
POINT
  5
2859B
330
280C0
100
AcDbEntity
  8
DEFPOINTS
 62
     0
100
AcDbPoint
 10
517.6785085684566
 20
286.7374221704664
 30
0.0
  0
ENDBLK
  5
280CB
330
280C0
100
AcDbEntity
  8
0
100
AcDbBlockEnd
  0
BLOCK
  5
280D6
330
280CC
100
AcDbEntity
  8
0
100
AcDbBlockBegin
  2
*D1
 70
     1
 10
0.0
 20
0.0
 30
0.0
  3
*D1
  1

  0
LINE
  5
2BA0F
330
280CC
100
AcDbEntity
  8
Bemassung
 62
     0
370
    -2
100
AcDbLine
 10
77.67850856845661
 20
273.6446408898966
 30
0.0
 11
65.77948934157143
 21
273.6446408898966
 31
0.0
  0
LINE
  5
2BA10
330
280CC
100
AcDbEntity
  8
Bemassung
 62
     0
370
    -2
100
AcDbLine
 10
77.67850856845661
 20
141.1446408898965
 30
0.0
 11
65.77948934157141
 21
141.1446408898965
 31
0.0
  0
LINE
  5
2BA11
330
280CC
100
AcDbEntity
  8
Bemassung
 62
     0
370
    -2
100
AcDbLine
 10
67.02948934157143
 20
271.1446408898965
 30
0.0
 11
67.02948934157141
 21
143.6446408898965
 31
0.0
  0
SOLID
  5
2BA12
330
280CC
100
AcDbEntity
  8
Bemassung
 62
     0
100
AcDbTrace
 10
66.61282267490476
 20
271.1446408898965
 30
0.0
 11
67.4461560082381
 21
271.1446408898965
 31
0.0
 12
67.02948934157143
 22
273.6446408898966
 32
0.0
 13
67.02948934157143
 23
273.6446408898966
 33
0.0
  0
SOLID
  5
2BA13
330
280CC
100
AcDbEntity
  8
Bemassung
 62
     0
100
AcDbTrace
 10
66.61282267490474
 20
143.6446408898965
 30
0.0
 11
67.44615600823808
 21
143.6446408898965
 31
0.0
 12
67.02948934157141
 22
141.1446408898965
 32
0.0
 13
67.02948934157141
 23
141.1446408898965
 33
0.0
  0
MTEXT
  5
2BA14
330
280CC
100
AcDbEntity
  8
Bemassung
 62
     0
100
AcDbMText
 10
65.15448934157139
 20
207.3946408898966
 30
0.0
 40
2.5
 41
0.0
 71
     5
 72
     1
  1
\A1;133
 11
0.0000000000000001
 21
1.0
 31
0.0
 73
     1
 44
1.0
1001
ACAD
1000
MTEXTBEGIN
1070
    73
1070
     1
1070
    44
1040
1.0
1070
    74
1070
     0
1000
MTEXTEND
  0
POINT
  5
2BA15
330
280CC
100
AcDbEntity
  8
DEFPOINTS
 62
     0
100
AcDbPoint
 10
78.30350856845661
 20
273.6446408898966
 30
0.0
  0
POINT
  5
2BA16
330
280CC
100
AcDbEntity
  8
DEFPOINTS
 62
     0
100
AcDbPoint
 10
78.30350856845661
 20
141.1446408898965
 30
0.0
  0
POINT
  5
2BA17
330
280CC
100
AcDbEntity
  8
DEFPOINTS
 62
     0
100
AcDbPoint
 10
67.02948934157141
 20
141.1446408898965
 30
0.0
  0
ENDBLK
  5
280D7
330
280CC
100
AcDbEntity
  8
0
100
AcDbBlockEnd
  0
ENDSEC
  0
SECTION
  2
ENTITIES
  0
LINE
  5
266D4
330
18
100
AcDbEntity
  8
RAHMEN07
100
AcDbLine
 10
589.0
 20
415.0
 30
0.0
 11
20.0
 21
415.0
 31
0.0
  0
LINE
  5
266D5
330
18
100
AcDbEntity
  8
RAHMEN07
100
AcDbLine
 10
20.0
 20
5.0
 30
0.0
 11
589.0
 21
5.0
 31
0.0
  0
LINE
  5
266D6
330
18
100
AcDbEntity
  8
RAHMEN025
100
AcDbLine
 10
594.0
 20
420.0
 30
0.0
 11
0.0
 21
420.0
 31
0.0
  0
LINE
  5
266D7
330
18
100
AcDbEntity
  8
RAHMEN025
100
AcDbLine
 10
0.0
 20
0.0
 30
0.0
 11
594.0
 21
0.0
 31
0.0
  0
LINE
  5
266D8
330
18
100
AcDbEntity
  8
RAHMEN07
100
AcDbLine
 10
20.0
 20
415.0
 30
0.0
 11
20.0
 21
5.0
 31
0.0
  0
LINE
  5
266D9
330
18
100
AcDbEntity
  8
RAHMEN025
100
AcDbLine
 10
0.0
 20
420.0
 30
0.0
 11
0.0
 21
0.0
 31
0.0
  0
LINE
  5
266DA
330
18
100
AcDbEntity
  8
RAHMEN07
100
AcDbLine
 10
589.0
 20
5.0
 30
0.0
 11
589.0
 21
415.0
 31
0.0
  0
LINE
  5
266DB
330
18
100
AcDbEntity
  8
RAHMEN025
100
AcDbLine
 10
594.0
 20
0.0
 30
0.0
 11
594.0
 21
420.0
 31
0.0
  0
DIMENSION
  5
280B2
330
18
100
AcDbEntity
  8
Bemassung
100
AcDbDimension
  2
*D0
 10
517.6785085684566
 20
286.7374221704664
 30
0.0
 11
297.6785085684566
 21
288.6124221704664
 31
0.0
 70
    32
  1
448
 71
     5
 42
-1.0
  3
STANDARD
100
AcDbAlignedDimension
 13
77.67850856845661
 23
273.6446408898966
 33
0.0
 14
517.6785085684566
 24
273.6446408898966
 34
0.0
100
AcDbRotatedDimension
1001
ACAD
1000
DSTYLE
1002
{
1070
   270
1070
     8
1070
   270
1070
     8
1070
   270
1070
     8
1070
   270
1070
     8
1070
    41
1040
2.5
1070
    42
1040
0.625
1070
    43
1040
3.75
1070
    44
1040
1.25
1070
    73
1070
     0
1070
    74
1070
     0
1070
    77
1070
     1
1070
    78
1070
     8
1070
   140
1040
2.5
1070
   141
1040
2.5
1070
   143
1040
0.0394
1070
   147
1040
0.625
1070
   171
1070
     4
1070
   172
1070
     1
1070
   273
1070
     8
1070
   274
1070
     4
1070
   277
1070
     6
1002
}
  0
DIMENSION
  5
280B3
330
18
100
AcDbEntity
  8
Bemassung
100
AcDbDimension
  2
*D1
 10
67.02948934157141
 20
141.1446408898965
 30
0.0
 11
65.15448934157139
 21
207.3946408898966
 31
0.0
 70
    32
  1
133
 71
     5
 42
132.4999999999999
  3
STANDARD
100
AcDbAlignedDimension
 13
78.30350856845661
 23
273.6446408898966
 33
0.0
 14
78.30350856845661
 24
141.1446408898965
 34
0.0
 50
90.0
100
AcDbRotatedDimension
1001
ACAD
1000
DSTYLE
1002
{
1070
   270
1070
     8
1070
   270
1070
     8
1070
   270
1070
     8
1070
   270
1070
     8
1070
    41
1040
2.5
1070
    42
1040
0.625
1070
    43
1040
3.75
1070
    44
1040
1.25
1070
    73
1070
     0
1070
    74
1070
     0
1070
    77
1070
     1
1070
    78
1070
     8
1070
   140
1040
2.5
1070
   141
1040
2.5
1070
   143
1040
0.0394
1070
   147
1040
0.625
1070
   171
1070
     4
1070
   172
1070
     1
1070
   273
1070
     8
1070
   274
1070
     4
1070
   277
1070
     6
1002
}
  0
MTEXT
  5
29C9E
330
18
100
AcDbEntity
  8
Bemassung
100
AcDbMText
 10
268.8795574345149
 20
486.1830107780843
 30
0.0
 40
2.5
 41
0.0
 71
     1
 72
     1
  1

 11
-1.0
 21
0.0000000000000001
 31
0.0
 73
     1
 44
1.0
1001
ACAD
1000
MTEXTBEGIN
1070
    73
1070
     1
1070
    44
1040
1.0
1070
    74
1070
     0
1000
MTEXTEND
  0
MTEXT
  5
29C9F
330
18
100
AcDbEntity
  8
Bemassung
100
AcDbMText
 10
268.8795574345149
 20
486.1830107780843
 30
0.0
 40
2.5
 41
0.0
 71
     1
 72
     1
  1

 11
-1.0
 21
0.0000000000000001
 31
0.0
 73
     1
 44
1.0
1001
ACAD
1000
MTEXTBEGIN
1070
    73
1070
     1
1070
    44
1040
1.0
1070
    74
1070
     0
1000
MTEXTEND
  0
LWPOLYLINE
  5
2B832
102
{ACAD_REACTORS
330
2BB11
102
}
330
18
100
AcDbEntity
  8
Modules
100
AcDbPolyline
 90
        8
 70
     1
 43
0.0
 10
319.9185085684569
 20
253.4446407191406
 10
378.7185085684569
 20
253.4446407191406
 42
-0.4142135623730951
 10
379.7185085684569
 20
252.4446407191406
 10
379.7185085684569
 20
225.2446407191406
 42
-0.4142135623730951
 10
378.7185085684569
 20
224.2446407191406
 10
319.9185085684569
 20
224.2446407191406
 42
-0.4142135623730951
 10
318.9185085684569
 20
225.2446407191406
 10
318.9185085684569
 20
252.4446407191406
 42
-0.4142135623730951
  0
CIRCLE
  5
2B85E
102
{ACAD_REACTORS
330
2BB11
102
}
330
18
100
AcDbEntity
  8
Modules
100
AcDbCircle
 10
504.3635085684567
 20
246.4446251813047
 30
0.0
 40
1.3
  0
LWPOLYLINE
  5
2B97C
102
{ACAD_REACTORS
330
2BB11
102
}
330
18
100
AcDbEntity
  8
Modules
100
AcDbPolyline
 90
        4
 70
     1
 43
0.0
 10
297.7185085684563
 20
271.8446410606525
 10
510.7185085684568
 20
271.8446410606525
 10
510.7185085684568
 20
143.4446407191407
 10
297.7185085684563
 20
143.4446407191407
  0
CIRCLE
  5
2B984
102
{ACAD_REACTORS
330
2B986
330
2BB11
102
}
330
18
100
AcDbEntity
  8
Modules
100
AcDbCircle
 10
305.2185085684569
 20
268.8446407191407
 30
0.0
 40
2.45
  0
LWPOLYLINE
  5
2B985
102
{ACAD_REACTORS
330
2B986
330
2BB11
102
}
330
18
100
AcDbEntity
  8
Modules
100
AcDbPolyline
 90
        6
 70
     1
 43
0.0
 10
304.5834232723483
 20
269.9446407191407
 10
303.9483379762398
 20
268.8446407191407
 10
304.5834232723483
 20
267.7446407191407
 10
305.8535938645655
 20
267.7446407191407
 10
306.4886791606741
 20
268.8446407191407
 10
305.8535938645655
 20
269.9446407191407
  0
CIRCLE
  5
2B987
102
{ACAD_REACTORS
330
2B989
330
2BB11
102
}
330
18
100
AcDbEntity
  8
Modules
100
AcDbCircle
 10
305.2185085684569
 20
257.1446407191407
 30
0.0
 40
2.45
  0
LWPOLYLINE
  5
2B988
102
{ACAD_REACTORS
330
2B989
330
2BB11
102
}
330
18
100
AcDbEntity
  8
Modules
100
AcDbPolyline
 90
        6
 70
     1
 43
0.0
 10
304.5834232723483
 20
258.2446407191407
 10
303.9483379762398
 20
257.1446407191407
 10
304.5834232723483
 20
256.0446407191407
 10
305.8535938645655
 20
256.0446407191407
 10
306.4886791606741
 20
257.1446407191407
 10
305.8535938645655
 20
258.2446407191407
  0
CIRCLE
  5
2B98A
102
{ACAD_REACTORS
330
2B98C
330
2BB11
102
}
330
18
100
AcDbEntity
  8
Modules
100
AcDbCircle
 10
305.2185085684568
 20
158.1446407191407
 30
0.0
 40
2.45
  0
LWPOLYLINE
  5
2B98B
102
{ACAD_REACTORS
330
2B98C
330
2BB11
102
}
330
18
100
AcDbEntity
  8
Modules
100
AcDbPolyline
 90
        6
 70
     1
 43
0.0
 10
304.5834232723482
 20
159.2446407191407
 10
303.9483379762397
 20
158.1446407191407
 10
304.5834232723482
 20
157.0446407191406
 10
305.8535938645654
 20
157.0446407191406
 10
306.488679160674
 20
158.1446407191407
 10
305.8535938645654
 20
159.2446407191407
  0
CIRCLE
  5
2B98D
102
{ACAD_REACTORS
330
2B98F
330
2BB11
102
}
330
18
100
AcDbEntity
  8
Modules
100
AcDbCircle
 10
305.2185085684568
 20
146.4446407191407
 30
0.0
 40
2.45
  0
LWPOLYLINE
  5
2B98E
102
{ACAD_REACTORS
330
2B98F
330
2BB11
102
}
330
18
100
AcDbEntity
  8
Modules
100
AcDbPolyline
 90
        6
 70
     1
 43
0.0
 10
304.5834232723482
 20
147.5446407191407
 10
303.9483379762397
 20
146.4446407191407
 10
304.5834232723482
 20
145.3446407191407
 10
305.8535938645654
 20
145.3446407191407
 10
306.488679160674
 20
146.4446407191407
 10
305.8535938645654
 20
147.5446407191407
  0
CIRCLE
  5
2B990
102
{ACAD_REACTORS
330
2B992
330
2BB11
102
}
330
18
100
AcDbEntity
  8
Modules
100
AcDbCircle
 10
401.7385085684568
 20
146.4446407191407
 30
0.0
 40
2.45
  0
LWPOLYLINE
  5
2B991
102
{ACAD_REACTORS
330
2B992
330
2BB11
102
}
330
18
100
AcDbEntity
  8
Modules
100
AcDbPolyline
 90
        6
 70
     1
 43
0.0
 10
401.1034232723482
 20
147.5446407191407
 10
400.4683379762396
 20
146.4446407191407
 10
401.1034232723482
 20
145.3446407191407
 10
402.3735938645654
 20
145.3446407191407
 10
403.0086791606739
 20
146.4446407191407
 10
402.3735938645654
 20
147.5446407191407
  0
CIRCLE
  5
2B993
102
{ACAD_REACTORS
330
2B995
330
2BB11
102
}
330
18
100
AcDbEntity
  8
Modules
100
AcDbCircle
 10
401.7385085684569
 20
268.8446407191407
 30
0.0
 40
2.45
  0
LWPOLYLINE
  5
2B994
102
{ACAD_REACTORS
330
2B995
330
2BB11
102
}
330
18
100
AcDbEntity
  8
Modules
100
AcDbPolyline
 90
        6
 70
     1
 43
0.0
 10
401.1034232723483
 20
269.9446407191407
 10
400.4683379762398
 20
268.8446407191407
 10
401.1034232723483
 20
267.7446407191407
 10
402.3735938645655
 20
267.7446407191407
 10
403.0086791606741
 20
268.8446407191407
 10
402.3735938645655
 20
269.9446407191407
  0
CIRCLE
  5
2B996
102
{ACAD_REACTORS
330
2B998
330
2BB11
102
}
330
18
100
AcDbEntity
  8
Modules
100
AcDbCircle
 10
503.3385085684566
 20
268.8446407191407
 30
0.0
 40
2.45
  0
LWPOLYLINE
  5
2B997
102
{ACAD_REACTORS
330
2B998
330
2BB11
102
}
330
18
100
AcDbEntity
  8
Modules
100
AcDbPolyline
 90
        6
 70
     1
 43
0.0
 10
502.703423272348
 20
269.9446407191407
 10
502.0683379762394
 20
268.8446407191407
 10
502.703423272348
 20
267.7446407191407
 10
503.9735938645653
 20
267.7446407191407
 10
504.6086791606738
 20
268.8446407191407
 10
503.9735938645653
 20
269.9446407191407
  0
CIRCLE
  5
2B999
102
{ACAD_REACTORS
330
2B99B
330
2BB11
102
}
330
18
100
AcDbEntity
  8
Modules
100
AcDbCircle
 10
503.3385085684566
 20
257.1446407191407
 30
0.0
 40
2.45
  0
LWPOLYLINE
  5
2B99A
102
{ACAD_REACTORS
330
2B99B
330
2BB11
102
}
330
18
100
AcDbEntity
  8
Modules
100
AcDbPolyline
 90
        6
 70
     1
 43
0.0
 10
502.703423272348
 20
258.2446407191407
 10
502.0683379762394
 20
257.1446407191407
 10
502.703423272348
 20
256.0446407191407
 10
503.9735938645653
 20
256.0446407191407
 10
504.6086791606738
 20
257.1446407191407
 10
503.9735938645653
 20
258.2446407191407
  0
CIRCLE
  5
2B99C
102
{ACAD_REACTORS
330
2B99E
330
2BB11
102
}
330
18
100
AcDbEntity
  8
Modules
100
AcDbCircle
 10
503.3385085684567
 20
158.1446407191407
 30
0.0
 40
2.45
  0
LWPOLYLINE
  5
2B99D
102
{ACAD_REACTORS
330
2B99E
330
2BB11
102
}
330
18
100
AcDbEntity
  8
Modules
100
AcDbPolyline
 90
        6
 70
     1
 43
0.0
 10
502.7034232723481
 20
159.2446407191407
 10
502.0683379762395
 20
158.1446407191407
 10
502.7034232723481
 20
157.0446407191406
 10
503.9735938645653
 20
157.0446407191406
 10
504.6086791606739
 20
158.1446407191407
 10
503.9735938645653
 20
159.2446407191407
  0
CIRCLE
  5
2B99F
102
{ACAD_REACTORS
330
2B9A1
330
2BB11
102
}
330
18
100
AcDbEntity
  8
Modules
100
AcDbCircle
 10
503.3385085684567
 20
146.4446407191407
 30
0.0
 40
2.45
  0
LWPOLYLINE
  5
2B9A0
102
{ACAD_REACTORS
330
2B9A1
330
2BB11
102
}
330
18
100
AcDbEntity
  8
Modules
100
AcDbPolyline
 90
        6
 70
     1
 43
0.0
 10
502.7034232723481
 20
147.5446407191407
 10
502.0683379762395
 20
146.4446407191407
 10
502.7034232723481
 20
145.3446407191407
 10
503.9735938645653
 20
145.3446407191407
 10
504.6086791606739
 20
146.4446407191407
 10
503.9735938645653
 20
147.5446407191407
  0
CIRCLE
  5
2B9A6
102
{ACAD_REACTORS
330
2B9A8
330
2BB11
102
}
330
18
100
AcDbEntity
  8
Modules
100
AcDbCircle
 10
320.2185085684568
 20
258.7446407191405
 30
0.0
 40
2.75
  0
LWPOLYLINE
  5
2B9A7
102
{ACAD_REACTORS
330
2B9A8
330
2BB11
102
}
330
18
100
AcDbEntity
  8
Modules
100
AcDbPolyline
 90
        6
 70
     1
 43
0.0
 10
319.5834232723483
 20
259.8446407191405
 10
318.9483379762397
 20
258.7446407191405
 10
319.5834232723483
 20
257.6446407191405
 10
320.8535938645654
 20
257.6446407191405
 10
321.488679160674
 20
258.7446407191405
 10
320.8535938645654
 20
259.8446407191405
  0
CIRCLE
  5
2B9A9
102
{ACAD_REACTORS
330
2B9AB
330
2BB11
102
}
330
18
100
AcDbEntity
  8
Modules
100
AcDbCircle
 10
404.2185085684568
 20
258.7446407191405
 30
0.0
 40
2.75
  0
LWPOLYLINE
  5
2B9AA
102
{ACAD_REACTORS
330
2B9AB
330
2BB11
102
}
330
18
100
AcDbEntity
  8
Modules
100
AcDbPolyline
 90
        6
 70
     1
 43
0.0
 10
403.5834232723482
 20
259.8446407191405
 10
402.9483379762397
 20
258.7446407191405
 10
403.5834232723482
 20
257.6446407191405
 10
404.8535938645654
 20
257.6446407191405
 10
405.488679160674
 20
258.7446407191405
 10
404.8535938645654
 20
259.8446407191405
  0
CIRCLE
  5
2B9AC
102
{ACAD_REACTORS
330
2B9AE
330
2BB11
102
}
330
18
100
AcDbEntity
  8
Modules
100
AcDbCircle
 10
488.2185085684568
 20
258.7446407191405
 30
0.0
 40
2.75
  0
LWPOLYLINE
  5
2B9AD
102
{ACAD_REACTORS
330
2B9AE
330
2BB11
102
}
330
18
100
AcDbEntity
  8
Modules
100
AcDbPolyline
 90
        6
 70
     1
 43
0.0
 10
487.5834232723483
 20
259.8446407191405
 10
486.9483379762397
 20
258.7446407191405
 10
487.5834232723483
 20
257.6446407191405
 10
488.8535938645654
 20
257.6446407191405
 10
489.488679160674
 20
258.7446407191405
 10
488.8535938645654
 20
259.8446407191405
  0
CIRCLE
  5
2B9AF
102
{ACAD_REACTORS
330
2B9B1
330
2BB11
102
}
330
18
100
AcDbEntity
  8
Modules
100
AcDbCircle
 10
310.2185085684568
 20
187.0446251813043
 30
0.0
 40
2.75
  0
LWPOLYLINE
  5
2B9B0
102
{ACAD_REACTORS
330
2B9B1
330
2BB11
102
}
330
18
100
AcDbEntity
  8
Modules
100
AcDbPolyline
 90
        6
 70
     1
 43
0.0
 10
309.5834232723482
 20
188.1446251813043
 10
308.9483379762397
 20
187.0446251813043
 10
309.5834232723482
 20
185.9446251813043
 10
310.8535938645654
 20
185.9446251813043
 10
311.4886791606739
 20
187.0446251813043
 10
310.8535938645654
 20
188.1446251813043
  0
CIRCLE
  5
2B9B2
102
{ACAD_REACTORS
330
2B9B4
330
2BB11
102
}
330
18
100
AcDbEntity
  8
Modules
100
AcDbCircle
 10
498.2185085684568
 20
187.0446251813043
 30
0.0
 40
2.75
  0
LWPOLYLINE
  5
2B9B3
102
{ACAD_REACTORS
330
2B9B4
330
2BB11
102
}
330
18
100
AcDbEntity
  8
Modules
100
AcDbPolyline
 90
        6
 70
     1
 43
0.0
 10
497.5834232723482
 20
188.1446251813043
 10
496.9483379762396
 20
187.0446251813043
 10
497.5834232723482
 20
185.9446251813043
 10
498.8535938645654
 20
185.9446251813043
 10
499.488679160674
 20
187.0446251813043
 10
498.8535938645654
 20
188.1446251813043
  0
LWPOLYLINE
  5
2B9B5
102
{ACAD_REACTORS
330
2BB11
102
}
330
18
100
AcDbEntity
  8
Modules
100
AcDbPolyline
 90
       13
 70
     0
 43
0.0
 10
316.4064227799463
 20
224.189497283863
 10
308.6564227799464
 20
237.539497283863
 10
308.6564227799464
 20
240.0497841544183
 10
316.4064227799463
 20
253.3997841544182
 10
318.5685085684569
 20
254.6446407191406
 10
380.0685085684569
 20
254.6446407191406
 10
382.2305943569676
 20
253.3997841544183
 10
389.9805943569675
 20
240.0497841544183
 10
389.9805943569674
 20
237.539497283863
 10
382.2305943569675
 20
224.189497283863
 10
380.0685085684569
 20
222.9446407191407
 10
318.5685085684569
 20
222.9446407191406
 10
316.4064227799463
 20
224.189497283863
  0
CIRCLE
  5
2B9B6
102
{ACAD_REACTORS
330
2B9B8
330
2BB11
102
}
330
18
100
AcDbEntity
  8
Modules
100
AcDbCircle
 10
313.3185085684569
 20
238.8446407191406
 30
0.0
 40
2.75
  0
LWPOLYLINE
  5
2B9B7
102
{ACAD_REACTORS
330
2B9B8
330
2BB11
102
}
330
18
100
AcDbEntity
  8
Modules
100
AcDbPolyline
 90
        6
 70
     1
 43
0.0
 10
312.6834232723483
 20
239.9446407191407
 10
312.0483379762398
 20
238.8446407191406
 10
312.6834232723483
 20
237.7446407191406
 10
313.9535938645655
 20
237.7446407191406
 10
314.5886791606741
 20
238.8446407191406
 10
313.9535938645655
 20
239.9446407191407
  0
CIRCLE
  5
2B9B9
102
{ACAD_REACTORS
330
2B9BB
330
2BB11
102
}
330
18
100
AcDbEntity
  8
Modules
100
AcDbCircle
 10
385.3185085684569
 20
238.8446407191406
 30
0.0
 40
2.75
  0
LWPOLYLINE
  5
2B9BA
102
{ACAD_REACTORS
330
2B9BB
330
2BB11
102
}
330
18
100
AcDbEntity
  8
Modules
100
AcDbPolyline
 90
        6
 70
     1
 43
0.0
 10
384.6834232723483
 20
239.9446407191407
 10
384.0483379762397
 20
238.8446407191406
 10
384.6834232723483
 20
237.7446407191406
 10
385.9535938645655
 20
237.7446407191406
 10
386.5886791606741
 20
238.8446407191406
 10
385.9535938645655
 20
239.9446407191407
  0
LWPOLYLINE
  5
2B9BC
102
{ACAD_REACTORS
330
2BB11
102
}
330
18
100
AcDbEntity
  8
Modules
100
AcDbPolyline
 90
        8
 70
     1
 43
0.0
 10
355.5517312682264
 20
250.7556224345865
 10
374.831219317003
 20
250.7556224345866
 42
-0.4142135623730951
 10
375.8312193170029
 20
249.7556224345865
 10
375.8312193170029
 20
227.8229786283343
 42
-0.4142135623730951
 10
374.831219317003
 20
226.8229786283344
 10
355.5517312682264
 20
226.8229786283344
 42
-0.4142135623730951
 10
354.5517312682264
 20
227.8229786283343
 10
354.5517312682264
 20
249.7556224345865
 42
-0.4142135623730951
  0
LWPOLYLINE
  5
2B9BD
102
{ACAD_REACTORS
330
2BB11
102
}
330
18
100
AcDbEntity
  8
Modules
100
AcDbPolyline
 90
        4
 70
     1
 43
0.0
 10
357.2116669285699
 20
248.8562068830063
 10
373.2979469961017
 20
248.8562068830063
 10
373.2979469961017
 20
228.8490231199996
 10
357.2116669285699
 20
228.8490231199996
  0
LINE
  5
2B9BE
102
{ACAD_REACTORS
330
2BB11
102
}
330
18
100
AcDbEntity
  8
Modules
100
AcDbLine
 10
357.2116669285699
 20
238.8526150015029
 30
0.0
 11
373.2979469961017
 21
238.8526150015029
 31
0.0
  0
LWPOLYLINE
  5
2B9BF
102
{ACAD_REACTORS
330
2BB11
102
}
330
18
100
AcDbEntity
  8
Modules
100
AcDbPolyline
 90
        8
 70
     0
 43
0.0
 10
322.7685085684569
 20
245.8681717234861
 10
328.0705719894585
 20
250.9946407191405
 10
336.0685085684569
 20
250.9946407191405
 10
339.0987678979061
 20
250.9946407191405
 10
339.0987678979061
 20
226.5697229304815
 10
328.0705719894582
 20
226.5946407191407
 10
322.7685085684568
 20
231.7211097147951
 10
322.7685085684569
 20
245.8681717234861
  0
LWPOLYLINE
  5
2B9C1
102
{ACAD_REACTORS
330
2BB11
102
}
330
18
100
AcDbEntity
  8
Modules
100
AcDbPolyline
 90
        4
 70
     1
 43
0.0
 10
331.2685085684568
 20
245.6946407191406
 10
335.2685085684568
 20
245.6946407191406
 10
335.2685085684568
 20
247.8946407191405
 10
331.2685085684568
 20
247.8946407191405
  0
LWPOLYLINE
  5
2B9C2
102
{ACAD_REACTORS
330
2BB11
102
}
330
18
100
AcDbEntity
  8
Modules
100
AcDbPolyline
 90
        4
 70
     1
 43
0.0
 10
326.9685085684568
 20
237.6946407191405
 10
330.9685085684568
 20
237.6946407191405
 10
330.9685085684568
 20
239.8946407191405
 10
326.9685085684568
 20
239.8946407191405
  0
LWPOLYLINE
  5
2B9C3
102
{ACAD_REACTORS
330
2BB11
102
}
330
18
100
AcDbEntity
  8
Modules
100
AcDbPolyline
 90
        4
 70
     1
 43
0.0
 10
331.2685085684568
 20
229.6946407191406
 10
335.2685085684568
 20
229.6946407191406
 10
335.2685085684568
 20
231.8946407191405
 10
331.2685085684568
 20
231.8946407191405
  0
LINE
  5
2BB47
330
18
100
AcDbEntity
  8
TEXTFELD
100
AcDbLine
 10
589.0
 20
21.80000000000018
 30
0.0
 11
379.905891162972
 21
21.80000000000018
 31
0.0
  0
LINE
  5
2BB48
330
18
100
AcDbEntity
  8
TEXTFELD
100
AcDbLine
 10
469.000000000001
 20
13.40000000000054
 30
0.0
 11
389.0000000000001
 21
13.40000000000054
 31
0.0
  0
LINE
  5
2BB49
330
18
100
AcDbEntity
  8
TEXTFELD
100
AcDbLine
 10
589.0
 20
38.40000000000055
 30
0.0
 11
469.000000000001
 21
38.40000000000055
 31
0.0
  0
LINE
  5
2BB4A
330
18
100
AcDbEntity
  8
TEXTFELD
100
AcDbLine
 10
567.9617500899949
 20
5.0
 30
0.0
 11
567.9617500899958
 21
21.80000000000018
 31
0.0
  0
LINE
  5
2BB4B
330
18
100
AcDbEntity
  8
TEXTFELD
100
AcDbLine
 10
589.0
 20
13.40000000000054
 30
0.0
 11
567.9617500899949
 21
13.40000000000054
 31
0.0
  0
TEXT
  5
2BB4C
330
18
100
AcDbEntity
  8
TEXTFELD
100
AcDbText
 10
570.1557668242243
 20
15.59377413430138
 30
0.0
 40
3.0
  1
Page:
100
AcDbText
  0
TEXT
  5
2BB4D
330
18
100
AcDbEntity
  8
TEXTFELD
100
AcDbText
 10
570.1557668242243
 20
7.256695164528537
 30
0.0
 40
3.0
  1
1 / 1
100
AcDbText
  0
LINE
  5
2BB4E
330
18
100
AcDbEntity
  8
TEXTFELD
100
AcDbLine
 10
469.0000000000001
 20
5.000000000000909
 30
0.0
 11
469.0000000000001
 21
55.00000000000091
 31
0.0
  0
TEXT
  5
2BB4F
330
18
100
AcDbEntity
  8
TEXTFELD
100
AcDbText
 10
421.3100100949848
 20
15.59377413430138
 30
0.0
 40
3.0
  1
Date:
100
AcDbText
  0
LINE
  5
2BB50
330
18
100
AcDbEntity
  8
TEXTFELD
100
AcDbLine
 10
418.3971173822312
 20
21.80000000000018
 30
0.0
 11
418.3971173822303
 21
13.40000000000054
 31
0.0
  0
TEXT
  5
2BB51
330
18
100
AcDbEntity
  8
TEXTFELD
100
AcDbText
 10
380.5201699836723
 20
15.59377413430138
 30
0.0
 40
3.0
  1
Name:
100
AcDbText
  0
TEXT
  5
2BB52
330
18
100
AcDbEntity
  8
TEXTFELD
100
AcDbText
 10
380.5201699836723
 20
7.256695164528537
 30
0.0
 40
3.0
  1
File: 
100
AcDbText
  0
TEXT
  5
2BB53
330
18
100
AcDbEntity
  8
TEXTFELD
100
AcDbText
 10
471.9209941166032
 20
44.66562196635959
 30
0.0
 40
3.0
  1
Scale 1:1 (DIN A2)
100
AcDbText
  0
LINE
  5
2BB54
330
18
100
AcDbEntity
  8
TEXTFELD
100
AcDbLine
 10
567.9617500899951
 20
38.40000000000055
 30
0.0
 11
567.961750089996
 21
55.00000000000011
 31
0.0
  0
LINE
  5
2BB55
330
18
100
AcDbEntity
  8
TEXTFELD
100
AcDbLine
 10
589.0
 20
5.0
 30
0.0
 11
379.905891162972
 21
5.000000000000966
 31
0.0
  0
LINE
  5
2BB56
330
18
100
AcDbEntity
  8
TEXTFELD
100
AcDbLine
 10
379.905891162972
 20
5.000000000000909
 30
0.0
 11
379.905891162972
 21
55.00000000000091
 31
0.0
  0
LINE
  5
2BB57
330
18
100
AcDbEntity
  8
TEXTFELD
100
AcDbLine
 10
379.905891162972
 20
55.00000000000096
 30
0.0
 11
589.0
 21
55.0
 31
0.0
  0
LINE
  5
2BB58
330
18
100
AcDbEntity
  8
TEXTFELD
100
AcDbLine
 10
589.0
 20
55.0
 30
0.0
 11
589.0
 21
5.0
 31
0.0
  0
LINE
  5
2BB59
330
18
100
AcDbEntity
  8
TEXTFELD
100
AcDbLine
 10
469.0000000000001
 20
5.000000000000568
 30
0.0
 11
469.0000000000001
 21
55.00000000000056
 31
0.0
  0
TEXT
  5
2BB5A
330
18
100
AcDbEntity
  8
TEXTFELD
100
AcDbText
 10
396.7977009724123
 20
15.63053387341154
 30
0.0
 40
3.0
  1
Miethling
100
AcDbText
  0
TEXT
  5
2BB5B
330
18
100
AcDbEntity
  8
TEXTFELD
100
AcDbText
 10
381.8294790513039
 20
24.72697290493272
 30
0.0
 40
3.0
  1
Fax:
100
AcDbText
  0
TEXT
  5
2BB5C
330
18
100
AcDbEntity
  8
TEXTFELD
100
AcDbText
 10
381.8294790513039
 20
47.10386991868756
 30
0.0
 40
3.0
  1
DHD GmbH
100
AcDbText
  0
TEXT
  5
2BB5D
330
18
100
AcDbEntity
  8
TEXTFELD
100
AcDbText
 10
381.8294790513039
 20
41.75480612721446
 30
0.0
 40
3.0
  1
Haferkornstraße 5
100
AcDbText
  0
TEXT
  5
2BB5E
330
18
100
AcDbEntity
  8
TEXTFELD
100
AcDbText
 10
381.8294790513039
 20
36.29477517264729
 30
0.0
 40
3.0
  1
04129 Leipzig / Germany
100
AcDbText
  0
TEXT
  5
2BB5F
330
18
100
AcDbEntity
  8
TEXTFELD
100
AcDbText
 10
398.4805527305628
 20
24.53217067856315
 30
0.0
 40
3.0
  1
+ 49  341  5897022
100
AcDbText
  0
LINE
  5
2BB60
330
18
100
AcDbEntity
  8
TEXTFELD
100
AcDbLine
 10
469.000000000001
 20
13.4000000000002
 30
0.0
 11
379.9058911629721
 21
13.4000000000002
 31
0.0
  0
TEXT
  5
2BB61
330
18
100
AcDbEntity
  8
TEXTFELD
100
AcDbText
 10
381.8294790513039
 20
29.58568776218852
 30
0.0
 40
3.0
  1
Phone: + 49  341  5897020
100
AcDbText
  0
TEXT
  5
2BB62
330
18
100
AcDbEntity
  8
TEXTFELD
100
AcDbText
 10
391.0808922633569
 20
7.469098588154338
 30
0.0
 40
2.7
  1
52-5081_rearview.dwg
100
AcDbText
  0
TEXT
  5
2BB64
330
18
100
AcDbEntity
  8
TEXTFELD
100
AcDbText
 10
437.749650981688
 20
15.81476326692919
 30
0.0
 40
3.0
  1
05.03.2007
100
AcDbText
  0
LWPOLYLINE
  5
2BB72
102
{ACAD_REACTORS
330
2BB9F
102
}
330
18
100
AcDbEntity
  8
Modules
100
AcDbPolyline
 90
        8
 70
     1
 43
0.0
 10
106.6685085684564
 20
253.4446407191406
 10
165.4685085684564
 20
253.4446407191406
 42
-0.4142135623730951
 10
166.4685085684564
 20
252.4446407191406
 10
166.4685085684564
 20
225.2446407191406
 42
-0.4142135623730951
 10
165.4685085684564
 20
224.2446407191406
 10
106.6685085684564
 20
224.2446407191406
 42
-0.4142135623730951
 10
105.6685085684564
 20
225.2446407191406
 10
105.6685085684564
 20
252.4446407191406
 42
-0.4142135623730951
  0
CIRCLE
  5
2BB73
102
{ACAD_REACTORS
330
2BB9F
102
}
330
18
100
AcDbEntity
  8
Modules
100
AcDbCircle
 10
291.1135085684561
 20
246.4446251813047
 30
0.0
 40
1.3
  0
LWPOLYLINE
  5
2BB74
102
{ACAD_REACTORS
330
2BB9F
102
}
330
18
100
AcDbEntity
  8
Modules
100
AcDbPolyline
 90
        4
 70
     1
 43
0.0
 10
84.46850856845577
 20
271.8446410606525
 10
297.4685085684563
 20
271.8446410606525
 10
297.4685085684563
 20
143.4446407191407
 10
84.46850856845577
 20
143.4446407191407
  0
CIRCLE
  5
2BB75
102
{ACAD_REACTORS
330
2BB9F
330
2BBA0
102
}
330
18
100
AcDbEntity
  8
Modules
100
AcDbCircle
 10
91.96850856845641
 20
268.8446407191407
 30
0.0
 40
2.45
  0
LWPOLYLINE
  5
2BB76
102
{ACAD_REACTORS
330
2BB9F
330
2BBA0
102
}
330
18
100
AcDbEntity
  8
Modules
100
AcDbPolyline
 90
        6
 70
     1
 43
0.0
 10
91.33342327234784
 20
269.9446407191407
 10
90.69833797623926
 20
268.8446407191407
 10
91.33342327234784
 20
267.7446407191407
 10
92.60359386456503
 20
267.7446407191407
 10
93.2386791606736
 20
268.8446407191407
 10
92.60359386456503
 20
269.9446407191407
  0
CIRCLE
  5
2BB77
102
{ACAD_REACTORS
330
2BB9F
330
2BBA1
102
}
330
18
100
AcDbEntity
  8
Modules
100
AcDbCircle
 10
91.96850856845641
 20
257.1446407191407
 30
0.0
 40
2.45
  0
LWPOLYLINE
  5
2BB78
102
{ACAD_REACTORS
330
2BB9F
330
2BBA1
102
}
330
18
100
AcDbEntity
  8
Modules
100
AcDbPolyline
 90
        6
 70
     1
 43
0.0
 10
91.33342327234784
 20
258.2446407191407
 10
90.69833797623926
 20
257.1446407191407
 10
91.33342327234784
 20
256.0446407191407
 10
92.60359386456503
 20
256.0446407191407
 10
93.2386791606736
 20
257.1446407191407
 10
92.60359386456503
 20
258.2446407191407
  0
CIRCLE
  5
2BB79
102
{ACAD_REACTORS
330
2BB9F
330
2BBA2
102
}
330
18
100
AcDbEntity
  8
Modules
100
AcDbCircle
 10
91.96850856845628
 20
158.1446407191407
 30
0.0
 40
2.45
  0
LWPOLYLINE
  5
2BB7A
102
{ACAD_REACTORS
330
2BB9F
330
2BBA2
102
}
330
18
100
AcDbEntity
  8
Modules
100
AcDbPolyline
 90
        6
 70
     1
 43
0.0
 10
91.33342327234771
 20
159.2446407191407
 10
90.69833797623914
 20
158.1446407191407
 10
91.33342327234771
 20
157.0446407191406
 10
92.60359386456491
 20
157.0446407191406
 10
93.23867916067348
 20
158.1446407191407
 10
92.60359386456491
 20
159.2446407191407
  0
CIRCLE
  5
2BB7B
102
{ACAD_REACTORS
330
2BB9F
330
2BBA3
102
}
330
18
100
AcDbEntity
  8
Modules
100
AcDbCircle
 10
91.96850856845628
 20
146.4446407191407
 30
0.0
 40
2.45
  0
LWPOLYLINE
  5
2BB7C
102
{ACAD_REACTORS
330
2BB9F
330
2BBA3
102
}
330
18
100
AcDbEntity
  8
Modules
100
AcDbPolyline
 90
        6
 70
     1
 43
0.0
 10
91.33342327234771
 20
147.5446407191407
 10
90.69833797623914
 20
146.4446407191407
 10
91.33342327234771
 20
145.3446407191407
 10
92.60359386456491
 20
145.3446407191407
 10
93.23867916067348
 20
146.4446407191407
 10
92.60359386456491
 20
147.5446407191407
  0
CIRCLE
  5
2BB7D
102
{ACAD_REACTORS
330
2BB9F
330
2BBA4
102
}
330
18
100
AcDbEntity
  8
Modules
100
AcDbCircle
 10
188.4885085684563
 20
146.4446407191407
 30
0.0
 40
2.45
  0
LWPOLYLINE
  5
2BB7E
102
{ACAD_REACTORS
330
2BB9F
330
2BBA4
102
}
330
18
100
AcDbEntity
  8
Modules
100
AcDbPolyline
 90
        6
 70
     1
 43
0.0
 10
187.8534232723477
 20
147.5446407191407
 10
187.2183379762392
 20
146.4446407191407
 10
187.8534232723477
 20
145.3446407191407
 10
189.1235938645649
 20
145.3446407191407
 10
189.7586791606735
 20
146.4446407191407
 10
189.1235938645649
 20
147.5446407191407
  0
CIRCLE
  5
2BB7F
102
{ACAD_REACTORS
330
2BB9F
330
2BBA5
102
}
330
18
100
AcDbEntity
  8
Modules
100
AcDbCircle
 10
188.4885085684564
 20
268.8446407191407
 30
0.0
 40
2.45
  0
LWPOLYLINE
  5
2BB80
102
{ACAD_REACTORS
330
2BB9F
330
2BBA5
102
}
330
18
100
AcDbEntity
  8
Modules
100
AcDbPolyline
 90
        6
 70
     1
 43
0.0
 10
187.8534232723478
 20
269.9446407191407
 10
187.2183379762393
 20
268.8446407191407
 10
187.8534232723478
 20
267.7446407191407
 10
189.123593864565
 20
267.7446407191407
 10
189.7586791606736
 20
268.8446407191407
 10
189.123593864565
 20
269.9446407191407
  0
CIRCLE
  5
2BB81
102
{ACAD_REACTORS
330
2BB9F
330
2BBA6
102
}
330
18
100
AcDbEntity
  8
Modules
100
AcDbCircle
 10
290.0885085684561
 20
268.8446407191407
 30
0.0
 40
2.45
  0
LWPOLYLINE
  5
2BB82
102
{ACAD_REACTORS
330
2BB9F
330
2BBA6
102
}
330
18
100
AcDbEntity
  8
Modules
100
AcDbPolyline
 90
        6
 70
     1
 43
0.0
 10
289.4534232723476
 20
269.9446407191407
 10
288.818337976239
 20
268.8446407191407
 10
289.4534232723476
 20
267.7446407191407
 10
290.7235938645647
 20
267.7446407191407
 10
291.3586791606733
 20
268.8446407191407
 10
290.7235938645647
 20
269.9446407191407
  0
CIRCLE
  5
2BB83
102
{ACAD_REACTORS
330
2BB9F
330
2BBA7
102
}
330
18
100
AcDbEntity
  8
Modules
100
AcDbCircle
 10
290.0885085684561
 20
257.1446407191407
 30
0.0
 40
2.45
  0
LWPOLYLINE
  5
2BB84
102
{ACAD_REACTORS
330
2BB9F
330
2BBA7
102
}
330
18
100
AcDbEntity
  8
Modules
100
AcDbPolyline
 90
        6
 70
     1
 43
0.0
 10
289.4534232723476
 20
258.2446407191407
 10
288.818337976239
 20
257.1446407191407
 10
289.4534232723476
 20
256.0446407191407
 10
290.7235938645647
 20
256.0446407191407
 10
291.3586791606733
 20
257.1446407191407
 10
290.7235938645647
 20
258.2446407191407
  0
CIRCLE
  5
2BB85
102
{ACAD_REACTORS
330
2BB9F
330
2BBA8
102
}
330
18
100
AcDbEntity
  8
Modules
100
AcDbCircle
 10
290.0885085684562
 20
158.1446407191407
 30
0.0
 40
2.45
  0
LWPOLYLINE
  5
2BB86
102
{ACAD_REACTORS
330
2BB9F
330
2BBA8
102
}
330
18
100
AcDbEntity
  8
Modules
100
AcDbPolyline
 90
        6
 70
     1
 43
0.0
 10
289.4534232723477
 20
159.2446407191407
 10
288.8183379762391
 20
158.1446407191407
 10
289.4534232723477
 20
157.0446407191406
 10
290.7235938645649
 20
157.0446407191406
 10
291.3586791606734
 20
158.1446407191407
 10
290.7235938645649
 20
159.2446407191407
  0
CIRCLE
  5
2BB87
102
{ACAD_REACTORS
330
2BB9F
330
2BBA9
102
}
330
18
100
AcDbEntity
  8
Modules
100
AcDbCircle
 10
290.0885085684562
 20
146.4446407191407
 30
0.0
 40
2.45
  0
LWPOLYLINE
  5
2BB88
102
{ACAD_REACTORS
330
2BB9F
330
2BBA9
102
}
330
18
100
AcDbEntity
  8
Modules
100
AcDbPolyline
 90
        6
 70
     1
 43
0.0
 10
289.4534232723477
 20
147.5446407191407
 10
288.8183379762391
 20
146.4446407191407
 10
289.4534232723477
 20
145.3446407191407
 10
290.7235938645649
 20
145.3446407191407
 10
291.3586791606734
 20
146.4446407191407
 10
290.7235938645649
 20
147.5446407191407
  0
CIRCLE
  5
2BB89
102
{ACAD_REACTORS
330
2BB9F
330
2BBAA
102
}
330
18
100
AcDbEntity
  8
Modules
100
AcDbCircle
 10
106.9685085684563
 20
258.7446407191405
 30
0.0
 40
2.75
  0
LWPOLYLINE
  5
2BB8A
102
{ACAD_REACTORS
330
2BB9F
330
2BBAA
102
}
330
18
100
AcDbEntity
  8
Modules
100
AcDbPolyline
 90
        6
 70
     1
 43
0.0
 10
106.3334232723478
 20
259.8446407191405
 10
105.6983379762391
 20
258.7446407191405
 10
106.3334232723478
 20
257.6446407191405
 10
107.6035938645649
 20
257.6446407191405
 10
108.2386791606735
 20
258.7446407191405
 10
107.6035938645649
 20
259.8446407191405
  0
CIRCLE
  5
2BB8B
102
{ACAD_REACTORS
330
2BB9F
330
2BBAB
102
}
330
18
100
AcDbEntity
  8
Modules
100
AcDbCircle
 10
190.9685085684563
 20
258.7446407191405
 30
0.0
 40
2.75
  0
LWPOLYLINE
  5
2BB8C
102
{ACAD_REACTORS
330
2BB9F
330
2BBAB
102
}
330
18
100
AcDbEntity
  8
Modules
100
AcDbPolyline
 90
        6
 70
     1
 43
0.0
 10
190.3334232723477
 20
259.8446407191405
 10
189.6983379762392
 20
258.7446407191405
 10
190.3334232723477
 20
257.6446407191405
 10
191.603593864565
 20
257.6446407191405
 10
192.2386791606735
 20
258.7446407191405
 10
191.603593864565
 20
259.8446407191405
  0
CIRCLE
  5
2BB8D
102
{ACAD_REACTORS
330
2BB9F
330
2BBAC
102
}
330
18
100
AcDbEntity
  8
Modules
100
AcDbCircle
 10
274.9685085684563
 20
258.7446407191405
 30
0.0
 40
2.75
  0
LWPOLYLINE
  5
2BB8E
102
{ACAD_REACTORS
330
2BB9F
330
2BBAC
102
}
330
18
100
AcDbEntity
  8
Modules
100
AcDbPolyline
 90
        6
 70
     1
 43
0.0
 10
274.3334232723478
 20
259.8446407191405
 10
273.6983379762392
 20
258.7446407191405
 10
274.3334232723478
 20
257.6446407191405
 10
275.603593864565
 20
257.6446407191405
 10
276.2386791606735
 20
258.7446407191405
 10
275.603593864565
 20
259.8446407191405
  0
CIRCLE
  5
2BB8F
102
{ACAD_REACTORS
330
2BB9F
330
2BBAD
102
}
330
18
100
AcDbEntity
  8
Modules
100
AcDbCircle
 10
96.96850856845628
 20
187.0446251813043
 30
0.0
 40
2.75
  0
LWPOLYLINE
  5
2BB90
102
{ACAD_REACTORS
330
2BB9F
330
2BBAD
102
}
330
18
100
AcDbEntity
  8
Modules
100
AcDbPolyline
 90
        6
 70
     1
 43
0.0
 10
96.33342327234766
 20
188.1446251813043
 10
95.69833797623914
 20
187.0446251813043
 10
96.33342327234766
 20
185.9446251813043
 10
97.60359386456485
 20
185.9446251813043
 10
98.23867916067342
 20
187.0446251813043
 10
97.60359386456485
 20
188.1446251813043
  0
CIRCLE
  5
2BB91
102
{ACAD_REACTORS
330
2BB9F
330
2BBAE
102
}
330
18
100
AcDbEntity
  8
Modules
100
AcDbCircle
 10
284.9685085684563
 20
187.0446251813043
 30
0.0
 40
2.75
  0
LWPOLYLINE
  5
2BB92
102
{ACAD_REACTORS
330
2BB9F
330
2BBAE
102
}
330
18
100
AcDbEntity
  8
Modules
100
AcDbPolyline
 90
        6
 70
     1
 43
0.0
 10
284.3334232723477
 20
188.1446251813043
 10
283.6983379762391
 20
187.0446251813043
 10
284.3334232723477
 20
185.9446251813043
 10
285.6035938645649
 20
185.9446251813043
 10
286.2386791606735
 20
187.0446251813043
 10
285.6035938645649
 20
188.1446251813043
  0
LWPOLYLINE
  5
2BB93
102
{ACAD_REACTORS
330
2BB9F
102
}
330
18
100
AcDbEntity
  8
Modules
100
AcDbPolyline
 90
       13
 70
     0
 43
0.0
 10
103.1564227799457
 20
224.189497283863
 10
95.40642277994583
 20
237.539497283863
 10
95.40642277994583
 20
240.0497841544183
 10
103.1564227799457
 20
253.3997841544182
 10
105.3185085684564
 20
254.6446407191406
 10
166.8185085684564
 20
254.6446407191406
 10
168.980594356967
 20
253.3997841544183
 10
176.730594356967
 20
240.0497841544183
 10
176.7305943569669
 20
237.539497283863
 10
168.980594356967
 20
224.189497283863
 10
166.8185085684564
 20
222.9446407191407
 10
105.3185085684564
 20
222.9446407191406
 10
103.1564227799457
 20
224.189497283863
  0
CIRCLE
  5
2BB94
102
{ACAD_REACTORS
330
2BB9F
330
2BBAF
102
}
330
18
100
AcDbEntity
  8
Modules
100
AcDbCircle
 10
100.0685085684564
 20
238.8446407191406
 30
0.0
 40
2.75
  0
LWPOLYLINE
  5
2BB95
102
{ACAD_REACTORS
330
2BB9F
330
2BBAF
102
}
330
18
100
AcDbEntity
  8
Modules
100
AcDbPolyline
 90
        6
 70
     1
 43
0.0
 10
99.4334232723478
 20
239.9446407191407
 10
98.79833797623929
 20
238.8446407191406
 10
99.4334232723478
 20
237.7446407191406
 10
100.703593864565
 20
237.7446407191406
 10
101.3386791606735
 20
238.8446407191406
 10
100.703593864565
 20
239.9446407191407
  0
CIRCLE
  5
2BB96
102
{ACAD_REACTORS
330
2BB9F
330
2BBB0
102
}
330
18
100
AcDbEntity
  8
Modules
100
AcDbCircle
 10
172.0685085684563
 20
238.8446407191406
 30
0.0
 40
2.75
  0
LWPOLYLINE
  5
2BB97
102
{ACAD_REACTORS
330
2BB9F
330
2BBB0
102
}
330
18
100
AcDbEntity
  8
Modules
100
AcDbPolyline
 90
        6
 70
     1
 43
0.0
 10
171.4334232723478
 20
239.9446407191407
 10
170.7983379762392
 20
238.8446407191406
 10
171.4334232723478
 20
237.7446407191406
 10
172.703593864565
 20
237.7446407191406
 10
173.3386791606735
 20
238.8446407191406
 10
172.703593864565
 20
239.9446407191407
  0
LWPOLYLINE
  5
2BB98
102
{ACAD_REACTORS
330
2BB9F
102
}
330
18
100
AcDbEntity
  8
Modules
100
AcDbPolyline
 90
        8
 70
     1
 43
0.0
 10
142.3017312682258
 20
250.7556224345865
 10
161.5812193170024
 20
250.7556224345866
 42
-0.4142135623730951
 10
162.5812193170024
 20
249.7556224345865
 10
162.5812193170024
 20
227.8229786283343
 42
-0.4142135623730951
 10
161.5812193170024
 20
226.8229786283344
 10
142.3017312682258
 20
226.8229786283344
 42
-0.4142135623730951
 10
141.3017312682258
 20
227.8229786283343
 10
141.3017312682258
 20
249.7556224345865
 42
-0.4142135623730951
  0
LWPOLYLINE
  5
2BB99
102
{ACAD_REACTORS
330
2BB9F
102
}
330
18
100
AcDbEntity
  8
Modules
100
AcDbPolyline
 90
        4
 70
     1
 43
0.0
 10
143.9616669285694
 20
248.8562068830063
 10
160.0479469961012
 20
248.8562068830063
 10
160.0479469961012
 20
228.8490231199996
 10
143.9616669285694
 20
228.8490231199996
  0
LINE
  5
2BB9A
102
{ACAD_REACTORS
330
2BB9F
102
}
330
18
100
AcDbEntity
  8
Modules
100
AcDbLine
 10
143.9616669285694
 20
238.8526150015029
 30
0.0
 11
160.0479469961012
 21
238.8526150015029
 31
0.0
  0
LWPOLYLINE
  5
2BB9B
102
{ACAD_REACTORS
330
2BB9F
102
}
330
18
100
AcDbEntity
  8
Modules
100
AcDbPolyline
 90
        8
 70
     0
 43
0.0
 10
109.5185085684564
 20
245.8681717234861
 10
114.8205719894579
 20
250.9946407191405
 10
122.8185085684563
 20
250.9946407191405
 10
125.8487678979056
 20
250.9946407191405
 10
125.8487678979056
 20
226.5697229304815
 10
114.8205719894576
 20
226.5946407191407
 10
109.5185085684562
 20
231.7211097147951
 10
109.5185085684563
 20
245.8681717234861
  0
LWPOLYLINE
  5
2BB9C
102
{ACAD_REACTORS
330
2BB9F
102
}
330
18
100
AcDbEntity
  8
Modules
100
AcDbPolyline
 90
        4
 70
     1
 43
0.0
 10
118.0185085684563
 20
245.6946407191406
 10
122.0185085684563
 20
245.6946407191406
 10
122.0185085684563
 20
247.8946407191405
 10
118.0185085684563
 20
247.8946407191405
  0
LWPOLYLINE
  5
2BB9D
102
{ACAD_REACTORS
330
2BB9F
102
}
330
18
100
AcDbEntity
  8
Modules
100
AcDbPolyline
 90
        4
 70
     1
 43
0.0
 10
113.7185085684563
 20
237.6946407191405
 10
117.7185085684563
 20
237.6946407191405
 10
117.7185085684563
 20
239.8946407191405
 10
113.7185085684563
 20
239.8946407191405
  0
LWPOLYLINE
  5
2BB9E
102
{ACAD_REACTORS
330
2BB9F
102
}
330
18
100
AcDbEntity
  8
Modules
100
AcDbPolyline
 90
        4
 70
     1
 43
0.0
 10
118.0185085684563
 20
229.6946407191406
 10
122.0185085684563
 20
229.6946407191406
 10
122.0185085684563
 20
231.8946407191405
 10
118.0185085684563
 20
231.8946407191405
  0
LINE
  5
2BBB1
330
18
100
AcDbEntity
  8
Frame
100
AcDbLine
 10
77.67850856845661
 20
141.1446408898965
 30
0.0
 11
517.6785085684566
 21
141.1446408898965
 31
0.0
  0
LINE
  5
2BBB2
330
18
100
AcDbEntity
  8
Frame
100
AcDbLine
 10
517.6785085684566
 20
141.1446408898965
 30
0.0
 11
517.6785085684566
 21
273.6446408898966
 31
0.0
  0
LINE
  5
2BBB3
330
18
100
AcDbEntity
  8
Frame
100
AcDbLine
 10
517.6785085684566
 20
273.6446408898966
 30
0.0
 11
77.67850856845661
 21
273.6446408898966
 31
0.0
  0
LINE
  5
2BBB4
330
18
100
AcDbEntity
  8
Frame
100
AcDbLine
 10
77.67850856845661
 20
273.6446408898966
 30
0.0
 11
77.67850856845661
 21
141.1446408898965
 31
0.0
  0
LINE
  5
2BBB5
330
18
100
AcDbEntity
  8
Frame
100
AcDbLine
 10
84.1785085684566
 20
273.6446408898966
 30
0.0
 11
84.1785085684566
 21
141.1446408898965
 31
0.0
  0
LINE
  5
2BBB6
330
18
100
AcDbEntity
  8
Frame
100
AcDbLine
 10
511.1785085684566
 20
141.1446408898965
 30
0.0
 11
511.1785085684566
 21
273.6446408898966
 31
0.0
  0
LINE
  5
2BBB7
330
18
100
AcDbEntity
  8
Frame
100
AcDbLine
 10
511.1785085684566
 20
272.1446408898966
 30
0.0
 11
84.1785085684566
 21
272.1446408898966
 31
0.0
  0
LINE
  5
2BBB8
330
18
100
AcDbEntity
  8
Frame
100
AcDbLine
 10
84.1785085684566
 20
142.6446408898965
 30
0.0
 11
511.1785085684566
 21
142.6446408898965
 31
0.0
  0
TEXT
  5
2BBC3
330
18
100
AcDbEntity
  8
TEXTFELD
100
AcDbText
 10
502.6733271819133
 20
9.776355674067076
 30
0.0
 40
5.259814435336018
  1
52-5081
100
AcDbText
  0
TEXT
  5
2BBC4
330
18
100
AcDbEntity
  8
TEXTFELD
100
AcDbText
 10
474.8027560337943
 20
31.34967473838958
 30
0.0
 40
4.599999999999999
  1
MX Power Supply Frame 3U
100
AcDbText
  0
TEXT
  5
2BBCC
330
18
100
AcDbEntity
  8
TEXTFELD
100
AcDbText
 10
502.7319670675844
 20
23.54029578726898
 30
0.0
 40
4.599999999999999
  1
Rearview
100
AcDbText
  0
ENDSEC
  0
SECTION
  2
OBJECTS
  0
DICTIONARY
  5
C
330
0
100
AcDbDictionary
281
     1
  3
ACAD_COLOR
350
2A328
  3
ACAD_GROUP
350
D
  3
ACAD_LAYOUT
350
1B1E4
  3
ACAD_MATERIAL
350
2A327
  3
ACAD_MLINESTYLE
350
1B
  3
ACAD_PLOTSETTINGS
350
1B1E5
  3
ACAD_PLOTSTYLENAME
350
1B1E2
  3
ACAD_TABLESTYLE
350
2A329
  3
ACDBHEADERROUNDTRIPXREC
350
2BBD4
  3
ACDBVARIABLEDICTIONARY
350
9820
  0
DICTIONARY
  5
2AE1D
330
2
100
AcDbDictionary
280
     1
281
     1
  3
ACAD_LAYERFILTERS
360
2AE1F
  3
ACAD_LAYERSTATES
360
2BB21
  3
ACLYDICTIONARY
360
2AE1E
  0
DICTIONARY
  5
9822
330
18
100
AcDbDictionary
280
     1
281
     1
  3
ACAD_LAYOUTSELFREF
360
28585
  3
ACAD_SORTENTS
360
9823
  0
DICTIONARY
  5
2663A
330
15
100
AcDbDictionary
280
     1
281
     1
  3
ACAD_LAYOUTSELFREF
360
28584
  0
DICTIONARY
  5
2A328
102
{ACAD_REACTORS
330
C
102
}
330
C
100
AcDbDictionary
281
     1
  0
DICTIONARY
  5
D
102
{ACAD_REACTORS
330
C
102
}
330
C
100
AcDbDictionary
281
     1
  3
*A1
350
981F
  3
*A10
350
2B995
  3
*A100
350
2B4D2
  3
*A101
350
A49A
  3
*A102
350
2A316
  3
*A103
350
2A317
  3
*A104
350
1BD8B
  3
*A105
350
1FC8F
  3
*A106
350
2601A
  3
*A107
350
2B2EE
  3
*A108
350
2B3FD
  3
*A109
350
21E84
  3
*A11
350
2B998
  3
*A110
350
1BD84
  3
*A111
350
29A0D
  3
*A112
350
1BD8C
  3
*A113
350
2B1E7
  3
*A114
350
2B1F3
  3
*A115
350
2B1FF
  3
*A116
350
A49B
  3
*A117
350
2B20B
  3
*A118
350
2B61E
  3
*A119
350
2B219
  3
*A12
350
2B99B
  3
*A120
350
2B21A
  3
*A121
350
2B321
  3
*A122
350
1BD86
  3
*A123
350
2B22F
  3
*A124
350
1BD85
  3
*A125
350
2B3FE
  3
*A126
350
2B230
  3
*A127
350
2B264
  3
*A128
350
2B265
  3
*A129
350
2B266
  3
*A13
350
29A11
  3
*A130
350
2B61F
  3
*A131
350
2B267
  3
*A132
350
194F7
  3
*A133
350
29A0E
  3
*A134
350
2B27C
  3
*A135
350
2B27D
  3
*A136
350
2B322
  3
*A137
350
1BD82
  3
*A138
350
2B27E
  3
*A139
350
2B27F
  3
*A14
350
2B99E
  3
*A140
350
2B323
  3
*A141
350
2B324
  3
*A142
350
2B6E5
  3
*A143
350
2B3FF
  3
*A144
350
2B3C9
  3
*A145
350
2B325
  3
*A146
350
194F5
  3
*A147
350
2B358
  3
*A148
350
2B359
  3
*A149
350
2B401
  3
*A15
350
2B9A1
  3
*A150
350
2B3C7
  3
*A151
350
2B35A
  3
*A152
350
2B35B
  3
*A153
350
2B35C
  3
*A154
350
2B461
  3
*A155
350
29A0F
  3
*A156
350
2B38F
  3
*A157
350
2B390
  3
*A158
350
2B280
  3
*A159
350
2B391
  3
*A16
350
9D4A
  3
*A160
350
2B392
  3
*A161
350
2B393
  3
*A162
350
2B5F8
  3
*A163
350
2BB11
  3
*A164
350
2B6E8
  3
*A165
350
2B6EB
  3
*A166
350
2B400
  3
*A167
350
9D2A
  3
*A168
350
2B6EE
  3
*A169
350
2B2B4
  3
*A17
350
2B9A5
  3
*A170
350
2B6F5
  3
*A171
350
2B6F8
  3
*A172
350
1BD83
  3
*A173
350
2B6FB
  3
*A174
350
2B6FE
  3
*A175
350
2B986
  3
*A176
350
2B989
  3
*A177
350
2BB9F
  3
*A178
350
2BBA0
  3
*A179
350
2BBA1
  3
*A18
350
2B9A8
  3
*A180
350
2BBA2
  3
*A181
350
2BBA3
  3
*A182
350
2BBA4
  3
*A183
350
2BBA5
  3
*A184
350
2BBA6
  3
*A185
350
2BBA7
  3
*A186
350
2BBA8
  3
*A187
350
2BBA9
  3
*A188
350
2BBAA
  3
*A189
350
2BBAB
  3
*A19
350
2B463
  3
*A190
350
2BBAC
  3
*A191
350
2BBAD
  3
*A192
350
2BBAE
  3
*A193
350
2BBAF
  3
*A194
350
2BBB0
  3
*A2
350
29A10
  3
*A20
350
2B9AB
  3
*A21
350
2B2B6
  3
*A22
350
2601B
  3
*A23
350
2B9AE
  3
*A24
350
29A12
  3
*A25
350
2B9B1
  3
*A26
350
2B9B4
  3
*A27
350
2B9B8
  3
*A28
350
2B5FE
  3
*A29
350
2B9BB
  3
*A3
350
2B462
  3
*A30
350
2B9E6
  3
*A31
350
2B9E9
  3
*A32
350
2B9EC
  3
*A33
350
2B464
  3
*A34
350
1BD87
  3
*A35
350
2B61C
  3
*A36
350
2B2B7
  3
*A37
350
2B9EF
  3
*A38
350
2B9F1
  3
*A39
350
2B601
  3
*A4
350
2B5FB
  3
*A40
350
2B465
  3
*A41
350
2B466
  3
*A42
350
A22D
  3
*A43
350
2B467
  3
*A44
350
2B468
  3
*A45
350
2B469
  3
*A46
350
1FC80
  3
*A47
350
2B46A
  3
*A48
350
1BD88
  3
*A49
350
194F6
  3
*A5
350
2B98C
  3
*A50
350
194F8
  3
*A51
350
2B604
  3
*A52
350
2B49A
  3
*A53
350
2B49B
  3
*A54
350
2B49C
  3
*A55
350
2B49D
  3
*A56
350
2B49E
  3
*A57
350
9FC0
  3
*A58
350
2B3C6
  3
*A59
350
2B4CE
  3
*A6
350
2B98F
  3
*A60
350
2B4CF
  3
*A61
350
1BD89
  3
*A62
350
2B4D0
  3
*A63
350
2B606
  3
*A64
350
2B4D1
  3
*A65
350
2BA25
  3
*A66
350
2BAFE
  3
*A67
350
2BAFF
  3
*A68
350
29A13
  3
*A69
350
2BB00
  3
*A7
350
2B2B5
  3
*A70
350
2BB01
  3
*A71
350
2BB04
  3
*A72
350
265C2
  3
*A73
350
29A05
  3
*A74
350
2B2EA
  3
*A75
350
2B2B3
  3
*A76
350
29A06
  3
*A77
350
2B3C8
  3
*A78
350
29A07
  3
*A79
350
2A30E
  3
*A8
350
2B992
  3
*A80
350
29A08
  3
*A81
350
2B2EC
  3
*A82
350
29A09
  3
*A83
350
A22E
  3
*A84
350
29A0A
  3
*A85
350
29A0B
  3
*A86
350
29A0C
  3
*A87
350
2A30F
  3
*A88
350
2A310
  3
*A89
350
2B61B
  3
*A9
350
2B2EB
  3
*A90
350
2A311
  3
*A91
350
2B3CA
  3
*A92
350
2B2ED
  3
*A93
350
1BD8A
  3
*A94
350
2B61D
  3
*A95
350
2A312
  3
*A96
350
2A313
  3
*A97
350
9FC1
  3
*A98
350
2A314
  3
*A99
350
2A315
  0
DICTIONARY
  5
1B1E4
102
{ACAD_REACTORS
330
C
102
}
330
C
100
AcDbDictionary
281
     1
  3
Layout1
350
1B1E7
  3
Model
350
1B1E6
  0
DICTIONARY
  5
2A327
102
{ACAD_REACTORS
330
C
102
}
330
C
100
AcDbDictionary
281
     1
  0
DICTIONARY
  5
1B
102
{ACAD_REACTORS
330
C
102
}
330
C
100
AcDbDictionary
281
     1
  3
STANDARD
350
1C
  0
DICTIONARY
  5
1B1E5
102
{ACAD_REACTORS
330
C
102
}
330
C
100
AcDbDictionary
281
     1
  0
ACDBDICTIONARYWDFLT
  5
1B1E2
102
{ACAD_REACTORS
330
C
102
}
330
C
100
AcDbDictionary
281
     1
  3
Normal
350
1B1E3
100
AcDbDictionaryWithDefault
340
1B1E3
1001
ACAD
1000
TREAT_AS_HARD
1070
     0
  0
DICTIONARY
  5
2A329
102
{ACAD_REACTORS
330
C
102
}
330
C
100
AcDbDictionary
281
     1
  3
Standard
350
2A32A
  0
DICTIONARY
  5
2BBD4
102
{ACAD_REACTORS
330
C
102
}
330
C
100
AcDbDictionary
281
     1
  0
DICTIONARY
  5
9820
102
{ACAD_REACTORS
330
C
102
}
330
C
100
AcDbDictionary
281
     1
  3
CTABLESTYLE
350
2A332
  3
DIMASSOC
350
1FD3B
  3
PROJECTNAME
350
2BA08
  3
SORTENTS
350
9821
  0
DICTIONARY
  5
2AE1F
102
{ACAD_REACTORS
330
2AE1D
102
}
330
2AE1D
100
AcDbDictionary
281
     1
  0
DICTIONARY
  5
2BB21
102
{ACAD_REACTORS
330
2AE1D
102
}
330
2AE1D
100
AcDbDictionary
281
     1
  0
DICTIONARY
  5
2AE1E
102
{ACAD_REACTORS
330
2AE1D
102
}
330
2AE1D
100
AcDbDictionary
281
     1
1001
ACAD
1000
<AllUsed
  0
XRECORD
  5
28585
102
{ACAD_REACTORS
330
9822
102
}
330
9822
100
AcDbXrecord
280
     1
340
18
  0
SORTENTSTABLE
  5
9823
102
{ACAD_REACTORS
330
9822
102
}
330
9822
100
AcDbSortentsTable
330
18
331
2BB98
  5
2BBB2
331
2BB78
  5
2BB80
331
2BB60
  5
2BB74
331
2B9A0
  5
2B9B0
331
2BB99
  5
2BBB3
331
2BB79
  5
2BB81
331
2BB61
  5
2BB75
331
2B9C1
  5
2BB4C
331
2BBB8
  5
280B3
331
2BB9A
  5
2BBB4
331
2BB7A
  5
2BB82
331
2BB62
  5
2BB76
331
2B9C2
  5
2BB4D
331
2B832
  5
2B98B
331
2BB9B
  5
2BBB5
331
2BB7B
  5
2BB83
331
2B9C3
  5
2BB4E
331
2BB9C
  5
2BBB6
331
2BB7C
  5
2BB84
331
2BB64
  5
2BB78
331
2B984
  5
2B990
331
2BB9D
  5
2BBB7
331
2BB7D
  5
2BB85
331
2B985
  5
2B991
331
2BB9E
  5
2BBB8
331
2BB7E
  5
2BB86
331
2B9A6
  5
2B9B2
331
2BB7F
  5
2BB87
331
2BB47
  5
2BB4F
331
2B9A7
  5
2B9B3
331
2BB80
  5
2BB88
331
2BB48
  5
2BB50
331
2B988
  5
2B994
331
2BB81
  5
2BB89
331
2BB49
  5
2BB51
331
2BB82
  5
2BB8A
331
2BB4A
  5
2BB52
331
2B9AA
  5
2B9B6
331
2BB83
  5
2BB8B
331
2BB4B
  5
2BB53
331
2B98B
  5
2B997
331
2B98A
  5
2B996
331
2B9A9
  5
2B9B5
331
2B987
  5
2B993
331
2BB84
  5
2BB8C
331
2BB4C
  5
2BB54
331
2B9AC
  5
2B9B7
331
266D4
  5
266D4
331
2BB85
  5
2BB8D
331
2BB4D
  5
2BB55
331
2B9AD
  5
2B9B9
331
2B98D
  5
2B999
331
2BB86
  5
2BB8E
331
2BB4E
  5
2BB56
331
2B98E
  5
2B99A
331
2B85E
  5
2B98D
331
266D6
  5
266D6
331
2BB87
  5
2BB8F
331
2BB4F
  5
2BB57
331
2B9AF
  5
2B9BA
331
2BB88
  5
2BB90
331
2BB50
  5
2BB58
331
2B9B0
  5
2B9BC
331
2B990
  5
2B99C
331
2BB89
  5
2BB91
331
2BB51
  5
2BB59
331
2B991
  5
2B99D
331
266D9
  5
266D9
331
2BB8A
  5
2BB92
331
2BB72
  5
2BB7A
331
2BB52
  5
2BB5A
331
2B9B2
  5
2B9BD
331
266DA
  5
266DA
331
2BB8B
  5
2BB93
331
2BB73
  5
2BB7B
331
2BB53
  5
2BB5B
331
2B9B3
  5
2B9BE
331
2B993
  5
2B99F
331
2BB8C
  5
2BB94
331
2BB74
  5
2BB7C
331
2BB54
  5
2BB5C
331
2B994
  5
2B9A0
331
2B97C
  5
2B98E
331
2BB8D
  5
2BB95
331
2BB75
  5
2BB7D
331
2BB55
  5
2BB5D
331
2B9B5
  5
2B9BF
331
2BB8E
  5
2BB96
331
2BB76
  5
2BB7E
331
2BB56
  5
2BB5E
331
2B9B6
  5
2B9C1
331
2B996
  5
2B9A6
331
29C9E
  5
2B988
331
2BB8F
  5
2BB97
331
2BB77
  5
2BB7F
331
2BB57
  5
2BB5F
331
2B9B7
  5
2B9C2
331
2B997
  5
2B9A7
331
29C9F
  5
2B98A
331
2BB90
  5
2BB98
331
2BB58
  5
2BB60
331
2BB91
  5
2BB99
331
2BB59
  5
2BB61
331
2B9B9
  5
2B9C3
331
2B999
  5
2B9A9
331
2BB92
  5
2BB9A
331
2BB5A
  5
2BB62
331
2B9BA
  5
2BB47
331
2B99A
  5
2B9AA
331
280B2
  5
2B985
331
2BB93
  5
2BB9B
331
2BB5B
  5
2BB63
331
280B3
  5
2B987
331
2BBB2
  5
29C9E
331
2BBB1
  5
280B2
331
266DB
  5
266DB
331
2BB94
  5
2BB9C
331
2BB5C
  5
2BB64
331
2B9BC
  5
2BB48
331
2B99C
  5
2B9AC
331
2BB95
  5
2BB9D
331
2BB5D
  5
2BB65
331
2B9BD
  5
2BB49
331
2B99D
  5
2B9AD
331
2BB96
  5
2BB9E
331
2BB5E
  5
2BB72
331
2B9BE
  5
2BB4A
331
2BBB5
  5
2B984
331
2BBB4
  5
2B97C
331
2BB97
  5
2BBB1
331
2BB5F
  5
2BB73
331
2B9BF
  5
2BB4B
331
2B99F
  5
2B9AF
331
2BBB7
  5
2B85E
331
2BBB6
  5
29C9F
331
2BBB3
  5
2B832
331
266D8
  5
266D8
331
266D7
  5
266D7
331
266D5
  5
266D5
  0
XRECORD
  5
28584
102
{ACAD_REACTORS
330
2663A
102
}
330
2663A
100
AcDbXrecord
280
     1
340
15
  0
GROUP
  5
981F
102
{ACAD_REACTORS
330
D
102
}
330
D
100
AcDbGroup
300

 70
     1
 71
     1
  0
GROUP
  5
2B995
102
{ACAD_REACTORS
330
D
102
}
330
D
100
AcDbGroup
300

 70
     1
 71
     1
340
2B994
340
2B993
  0
GROUP
  5
2B4D2
102
{ACAD_REACTORS
330
D
102
}
330
D
100
AcDbGroup
300

 70
     1
 71
     1
  0
GROUP
  5
A49A
102
{ACAD_REACTORS
330
D
102
}
330
D
100
AcDbGroup
300

 70
     1
 71
     1
  0
GROUP
  5
2A316
102
{ACAD_REACTORS
330
D
102
}
330
D
100
AcDbGroup
300

 70
     1
 71
     1
  0
GROUP
  5
2A317
102
{ACAD_REACTORS
330
D
102
}
330
D
100
AcDbGroup
300

 70
     1
 71
     1
  0
GROUP
  5
1BD8B
102
{ACAD_REACTORS
330
D
102
}
330
D
100
AcDbGroup
300

 70
     1
 71
     1
  0
GROUP
  5
1FC8F
102
{ACAD_REACTORS
330
D
102
}
330
D
100
AcDbGroup
300

 70
     1
 71
     1
  0
GROUP
  5
2601A
102
{ACAD_REACTORS
330
D
102
}
330
D
100
AcDbGroup
300

 70
     1
 71
     1
  0
GROUP
  5
2B2EE
102
{ACAD_REACTORS
330
D
102
}
330
D
100
AcDbGroup
300

 70
     1
 71
     1
  0
GROUP
  5
2B3FD
102
{ACAD_REACTORS
330
D
102
}
330
D
100
AcDbGroup
300

 70
     1
 71
     1
  0
GROUP
  5
21E84
102
{ACAD_REACTORS
330
D
102
}
330
D
100
AcDbGroup
300

 70
     1
 71
     1
  0
GROUP
  5
2B998
102
{ACAD_REACTORS
330
D
102
}
330
D
100
AcDbGroup
300

 70
     1
 71
     1
340
2B997
340
2B996
  0
GROUP
  5
1BD84
102
{ACAD_REACTORS
330
D
102
}
330
D
100
AcDbGroup
300

 70
     1
 71
     1
  0
GROUP
  5
29A0D
102
{ACAD_REACTORS
330
D
102
}
330
D
100
AcDbGroup
300

 70
     3
 71
     1
  0
GROUP
  5
1BD8C
102
{ACAD_REACTORS
330
D
102
}
330
D
100
AcDbGroup
300

 70
     1
 71
     1
  0
GROUP
  5
2B1E7
102
{ACAD_REACTORS
330
D
102
}
330
D
100
AcDbGroup
300

 70
     1
 71
     1
  0
GROUP
  5
2B1F3
102
{ACAD_REACTORS
330
D
102
}
330
D
100
AcDbGroup
300

 70
     1
 71
     1
  0
GROUP
  5
2B1FF
102
{ACAD_REACTORS
330
D
102
}
330
D
100
AcDbGroup
300

 70
     1
 71
     1
  0
GROUP
  5
A49B
102
{ACAD_REACTORS
330
D
102
}
330
D
100
AcDbGroup
300

 70
     1
 71
     1
  0
GROUP
  5
2B20B
102
{ACAD_REACTORS
330
D
102
}
330
D
100
AcDbGroup
300

 70
     1
 71
     1
  0
GROUP
  5
2B61E
102
{ACAD_REACTORS
330
D
102
}
330
D
100
AcDbGroup
300

 70
     1
 71
     1
  0
GROUP
  5
2B219
102
{ACAD_REACTORS
330
D
102
}
330
D
100
AcDbGroup
300

 70
     1
 71
     1
  0
GROUP
  5
2B99B
102
{ACAD_REACTORS
330
D
102
}
330
D
100
AcDbGroup
300

 70
     1
 71
     1
340
2B99A
340
2B999
  0
GROUP
  5
2B21A
102
{ACAD_REACTORS
330
D
102
}
330
D
100
AcDbGroup
300

 70
     1
 71
     1
  0
GROUP
  5
2B321
102
{ACAD_REACTORS
330
D
102
}
330
D
100
AcDbGroup
300

 70
     1
 71
     1
  0
GROUP
  5
1BD86
102
{ACAD_REACTORS
330
D
102
}
330
D
100
AcDbGroup
300

 70
     1
 71
     1
  0
GROUP
  5
2B22F
102
{ACAD_REACTORS
330
D
102
}
330
D
100
AcDbGroup
300

 70
     1
 71
     1
  0
GROUP
  5
1BD85
102
{ACAD_REACTORS
330
D
102
}
330
D
100
AcDbGroup
300

 70
     1
 71
     1
  0
GROUP
  5
2B3FE
102
{ACAD_REACTORS
330
D
102
}
330
D
100
AcDbGroup
300

 70
     1
 71
     1
  0
GROUP
  5
2B230
102
{ACAD_REACTORS
330
D
102
}
330
D
100
AcDbGroup
300

 70
     1
 71
     1
  0
GROUP
  5
2B264
102
{ACAD_REACTORS
330
D
102
}
330
D
100
AcDbGroup
300

 70
     1
 71
     1
  0
GROUP
  5
2B265
102
{ACAD_REACTORS
330
D
102
}
330
D
100
AcDbGroup
300

 70
     1
 71
     1
  0
GROUP
  5
2B266
102
{ACAD_REACTORS
330
D
102
}
330
D
100
AcDbGroup
300

 70
     1
 71
     1
  0
GROUP
  5
29A11
102
{ACAD_REACTORS
330
D
102
}
330
D
100
AcDbGroup
300

 70
     3
 71
     1
  0
GROUP
  5
2B61F
102
{ACAD_REACTORS
330
D
102
}
330
D
100
AcDbGroup
300

 70
     1
 71
     1
  0
GROUP
  5
2B267
102
{ACAD_REACTORS
330
D
102
}
330
D
100
AcDbGroup
300

 70
     1
 71
     1
  0
GROUP
  5
194F7
102
{ACAD_REACTORS
330
D
102
}
330
D
100
AcDbGroup
300

 70
     1
 71
     1
  0
GROUP
  5
29A0E
102
{ACAD_REACTORS
330
D
102
}
330
D
100
AcDbGroup
300

 70
     3
 71
     1
  0
GROUP
  5
2B27C
102
{ACAD_REACTORS
330
D
102
}
330
D
100
AcDbGroup
300

 70
     1
 71
     1
  0
GROUP
  5
2B27D
102
{ACAD_REACTORS
330
D
102
}
330
D
100
AcDbGroup
300

 70
     1
 71
     1
  0
GROUP
  5
2B322
102
{ACAD_REACTORS
330
D
102
}
330
D
100
AcDbGroup
300

 70
     1
 71
     1
  0
GROUP
  5
1BD82
102
{ACAD_REACTORS
330
D
102
}
330
D
100
AcDbGroup
300

 70
     1
 71
     1
  0
GROUP
  5
2B27E
102
{ACAD_REACTORS
330
D
102
}
330
D
100
AcDbGroup
300

 70
     1
 71
     1
  0
GROUP
  5
2B27F
102
{ACAD_REACTORS
330
D
102
}
330
D
100
AcDbGroup
300

 70
     1
 71
     1
  0
GROUP
  5
2B99E
102
{ACAD_REACTORS
330
D
102
}
330
D
100
AcDbGroup
300

 70
     1
 71
     1
340
2B99D
340
2B99C
  0
GROUP
  5
2B323
102
{ACAD_REACTORS
330
D
102
}
330
D
100
AcDbGroup
300

 70
     1
 71
     1
  0
GROUP
  5
2B324
102
{ACAD_REACTORS
330
D
102
}
330
D
100
AcDbGroup
300

 70
     1
 71
     1
  0
GROUP
  5
2B6E5
102
{ACAD_REACTORS
330
D
102
}
330
D
100
AcDbGroup
300

 70
     1
 71
     1
  0
GROUP
  5
2B3FF
102
{ACAD_REACTORS
330
D
102
}
330
D
100
AcDbGroup
300

 70
     1
 71
     1
  0
GROUP
  5
2B3C9
102
{ACAD_REACTORS
330
D
102
}
330
D
100
AcDbGroup
300

 70
     1
 71
     1
  0
GROUP
  5
2B325
102
{ACAD_REACTORS
330
D
102
}
330
D
100
AcDbGroup
300

 70
     1
 71
     1
  0
GROUP
  5
194F5
102
{ACAD_REACTORS
330
D
102
}
330
D
100
AcDbGroup
300

 70
     1
 71
     1
  0
GROUP
  5
2B358
102
{ACAD_REACTORS
330
D
102
}
330
D
100
AcDbGroup
300

 70
     1
 71
     1
  0
GROUP
  5
2B359
102
{ACAD_REACTORS
330
D
102
}
330
D
100
AcDbGroup
300

 70
     1
 71
     1
  0
GROUP
  5
2B401
102
{ACAD_REACTORS
330
D
102
}
330
D
100
AcDbGroup
300

 70
     1
 71
     1
  0
GROUP
  5
2B9A1
102
{ACAD_REACTORS
330
D
102
}
330
D
100
AcDbGroup
300

 70
     1
 71
     1
340
2B9A0
340
2B99F
  0
GROUP
  5
2B3C7
102
{ACAD_REACTORS
330
D
102
}
330
D
100
AcDbGroup
300

 70
     1
 71
     1
  0
GROUP
  5
2B35A
102
{ACAD_REACTORS
330
D
102
}
330
D
100
AcDbGroup
300

 70
     1
 71
     1
  0
GROUP
  5
2B35B
102
{ACAD_REACTORS
330
D
102
}
330
D
100
AcDbGroup
300

 70
     1
 71
     1
  0
GROUP
  5
2B35C
102
{ACAD_REACTORS
330
D
102
}
330
D
100
AcDbGroup
300

 70
     1
 71
     1
  0
GROUP
  5
2B461
102
{ACAD_REACTORS
330
D
102
}
330
D
100
AcDbGroup
300

 70
     1
 71
     1
  0
GROUP
  5
29A0F
102
{ACAD_REACTORS
330
D
102
}
330
D
100
AcDbGroup
300

 70
     1
 71
     1
  0
GROUP
  5
2B38F
102
{ACAD_REACTORS
330
D
102
}
330
D
100
AcDbGroup
300

 70
     1
 71
     1
  0
GROUP
  5
2B390
102
{ACAD_REACTORS
330
D
102
}
330
D
100
AcDbGroup
300

 70
     1
 71
     1
  0
GROUP
  5
2B280
102
{ACAD_REACTORS
330
D
102
}
330
D
100
AcDbGroup
300

 70
     1
 71
     1
  0
GROUP
  5
2B391
102
{ACAD_REACTORS
330
D
102
}
330
D
100
AcDbGroup
300

 70
     1
 71
     1
  0
GROUP
  5
9D4A
102
{ACAD_REACTORS
330
D
102
}
330
D
100
AcDbGroup
300

 70
     1
 71
     1
  0
GROUP
  5
2B392
102
{ACAD_REACTORS
330
D
102
}
330
D
100
AcDbGroup
300

 70
     1
 71
     1
  0
GROUP
  5
2B393
102
{ACAD_REACTORS
330
D
102
}
330
D
100
AcDbGroup
300

 70
     1
 71
     1
  0
GROUP
  5
2B5F8
102
{ACAD_REACTORS
330
D
102
}
330
D
100
AcDbGroup
300

 70
     1
 71
     1
  0
GROUP
  5
2BB11
102
{ACAD_REACTORS
330
D
102
}
330
D
100
AcDbGroup
300

 70
     1
 71
     1
340
2B9C3
340
2B9C2
340
2B9C1
340
2B9BF
340
2B9BE
340
2B9BD
340
2B9BC
340
2B9BA
340
2B9B9
340
2B9B7
340
2B9B6
340
2B9B5
340
2B9B3
340
2B9B2
340
2B9B0
340
2B9AF
340
2B9AD
340
2B9AC
340
2B9AA
340
2B9A9
340
2B9A7
340
2B9A6
340
2B9A0
340
2B99F
340
2B99D
340
2B99C
340
2B99A
340
2B999
340
2B997
340
2B996
340
2B994
340
2B993
340
2B991
340
2B990
340
2B98E
340
2B98D
340
2B98B
340
2B98A
340
2B988
340
2B987
340
2B985
340
2B984
340
2B97C
340
2B85E
340
2B832
  0
GROUP
  5
2B6E8
102
{ACAD_REACTORS
330
D
102
}
330
D
100
AcDbGroup
300

 70
     1
 71
     1
  0
GROUP
  5
2B6EB
102
{ACAD_REACTORS
330
D
102
}
330
D
100
AcDbGroup
300

 70
     1
 71
     1
  0
GROUP
  5
2B400
102
{ACAD_REACTORS
330
D
102
}
330
D
100
AcDbGroup
300

 70
     1
 71
     1
  0
GROUP
  5
9D2A
102
{ACAD_REACTORS
330
D
102
}
330
D
100
AcDbGroup
300

 70
     1
 71
     1
  0
GROUP
  5
2B6EE
102
{ACAD_REACTORS
330
D
102
}
330
D
100
AcDbGroup
300

 70
     1
 71
     1
  0
GROUP
  5
2B2B4
102
{ACAD_REACTORS
330
D
102
}
330
D
100
AcDbGroup
300

 70
     1
 71
     1
  0
GROUP
  5
2B9A5
102
{ACAD_REACTORS
330
D
102
}
330
D
100
AcDbGroup
300

 70
     1
 71
     1
  0
GROUP
  5
2B6F5
102
{ACAD_REACTORS
330
D
102
}
330
D
100
AcDbGroup
300

 70
     1
 71
     1
  0
GROUP
  5
2B6F8
102
{ACAD_REACTORS
330
D
102
}
330
D
100
AcDbGroup
300

 70
     1
 71
     1
  0
GROUP
  5
1BD83
102
{ACAD_REACTORS
330
D
102
}
330
D
100
AcDbGroup
300

 70
     1
 71
     1
  0
GROUP
  5
2B6FB
102
{ACAD_REACTORS
330
D
102
}
330
D
100
AcDbGroup
300

 70
     1
 71
     1
  0
GROUP
  5
2B6FE
102
{ACAD_REACTORS
330
D
102
}
330
D
100
AcDbGroup
300

 70
     1
 71
     1
  0
GROUP
  5
2B986
102
{ACAD_REACTORS
330
D
102
}
330
D
100
AcDbGroup
300

 70
     1
 71
     1
340
2B985
340
2B984
  0
GROUP
  5
2B989
102
{ACAD_REACTORS
330
D
102
}
330
D
100
AcDbGroup
300

 70
     1
 71
     1
340
2B988
340
2B987
  0
GROUP
  5
2BB9F
102
{ACAD_REACTORS
330
D
102
}
330
D
100
AcDbGroup
300

 70
     1
 71
     1
340
2BB9E
340
2BB9D
340
2BB9C
340
2BB9B
340
2BB9A
340
2BB99
340
2BB98
340
2BB97
340
2BB96
340
2BB95
340
2BB94
340
2BB93
340
2BB92
340
2BB91
340
2BB90
340
2BB8F
340
2BB8E
340
2BB8D
340
2BB8C
340
2BB8B
340
2BB8A
340
2BB89
340
2BB88
340
2BB87
340
2BB86
340
2BB85
340
2BB84
340
2BB83
340
2BB82
340
2BB81
340
2BB80
340
2BB7F
340
2BB7E
340
2BB7D
340
2BB7C
340
2BB7B
340
2BB7A
340
2BB79
340
2BB78
340
2BB77
340
2BB76
340
2BB75
340
2BB74
340
2BB73
340
2BB72
  0
GROUP
  5
2BBA0
102
{ACAD_REACTORS
330
D
102
}
330
D
100
AcDbGroup
300

 70
     1
 71
     1
340
2BB76
340
2BB75
  0
GROUP
  5
2BBA1
102
{ACAD_REACTORS
330
D
102
}
330
D
100
AcDbGroup
300

 70
     1
 71
     1
340
2BB78
340
2BB77
  0
GROUP
  5
2B9A8
102
{ACAD_REACTORS
330
D
102
}
330
D
100
AcDbGroup
300

 70
     1
 71
     1
340
2B9A7
340
2B9A6
  0
GROUP
  5
2BBA2
102
{ACAD_REACTORS
330
D
102
}
330
D
100
AcDbGroup
300

 70
     1
 71
     1
340
2BB7A
340
2BB79
  0
GROUP
  5
2BBA3
102
{ACAD_REACTORS
330
D
102
}
330
D
100
AcDbGroup
300

 70
     1
 71
     1
340
2BB7C
340
2BB7B
  0
GROUP
  5
2BBA4
102
{ACAD_REACTORS
330
D
102
}
330
D
100
AcDbGroup
300

 70
     1
 71
     1
340
2BB7E
340
2BB7D
  0
GROUP
  5
2BBA5
102
{ACAD_REACTORS
330
D
102
}
330
D
100
AcDbGroup
300

 70
     1
 71
     1
340
2BB80
340
2BB7F
  0
GROUP
  5
2BBA6
102
{ACAD_REACTORS
330
D
102
}
330
D
100
AcDbGroup
300

 70
     1
 71
     1
340
2BB82
340
2BB81
  0
GROUP
  5
2BBA7
102
{ACAD_REACTORS
330
D
102
}
330
D
100
AcDbGroup
300

 70
     1
 71
     1
340
2BB84
340
2BB83
  0
GROUP
  5
2BBA8
102
{ACAD_REACTORS
330
D
102
}
330
D
100
AcDbGroup
300

 70
     1
 71
     1
340
2BB86
340
2BB85
  0
GROUP
  5
2BBA9
102
{ACAD_REACTORS
330
D
102
}
330
D
100
AcDbGroup
300

 70
     1
 71
     1
340
2BB88
340
2BB87
  0
GROUP
  5
2BBAA
102
{ACAD_REACTORS
330
D
102
}
330
D
100
AcDbGroup
300

 70
     1
 71
     1
340
2BB8A
340
2BB89
  0
GROUP
  5
2BBAB
102
{ACAD_REACTORS
330
D
102
}
330
D
100
AcDbGroup
300

 70
     1
 71
     1
340
2BB8C
340
2BB8B
  0
GROUP
  5
2B463
102
{ACAD_REACTORS
330
D
102
}
330
D
100
AcDbGroup
300

 70
     1
 71
     1
  0
GROUP
  5
2BBAC
102
{ACAD_REACTORS
330
D
102
}
330
D
100
AcDbGroup
300

 70
     1
 71
     1
340
2BB8E
340
2BB8D
  0
GROUP
  5
2BBAD
102
{ACAD_REACTORS
330
D
102
}
330
D
100
AcDbGroup
300

 70
     1
 71
     1
340
2BB90
340
2BB8F
  0
GROUP
  5
2BBAE
102
{ACAD_REACTORS
330
D
102
}
330
D
100
AcDbGroup
300

 70
     1
 71
     1
340
2BB92
340
2BB91
  0
GROUP
  5
2BBAF
102
{ACAD_REACTORS
330
D
102
}
330
D
100
AcDbGroup
300

 70
     1
 71
     1
340
2BB95
340
2BB94
  0
GROUP
  5
2BBB0
102
{ACAD_REACTORS
330
D
102
}
330
D
100
AcDbGroup
300

 70
     1
 71
     1
340
2BB97
340
2BB96
  0
GROUP
  5
29A10
102
{ACAD_REACTORS
330
D
102
}
330
D
100
AcDbGroup
300

 70
     1
 71
     1
  0
GROUP
  5
2B9AB
102
{ACAD_REACTORS
330
D
102
}
330
D
100
AcDbGroup
300

 70
     1
 71
     1
340
2B9AA
340
2B9A9
  0
GROUP
  5
2B2B6
102
{ACAD_REACTORS
330
D
102
}
330
D
100
AcDbGroup
300

 70
     1
 71
     1
  0
GROUP
  5
2601B
102
{ACAD_REACTORS
330
D
102
}
330
D
100
AcDbGroup
300

 70
     1
 71
     1
  0
GROUP
  5
2B9AE
102
{ACAD_REACTORS
330
D
102
}
330
D
100
AcDbGroup
300

 70
     1
 71
     1
340
2B9AD
340
2B9AC
  0
GROUP
  5
29A12
102
{ACAD_REACTORS
330
D
102
}
330
D
100
AcDbGroup
300

 70
     3
 71
     1
  0
GROUP
  5
2B9B1
102
{ACAD_REACTORS
330
D
102
}
330
D
100
AcDbGroup
300

 70
     1
 71
     1
340
2B9B0
340
2B9AF
  0
GROUP
  5
2B9B4
102
{ACAD_REACTORS
330
D
102
}
330
D
100
AcDbGroup
300

 70
     1
 71
     1
340
2B9B3
340
2B9B2
  0
GROUP
  5
2B9B8
102
{ACAD_REACTORS
330
D
102
}
330
D
100
AcDbGroup
300

 70
     1
 71
     1
340
2B9B7
340
2B9B6
  0
GROUP
  5
2B5FE
102
{ACAD_REACTORS
330
D
102
}
330
D
100
AcDbGroup
300

 70
     1
 71
     1
  0
GROUP
  5
2B9BB
102
{ACAD_REACTORS
330
D
102
}
330
D
100
AcDbGroup
300

 70
     1
 71
     1
340
2B9BA
340
2B9B9
  0
GROUP
  5
2B462
102
{ACAD_REACTORS
330
D
102
}
330
D
100
AcDbGroup
300

 70
     1
 71
     1
  0
GROUP
  5
2B9E6
102
{ACAD_REACTORS
330
D
102
}
330
D
100
AcDbGroup
300

 70
     1
 71
     1
  0
GROUP
  5
2B9E9
102
{ACAD_REACTORS
330
D
102
}
330
D
100
AcDbGroup
300

 70
     1
 71
     1
  0
GROUP
  5
2B9EC
102
{ACAD_REACTORS
330
D
102
}
330
D
100
AcDbGroup
300

 70
     1
 71
     1
  0
GROUP
  5
2B464
102
{ACAD_REACTORS
330
D
102
}
330
D
100
AcDbGroup
300

 70
     1
 71
     1
  0
GROUP
  5
1BD87
102
{ACAD_REACTORS
330
D
102
}
330
D
100
AcDbGroup
300

 70
     1
 71
     1
  0
GROUP
  5
2B61C
102
{ACAD_REACTORS
330
D
102
}
330
D
100
AcDbGroup
300

 70
     1
 71
     1
  0
GROUP
  5
2B2B7
102
{ACAD_REACTORS
330
D
102
}
330
D
100
AcDbGroup
300

 70
     1
 71
     1
  0
GROUP
  5
2B9EF
102
{ACAD_REACTORS
330
D
102
}
330
D
100
AcDbGroup
300

 70
     1
 71
     1
  0
GROUP
  5
2B9F1
102
{ACAD_REACTORS
330
D
102
}
330
D
100
AcDbGroup
300

 70
     1
 71
     1
  0
GROUP
  5
2B601
102
{ACAD_REACTORS
330
D
102
}
330
D
100
AcDbGroup
300

 70
     1
 71
     1
  0
GROUP
  5
2B5FB
102
{ACAD_REACTORS
330
D
102
}
330
D
100
AcDbGroup
300

 70
     1
 71
     1
  0
GROUP
  5
2B465
102
{ACAD_REACTORS
330
D
102
}
330
D
100
AcDbGroup
300

 70
     1
 71
     1
  0
GROUP
  5
2B466
102
{ACAD_REACTORS
330
D
102
}
330
D
100
AcDbGroup
300

 70
     1
 71
     1
  0
GROUP
  5
A22D
102
{ACAD_REACTORS
330
D
102
}
330
D
100
AcDbGroup
300

 70
     1
 71
     1
  0
GROUP
  5
2B467
102
{ACAD_REACTORS
330
D
102
}
330
D
100
AcDbGroup
300

 70
     1
 71
     1
  0
GROUP
  5
2B468
102
{ACAD_REACTORS
330
D
102
}
330
D
100
AcDbGroup
300

 70
     1
 71
     1
  0
GROUP
  5
2B469
102
{ACAD_REACTORS
330
D
102
}
330
D
100
AcDbGroup
300

 70
     1
 71
     1
  0
GROUP
  5
1FC80
102
{ACAD_REACTORS
330
D
102
}
330
D
100
AcDbGroup
300

 70
     1
 71
     1
  0
GROUP
  5
2B46A
102
{ACAD_REACTORS
330
D
102
}
330
D
100
AcDbGroup
300

 70
     1
 71
     1
  0
GROUP
  5
1BD88
102
{ACAD_REACTORS
330
D
102
}
330
D
100
AcDbGroup
300

 70
     1
 71
     1
  0
GROUP
  5
194F6
102
{ACAD_REACTORS
330
D
102
}
330
D
100
AcDbGroup
300

 70
     1
 71
     1
  0
GROUP
  5
2B98C
102
{ACAD_REACTORS
330
D
102
}
330
D
100
AcDbGroup
300

 70
     1
 71
     1
340
2B98B
340
2B98A
  0
GROUP
  5
194F8
102
{ACAD_REACTORS
330
D
102
}
330
D
100
AcDbGroup
300

 70
     1
 71
     1
  0
GROUP
  5
2B604
102
{ACAD_REACTORS
330
D
102
}
330
D
100
AcDbGroup
300

 70
     1
 71
     1
  0
GROUP
  5
2B49A
102
{ACAD_REACTORS
330
D
102
}
330
D
100
AcDbGroup
300

 70
     1
 71
     1
  0
GROUP
  5
2B49B
102
{ACAD_REACTORS
330
D
102
}
330
D
100
AcDbGroup
300

 70
     1
 71
     1
  0
GROUP
  5
2B49C
102
{ACAD_REACTORS
330
D
102
}
330
D
100
AcDbGroup
300

 70
     1
 71
     1
  0
GROUP
  5
2B49D
102
{ACAD_REACTORS
330
D
102
}
330
D
100
AcDbGroup
300

 70
     1
 71
     1
  0
GROUP
  5
2B49E
102
{ACAD_REACTORS
330
D
102
}
330
D
100
AcDbGroup
300

 70
     1
 71
     1
  0
GROUP
  5
9FC0
102
{ACAD_REACTORS
330
D
102
}
330
D
100
AcDbGroup
300

 70
     1
 71
     1
  0
GROUP
  5
2B3C6
102
{ACAD_REACTORS
330
D
102
}
330
D
100
AcDbGroup
300

 70
     1
 71
     1
  0
GROUP
  5
2B4CE
102
{ACAD_REACTORS
330
D
102
}
330
D
100
AcDbGroup
300

 70
     1
 71
     1
  0
GROUP
  5
2B98F
102
{ACAD_REACTORS
330
D
102
}
330
D
100
AcDbGroup
300

 70
     1
 71
     1
340
2B98E
340
2B98D
  0
GROUP
  5
2B4CF
102
{ACAD_REACTORS
330
D
102
}
330
D
100
AcDbGroup
300

 70
     1
 71
     1
  0
GROUP
  5
1BD89
102
{ACAD_REACTORS
330
D
102
}
330
D
100
AcDbGroup
300

 70
     1
 71
     1
  0
GROUP
  5
2B4D0
102
{ACAD_REACTORS
330
D
102
}
330
D
100
AcDbGroup
300

 70
     1
 71
     1
  0
GROUP
  5
2B606
102
{ACAD_REACTORS
330
D
102
}
330
D
100
AcDbGroup
300

 70
     1
 71
     1
  0
GROUP
  5
2B4D1
102
{ACAD_REACTORS
330
D
102
}
330
D
100
AcDbGroup
300

 70
     1
 71
     1
  0
GROUP
  5
2BA25
102
{ACAD_REACTORS
330
D
102
}
330
D
100
AcDbGroup
300

 70
     1
 71
     1
  0
GROUP
  5
2BAFE
102
{ACAD_REACTORS
330
D
102
}
330
D
100
AcDbGroup
300

 70
     1
 71
     1
  0
GROUP
  5
2BAFF
102
{ACAD_REACTORS
330
D
102
}
330
D
100
AcDbGroup
300

 70
     1
 71
     1
  0
GROUP
  5
29A13
102
{ACAD_REACTORS
330
D
102
}
330
D
100
AcDbGroup
300

 70
     3
 71
     1
  0
GROUP
  5
2BB00
102
{ACAD_REACTORS
330
D
102
}
330
D
100
AcDbGroup
300

 70
     1
 71
     1
  0
GROUP
  5
2B2B5
102
{ACAD_REACTORS
330
D
102
}
330
D
100
AcDbGroup
300

 70
     1
 71
     1
  0
GROUP
  5
2BB01
102
{ACAD_REACTORS
330
D
102
}
330
D
100
AcDbGroup
300

 70
     1
 71
     1
  0
GROUP
  5
2BB04
102
{ACAD_REACTORS
330
D
102
}
330
D
100
AcDbGroup
300

 70
     1
 71
     1
  0
GROUP
  5
265C2
102
{ACAD_REACTORS
330
D
102
}
330
D
100
AcDbGroup
300

 70
     1
 71
     1
  0
GROUP
  5
29A05
102
{ACAD_REACTORS
330
D
102
}
330
D
100
AcDbGroup
300

 70
     1
 71
     1
  0
GROUP
  5
2B2EA
102
{ACAD_REACTORS
330
D
102
}
330
D
100
AcDbGroup
300

 70
     1
 71
     1
  0
GROUP
  5
2B2B3
102
{ACAD_REACTORS
330
D
102
}
330
D
100
AcDbGroup
300

 70
     1
 71
     1
  0
GROUP
  5
29A06
102
{ACAD_REACTORS
330
D
102
}
330
D
100
AcDbGroup
300

 70
     3
 71
     1
  0
GROUP
  5
2B3C8
102
{ACAD_REACTORS
330
D
102
}
330
D
100
AcDbGroup
300

 70
     1
 71
     1
  0
GROUP
  5
29A07
102
{ACAD_REACTORS
330
D
102
}
330
D
100
AcDbGroup
300

 70
     3
 71
     1
  0
GROUP
  5
2A30E
102
{ACAD_REACTORS
330
D
102
}
330
D
100
AcDbGroup
300

 70
     1
 71
     1
  0
GROUP
  5
2B992
102
{ACAD_REACTORS
330
D
102
}
330
D
100
AcDbGroup
300

 70
     1
 71
     1
340
2B991
340
2B990
  0
GROUP
  5
29A08
102
{ACAD_REACTORS
330
D
102
}
330
D
100
AcDbGroup
300

 70
     3
 71
     1
  0
GROUP
  5
2B2EC
102
{ACAD_REACTORS
330
D
102
}
330
D
100
AcDbGroup
300

 70
     1
 71
     1
  0
GROUP
  5
29A09
102
{ACAD_REACTORS
330
D
102
}
330
D
100
AcDbGroup
300

 70
     3
 71
     1
  0
GROUP
  5
A22E
102
{ACAD_REACTORS
330
D
102
}
330
D
100
AcDbGroup
300

 70
     1
 71
     1
  0
GROUP
  5
29A0A
102
{ACAD_REACTORS
330
D
102
}
330
D
100
AcDbGroup
300

 70
     3
 71
     1
  0
GROUP
  5
29A0B
102
{ACAD_REACTORS
330
D
102
}
330
D
100
AcDbGroup
300

 70
     1
 71
     1
  0
GROUP
  5
29A0C
102
{ACAD_REACTORS
330
D
102
}
330
D
100
AcDbGroup
300

 70
     1
 71
     1
  0
GROUP
  5
2A30F
102
{ACAD_REACTORS
330
D
102
}
330
D
100
AcDbGroup
300

 70
     1
 71
     1
  0
GROUP
  5
2A310
102
{ACAD_REACTORS
330
D
102
}
330
D
100
AcDbGroup
300

 70
     1
 71
     1
  0
GROUP
  5
2B61B
102
{ACAD_REACTORS
330
D
102
}
330
D
100
AcDbGroup
300

 70
     1
 71
     1
  0
GROUP
  5
2B2EB
102
{ACAD_REACTORS
330
D
102
}
330
D
100
AcDbGroup
300

 70
     1
 71
     1
  0
GROUP
  5
2A311
102
{ACAD_REACTORS
330
D
102
}
330
D
100
AcDbGroup
300

 70
     1
 71
     1
  0
GROUP
  5
2B3CA
102
{ACAD_REACTORS
330
D
102
}
330
D
100
AcDbGroup
300

 70
     1
 71
     1
  0
GROUP
  5
2B2ED
102
{ACAD_REACTORS
330
D
102
}
330
D
100
AcDbGroup
300

 70
     1
 71
     1
  0
GROUP
  5
1BD8A
102
{ACAD_REACTORS
330
D
102
}
330
D
100
AcDbGroup
300

 70
     1
 71
     1
  0
GROUP
  5
2B61D
102
{ACAD_REACTORS
330
D
102
}
330
D
100
AcDbGroup
300

 70
     1
 71
     1
  0
GROUP
  5
2A312
102
{ACAD_REACTORS
330
D
102
}
330
D
100
AcDbGroup
300

 70
     1
 71
     1
  0
GROUP
  5
2A313
102
{ACAD_REACTORS
330
D
102
}
330
D
100
AcDbGroup
300

 70
     1
 71
     1
  0
GROUP
  5
9FC1
102
{ACAD_REACTORS
330
D
102
}
330
D
100
AcDbGroup
300

 70
     1
 71
     1
  0
GROUP
  5
2A314
102
{ACAD_REACTORS
330
D
102
}
330
D
100
AcDbGroup
300

 70
     1
 71
     1
  0
GROUP
  5
2A315
102
{ACAD_REACTORS
330
D
102
}
330
D
100
AcDbGroup
300

 70
     1
 71
     1
  0
LAYOUT
  5
1B1E7
102
{ACAD_XDICTIONARY
360
2BBD7
102
}
102
{ACAD_REACTORS
330
1B1E4
102
}
330
1B1E4
100
AcDbPlotSettings
  1

  2
\\SERVER1\HP Color LaserJet 4500
  4

  6

 40
0.0
 41
0.0
 42
0.0
 43
0.0
 44
0.0
 45
0.0
 46
0.0
 47
0.0
 48
0.0
 49
0.0
140
0.0
141
0.0
142
1.0
143
1.0
 70
   688
 72
     0
 73
     0
 74
     5
  7

 75
    16
147
1.0
148
0.0
149
0.0
100
AcDbLayout
  1
Layout1
 70
     1
 71
     1
 10
0.0
 20
0.0
 11
420.0
 21
297.0
 12
0.0
 22
0.0
 32
0.0
 14
1.000000000000000E+20
 24
1.000000000000000E+20
 34
1.000000000000000E+20
 15
-1.000000000000000E+20
 25
-1.000000000000000E+20
 35
-1.000000000000000E+20
146
0.0
 13
0.0
 23
0.0
 33
0.0
 16
1.0
 26
0.0
 36
0.0
 17
0.0
 27
1.0
 37
0.0
 76
     0
330
15
  0
LAYOUT
  5
1B1E6
102
{ACAD_XDICTIONARY
360
2BBD5
102
}
102
{ACAD_REACTORS
330
1B1E4
102
}
330
1B1E4
100
AcDbPlotSettings
  1

  2
\\SERVER1\HP Color LaserJet 4500
  4

  6

 40
0.0
 41
0.0
 42
0.0
 43
0.0
 44
0.0
 45
0.0
 46
0.0
 47
0.0
 48
0.0
 49
0.0
140
0.0
141
0.0
142
1.0
143
1.0
 70
  1712
 72
     0
 73
     0
 74
     0
  7

 75
     0
147
1.0
148
0.0
149
0.0
100
AcDbLayout
  1
Model
 70
     1
 71
     0
 10
0.0
 20
0.0
 11
12.0
 21
9.0
 12
0.0
 22
0.0
 32
0.0
 14
0.0
 24
0.0
 34
0.0
 15
0.0
 25
0.0
 35
0.0
146
0.0
 13
0.0
 23
0.0
 33
0.0
 16
1.0
 26
0.0
 36
0.0
 17
0.0
 27
1.0
 37
0.0
 76
     0
330
18
  0
MLINESTYLE
  5
1C
102
{ACAD_REACTORS
330
1B
102
}
330
1B
100
AcDbMlineStyle
  2
STANDARD
 70
     0
  3

 62
   256
 51
90.0
 52
90.0
 71
     2
 49
0.5
 62
   256
  6
BYLAYER
 49
-0.5
 62
   256
  6
BYLAYER
  0
ACDBPLACEHOLDER
  5
1B1E3
102
{ACAD_REACTORS
330
1B1E2
102
}
330
1B1E2
  0
TABLESTYLE
  5
2A32A
102
{ACAD_REACTORS
330
2A329
102
}
330
2A329
100
AcDbTableStyle
  3
Standard
 70
     0
 71
     0
 40
1.5
 41
1.5
280
     0
281
     0
  7
STANDARD
140
4.5
170
     2
 62
     0
 63
     7
283
     0
274
    -2
284
     1
 64
     0
275
    -2
285
     1
 65
     0
276
    -2
286
     1
 66
     0
277
    -2
287
     1
 67
     0
278
    -2
288
     1
 68
     0
279
    -2
289
     1
 69
     0
  7
STANDARD
140
6.0
170
     5
 62
     0
 63
     7
283
     0
274
    -2
284
     1
 64
     0
275
    -2
285
     1
 65
     0
276
    -2
286
     1
 66
     0
277
    -2
287
     1
 67
     0
278
    -2
288
     1
 68
     0
279
    -2
289
     1
 69
     0
  7
STANDARD
140
4.5
170
     5
 62
     0
 63
     7
283
     0
274
    -2
284
     1
 64
     0
275
    -2
285
     1
 65
     0
276
    -2
286
     1
 66
     0
277
    -2
287
     1
 67
     0
278
    -2
288
     1
 68
     0
279
    -2
289
     1
 69
     0
  0
DICTIONARYVAR
  5
2A332
102
{ACAD_REACTORS
330
9820
102
}
330
9820
100
DictionaryVariables
280
     0
  1
STANDARD
  0
DICTIONARYVAR
  5
1FD3B
102
{ACAD_REACTORS
330
9820
102
}
330
9820
100
DictionaryVariables
280
     0
  1
1
  0
DICTIONARYVAR
  5
2BA08
102
{ACAD_REACTORS
330
9820
102
}
330
9820
100
DictionaryVariables
280
     0
  1

  0
DICTIONARYVAR
  5
9821
102
{ACAD_REACTORS
330
9820
102
}
330
9820
100
DictionaryVariables
280
     0
  1
127
  0
DICTIONARY
  5
2BBD7
330
1B1E7
100
AcDbDictionary
280
     1
281
     1
  3
ACAD_XREC_ROUNDTRIP
360
2BBD8
  0
DICTIONARY
  5
2BBD5
330
1B1E6
100
AcDbDictionary
280
     1
281
     1
  3
ACAD_XREC_ROUNDTRIP
360
2BBD6
  0
XRECORD
  5
2BBD8
102
{ACAD_REACTORS
330
2BBD7
102
}
330
2BBD7
100
AcDbXrecord
280
     1
102
SHADEPLOT
 70
     0
102
SHADEPLOTRESLEVEL
 70
     2
102
SHADEPLOTCUSTOMDPI
 70
   300
  0
XRECORD
  5
2BBD6
102
{ACAD_REACTORS
330
2BBD5
102
}
330
2BBD5
100
AcDbXrecord
280
     1
102
SHADEPLOT
 70
     0
102
SHADEPLOTRESLEVEL
 70
     2
102
SHADEPLOTCUSTOMDPI
 70
   300
  0
ENDSEC
  0
EOF
