  0
SECTION
  2
HEADER
  9
$ACADVER
  1
AC1015
  9
$ACADMAINTVER
 70
    20
  9
$DWGCODEPAGE
  3
ANSI_1252
  9
$INSBASE
 10
0.0
 20
0.0
 30
0.0
  9
$EXTMIN
 10
-0.0181260584133725
 20
-0.0135982637099232
 30
-0.0015258207003583
  9
$EXTMAX
 10
594.0181288244414
 20
420.0008204532217
 30
0.0000000349246037
  9
$LIMMIN
 10
0.0
 20
0.0
  9
$LIMMAX
 10
420.0
 20
297.0
  9
$ORTHOMODE
 70
     1
  9
$REGENMODE
 70
     1
  9
$FILLMODE
 70
     1
  9
$QTEXTMODE
 70
     0
  9
$MIRRTEXT
 70
     1
  9
$LTSCALE
 40
1.0
  9
$ATTMODE
 70
     1
  9
$TEXTSIZE
 40
2.0
  9
$TRACEWID
 40
1.0
  9
$TEXTSTYLE
  7
TASTENTEXT
  9
$CLAYER
  8
Modules
  9
$CELTYPE
  6
VERDECKT2
  9
$CECOLOR
 62
   256
  9
$CELTSCALE
 40
1.0
  9
$DISPSILH
 70
     0
  9
$DIMSCALE
 40
1.0
  9
$DIMASZ
 40
2.5
  9
$DIMEXO
 40
0.625
  9
$DIMDLI
 40
3.75
  9
$DIMRND
 40
0.0
  9
$DIMDLE
 40
0.0
  9
$DIMEXE
 40
1.25
  9
$DIMTP
 40
0.0
  9
$DIMTM
 40
0.0
  9
$DIMTXT
 40
2.5
  9
$DIMCEN
 40
2.5
  9
$DIMTSZ
 40
0.0
  9
$DIMTOL
 70
     0
  9
$DIMLIM
 70
     0
  9
$DIMTIH
 70
     0
  9
$DIMTOH
 70
     0
  9
$DIMSE1
 70
     0
  9
$DIMSE2
 70
     0
  9
$DIMTAD
 70
     1
  9
$DIMZIN
 70
     8
  9
$DIMBLK
  1

  9
$DIMASO
 70
     1
  9
$DIMSHO
 70
     1
  9
$DIMPOST
  1

  9
$DIMAPOST
  1

  9
$DIMALT
 70
     0
  9
$DIMALTD
 70
     4
  9
$DIMALTF
 40
0.0394
  9
$DIMLFAC
 40
1.0
  9
$DIMTOFL
 70
     1
  9
$DIMTVP
 40
0.0
  9
$DIMTIX
 70
     0
  9
$DIMSOXD
 70
     0
  9
$DIMSAH
 70
     0
  9
$DIMBLK1
  1

  9
$DIMBLK2
  1

  9
$DIMSTYLE
  2
STANDARD
  9
$DIMCLRD
 70
     0
  9
$DIMCLRE
 70
     0
  9
$DIMCLRT
 70
     0
  9
$DIMTFAC
 40
1.0
  9
$DIMGAP
 40
0.625
  9
$DIMJUST
 70
     0
  9
$DIMSD1
 70
     0
  9
$DIMSD2
 70
     0
  9
$DIMTOLJ
 70
     1
  9
$DIMTZIN
 70
     0
  9
$DIMALTZ
 70
     0
  9
$DIMALTTZ
 70
     0
  9
$DIMUPT
 70
     0
  9
$DIMDEC
 70
     4
  9
$DIMTDEC
 70
     4
  9
$DIMALTU
 70
     8
  9
$DIMALTTD
 70
     4
  9
$DIMTXSTY
  7
STANDARD
  9
$DIMAUNIT
 70
     0
  9
$DIMADEC
 70
     0
  9
$DIMALTRND
 40
0.0
  9
$DIMAZIN
 70
     0
  9
$DIMDSEP
 70
    46
  9
$DIMATFIT
 70
     3
  9
$DIMFRAC
 70
     0
  9
$DIMLDRBLK
  1

  9
$DIMLUNIT
 70
     6
  9
$DIMLWD
 70
    -2
  9
$DIMLWE
 70
    -2
  9
$DIMTMOVE
 70
     0
  9
$LUNITS
 70
     2
  9
$LUPREC
 70
     4
  9
$SKETCHINC
 40
1.0
  9
$FILLETRAD
 40
1.0
  9
$AUNITS
 70
     0
  9
$AUPREC
 70
     0
  9
$MENU
  1
acad
  9
$ELEVATION
 40
0.0
  9
$PELEVATION
 40
0.0
  9
$THICKNESS
 40
0.0
  9
$LIMCHECK
 70
     0
  9
$CHAMFERA
 40
0.0
  9
$CHAMFERB
 40
0.0
  9
$CHAMFERC
 40
20.0
  9
$CHAMFERD
 40
0.0
  9
$SKPOLY
 70
     0
  9
$TDCREATE
 40
2451774.355798843
  9
$TDUCREATE
 40
2451774.314132176
  9
$TDUPDATE
 40
2454162.689860926
  9
$TDUUPDATE
 40
2454162.648194259
  9
$TDINDWG
 40
0.3522439468
  9
$TDUSRTIMER
 40
0.3522439468
  9
$USRTIMER
 70
     1
  9
$ANGBASE
 50
0.0
  9
$ANGDIR
 70
     0
  9
$PDMODE
 70
     0
  9
$PDSIZE
 40
0.0
  9
$PLINEWID
 40
0.0
  9
$SPLFRAME
 70
     0
  9
$SPLINETYPE
 70
     6
  9
$SPLINESEGS
 70
     8
  9
$HANDSEED
  5
2B7C2
  9
$SURFTAB1
 70
     6
  9
$SURFTAB2
 70
     6
  9
$SURFTYPE
 70
     6
  9
$SURFU
 70
     6
  9
$SURFV
 70
     6
  9
$UCSBASE
  2

  9
$UCSNAME
  2

  9
$UCSORG
 10
0.0
 20
0.0
 30
0.0
  9
$UCSXDIR
 10
1.0
 20
0.0
 30
0.0
  9
$UCSYDIR
 10
0.0
 20
1.0
 30
0.0
  9
$UCSORTHOREF
  2

  9
$UCSORTHOVIEW
 70
     0
  9
$UCSORGTOP
 10
0.0
 20
0.0
 30
0.0
  9
$UCSORGBOTTOM
 10
0.0
 20
0.0
 30
0.0
  9
$UCSORGLEFT
 10
0.0
 20
0.0
 30
0.0
  9
$UCSORGRIGHT
 10
0.0
 20
0.0
 30
0.0
  9
$UCSORGFRONT
 10
0.0
 20
0.0
 30
0.0
  9
$UCSORGBACK
 10
0.0
 20
0.0
 30
0.0
  9
$PUCSBASE
  2

  9
$PUCSNAME
  2

  9
$PUCSORG
 10
0.0
 20
0.0
 30
0.0
  9
$PUCSXDIR
 10
1.0
 20
0.0
 30
0.0
  9
$PUCSYDIR
 10
0.0
 20
1.0
 30
0.0
  9
$PUCSORTHOREF
  2

  9
$PUCSORTHOVIEW
 70
     0
  9
$PUCSORGTOP
 10
0.0
 20
0.0
 30
0.0
  9
$PUCSORGBOTTOM
 10
0.0
 20
0.0
 30
0.0
  9
$PUCSORGLEFT
 10
0.0
 20
0.0
 30
0.0
  9
$PUCSORGRIGHT
 10
0.0
 20
0.0
 30
0.0
  9
$PUCSORGFRONT
 10
0.0
 20
0.0
 30
0.0
  9
$PUCSORGBACK
 10
0.0
 20
0.0
 30
0.0
  9
$USERI1
 70
     0
  9
$USERI2
 70
     0
  9
$USERI3
 70
     0
  9
$USERI4
 70
     0
  9
$USERI5
 70
     0
  9
$USERR1
 40
0.0
  9
$USERR2
 40
0.0
  9
$USERR3
 40
0.0
  9
$USERR4
 40
0.0
  9
$USERR5
 40
0.0
  9
$WORLDVIEW
 70
     1
  9
$SHADEDGE
 70
     3
  9
$SHADEDIF
 70
    70
  9
$TILEMODE
 70
     1
  9
$MAXACTVP
 70
    48
  9
$PINSBASE
 10
0.0
 20
0.0
 30
0.0
  9
$PLIMCHECK
 70
     0
  9
$PEXTMIN
 10
1.000000000000000E+20
 20
1.000000000000000E+20
 30
1.000000000000000E+20
  9
$PEXTMAX
 10
-1.000000000000000E+20
 20
-1.000000000000000E+20
 30
-1.000000000000000E+20
  9
$PLIMMIN
 10
0.0
 20
0.0
  9
$PLIMMAX
 10
420.0
 20
297.0
  9
$UNITMODE
 70
     0
  9
$VISRETAIN
 70
     1
  9
$PLINEGEN
 70
     0
  9
$PSLTSCALE
 70
     1
  9
$TREEDEPTH
 70
  3020
  9
$CMLSTYLE
  2
STANDARD
  9
$CMLJUST
 70
     0
  9
$CMLSCALE
 40
20.0
  9
$PROXYGRAPHICS
 70
     1
  9
$MEASUREMENT
 70
     1
  9
$CELWEIGHT
370
    -1
  9
$ENDCAPS
280
     0
  9
$JOINSTYLE
280
     0
  9
$LWDISPLAY
290
     0
  9
$INSUNITS
 70
     0
  9
$HYPERLINKBASE
  1

  9
$STYLESHEET
  1

  9
$XEDIT
290
     1
  9
$CEPSNTYPE
380
     0
  9
$PSTYLEMODE
290
     1
  9
$FINGERPRINTGUID
  2
{E7552BDC-5169-4F54-A499-2C82C71F1FBB}
  9
$VERSIONGUID
  2
{C212DC5C-3DA8-461D-B117-DE54E008DA09}
  9
$EXTNAMES
290
     1
  9
$PSVPSCALE
 40
0.0
  9
$OLESTARTUP
290
     0
  0
ENDSEC
  0
SECTION
  2
CLASSES
  0
CLASS
  1
DICTIONARYVAR
  2
AcDbDictionaryVar
  3
ObjectDBX Classes
 90
        0
280
     0
281
     0
  0
CLASS
  1
SORTENTSTABLE
  2
AcDbSortentsTable
  3
ObjectDBX Classes
 90
        0
280
     0
281
     0
  0
CLASS
  1
ACDBDICTIONARYWDFLT
  2
AcDbDictionaryWithDefault
  3
ObjectDBX Classes
 90
        0
280
     0
281
     0
  0
CLASS
  1
ACDBPLACEHOLDER
  2
AcDbPlaceHolder
  3
ObjectDBX Classes
 90
        0
280
     0
281
     0
  0
CLASS
  1
LAYOUT
  2
AcDbLayout
  3
ObjectDBX Classes
 90
        0
280
     0
281
     0
  0
CLASS
  1
TABLESTYLE
  2
AcDbTableStyle
  3
ObjectDBX Classes
 90
     2047
280
     0
281
     0
  0
ENDSEC
  0
SECTION
  2
TABLES
  0
TABLE
  2
VPORT
  5
8
330
0
100
AcDbSymbolTable
 70
     5
  0
VPORT
  5
2B7BC
330
8
100
AcDbSymbolTableRecord
100
AcDbViewportTableRecord
  2
*Active
 70
     0
 10
0.0
 20
0.0
 11
1.0
 21
1.0
 12
297.0000013830141
 22
209.9936110947559
 13
0.0
 23
0.0
 14
10.0
 24
10.0
 15
10.0
 25
10.0
 16
0.0
 26
0.0
 36
1.0
 17
0.0
 27
0.0
 37
0.0
 40
462.0758220604805
 41
1.293715846994535
 42
50.0
 43
0.0
 44
0.0
 50
0.0
 51
0.0
 71
     0
 72
   100
 73
     1
 74
     1
 75
     0
 76
     0
 77
     0
 78
     0
281
     0
 65
     1
110
0.0
120
0.0
130
0.0
111
1.0
121
0.0
131
0.0
112
0.0
122
1.0
132
0.0
 79
     0
146
0.0
  0
ENDTAB
  0
TABLE
  2
LTYPE
  5
5
330
0
100
AcDbSymbolTable
 70
     4
  0
LTYPE
  5
12
330
5
100
AcDbSymbolTableRecord
100
AcDbLinetypeTableRecord
  2
BYBLOCK
 70
     0
  3

 72
    65
 73
     0
 40
0.0
  0
LTYPE
  5
13
330
5
100
AcDbSymbolTableRecord
100
AcDbLinetypeTableRecord
  2
BYLAYER
 70
     0
  3

 72
    65
 73
     0
 40
0.0
  0
LTYPE
  5
14
330
5
100
AcDbSymbolTableRecord
100
AcDbLinetypeTableRecord
  2
CONTINUOUS
 70
     0
  3
Solid line
 72
    65
 73
     0
 40
0.0
  0
LTYPE
  5
2B4F8
330
5
100
AcDbSymbolTableRecord
100
AcDbLinetypeTableRecord
  2
VERDECKT2
 70
     0
  3
Verdeckt (.5x) _ _ _ _ _ _ _ _ _ _ _ _ _ _ _ _ 
 72
    65
 73
     2
 40
4.762499999999999
 49
3.174999999999999
 74
     0
 49
-1.587499999999999
 74
     0
  0
ENDTAB
  0
TABLE
  2
LAYER
  5
2
102
{ACAD_XDICTIONARY
360
2AE1D
102
}
330
0
100
AcDbSymbolTable
 70
    11
  0
LAYER
  5
E
330
2
100
AcDbSymbolTableRecord
100
AcDbLayerTableRecord
  2
0
 70
     0
 62
     7
  6
CONTINUOUS
370
    -3
390
1B1E3
  0
LAYER
  5
143
330
2
100
AcDbSymbolTableRecord
100
AcDbLayerTableRecord
  2
DEFPOINTS
 70
     0
 62
     7
  6
CONTINUOUS
290
     0
370
    -3
390
1B1E3
  0
LAYER
  5
1848A
330
2
100
AcDbSymbolTableRecord
100
AcDbLayerTableRecord
  2
RAHMEN025
 70
     0
 62
     7
  6
CONTINUOUS
370
    -3
390
1B1E3
  0
LAYER
  5
1848B
330
2
100
AcDbSymbolTableRecord
100
AcDbLayerTableRecord
  2
RAHMEN07
 70
     0
 62
     5
  6
CONTINUOUS
370
    -3
390
1B1E3
  0
LAYER
  5
26712
330
2
100
AcDbSymbolTableRecord
100
AcDbLayerTableRecord
  2
Bemassung
 70
     0
 62
     3
  6
CONTINUOUS
370
    -3
390
1B1E3
  0
LAYER
  5
27B66
330
2
100
AcDbSymbolTableRecord
100
AcDbLayerTableRecord
  2
Frame
 70
     0
 62
     7
  6
CONTINUOUS
370
    -3
390
1B1E3
  0
LAYER
  5
299F2
330
2
100
AcDbSymbolTableRecord
100
AcDbLayerTableRecord
  2
Modules
 70
     0
 62
     5
  6
CONTINUOUS
370
    -3
390
1B1E3
  0
LAYER
  5
2B4F9
330
2
100
AcDbSymbolTableRecord
100
AcDbLayerTableRecord
  2
TEXTFELD
 70
     0
 62
     7
  6
CONTINUOUS
370
    -3
390
1B1E3
  0
LAYER
  5
2B5C8
330
2
100
AcDbSymbolTableRecord
100
AcDbLayerTableRecord
  2
BLECH
 70
     0
 62
     5
  6
CONTINUOUS
370
    -3
390
1B1E3
  0
ENDTAB
  0
TABLE
  2
STYLE
  5
3
330
0
100
AcDbSymbolTable
 70
     4
  0
STYLE
  5
F
330
3
100
AcDbSymbolTableRecord
100
AcDbTextStyleTableRecord
  2
STANDARD
 70
     0
 40
0.0
 41
1.0
 50
0.0
 71
     0
 42
2.5
  3
txt
  4

  0
STYLE
  5
220D
330
3
100
AcDbSymbolTableRecord
100
AcDbTextStyleTableRecord
  2
TASTENTEXT
 70
     0
 40
2.0
 41
1.0
 50
0.0
 71
     0
 42
2.0
  3
ARIAL.TTF
  4

1001
ACAD
1000
Arial
1071
       34
  0
ENDTAB
  0
TABLE
  2
VIEW
  5
6
330
0
100
AcDbSymbolTable
 70
     0
  0
ENDTAB
  0
TABLE
  2
UCS
  5
7
330
0
100
AcDbSymbolTable
 70
     0
  0
ENDTAB
  0
TABLE
  2
APPID
  5
9
330
0
100
AcDbSymbolTable
 70
    10
  0
APPID
  5
10
330
9
100
AcDbSymbolTableRecord
100
AcDbRegAppTableRecord
  2
ACAD
 70
     0
  0
APPID
  5
29A02
330
9
100
AcDbSymbolTableRecord
100
AcDbRegAppTableRecord
  2
CONTENTTABDATA
 70
     0
  0
APPID
  5
29A03
330
9
100
AcDbSymbolTableRecord
100
AcDbRegAppTableRecord
  2
CONTENTCURRENTTAB
 70
     0
  0
APPID
  5
29A04
330
9
100
AcDbSymbolTableRecord
100
AcDbRegAppTableRecord
  2
DRAWINGVARIABLESXDATA
 70
     0
  0
APPID
  5
2AE16
330
9
100
AcDbSymbolTableRecord
100
AcDbRegAppTableRecord
  2
ACAD_EXEMPT_FROM_CAD_STANDARDS
 70
     0
  0
APPID
  5
2B4FA
330
9
100
AcDbSymbolTableRecord
100
AcDbRegAppTableRecord
  2
ACAD_PSEXT
 70
     0
  0
APPID
  5
2B4FB
330
9
100
AcDbSymbolTableRecord
100
AcDbRegAppTableRecord
  2
ACAD_DSTYLE_DIMEXT_LENGTH
 70
     0
  0
APPID
  5
2B4FC
330
9
100
AcDbSymbolTableRecord
100
AcDbRegAppTableRecord
  2
ACAD_DSTYLE_DIMEXT_ENABLED
 70
     0
  0
APPID
  5
2B4FD
330
9
100
AcDbSymbolTableRecord
100
AcDbRegAppTableRecord
  2
ACAD_DSTYLE_DIMJOGGED_JOGANGLE_SYMBOL
 70
     0
  0
APPID
  5
2B4FE
330
9
100
AcDbSymbolTableRecord
100
AcDbRegAppTableRecord
  2
ACAD_DSTYLE_DIMARC_LENGTH_SYMBOL
 70
     0
  0
ENDTAB
  0
TABLE
  2
DIMSTYLE
  5
A
330
0
100
AcDbSymbolTable
 70
     3
100
AcDbDimStyleTable
 71
     1
340
1D
  0
DIMSTYLE
105
1D
102
{ACAD_REACTORS
330
280B1
330
280B2
330
280B3
102
}
330
A
100
AcDbSymbolTableRecord
100
AcDbDimStyleTableRecord
  2
STANDARD
 70
     0
340
F
  0
ENDTAB
  0
TABLE
  2
BLOCK_RECORD
  5
1
330
0
100
AcDbSymbolTable
 70
     8
  0
BLOCK_RECORD
  5
18
102
{ACAD_XDICTIONARY
360
9822
102
}
330
1
100
AcDbSymbolTableRecord
100
AcDbBlockTableRecord
  2
*MODEL_SPACE
340
1B1E6
  0
BLOCK_RECORD
  5
15
102
{ACAD_XDICTIONARY
360
2663A
102
}
330
1
100
AcDbSymbolTableRecord
100
AcDbBlockTableRecord
  2
*PAPER_SPACE
340
1B1E7
  0
BLOCK_RECORD
  5
280B4
330
1
100
AcDbSymbolTableRecord
100
AcDbBlockTableRecord
  2
*D0
340
0
  0
BLOCK_RECORD
  5
280C0
330
1
100
AcDbSymbolTableRecord
100
AcDbBlockTableRecord
  2
*D1
340
0
  0
BLOCK_RECORD
  5
280CC
330
1
100
AcDbSymbolTableRecord
100
AcDbBlockTableRecord
  2
*D2
340
0
  0
ENDTAB
  0
ENDSEC
  0
SECTION
  2
BLOCKS
  0
BLOCK
  5
19
330
18
100
AcDbEntity
  8
0
100
AcDbBlockBegin
  2
*MODEL_SPACE
 70
     2
 10
0.0
 20
0.0
 30
0.0
  3
*MODEL_SPACE
  1

  0
ENDBLK
  5
1A
330
18
100
AcDbEntity
  8
0
100
AcDbBlockEnd
  0
BLOCK
  5
16
330
15
100
AcDbEntity
 67
     1
  8
0
100
AcDbBlockBegin
  2
*PAPER_SPACE
 70
     0
 10
0.0
 20
0.0
 30
0.0
  3
*PAPER_SPACE
  1

  0
ENDBLK
  5
17
330
15
100
AcDbEntity
 67
     1
  8
0
100
AcDbBlockEnd
  0
BLOCK
  5
280BE
330
280B4
100
AcDbEntity
  8
0
100
AcDbBlockBegin
  2
*D0
 70
     1
 10
0.0
 20
0.0
 30
0.0
  3
*D0
  1

  0
LINE
  5
2858A
330
280B4
100
AcDbEntity
  8
Bemassung
 62
     0
100
AcDbLine
 10
56.6785085684566
 20
274.2696408898965
 30
0.0
 11
56.6785085684566
 21
293.8093002240704
 31
0.0
  0
LINE
  5
2858B
330
280B4
100
AcDbEntity
  8
Bemassung
 62
     0
100
AcDbLine
 10
538.6785085684566
 20
274.2696408898965
 30
0.0
 11
538.6785085684566
 21
293.8093002240704
 31
0.0
  0
LINE
  5
2858C
330
280B4
100
AcDbEntity
  8
Bemassung
 62
     0
100
AcDbLine
 10
59.1785085684566
 20
292.5593002240704
 30
0.0
 11
536.1785085684566
 21
292.5593002240704
 31
0.0
  0
SOLID
  5
2858D
330
280B4
100
AcDbEntity
  8
Bemassung
 62
     0
100
AcDbTrace
 10
59.1785085684566
 20
292.9759668907371
 30
0.0
 11
59.1785085684566
 21
292.1426335574037
 31
0.0
 12
56.6785085684566
 22
292.5593002240704
 32
0.0
 13
56.6785085684566
 23
292.5593002240704
 33
0.0
  0
SOLID
  5
2858E
330
280B4
100
AcDbEntity
  8
Bemassung
 62
     0
100
AcDbTrace
 10
536.1785085684566
 20
292.9759668907371
 30
0.0
 11
536.1785085684566
 21
292.1426335574037
 31
0.0
 12
538.6785085684566
 22
292.5593002240704
 32
0.0
 13
538.6785085684566
 23
292.5593002240704
 33
0.0
  0
MTEXT
  5
2858F
330
280B4
100
AcDbEntity
  8
Bemassung
 62
     0
100
AcDbMText
 10
297.6785085684566
 20
294.4343002240704
 30
0.0
 40
2.5
 41
0.0
 71
     5
 72
     1
  1
\A1;483
 73
     1
 44
1.0
1001
ACAD
1000
MTEXTBEGIN
1070
    73
1070
     1
1070
    44
1040
1.0
1070
    74
1070
     0
1000
MTEXTEND
  0
POINT
  5
28590
330
280B4
100
AcDbEntity
  8
DEFPOINTS
 62
     0
100
AcDbPoint
 10
56.6785085684566
 20
273.6446408898966
 30
0.0
  0
POINT
  5
28591
330
280B4
100
AcDbEntity
  8
DEFPOINTS
 62
     0
100
AcDbPoint
 10
538.6785085684566
 20
273.6446408898966
 30
0.0
  0
POINT
  5
28592
330
280B4
100
AcDbEntity
  8
DEFPOINTS
 62
     0
100
AcDbPoint
 10
538.6785085684566
 20
292.5593002240704
 30
0.0
  0
ENDBLK
  5
280BF
330
280B4
100
AcDbEntity
  8
0
100
AcDbBlockEnd
  0
BLOCK
  5
280CA
330
280C0
100
AcDbEntity
  8
0
100
AcDbBlockBegin
  2
*D1
 70
     1
 10
0.0
 20
0.0
 30
0.0
  3
*D1
  1

  0
LINE
  5
28593
330
280C0
100
AcDbEntity
  8
Bemassung
 62
     0
100
AcDbLine
 10
77.67850856845661
 20
274.2696408898965
 30
0.0
 11
77.67850856845661
 21
287.9874221704664
 31
0.0
  0
LINE
  5
28594
330
280C0
100
AcDbEntity
  8
Bemassung
 62
     0
100
AcDbLine
 10
517.6785085684566
 20
274.2696408898965
 30
0.0
 11
517.6785085684566
 21
287.9874221704664
 31
0.0
  0
LINE
  5
28595
330
280C0
100
AcDbEntity
  8
Bemassung
 62
     0
100
AcDbLine
 10
80.1785085684566
 20
286.7374221704664
 30
0.0
 11
515.1785085684566
 21
286.7374221704664
 31
0.0
  0
SOLID
  5
28596
330
280C0
100
AcDbEntity
  8
Bemassung
 62
     0
100
AcDbTrace
 10
80.1785085684566
 20
287.1540888371331
 30
0.0
 11
80.1785085684566
 21
286.3207555037997
 31
0.0
 12
77.67850856845661
 22
286.7374221704664
 32
0.0
 13
77.67850856845661
 23
286.7374221704664
 33
0.0
  0
SOLID
  5
28597
330
280C0
100
AcDbEntity
  8
Bemassung
 62
     0
100
AcDbTrace
 10
515.1785085684566
 20
287.1540888371331
 30
0.0
 11
515.1785085684566
 21
286.3207555037997
 31
0.0
 12
517.6785085684566
 22
286.7374221704664
 32
0.0
 13
517.6785085684566
 23
286.7374221704664
 33
0.0
  0
MTEXT
  5
28598
330
280C0
100
AcDbEntity
  8
Bemassung
 62
     0
100
AcDbMText
 10
297.6785085684566
 20
288.6124221704664
 30
0.0
 40
2.5
 41
0.0
 71
     5
 72
     1
  1
\A1;448
 73
     1
 44
1.0
1001
ACAD
1000
MTEXTBEGIN
1070
    73
1070
     1
1070
    44
1040
1.0
1070
    74
1070
     0
1000
MTEXTEND
  0
POINT
  5
28599
330
280C0
100
AcDbEntity
  8
DEFPOINTS
 62
     0
100
AcDbPoint
 10
77.67850856845661
 20
273.6446408898966
 30
0.0
  0
POINT
  5
2859A
330
280C0
100
AcDbEntity
  8
DEFPOINTS
 62
     0
100
AcDbPoint
 10
517.6785085684566
 20
273.6446408898966
 30
0.0
  0
POINT
  5
2859B
330
280C0
100
AcDbEntity
  8
DEFPOINTS
 62
     0
100
AcDbPoint
 10
517.6785085684566
 20
286.7374221704664
 30
0.0
  0
ENDBLK
  5
280CB
330
280C0
100
AcDbEntity
  8
0
100
AcDbBlockEnd
  0
BLOCK
  5
280D6
330
280CC
100
AcDbEntity
  8
0
100
AcDbBlockBegin
  2
*D2
 70
     1
 10
0.0
 20
0.0
 30
0.0
  3
*D2
  1

  0
LINE
  5
2859C
330
280CC
100
AcDbEntity
  8
Bemassung
 62
     0
100
AcDbLine
 10
56.0535085684566
 20
273.6446408898966
 30
0.0
 11
44.15448934157145
 21
273.6446408898966
 31
0.0
  0
LINE
  5
2859D
330
280CC
100
AcDbEntity
  8
Bemassung
 62
     0
100
AcDbLine
 10
56.0535085684566
 20
141.1446408898965
 30
0.0
 11
44.15448934157141
 21
141.1446408898965
 31
0.0
  0
LINE
  5
2859E
330
280CC
100
AcDbEntity
  8
Bemassung
 62
     0
100
AcDbLine
 10
45.40448934157144
 20
271.1446408898965
 30
0.0
 11
45.40448934157141
 21
143.6446408898965
 31
0.0
  0
SOLID
  5
2859F
330
280CC
100
AcDbEntity
  8
Bemassung
 62
     0
100
AcDbTrace
 10
44.98782267490478
 20
271.1446408898965
 30
0.0
 11
45.82115600823811
 21
271.1446408898965
 31
0.0
 12
45.40448934157145
 22
273.6446408898966
 32
0.0
 13
45.40448934157145
 23
273.6446408898966
 33
0.0
  0
SOLID
  5
285A0
330
280CC
100
AcDbEntity
  8
Bemassung
 62
     0
100
AcDbTrace
 10
44.98782267490475
 20
143.6446408898965
 30
0.0
 11
45.82115600823807
 21
143.6446408898965
 31
0.0
 12
45.40448934157141
 22
141.1446408898965
 32
0.0
 13
45.40448934157141
 23
141.1446408898965
 33
0.0
  0
MTEXT
  5
285A1
330
280CC
100
AcDbEntity
  8
Bemassung
 62
     0
100
AcDbMText
 10
43.52948934157139
 20
207.3946408898966
 30
0.0
 40
2.5
 41
0.0
 71
     5
 72
     1
  1
\A1;133
 11
0.0000000000000001
 21
1.0
 31
0.0
 73
     1
 44
1.0
1001
ACAD
1000
MTEXTBEGIN
1070
    73
1070
     1
1070
    44
1040
1.0
1070
    74
1070
     0
1000
MTEXTEND
  0
POINT
  5
285A2
330
280CC
100
AcDbEntity
  8
DEFPOINTS
 62
     0
100
AcDbPoint
 10
56.6785085684566
 20
273.6446408898966
 30
0.0
  0
POINT
  5
285A3
330
280CC
100
AcDbEntity
  8
DEFPOINTS
 62
     0
100
AcDbPoint
 10
56.6785085684566
 20
141.1446408898965
 30
0.0
  0
POINT
  5
285A4
330
280CC
100
AcDbEntity
  8
DEFPOINTS
 62
     0
100
AcDbPoint
 10
45.40448934157141
 20
141.1446408898965
 30
0.0
  0
ENDBLK
  5
280D7
330
280CC
100
AcDbEntity
  8
0
100
AcDbBlockEnd
  0
ENDSEC
  0
SECTION
  2
ENTITIES
  0
LINE
  5
266D4
330
18
100
AcDbEntity
  8
RAHMEN07
100
AcDbLine
 10
589.0
 20
415.0
 30
0.0
 11
20.0
 21
415.0
 31
0.0
  0
LINE
  5
266D5
330
18
100
AcDbEntity
  8
RAHMEN07
100
AcDbLine
 10
20.0
 20
5.0
 30
0.0
 11
589.0
 21
5.0
 31
0.0
  0
LINE
  5
266D6
330
18
100
AcDbEntity
  8
RAHMEN025
100
AcDbLine
 10
594.0
 20
420.0
 30
0.0
 11
0.0
 21
420.0
 31
0.0
  0
LINE
  5
266D7
330
18
100
AcDbEntity
  8
RAHMEN025
100
AcDbLine
 10
0.0
 20
0.0
 30
0.0
 11
594.0
 21
0.0
 31
0.0
  0
LINE
  5
266D8
330
18
100
AcDbEntity
  8
RAHMEN07
100
AcDbLine
 10
20.0
 20
415.0
 30
0.0
 11
20.0
 21
5.0
 31
0.0
  0
LINE
  5
266D9
330
18
100
AcDbEntity
  8
RAHMEN025
100
AcDbLine
 10
0.0
 20
420.0
 30
0.0
 11
0.0
 21
0.0
 31
0.0
  0
LINE
  5
266DA
330
18
100
AcDbEntity
  8
RAHMEN07
100
AcDbLine
 10
589.0
 20
5.0
 30
0.0
 11
589.0
 21
415.0
 31
0.0
  0
LINE
  5
266DB
330
18
100
AcDbEntity
  8
RAHMEN025
100
AcDbLine
 10
594.0
 20
0.0
 30
0.0
 11
594.0
 21
420.0
 31
0.0
  0
LWPOLYLINE
  5
280A8
330
18
100
AcDbEntity
  8
Frame
100
AcDbPolyline
 90
        4
 70
     0
 43
0.0
 10
71.05777928511116
 20
253.7362323425052
 10
71.05777928511116
 20
253.7095032565292
 10
65.202050475671
 20
253.7095032565292
 10
65.202050475671
 20
253.7362323425052
  0
ARC
  5
280A9
330
18
100
AcDbEntity
  8
Frame
100
AcDbCircle
 10
66.61526480096421
 20
257.4967210702009
 30
0.0
 40
4.01726899775711
100
AcDbArc
 50
110.5965227266884
 51
250.515959274006
  0
LWPOLYLINE
  5
280AB
330
18
100
AcDbEntity
  8
Frame
100
AcDbPolyline
 90
        3
 70
     0
 43
0.0
 10
65.202050475671
 20
261.2572097978966
 10
65.202050475671
 20
261.2572097978966
 10
71.05777928511116
 20
261.2572097978966
  0
DIMENSION
  5
280B1
330
18
100
AcDbEntity
  8
Bemassung
100
AcDbDimension
  2
*D0
 10
538.6785085684566
 20
292.5593002240704
 30
0.0
 11
297.6785085684566
 21
294.4343002240704
 31
0.0
 70
    32
  1
483
 71
     5
 42
-1.0
  3
STANDARD
100
AcDbAlignedDimension
 13
56.6785085684566
 23
273.6446408898966
 33
0.0
 14
538.6785085684566
 24
273.6446408898966
 34
0.0
100
AcDbRotatedDimension
1001
ACAD
1000
DSTYLE
1002
{
1070
   270
1070
     8
1070
   270
1070
     8
1070
   270
1070
     8
1070
   270
1070
     8
1070
    41
1040
2.5
1070
    42
1040
0.625
1070
    43
1040
3.75
1070
    44
1040
1.25
1070
    73
1070
     0
1070
    74
1070
     0
1070
    77
1070
     1
1070
    78
1070
     8
1070
   140
1040
2.5
1070
   141
1040
2.5
1070
   143
1040
0.0394
1070
   147
1040
0.625
1070
   171
1070
     4
1070
   172
1070
     1
1070
   273
1070
     8
1070
   274
1070
     4
1070
   277
1070
     6
1002
}
  0
DIMENSION
  5
280B2
330
18
100
AcDbEntity
  8
Bemassung
100
AcDbDimension
  2
*D1
 10
517.6785085684566
 20
286.7374221704664
 30
0.0
 11
297.6785085684566
 21
288.6124221704664
 31
0.0
 70
    32
  1
448
 71
     5
 42
-1.0
  3
STANDARD
100
AcDbAlignedDimension
 13
77.67850856845661
 23
273.6446408898966
 33
0.0
 14
517.6785085684566
 24
273.6446408898966
 34
0.0
100
AcDbRotatedDimension
1001
ACAD
1000
DSTYLE
1002
{
1070
   270
1070
     8
1070
   270
1070
     8
1070
   270
1070
     8
1070
   270
1070
     8
1070
    41
1040
2.5
1070
    42
1040
0.625
1070
    43
1040
3.75
1070
    44
1040
1.25
1070
    73
1070
     0
1070
    74
1070
     0
1070
    77
1070
     1
1070
    78
1070
     8
1070
   140
1040
2.5
1070
   141
1040
2.5
1070
   143
1040
0.0394
1070
   147
1040
0.625
1070
   171
1070
     4
1070
   172
1070
     1
1070
   273
1070
     8
1070
   274
1070
     4
1070
   277
1070
     6
1002
}
  0
DIMENSION
  5
280B3
330
18
100
AcDbEntity
  8
Bemassung
100
AcDbDimension
  2
*D2
 10
45.40448934157141
 20
141.1446408898965
 30
0.0
 11
43.52948934157139
 21
207.3946408898966
 31
0.0
 70
    32
  1
133
 71
     5
 42
-1.0
  3
STANDARD
100
AcDbAlignedDimension
 13
56.6785085684566
 23
273.6446408898966
 33
0.0
 14
56.6785085684566
 24
141.1446408898965
 34
0.0
 50
90.0
100
AcDbRotatedDimension
1001
ACAD
1000
DSTYLE
1002
{
1070
   270
1070
     8
1070
   270
1070
     8
1070
   270
1070
     8
1070
   270
1070
     8
1070
    41
1040
2.5
1070
    42
1040
0.625
1070
    43
1040
3.75
1070
    44
1040
1.25
1070
    73
1070
     0
1070
    74
1070
     0
1070
    77
1070
     1
1070
    78
1070
     8
1070
   140
1040
2.5
1070
   141
1040
2.5
1070
   143
1040
0.0394
1070
   147
1040
0.625
1070
   171
1070
     4
1070
   172
1070
     1
1070
   273
1070
     8
1070
   274
1070
     4
1070
   277
1070
     6
1002
}
  0
ARC
  5
28114
330
18
100
AcDbEntity
  8
Frame
100
AcDbCircle
 10
69.64456495981796
 20
257.4967210702009
 30
0.0
 40
4.01726899775711
100
AcDbArc
 50
289.4840407259939
 51
69.40347727331154
  0
LWPOLYLINE
  5
28115
330
18
100
AcDbEntity
  8
Frame
100
AcDbPolyline
 90
        4
 70
     0
 43
0.0
 10
71.05777928511116
 20
161.0530494372879
 10
71.05777928511116
 20
161.0797785232639
 10
65.202050475671
 20
161.0797785232639
 10
65.202050475671
 20
161.0530494372879
  0
ARC
  5
28116
330
18
100
AcDbEntity
  8
Frame
100
AcDbCircle
 10
66.61526480096421
 20
157.2925607095922
 30
0.0
 40
4.01726899775711
100
AcDbArc
 50
109.4840407259939
 51
249.4034772733116
  0
LWPOLYLINE
  5
28117
330
18
100
AcDbEntity
  8
Frame
100
AcDbPolyline
 90
        3
 70
     0
 43
0.0
 10
65.202050475671
 20
153.5320719818965
 10
65.202050475671
 20
153.5320719818965
 10
71.05777928511116
 20
153.5320719818965
  0
ARC
  5
28118
330
18
100
AcDbEntity
  8
Frame
100
AcDbCircle
 10
69.64456495981796
 20
157.2925607095922
 30
0.0
 40
4.01726899775711
100
AcDbArc
 50
290.5965227266884
 51
70.51595927400609
  0
LWPOLYLINE
  5
28119
330
18
100
AcDbEntity
  8
Frame
100
AcDbPolyline
 90
        4
 70
     0
 43
0.0
 10
524.2992378518022
 20
253.7362323425052
 10
524.2992378518022
 20
253.7095032565292
 10
530.1549666612422
 20
253.7095032565292
 10
530.1549666612422
 20
253.7362323425052
  0
ARC
  5
2811A
330
18
100
AcDbEntity
  8
Frame
100
AcDbCircle
 10
528.741752335949
 20
257.4967210702009
 30
0.0
 40
4.01726899775711
100
AcDbArc
 50
289.4840407259939
 51
69.40347727331154
  0
LWPOLYLINE
  5
2811B
330
18
100
AcDbEntity
  8
Frame
100
AcDbPolyline
 90
        3
 70
     0
 43
0.0
 10
530.1549666612422
 20
261.2572097978966
 10
530.1549666612422
 20
261.2572097978966
 10
524.2992378518022
 20
261.2572097978966
  0
ARC
  5
2811C
330
18
100
AcDbEntity
  8
Frame
100
AcDbCircle
 10
525.7124521770954
 20
257.4967210702009
 30
0.0
 40
4.01726899775711
100
AcDbArc
 50
110.5965227266884
 51
250.515959274006
  0
LWPOLYLINE
  5
2811D
330
18
100
AcDbEntity
  8
Frame
100
AcDbPolyline
 90
        4
 70
     0
 43
0.0
 10
524.2992378518022
 20
161.0530494372879
 10
524.2992378518022
 20
161.0797785232639
 10
530.1549666612422
 20
161.0797785232639
 10
530.1549666612422
 20
161.0530494372879
  0
ARC
  5
2811E
330
18
100
AcDbEntity
  8
Frame
100
AcDbCircle
 10
528.741752335949
 20
157.2925607095922
 30
0.0
 40
4.01726899775711
100
AcDbArc
 50
290.5965227266884
 51
70.51595927400609
  0
LWPOLYLINE
  5
2811F
330
18
100
AcDbEntity
  8
Frame
100
AcDbPolyline
 90
        3
 70
     0
 43
0.0
 10
530.1549666612422
 20
153.5320719818965
 10
530.1549666612422
 20
153.5320719818965
 10
524.2992378518022
 20
153.5320719818965
  0
ARC
  5
28120
330
18
100
AcDbEntity
  8
Frame
100
AcDbCircle
 10
525.7124521770954
 20
157.2925607095922
 30
0.0
 40
4.01726899775711
100
AcDbArc
 50
109.4840407259939
 51
249.4034772733116
  0
MTEXT
  5
29C9E
330
18
100
AcDbEntity
  8
Bemassung
100
AcDbMText
 10
268.8795574345149
 20
486.1830107780843
 30
0.0
 40
2.5
 41
0.0
 71
     1
 72
     1
  1

 11
-1.0
 21
0.0000000000000001
 31
0.0
 73
     1
 44
1.0
1001
ACAD
1000
MTEXTBEGIN
1070
    73
1070
     1
1070
    44
1040
1.0
1070
    74
1070
     0
1000
MTEXTEND
  0
MTEXT
  5
29C9F
330
18
100
AcDbEntity
  8
Bemassung
100
AcDbMText
 10
268.8795574345149
 20
486.1830107780843
 30
0.0
 40
2.5
 41
0.0
 71
     1
 72
     1
  1

 11
-1.0
 21
0.0000000000000001
 31
0.0
 73
     1
 44
1.0
1001
ACAD
1000
MTEXTBEGIN
1070
    73
1070
     1
1070
    44
1040
1.0
1070
    74
1070
     0
1000
MTEXTEND
  0
POINT
  5
2B281
102
{ACAD_REACTORS
330
2B7A6
102
}
330
18
100
AcDbEntity
  8
BLECH
100
AcDbPoint
 10
155.2685085684571
 20
271.8446408898966
 30
0.0
  0
LWPOLYLINE
  5
2B285
102
{ACAD_REACTORS
330
2B7A6
102
}
330
18
100
AcDbEntity
  8
BLECH
100
AcDbPolyline
 90
        4
 70
     1
 43
0.0
 10
114.9685085684566
 20
271.8446408898966
 10
155.2685085684571
 20
271.8446408898966
 10
155.2685085684571
 20
143.4446408898966
 10
114.9685085684566
 20
143.4446408898966
  0
CIRCLE
  5
2B286
102
{ACAD_REACTORS
330
2B7A6
102
}
330
18
100
AcDbEntity
  8
BLECH
100
AcDbCircle
 10
132.6285085684572
 20
268.8446408898966
 30
0.0
 40
2.45
  0
LWPOLYLINE
  5
2B287
102
{ACAD_REACTORS
330
2B7A6
102
}
330
18
100
AcDbEntity
  8
BLECH
100
AcDbPolyline
 90
        6
 70
     1
 43
0.0
 10
131.9934232723486
 20
269.9446408898966
 10
131.35833797624
 20
268.8446408898966
 10
131.9934232723486
 20
267.7446408898966
 10
133.2635938645657
 20
267.7446408898966
 10
133.8986791606744
 20
268.8446408898966
 10
133.2635938645657
 20
269.9446408898966
  0
CIRCLE
  5
2B290
102
{ACAD_REACTORS
330
2B7A6
102
}
330
18
100
AcDbEntity
  8
BLECH
100
AcDbCircle
 10
132.628508568457
 20
146.4446408898966
 30
0.0
 40
2.45
  0
LWPOLYLINE
  5
2B291
102
{ACAD_REACTORS
330
2B7A6
102
}
330
18
100
AcDbEntity
  8
BLECH
100
AcDbPolyline
 90
        6
 70
     1
 43
0.0
 10
131.9934232723485
 20
147.5446408898966
 10
131.3583379762399
 20
146.4446408898966
 10
131.9934232723485
 20
145.3446408898966
 10
133.2635938645656
 20
145.3446408898966
 10
133.8986791606743
 20
146.4446408898966
 10
133.2635938645656
 20
147.5446408898966
  0
CIRCLE
  5
2B46D
102
{ACAD_REACTORS
330
2B5AB
330
2B5BB
102
}
330
18
100
AcDbEntity
  8
BLECH
100
AcDbCircle
 10
305.3685085684575
 20
268.8446407191407
 30
0.0
 40
2.45
  0
LWPOLYLINE
  5
2B46E
102
{ACAD_REACTORS
330
2B5AB
330
2B5BB
102
}
330
18
100
AcDbEntity
  8
BLECH
100
AcDbPolyline
 90
        6
 70
     1
 43
0.0
 10
304.7334232723489
 20
269.9446407191407
 10
304.0983379762403
 20
268.8446407191407
 10
304.7334232723489
 20
267.7446407191407
 10
306.003593864566
 20
267.7446407191407
 10
306.6386791606746
 20
268.8446407191407
 10
306.003593864566
 20
269.9446407191407
  0
CIRCLE
  5
2B484
102
{ACAD_REACTORS
330
2B5BC
330
2B5C6
102
}
330
18
100
AcDbEntity
  8
BLECH
100
AcDbCircle
 10
290.1085085684569
 20
146.4446407191407
 30
0.0
 40
2.45
  0
LWPOLYLINE
  5
2B485
102
{ACAD_REACTORS
330
2B5BC
330
2B5C6
102
}
330
18
100
AcDbEntity
  8
BLECH
100
AcDbPolyline
 90
        6
 70
     1
 43
0.0
 10
289.4734232723483
 20
147.5446407191407
 10
288.8383379762397
 20
146.4446407191407
 10
289.4734232723483
 20
145.3446407191407
 10
290.7435938645654
 20
145.3446407191407
 10
291.3786791606741
 20
146.4446407191407
 10
290.7435938645654
 20
147.5446407191407
  0
LINE
  5
2B4EB
330
18
100
AcDbEntity
  8
Frame
100
AcDbLine
 10
56.6785085684566
 20
141.1446408898965
 30
0.0
 11
538.6785085684566
 21
141.1446408898965
 31
0.0
  0
LINE
  5
2B4EC
330
18
100
AcDbEntity
  8
Frame
  6
VERDECKT2
 62
     8
100
AcDbLine
 10
77.67850856845661
 20
141.1446408898965
 30
0.0
 11
77.67850856845661
 21
273.6446408898966
 31
0.0
  0
LINE
  5
2B4ED
330
18
100
AcDbEntity
  8
Frame
100
AcDbLine
 10
538.6785085684566
 20
273.6446408898966
 30
0.0
 11
56.6785085684566
 21
273.6446408898966
 31
0.0
  0
LINE
  5
2B4EE
330
18
100
AcDbEntity
  8
Frame
100
AcDbLine
 10
56.6785085684566
 20
273.6446408898966
 30
0.0
 11
56.6785085684566
 21
141.1446408898965
 31
0.0
  0
LINE
  5
2B4F0
330
18
100
AcDbEntity
  8
Frame
  6
VERDECKT2
 62
     8
100
AcDbLine
 10
517.6785085684566
 20
141.1446408898965
 30
0.0
 11
517.6785085684566
 21
273.6446408898966
 31
0.0
  0
LINE
  5
2B4F2
330
18
100
AcDbEntity
  8
Frame
100
AcDbLine
 10
538.6785085684566
 20
273.6446408898966
 30
0.0
 11
538.6785085684566
 21
141.1446408898965
 31
0.0
  0
LINE
  5
2B4F4
330
18
100
AcDbEntity
  8
Frame
100
AcDbLine
 10
84.1785085684566
 20
273.6446408898966
 30
0.0
 11
84.1785085684566
 21
141.1446408898965
 31
0.0
  0
LINE
  5
2B4F5
330
18
100
AcDbEntity
  8
Frame
100
AcDbLine
 10
511.1785085684566
 20
273.6446408898966
 30
0.0
 11
511.1785085684566
 21
141.1446408898965
 31
0.0
  0
LINE
  5
2B529
330
18
100
AcDbEntity
  8
TEXTFELD
100
AcDbLine
 10
589.0
 20
21.80000000000018
 30
0.0
 11
379.905891162972
 21
21.80000000000018
 31
0.0
  0
LINE
  5
2B52A
330
18
100
AcDbEntity
  8
TEXTFELD
100
AcDbLine
 10
469.000000000001
 20
13.40000000000054
 30
0.0
 11
389.0000000000001
 21
13.40000000000054
 31
0.0
  0
LINE
  5
2B52B
330
18
100
AcDbEntity
  8
TEXTFELD
100
AcDbLine
 10
589.0
 20
38.40000000000055
 30
0.0
 11
469.000000000001
 21
38.40000000000055
 31
0.0
  0
LINE
  5
2B52C
330
18
100
AcDbEntity
  8
TEXTFELD
100
AcDbLine
 10
567.9617500899949
 20
5.0
 30
0.0
 11
567.9617500899958
 21
21.80000000000018
 31
0.0
  0
LINE
  5
2B52D
330
18
100
AcDbEntity
  8
TEXTFELD
100
AcDbLine
 10
589.0
 20
13.40000000000054
 30
0.0
 11
567.9617500899949
 21
13.40000000000054
 31
0.0
  0
TEXT
  5
2B52E
330
18
100
AcDbEntity
  8
TEXTFELD
100
AcDbText
 10
570.1557668242243
 20
15.59377413430138
 30
0.0
 40
3.476425511656998
  1
Page:
100
AcDbText
  0
TEXT
  5
2B52F
330
18
100
AcDbEntity
  8
TEXTFELD
100
AcDbText
 10
570.1557668242243
 20
7.256695164528537
 30
0.0
 40
3.476425511656998
  1
1 / 1
100
AcDbText
  0
LINE
  5
2B530
330
18
100
AcDbEntity
  8
TEXTFELD
100
AcDbLine
 10
469.0000000000001
 20
5.000000000000909
 30
0.0
 11
469.0000000000001
 21
55.00000000000091
 31
0.0
  0
TEXT
  5
2B531
330
18
100
AcDbEntity
  8
TEXTFELD
100
AcDbText
 10
421.3100100949848
 20
15.59377413430138
 30
0.0
 40
3.476425511656998
  1
Date:
100
AcDbText
  0
LINE
  5
2B532
330
18
100
AcDbEntity
  8
TEXTFELD
100
AcDbLine
 10
418.3971173822312
 20
21.80000000000018
 30
0.0
 11
418.3971173822303
 21
13.40000000000054
 31
0.0
  0
TEXT
  5
2B533
330
18
100
AcDbEntity
  8
TEXTFELD
100
AcDbText
 10
380.5201699836723
 20
15.59377413430138
 30
0.0
 40
3.476425511656998
  1
Name:
100
AcDbText
  0
TEXT
  5
2B534
330
18
100
AcDbEntity
  8
TEXTFELD
100
AcDbText
 10
380.5201699836723
 20
7.256695164528537
 30
0.0
 40
3.476425511656998
  1
File: 
100
AcDbText
  0
TEXT
  5
2B535
330
18
100
AcDbEntity
  8
TEXTFELD
100
AcDbText
 10
471.9209941166032
 20
44.66562196635959
 30
0.0
 40
3.476425511656998
  1
Scale 1:1 (DIN A2)
100
AcDbText
  0
LINE
  5
2B536
330
18
100
AcDbEntity
  8
TEXTFELD
100
AcDbLine
 10
567.9617500899951
 20
38.40000000000055
 30
0.0
 11
567.961750089996
 21
55.00000000000011
 31
0.0
  0
LINE
  5
2B537
330
18
100
AcDbEntity
  8
TEXTFELD
100
AcDbLine
 10
589.0
 20
5.0
 30
0.0
 11
379.905891162972
 21
5.000000000000966
 31
0.0
  0
LINE
  5
2B538
330
18
100
AcDbEntity
  8
TEXTFELD
100
AcDbLine
 10
379.905891162972
 20
5.000000000000909
 30
0.0
 11
379.905891162972
 21
55.00000000000091
 31
0.0
  0
LINE
  5
2B539
330
18
100
AcDbEntity
  8
TEXTFELD
100
AcDbLine
 10
379.905891162972
 20
55.00000000000096
 30
0.0
 11
589.0
 21
55.0
 31
0.0
  0
LINE
  5
2B53A
330
18
100
AcDbEntity
  8
TEXTFELD
100
AcDbLine
 10
589.0
 20
55.0
 30
0.0
 11
589.0
 21
5.0
 31
0.0
  0
LINE
  5
2B53B
330
18
100
AcDbEntity
  8
TEXTFELD
100
AcDbLine
 10
469.0000000000001
 20
5.000000000000568
 30
0.0
 11
469.0000000000001
 21
55.00000000000056
 31
0.0
  0
TEXT
  5
2B53C
330
18
100
AcDbEntity
  8
TEXTFELD
100
AcDbText
 10
397.5497206017919
 20
15.63053387341154
 30
0.0
 40
3.0
  1
Miethling
100
AcDbText
  0
TEXT
  5
2B53D
330
18
100
AcDbEntity
  8
TEXTFELD
100
AcDbText
 10
381.8294790513039
 20
24.72697290493272
 30
0.0
 40
3.0
  1
Fax:
100
AcDbText
  0
TEXT
  5
2B53E
330
18
100
AcDbEntity
  8
TEXTFELD
100
AcDbText
 10
381.8294790513039
 20
47.10386991868756
 30
0.0
 40
3.0
  1
DHD GmbH
100
AcDbText
  0
TEXT
  5
2B53F
330
18
100
AcDbEntity
  8
TEXTFELD
100
AcDbText
 10
381.8294790513039
 20
41.75480612721446
 30
0.0
 40
3.0
  1
Haferkornstraße 5
100
AcDbText
  0
TEXT
  5
2B540
330
18
100
AcDbEntity
  8
TEXTFELD
100
AcDbText
 10
381.8294790513039
 20
36.29477517264729
 30
0.0
 40
3.0
  1
04129 Leipzig / Germany
100
AcDbText
  0
TEXT
  5
2B541
330
18
100
AcDbEntity
  8
TEXTFELD
100
AcDbText
 10
398.4805527305628
 20
24.53217067856315
 30
0.0
 40
3.0
  1
+ 49  341  5897022
100
AcDbText
  0
LINE
  5
2B545
330
18
100
AcDbEntity
  8
TEXTFELD
100
AcDbLine
 10
469.000000000001
 20
13.4000000000002
 30
0.0
 11
379.9058911629721
 21
13.4000000000002
 31
0.0
  0
TEXT
  5
2B546
330
18
100
AcDbEntity
  8
TEXTFELD
100
AcDbText
 10
381.8294790513039
 20
29.58568776218852
 30
0.0
 40
3.0
  1
Phone: + 49  341  5897020
100
AcDbText
  0
TEXT
  5
2B547
330
18
100
AcDbEntity
  8
TEXTFELD
100
AcDbText
 10
394.8409816184467
 20
7.469098588154338
 30
0.0
 40
3.0
  1
52-5081_frontview.dwg
100
AcDbText
  0
TEXT
  5
2B548
330
18
100
AcDbEntity
  8
TEXTFELD
100
AcDbText
 10
501.6858995554764
 20
24.14129955507974
 30
0.0
 40
4.599999999999999
  1
Frontview
100
AcDbText
  0
TEXT
  5
2B549
330
18
100
AcDbEntity
  8
TEXTFELD
100
AcDbText
 10
437.749650981688
 20
15.81476326692919
 30
0.0
 40
3.0
  1
02.03.2007
100
AcDbText
  0
TEXT
  5
2B54B
330
18
100
AcDbEntity
  8
TEXTFELD
100
AcDbText
 10
502.6275544891631
 20
9.994346401232292
 30
0.0
 40
5.259814435336018
  1
52-5081
100
AcDbText
  0
LINE
  5
2B57C
102
{ACAD_REACTORS
330
2B5C6
102
}
330
18
100
AcDbEntity
  8
BLECH
100
AcDbLine
 10
155.6085085684569
 20
143.4446407191406
 30
0.0
 11
155.6085085684564
 21
271.8446410606525
 31
0.0
  0
LINE
  5
2B57D
102
{ACAD_REACTORS
330
2B5C6
102
}
330
18
100
AcDbEntity
  8
BLECH
100
AcDbLine
 10
297.5085085684573
 20
143.4446407191407
 30
0.0
 11
155.608508568457
 21
143.4446407191406
 31
0.0
  0
LINE
  5
2B581
102
{ACAD_REACTORS
330
2B5C6
102
}
330
18
100
AcDbEntity
  8
BLECH
100
AcDbLine
 10
297.5085085684569
 20
271.8446410606525
 30
0.0
 11
155.6085085684564
 21
271.8446410606525
 31
0.0
  0
LINE
  5
2B586
102
{ACAD_REACTORS
330
2B5C6
102
}
330
18
100
AcDbEntity
  8
BLECH
100
AcDbLine
 10
297.5085085684573
 20
143.4446407191407
 30
0.0
 11
297.5085085684569
 21
271.8446410606525
 31
0.0
  0
LINE
  5
2B59C
102
{ACAD_REACTORS
330
2B5BB
102
}
330
18
100
AcDbEntity
  8
BLECH
100
AcDbLine
 10
297.8685085684574
 20
143.4446407191406
 30
0.0
 11
297.8685085684568
 21
271.8446410606525
 31
0.0
  0
LINE
  5
2B59D
102
{ACAD_REACTORS
330
2B5BB
102
}
330
18
100
AcDbEntity
  8
BLECH
100
AcDbLine
 10
510.8685085684574
 20
143.4446407191407
 30
0.0
 11
297.8685085684574
 21
143.4446407191406
 31
0.0
  0
LINE
  5
2B5A1
102
{ACAD_REACTORS
330
2B5BB
102
}
330
18
100
AcDbEntity
  8
BLECH
100
AcDbLine
 10
510.8685085684569
 20
271.8446410606525
 30
0.0
 11
297.8685085684568
 21
271.8446410606525
 31
0.0
  0
LINE
  5
2B5AA
102
{ACAD_REACTORS
330
2B5BB
102
}
330
18
100
AcDbEntity
  8
BLECH
100
AcDbLine
 10
510.8685085684574
 20
143.4446407191407
 30
0.0
 11
510.8685085684569
 21
271.8446410606525
 31
0.0
  0
CIRCLE
  5
2B5AC
102
{ACAD_REACTORS
330
2B5AE
330
2B5BB
102
}
330
18
100
AcDbEntity
  8
BLECH
100
AcDbCircle
 10
305.3685085684573
 20
146.4446407191407
 30
0.0
 40
2.45
  0
LWPOLYLINE
  5
2B5AD
102
{ACAD_REACTORS
330
2B5AE
330
2B5BB
102
}
330
18
100
AcDbEntity
  8
BLECH
100
AcDbPolyline
 90
        6
 70
     1
 43
0.0
 10
304.7334232723488
 20
147.5446407191407
 10
304.0983379762402
 20
146.4446407191407
 10
304.7334232723488
 20
145.3446407191407
 10
306.0035938645659
 20
145.3446407191407
 10
306.6386791606745
 20
146.4446407191407
 10
306.0035938645659
 20
147.5446407191407
  0
CIRCLE
  5
2B5AF
102
{ACAD_REACTORS
330
2B5B1
330
2B5BB
102
}
330
18
100
AcDbEntity
  8
BLECH
100
AcDbCircle
 10
401.8885085684574
 20
146.4446407191407
 30
0.0
 40
2.45
  0
LWPOLYLINE
  5
2B5B0
102
{ACAD_REACTORS
330
2B5B1
330
2B5BB
102
}
330
18
100
AcDbEntity
  8
BLECH
100
AcDbPolyline
 90
        6
 70
     1
 43
0.0
 10
401.2534232723488
 20
147.5446407191407
 10
400.6183379762402
 20
146.4446407191407
 10
401.2534232723488
 20
145.3446407191407
 10
402.5235938645659
 20
145.3446407191407
 10
403.1586791606746
 20
146.4446407191407
 10
402.5235938645659
 20
147.5446407191407
  0
CIRCLE
  5
2B5B2
102
{ACAD_REACTORS
330
2B5B4
330
2B5BB
102
}
330
18
100
AcDbEntity
  8
BLECH
100
AcDbCircle
 10
401.8885085684575
 20
268.8446407191407
 30
0.0
 40
2.45
  0
LWPOLYLINE
  5
2B5B3
102
{ACAD_REACTORS
330
2B5B4
330
2B5BB
102
}
330
18
100
AcDbEntity
  8
BLECH
100
AcDbPolyline
 90
        6
 70
     1
 43
0.0
 10
401.2534232723488
 20
269.9446407191407
 10
400.6183379762402
 20
268.8446407191407
 10
401.2534232723488
 20
267.7446407191407
 10
402.5235938645661
 20
267.7446407191407
 10
403.1586791606747
 20
268.8446407191407
 10
402.5235938645661
 20
269.9446407191407
  0
CIRCLE
  5
2B5B5
102
{ACAD_REACTORS
330
2B5B7
330
2B5BB
102
}
330
18
100
AcDbEntity
  8
BLECH
100
AcDbCircle
 10
503.4885085684571
 20
268.8446407191407
 30
0.0
 40
2.45
  0
LWPOLYLINE
  5
2B5B6
102
{ACAD_REACTORS
330
2B5B7
330
2B5BB
102
}
330
18
100
AcDbEntity
  8
BLECH
100
AcDbPolyline
 90
        6
 70
     1
 43
0.0
 10
502.8534232723486
 20
269.9446407191407
 10
502.21833797624
 20
268.8446407191407
 10
502.8534232723486
 20
267.7446407191407
 10
504.1235938645656
 20
267.7446407191407
 10
504.7586791606743
 20
268.8446407191407
 10
504.1235938645656
 20
269.9446407191407
  0
CIRCLE
  5
2B5B8
102
{ACAD_REACTORS
330
2B5BA
330
2B5BB
102
}
330
18
100
AcDbEntity
  8
BLECH
100
AcDbCircle
 10
503.4885085684573
 20
146.4446407191407
 30
0.0
 40
2.45
  0
LWPOLYLINE
  5
2B5B9
102
{ACAD_REACTORS
330
2B5BA
330
2B5BB
102
}
330
18
100
AcDbEntity
  8
BLECH
100
AcDbPolyline
 90
        6
 70
     1
 43
0.0
 10
502.8534232723486
 20
147.5446407191407
 10
502.21833797624
 20
146.4446407191407
 10
502.8534232723486
 20
145.3446407191407
 10
504.1235938645659
 20
145.3446407191407
 10
504.7586791606745
 20
146.4446407191407
 10
504.1235938645659
 20
147.5446407191407
  0
CIRCLE
  5
2B5BD
102
{ACAD_REACTORS
330
2B5BF
330
2B5C6
102
}
330
18
100
AcDbEntity
  8
BLECH
100
AcDbCircle
 10
290.1085085684568
 20
268.8446407191407
 30
0.0
 40
2.45
  0
LWPOLYLINE
  5
2B5BE
102
{ACAD_REACTORS
330
2B5BF
330
2B5C6
102
}
330
18
100
AcDbEntity
  8
BLECH
100
AcDbPolyline
 90
        6
 70
     1
 43
0.0
 10
289.4734232723482
 20
269.9446407191407
 10
288.8383379762396
 20
268.8446407191407
 10
289.4734232723482
 20
267.7446407191407
 10
290.7435938645654
 20
267.7446407191407
 10
291.378679160674
 20
268.8446407191407
 10
290.7435938645654
 20
269.9446407191407
  0
CIRCLE
  5
2B5C0
102
{ACAD_REACTORS
330
2B5C2
330
2B5C6
102
}
330
18
100
AcDbEntity
  8
BLECH
100
AcDbCircle
 10
163.108508568457
 20
268.8446407191407
 30
0.0
 40
2.45
  0
LWPOLYLINE
  5
2B5C1
102
{ACAD_REACTORS
330
2B5C2
330
2B5C6
102
}
330
18
100
AcDbEntity
  8
BLECH
100
AcDbPolyline
 90
        6
 70
     1
 43
0.0
 10
162.4734232723484
 20
269.9446407191407
 10
161.8383379762398
 20
268.8446407191407
 10
162.4734232723484
 20
267.7446407191407
 10
163.7435938645656
 20
267.7446407191407
 10
164.3786791606742
 20
268.8446407191407
 10
163.7435938645656
 20
269.9446407191407
  0
CIRCLE
  5
2B5C3
102
{ACAD_REACTORS
330
2B5C5
330
2B5C6
102
}
330
18
100
AcDbEntity
  8
BLECH
100
AcDbCircle
 10
163.1085085684569
 20
146.4446407191407
 30
0.0
 40
2.45
  0
LWPOLYLINE
  5
2B5C4
102
{ACAD_REACTORS
330
2B5C5
330
2B5C6
102
}
330
18
100
AcDbEntity
  8
BLECH
100
AcDbPolyline
 90
        6
 70
     1
 43
0.0
 10
162.4734232723483
 20
147.5446407191407
 10
161.8383379762397
 20
146.4446407191407
 10
162.4734232723483
 20
145.3446407191407
 10
163.7435938645654
 20
145.3446407191407
 10
164.3786791606741
 20
146.4446407191407
 10
163.7435938645654
 20
147.5446407191407
  0
LINE
  5
2B69A
102
{ACAD_REACTORS
330
2B7A3
102
}
330
18
100
AcDbEntity
  8
BLECH
100
AcDbLine
 10
114.5685085684569
 20
143.4446408898965
 30
0.0
 11
114.5685085684567
 21
271.8446408898965
 31
0.0
  0
LINE
  5
2B69C
102
{ACAD_REACTORS
330
2B7A3
102
}
330
18
100
AcDbEntity
  8
BLECH
100
AcDbLine
 10
114.5685085684569
 20
143.4446408898965
 30
0.0
 11
84.42850856845678
 21
143.4446408898965
 31
0.0
  0
LINE
  5
2B69E
102
{ACAD_REACTORS
330
2B7A3
102
}
330
18
100
AcDbEntity
  8
BLECH
100
AcDbLine
 10
114.5685085684569
 20
271.8446408898965
 30
0.0
 11
84.42850856845643
 21
271.8446408898966
 31
0.0
  0
POINT
  5
2B69F
102
{ACAD_REACTORS
330
2B7A3
102
}
330
18
100
AcDbEntity
  8
BLECH
  6
ByBlock
 62
     0
100
AcDbPoint
 10
114.5685085684569
 20
271.8446408898965
 30
0.0
  0
CIRCLE
  5
2B6A0
102
{ACAD_REACTORS
330
2B7A3
102
}
330
18
100
AcDbEntity
  8
BLECH
100
AcDbCircle
 10
99.49850856845669
 20
207.6446408898966
 30
0.0
 40
12.0
  0
LINE
  5
2B6A1
102
{ACAD_REACTORS
330
2B7A3
102
}
330
18
100
AcDbEntity
  8
BLECH
100
AcDbLine
 10
84.42850856845678
 20
143.4446408898965
 30
0.0
 11
84.42850856845643
 21
271.8446408898966
 31
0.0
  0
ARC
  5
2B6A7
102
{ACAD_REACTORS
330
2B7A3
102
}
330
18
100
AcDbEntity
  8
BLECH
  6
Continuous
100
AcDbCircle
 10
89.99850856845668
 20
195.6446408898965
 30
0.0
 40
3.5
100
AcDbArc
 50
180.0
 51
270.0
  0
ARC
  5
2B6A9
102
{ACAD_REACTORS
330
2B7A3
102
}
330
18
100
AcDbEntity
  8
BLECH
  6
Continuous
100
AcDbCircle
 10
89.99850856845668
 20
219.6446408898966
 30
0.0
 40
3.5
100
AcDbArc
 50
90.0
 51
180.0
  0
LINE
  5
2B6AA
102
{ACAD_REACTORS
330
2B7A3
102
}
330
18
100
AcDbEntity
  8
BLECH
  6
Continuous
100
AcDbLine
 10
86.49850856845668
 20
219.6446408898966
 30
0.0
 11
86.49850856845668
 21
195.6446408898965
 31
0.0
  0
ARC
  5
2B6AD
102
{ACAD_REACTORS
330
2B7A3
102
}
330
18
100
AcDbEntity
  8
BLECH
  6
Continuous
100
AcDbCircle
 10
99.49850856845669
 20
207.6446408898966
 30
0.0
 40
10.0
100
AcDbArc
 50
73.14204399999969
 51
106.8579560000003
  0
LINE
  5
2B6AF
102
{ACAD_REACTORS
330
2B7A3
102
}
330
18
100
AcDbEntity
  8
BLECH
  6
Continuous
100
AcDbLine
 10
112.4985085684567
 20
195.6446408898965
 30
0.0
 11
112.4985085684567
 21
219.6446408898966
 31
0.0
  0
ARC
  5
2B6B4
102
{ACAD_REACTORS
330
2B7A3
102
}
330
18
100
AcDbEntity
  8
BLECH
  6
Continuous
100
AcDbCircle
 10
108.9985085684567
 20
195.6446408898965
 30
0.0
 40
3.5
100
AcDbArc
 50
270.0
 51
0.0
  0
LINE
  5
2B6B6
102
{ACAD_REACTORS
330
2B7A3
102
}
330
18
100
AcDbEntity
  8
BLECH
  6
Continuous
100
AcDbLine
 10
89.99850856845668
 20
192.1446408898965
 30
0.0
 11
108.9985085684567
 21
192.1446408898965
 31
0.0
  0
ARC
  5
2B6B9
102
{ACAD_REACTORS
330
2B7A3
102
}
330
18
100
AcDbEntity
  8
BLECH
  6
Continuous
100
AcDbCircle
 10
99.49850856845669
 20
207.6446408898966
 30
0.0
 40
6.5
100
AcDbArc
 50
187.2103514533207
 51
174.0708260000017
  0
ARC
  5
2B6BA
102
{ACAD_REACTORS
330
2B7A3
102
}
330
18
100
AcDbEntity
  8
BLECH
  6
Continuous
100
AcDbCircle
 10
99.49850856845669
 20
207.6446408898966
 30
0.0
 40
8.8
100
AcDbArc
 50
282.468867000001
 51
70.75881100000252
  0
ARC
  5
2B6BB
102
{ACAD_REACTORS
330
2B7A3
102
}
330
18
100
AcDbEntity
  8
BLECH
  6
Continuous
100
AcDbCircle
 10
99.49850856845669
 20
207.6446408898966
 30
0.0
 40
8.8
100
AcDbArc
 50
109.2411889999974
 51
257.531132999999
  0
ARC
  5
2B6BD
102
{ACAD_REACTORS
330
2B7A3
102
}
330
18
100
AcDbEntity
  8
BLECH
  6
Continuous
100
AcDbCircle
 10
99.49850856845669
 20
207.6446408898966
 30
0.0
 40
2.85
100
AcDbArc
 50
149.9999999999998
 51
235.8470850000027
  0
ARC
  5
2B6BF
102
{ACAD_REACTORS
330
2B7A3
102
}
330
18
100
AcDbEntity
  8
BLECH
  6
Continuous
100
AcDbCircle
 10
99.49850856845669
 20
207.6446408898966
 30
0.0
 40
3.5
100
AcDbArc
 50
242.7971060000011
 51
329.9999999999999
  0
ARC
  5
2B6C4
102
{ACAD_REACTORS
330
2B7A3
102
}
330
18
100
AcDbEntity
  8
BLECH
  6
Continuous
100
AcDbCircle
 10
99.49850856845669
 20
207.6446408898966
 30
0.0
 40
10.0
100
AcDbArc
 50
259.0472159999988
 51
280.9527840000013
  0
LINE
  5
2B6C5
102
{ACAD_REACTORS
330
2B7A3
102
}
330
18
100
AcDbEntity
  8
BLECH
  6
Continuous
100
AcDbLine
 10
97.59850856845666
 20
199.0522018898965
 30
0.0
 11
97.59850856845666
 21
197.8267998898965
 31
0.0
  0
LINE
  5
2B6C6
102
{ACAD_REACTORS
330
2B7A3
102
}
330
18
100
AcDbEntity
  8
BLECH
  6
Continuous
100
AcDbLine
 10
101.3985085684567
 20
199.0522018898965
 30
0.0
 11
101.3985085684567
 21
197.8267998898965
 31
0.0
  0
LINE
  5
2B6C7
102
{ACAD_REACTORS
330
2B7A3
102
}
330
18
100
AcDbEntity
  8
BLECH
  6
Continuous
100
AcDbLine
 10
97.89850856845673
 20
204.5317643898965
 30
0.0
 11
97.89850856845673
 21
205.2861453898966
 31
0.0
  0
ARC
  5
2B6CB
102
{ACAD_REACTORS
330
2B7A3
102
}
330
18
100
AcDbEntity
  8
BLECH
  6
Continuous
100
AcDbCircle
 10
99.49850856845669
 20
207.6446408898966
 30
0.0
 40
3.5
100
AcDbArc
 50
62.79710600000115
 51
149.9999999999998
  0
LINE
  5
2B6D7
102
{ACAD_REACTORS
330
2B7A3
102
}
330
18
100
AcDbEntity
  8
BLECH
  6
Continuous
100
AcDbLine
 10
93.00750456845666
 20
208.3251123898965
 30
0.0
 11
92.91008606845664
 21
208.0469613898965
 31
0.0
  0
LINE
  5
2B6D8
102
{ACAD_REACTORS
330
2B7A3
102
}
330
18
100
AcDbEntity
  8
BLECH
  6
Continuous
100
AcDbLine
 10
92.91008606845664
 20
208.0469613898965
 30
0.0
 11
92.82723756845669
 21
207.6743948898965
 31
0.0
  0
LINE
  5
2B6D9
102
{ACAD_REACTORS
330
2B7A3
102
}
330
18
100
AcDbEntity
  8
BLECH
  6
Continuous
100
AcDbLine
 10
92.82723756845669
 20
207.6743948898965
 30
0.0
 11
93.04991029837598
 21
206.8288098098855
 31
0.0
  0
LINE
  5
2B6DD
102
{ACAD_REACTORS
330
2B7A3
102
}
330
18
100
AcDbEntity
  8
BLECH
  6
Continuous
100
AcDbLine
 10
96.46742006845668
 20
209.3946408898966
 30
0.0
 11
97.03033656845665
 21
209.0696408898965
 31
0.0
  0
LINE
  5
2B6FB
102
{ACAD_REACTORS
330
2B7A3
102
}
330
18
100
AcDbEntity
  8
BLECH
  6
Continuous
100
AcDbLine
 10
96.59850856845665
 20
215.9530698898965
 30
0.0
 11
96.59850856845665
 21
217.2149068898965
 31
0.0
  0
ARC
  5
2B708
102
{ACAD_REACTORS
330
2B7A3
102
}
330
18
100
AcDbEntity
  8
BLECH
  6
Continuous
100
AcDbCircle
 10
99.49850856845669
 20
207.6446408898966
 30
0.0
 40
2.85
100
AcDbArc
 50
329.9999999999999
 51
55.84708500000267
  0
LINE
  5
2B709
102
{ACAD_REACTORS
330
2B7A3
102
}
330
18
100
AcDbEntity
  8
BLECH
  6
Continuous
100
AcDbLine
 10
101.0985085684566
 20
210.0031358898965
 30
0.0
 11
101.0985085684566
 21
210.7575173898965
 31
0.0
  0
LINE
  5
2B719
102
{ACAD_REACTORS
330
2B7A3
102
}
330
18
100
AcDbEntity
  8
BLECH
  6
Continuous
100
AcDbLine
 10
101.9666810684566
 20
206.2196408898965
 30
0.0
 11
102.5295975684567
 21
205.8946408898965
 31
0.0
  0
LINE
  5
2B73B
102
{ACAD_REACTORS
330
2B7A3
102
}
330
18
100
AcDbEntity
  8
BLECH
  6
Continuous
100
AcDbLine
 10
102.3985085684567
 20
215.9530698898965
 30
0.0
 11
102.3985085684567
 21
217.2149068898965
 31
0.0
  0
LINE
  5
2B742
102
{ACAD_REACTORS
330
2B7A3
102
}
330
18
100
AcDbEntity
  8
BLECH
  6
Continuous
100
AcDbLine
 10
108.9985085684567
 20
223.1446408898965
 30
0.0
 11
89.99850856845668
 21
223.1446408898965
 31
0.0
  0
ARC
  5
2B747
102
{ACAD_REACTORS
330
2B7A3
102
}
330
18
100
AcDbEntity
  8
BLECH
  6
Continuous
100
AcDbCircle
 10
108.9985085684567
 20
219.6446408898966
 30
0.0
 40
3.5
100
AcDbArc
 50
0.0
 51
90.0
  0
CIRCLE
  5
2B769
102
{ACAD_REACTORS
330
2B79B
330
2B7A3
102
}
330
18
100
AcDbEntity
  8
BLECH
100
AcDbCircle
 10
97.00850856845704
 20
268.8446408898965
 30
0.0
 40
2.45
  0
LWPOLYLINE
  5
2B76A
102
{ACAD_REACTORS
330
2B79B
330
2B7A3
102
}
330
18
100
AcDbEntity
  8
BLECH
100
AcDbPolyline
 90
        6
 70
     1
 43
0.0
 10
96.37342327234847
 20
269.9446408898966
 10
95.73833797623988
 20
268.8446408898965
 10
96.37342327234847
 20
267.7446408898965
 10
97.64359386456561
 20
267.7446408898965
 10
98.27867916067422
 20
268.8446408898965
 10
97.64359386456561
 20
269.9446408898966
  0
CIRCLE
  5
2B773
102
{ACAD_REACTORS
330
2B79C
330
2B7A3
102
}
330
18
100
AcDbEntity
  8
BLECH
100
AcDbCircle
 10
97.00850856845693
 20
146.4446408898965
 30
0.0
 40
2.45
  0
LWPOLYLINE
  5
2B774
102
{ACAD_REACTORS
330
2B79C
330
2B7A3
102
}
330
18
100
AcDbEntity
  8
BLECH
100
AcDbPolyline
 90
        6
 70
     1
 43
0.0
 10
96.37342327234836
 20
147.5446408898966
 10
95.73833797623976
 20
146.4446408898965
 10
96.37342327234836
 20
145.3446408898965
 10
97.6435938645655
 20
145.3446408898965
 10
98.27867916067411
 20
146.4446408898965
 10
97.6435938645655
 20
147.5446408898966
  0
CIRCLE
  5
2B79D
102
{ACAD_REACTORS
330
2B79F
330
2B7A3
102
}
330
18
100
AcDbEntity
  8
BLECH
100
AcDbCircle
 10
89.99850856845668
 20
219.6446408898966
 30
0.0
 40
2.797118100707199
  0
LWPOLYLINE
  5
2B79E
102
{ACAD_REACTORS
330
2B79F
330
2B7A3
102
}
330
18
100
AcDbEntity
  8
BLECH
100
AcDbPolyline
 90
        6
 70
     1
 43
0.0
 10
89.27344384305332
 20
220.9004898330713
 10
88.54837911764992
 20
219.6446408898966
 10
89.27344384305332
 20
218.3887919467219
 10
90.72357329386006
 20
218.3887919467219
 10
91.44863801926348
 20
219.6446408898966
 10
90.72357329386006
 20
220.9004898330713
  0
CIRCLE
  5
2B7A0
102
{ACAD_REACTORS
330
2B7A2
330
2B7A3
102
}
330
18
100
AcDbEntity
  8
BLECH
100
AcDbCircle
 10
108.9985085684567
 20
195.6446408898965
 30
0.0
 40
2.797118100707199
  0
LWPOLYLINE
  5
2B7A1
102
{ACAD_REACTORS
330
2B7A2
330
2B7A3
102
}
330
18
100
AcDbEntity
  8
BLECH
100
AcDbPolyline
 90
        6
 70
     1
 43
0.0
 10
108.2734438430533
 20
196.9004898330713
 10
107.5483791176499
 20
195.6446408898965
 10
108.2734438430533
 20
194.3887919467219
 10
109.72357329386
 20
194.3887919467219
 10
110.4486380192635
 20
195.6446408898965
 10
109.72357329386
 20
196.9004898330713
  0
LINE
  5
2B7A4
330
18
100
AcDbEntity
  8
Frame
100
AcDbLine
 10
511.1785085684567
 20
272.1446408898966
 30
0.0
 11
84.17850856845658
 21
272.1446408898966
 31
0.0
  0
LINE
  5
2B7A5
330
18
100
AcDbEntity
  8
Frame
100
AcDbLine
 10
84.17850856845658
 20
142.6446408898965
 30
0.0
 11
511.1785085684567
 21
142.6446408898965
 31
0.0
  0
TEXT
  5
2B7A7
330
18
100
AcDbEntity
  8
TEXTFELD
100
AcDbText
 10
474.7569833410441
 20
31.5676654655548
 30
0.0
 40
4.599999999999999
  1
MX Power Supply Frame 3U
100
AcDbText
  0
ENDSEC
  0
SECTION
  2
OBJECTS
  0
DICTIONARY
  5
C
330
0
100
AcDbDictionary
281
     1
  3
ACAD_COLOR
350
2A328
  3
ACAD_GROUP
350
D
  3
ACAD_LAYOUT
350
1B1E4
  3
ACAD_MATERIAL
350
2A327
  3
ACAD_MLINESTYLE
350
1B
  3
ACAD_PLOTSETTINGS
350
1B1E5
  3
ACAD_PLOTSTYLENAME
350
1B1E2
  3
ACAD_TABLESTYLE
350
2A329
  3
ACDBHEADERROUNDTRIPXREC
350
2B7BD
  3
ACDBVARIABLEDICTIONARY
350
9820
  0
DICTIONARY
  5
2AE1D
330
2
100
AcDbDictionary
280
     1
281
     1
  3
ACAD_LAYERFILTERS
360
2AE1F
  3
ACAD_LAYERSTATES
360
2B4FF
  3
ACLYDICTIONARY
360
2AE1E
  0
DICTIONARY
  5
9822
330
18
100
AcDbDictionary
280
     1
281
     1
  3
ACAD_LAYOUTSELFREF
360
28585
  3
ACAD_SORTENTS
360
9823
  0
DICTIONARY
  5
2663A
330
15
100
AcDbDictionary
280
     1
281
     1
  3
ACAD_LAYOUTSELFREF
360
28584
  0
DICTIONARY
  5
2A328
102
{ACAD_REACTORS
330
C
102
}
330
C
100
AcDbDictionary
281
     1
  0
DICTIONARY
  5
D
102
{ACAD_REACTORS
330
C
102
}
330
C
100
AcDbDictionary
281
     1
  3
*A1
350
981F
  3
*A10
350
29A0C
  3
*A100
350
2B49E
  3
*A101
350
2B3C6
  3
*A102
350
2B4CE
  3
*A103
350
2B4CF
  3
*A104
350
2B4D0
  3
*A105
350
2B4D1
  3
*A106
350
1FC8F
  3
*A107
350
2B4D2
  3
*A108
350
9FC0
  3
*A109
350
9FC1
  3
*A11
350
29A0D
  3
*A110
350
1BD84
  3
*A111
350
2B2B5
  3
*A112
350
1BD85
  3
*A113
350
1BD82
  3
*A114
350
2B3C7
  3
*A115
350
9D2A
  3
*A116
350
2601A
  3
*A117
350
2B3FD
  3
*A118
350
1BD83
  3
*A119
350
2601B
  3
*A12
350
1BD86
  3
*A120
350
1BD87
  3
*A121
350
1BD88
  3
*A122
350
1BD89
  3
*A123
350
2B2B6
  3
*A124
350
265C2
  3
*A125
350
29A05
  3
*A126
350
29A06
  3
*A127
350
2B3C8
  3
*A128
350
2B5AB
  3
*A129
350
2B5AE
  3
*A13
350
1BD8C
  3
*A130
350
2B5B1
  3
*A131
350
2B5B4
  3
*A132
350
2B5B7
  3
*A133
350
2B5BA
  3
*A134
350
2B5BB
  3
*A135
350
2B5BC
  3
*A136
350
2B5BF
  3
*A137
350
2B5C2
  3
*A138
350
2B5C5
  3
*A139
350
2B5C6
  3
*A14
350
29A0E
  3
*A141
350
2B797
  3
*A142
350
2B798
  3
*A143
350
2B799
  3
*A144
350
2B79A
  3
*A145
350
2B79B
  3
*A146
350
2B79C
  3
*A147
350
2B79F
  3
*A148
350
2B7A2
  3
*A149
350
2B7A3
  3
*A15
350
2B3C9
  3
*A150
350
2B7A6
  3
*A16
350
29A0F
  3
*A17
350
29A10
  3
*A18
350
29A11
  3
*A19
350
29A12
  3
*A2
350
21E84
  3
*A20
350
1FC80
  3
*A21
350
194F8
  3
*A22
350
29A13
  3
*A23
350
2A30E
  3
*A24
350
2B1E7
  3
*A25
350
2A30F
  3
*A26
350
2A310
  3
*A27
350
2A311
  3
*A28
350
2B3CA
  3
*A29
350
1BD8A
  3
*A3
350
29A07
  3
*A30
350
2A312
  3
*A31
350
2A313
  3
*A32
350
2A314
  3
*A33
350
2B2EB
  3
*A34
350
2B1F3
  3
*A35
350
2B1FF
  3
*A36
350
A49B
  3
*A37
350
2B20B
  3
*A38
350
2B219
  3
*A39
350
2B21A
  3
*A4
350
29A08
  3
*A40
350
2B2EA
  3
*A41
350
2B22F
  3
*A42
350
2B3FE
  3
*A43
350
2B230
  3
*A44
350
2B264
  3
*A45
350
2B2EC
  3
*A46
350
2B265
  3
*A47
350
2B266
  3
*A48
350
2B267
  3
*A49
350
194F7
  3
*A5
350
29A09
  3
*A50
350
2B27C
  3
*A51
350
2A315
  3
*A52
350
2B27D
  3
*A53
350
2B27E
  3
*A54
350
2B27F
  3
*A55
350
2B400
  3
*A56
350
2B2ED
  3
*A57
350
2B2EE
  3
*A58
350
2B321
  3
*A59
350
2B322
  3
*A6
350
A22E
  3
*A60
350
2B323
  3
*A61
350
2B324
  3
*A62
350
A49A
  3
*A63
350
2B3FF
  3
*A64
350
2B325
  3
*A65
350
194F5
  3
*A66
350
2B358
  3
*A67
350
2B359
  3
*A68
350
2B401
  3
*A69
350
2B35A
  3
*A7
350
29A0A
  3
*A70
350
2B35B
  3
*A71
350
2B35C
  3
*A72
350
2B38F
  3
*A73
350
2A316
  3
*A74
350
2B390
  3
*A75
350
2B280
  3
*A76
350
2B391
  3
*A77
350
2B392
  3
*A78
350
2B393
  3
*A79
350
9D4A
  3
*A8
350
29A0B
  3
*A80
350
2B461
  3
*A81
350
2B462
  3
*A82
350
2B463
  3
*A83
350
2B464
  3
*A84
350
2A317
  3
*A85
350
2B465
  3
*A86
350
2B466
  3
*A88
350
A22D
  3
*A89
350
2B467
  3
*A9
350
2B2B7
  3
*A90
350
2B468
  3
*A91
350
2B469
  3
*A92
350
2B46A
  3
*A93
350
194F6
  3
*A95
350
1BD8B
  3
*A96
350
2B49B
  3
*A97
350
2B49C
  3
*A98
350
2B49D
  3
*A99
350
2B2B4
  0
DICTIONARY
  5
1B1E4
102
{ACAD_REACTORS
330
C
102
}
330
C
100
AcDbDictionary
281
     1
  3
Layout1
350
1B1E7
  3
Model
350
1B1E6
  0
DICTIONARY
  5
2A327
102
{ACAD_REACTORS
330
C
102
}
330
C
100
AcDbDictionary
281
     1
  0
DICTIONARY
  5
1B
102
{ACAD_REACTORS
330
C
102
}
330
C
100
AcDbDictionary
281
     1
  3
STANDARD
350
1C
  0
DICTIONARY
  5
1B1E5
102
{ACAD_REACTORS
330
C
102
}
330
C
100
AcDbDictionary
281
     1
  0
ACDBDICTIONARYWDFLT
  5
1B1E2
102
{ACAD_REACTORS
330
C
102
}
330
C
100
AcDbDictionary
281
     1
  3
Normal
350
1B1E3
100
AcDbDictionaryWithDefault
340
1B1E3
1001
ACAD
1000
TREAT_AS_HARD
1070
     0
  0
DICTIONARY
  5
2A329
102
{ACAD_REACTORS
330
C
102
}
330
C
100
AcDbDictionary
281
     1
  3
Standard
350
2A32A
  0
DICTIONARY
  5
2B7BD
102
{ACAD_REACTORS
330
C
102
}
330
C
100
AcDbDictionary
281
     1
  0
DICTIONARY
  5
9820
102
{ACAD_REACTORS
330
C
102
}
330
C
100
AcDbDictionary
281
     1
  3
CTABLESTYLE
350
2A332
  3
DIMASSOC
350
1FD3B
  3
PROJECTNAME
350
2B4E4
  3
SORTENTS
350
9821
  0
DICTIONARY
  5
2AE1F
102
{ACAD_REACTORS
330
2AE1D
102
}
330
2AE1D
100
AcDbDictionary
281
     1
  0
DICTIONARY
  5
2B4FF
102
{ACAD_REACTORS
330
2AE1D
102
}
330
2AE1D
100
AcDbDictionary
281
     1
  0
DICTIONARY
  5
2AE1E
102
{ACAD_REACTORS
330
2AE1D
102
}
330
2AE1D
100
AcDbDictionary
281
     1
1001
ACAD
1000
<AllUsed
  0
XRECORD
  5
28585
102
{ACAD_REACTORS
330
9822
102
}
330
9822
100
AcDbXrecord
280
     1
340
18
  0
SORTENTSTABLE
  5
9823
102
{ACAD_REACTORS
330
9822
102
}
330
9822
100
AcDbSortentsTable
330
18
331
2B6B6
  5
2B6BA
331
2B4ED
  5
280AC
331
2B6C6
  5
2B6CB
331
2B4F5
  5
2811C
331
266D9
  5
266D9
331
2B709
  5
2B73B
331
2B719
  5
2B742
331
2B52D
  5
2B52F
331
2B535
  5
2B537
331
2B69F
  5
2B6A1
331
2B5B3
  5
2B5B6
331
2B57C
  5
2B581
331
2B53D
  5
2B53F
331
2B6A7
  5
2B6AA
331
2B545
  5
2B547
331
2B6AF
  5
2B6B6
331
28116
  5
29C9F
331
2811E
  5
2AE25
331
2B5C3
  5
2B69A
331
2B6BF
  5
2B6C5
331
2B4EE
  5
280B2
331
2B59C
  5
2B5A1
331
2B6C7
  5
2B6D7
331
2B290
  5
2B29C
331
266DA
  5
266DA
331
2B52E
  5
2B530
331
2B6D7
  5
2B6D9
331
2B5AC
  5
2B5AF
331
2B536
  5
2B538
331
2B6A0
  5
2B6A7
331
2B57D
  5
2B586
331
2B53E
  5
2B540
331
2B546
  5
2B548
331
2B281
  5
2B28D
331
28117
  5
2A8F9
331
2811F
  5
2AE26
331
280A8
  5
28115
331
2B7A0
  5
2B7A4
331
2B769
  5
2B773
331
2B742
  5
2B769
331
2B5C4
  5
2B69C
331
2B59D
  5
2B5AA
331
2B291
  5
2B29D
331
29C9E
  5
2B28B
331
266DB
  5
266DB
331
2B52F
  5
2B531
331
2B6D8
  5
2B6DD
331
2B5AD
  5
2B5B0
331
2B537
  5
2B539
331
2B6A1
  5
2B6A9
331
2B5B5
  5
2B5B8
331
2B53F
  5
2B541
331
2B6A9
  5
2B6AD
331
2B5BD
  5
2B5C0
331
2B586
  5
2B59D
331
2B547
  5
2B549
331
28118
  5
2AB76
331
28120
  5
2AE27
331
280A9
  5
28117
331
280B1
  5
2811D
331
2B7A1
  5
2B7A5
331
2B76A
  5
2B774
331
2B73B
  5
2B747
331
2B6B9
  5
2B6BB
331
2B4F0
  5
2811A
331
29C9F
  5
2B28C
331
266D4
  5
266D4
331
2B530
  5
2B532
331
2B6D9
  5
2B6FB
331
2B69A
  5
2B69E
331
2B538
  5
2B53A
331
2B5B6
  5
2B5B9
331
2B540
  5
2B545
331
2B6AA
  5
2B6AF
331
2B5BE
  5
2B5C1
331
28119
  5
2AB78
331
280B2
  5
2811E
331
2B773
  5
2B79D
331
2B548
  5
2B54B
331
2B6BA
  5
2B6BD
331
266D5
  5
266D5
331
2B529
  5
2B52B
331
2B531
  5
2B533
331
2B5AF
  5
2B5B2
331
2B539
  5
2B53B
331
2B541
  5
2B546
331
2811A
  5
2AB7A
331
280AB
  5
28119
331
280B3
  5
2811F
331
2B774
  5
2B79E
331
2B549
  5
2B57C
331
2B6BB
  5
2B6BF
331
2B4F2
  5
2811B
331
2B6CB
  5
2B6D8
331
2B484
  5
2B529
331
266D6
  5
266D6
331
2B52A
  5
2B52C
331
2B532
  5
2B534
331
2B69C
  5
2B69F
331
2B5B0
  5
2B5B3
331
2B53A
  5
2B53C
331
2B5B8
  5
2B5BD
331
2B581
  5
2B59C
331
2B46D
  5
2B48E
331
2B285
  5
2B291
331
2811B
  5
2AE21
331
2B7A4
  5
280B1
331
2B5C0
  5
2B5C3
331
2B6B4
  5
2B6B9
331
2B6FB
  5
2B709
331
2B4EB
  5
280A8
331
2B6C4
  5
2B6C6
331
2B485
  5
2B52A
331
266D7
  5
266D7
331
2B5A1
  5
2B5AC
331
2B79D
  5
2B7A0
331
2B52B
  5
2B52D
331
2B533
  5
2B535
331
2B53B
  5
2B53D
331
2B5B9
  5
2B5BE
331
2B6AD
  5
2B6B4
331
2B46E
  5
2B48F
331
2B286
  5
2B292
331
28114
  5
28120
331
2811C
  5
2AE22
331
2B7A5
  5
280A9
331
2B5C1
  5
2B5C4
331
2B747
  5
2B76A
331
2B54B
  5
2B57D
331
2B6BD
  5
2B6C4
331
2B4EC
  5
280AB
331
2B6C5
  5
2B6C7
331
2B4F4
  5
280B3
331
266D8
  5
266D8
331
2B708
  5
2B719
331
2B79E
  5
2B7A1
331
2B52C
  5
2B52E
331
2B5AA
  5
2B5AD
331
2B534
  5
2B536
331
2B6DD
  5
2B708
331
2B69E
  5
2B6A0
331
2B5B2
  5
2B5B5
331
2B53C
  5
2B53E
331
2B287
  5
2B293
331
28115
  5
29C9E
331
2811D
  5
2AE24
  0
XRECORD
  5
28584
102
{ACAD_REACTORS
330
2663A
102
}
330
2663A
100
AcDbXrecord
280
     1
340
15
  0
GROUP
  5
981F
102
{ACAD_REACTORS
330
D
102
}
330
D
100
AcDbGroup
300

 70
     1
 71
     1
  0
GROUP
  5
29A0C
102
{ACAD_REACTORS
330
D
102
}
330
D
100
AcDbGroup
300

 70
     1
 71
     1
  0
GROUP
  5
2B49E
102
{ACAD_REACTORS
330
D
102
}
330
D
100
AcDbGroup
300

 70
     1
 71
     1
  0
GROUP
  5
2B3C6
102
{ACAD_REACTORS
330
D
102
}
330
D
100
AcDbGroup
300

 70
     1
 71
     1
  0
GROUP
  5
2B4CE
102
{ACAD_REACTORS
330
D
102
}
330
D
100
AcDbGroup
300

 70
     1
 71
     1
  0
GROUP
  5
2B4CF
102
{ACAD_REACTORS
330
D
102
}
330
D
100
AcDbGroup
300

 70
     1
 71
     1
  0
GROUP
  5
2B4D0
102
{ACAD_REACTORS
330
D
102
}
330
D
100
AcDbGroup
300

 70
     1
 71
     1
  0
GROUP
  5
2B4D1
102
{ACAD_REACTORS
330
D
102
}
330
D
100
AcDbGroup
300

 70
     1
 71
     1
  0
GROUP
  5
1FC8F
102
{ACAD_REACTORS
330
D
102
}
330
D
100
AcDbGroup
300

 70
     1
 71
     1
  0
GROUP
  5
2B4D2
102
{ACAD_REACTORS
330
D
102
}
330
D
100
AcDbGroup
300

 70
     1
 71
     1
  0
GROUP
  5
9FC0
102
{ACAD_REACTORS
330
D
102
}
330
D
100
AcDbGroup
300

 70
     1
 71
     1
  0
GROUP
  5
9FC1
102
{ACAD_REACTORS
330
D
102
}
330
D
100
AcDbGroup
300

 70
     1
 71
     1
  0
GROUP
  5
29A0D
102
{ACAD_REACTORS
330
D
102
}
330
D
100
AcDbGroup
300

 70
     3
 71
     1
  0
GROUP
  5
1BD84
102
{ACAD_REACTORS
330
D
102
}
330
D
100
AcDbGroup
300

 70
     1
 71
     1
  0
GROUP
  5
2B2B5
102
{ACAD_REACTORS
330
D
102
}
330
D
100
AcDbGroup
300

 70
     1
 71
     1
  0
GROUP
  5
1BD85
102
{ACAD_REACTORS
330
D
102
}
330
D
100
AcDbGroup
300

 70
     1
 71
     1
  0
GROUP
  5
1BD82
102
{ACAD_REACTORS
330
D
102
}
330
D
100
AcDbGroup
300

 70
     1
 71
     1
  0
GROUP
  5
2B3C7
102
{ACAD_REACTORS
330
D
102
}
330
D
100
AcDbGroup
300

 70
     1
 71
     1
  0
GROUP
  5
9D2A
102
{ACAD_REACTORS
330
D
102
}
330
D
100
AcDbGroup
300

 70
     1
 71
     1
  0
GROUP
  5
2601A
102
{ACAD_REACTORS
330
D
102
}
330
D
100
AcDbGroup
300

 70
     1
 71
     1
  0
GROUP
  5
2B3FD
102
{ACAD_REACTORS
330
D
102
}
330
D
100
AcDbGroup
300

 70
     1
 71
     1
  0
GROUP
  5
1BD83
102
{ACAD_REACTORS
330
D
102
}
330
D
100
AcDbGroup
300

 70
     1
 71
     1
  0
GROUP
  5
2601B
102
{ACAD_REACTORS
330
D
102
}
330
D
100
AcDbGroup
300

 70
     1
 71
     1
  0
GROUP
  5
1BD86
102
{ACAD_REACTORS
330
D
102
}
330
D
100
AcDbGroup
300

 70
     1
 71
     1
  0
GROUP
  5
1BD87
102
{ACAD_REACTORS
330
D
102
}
330
D
100
AcDbGroup
300

 70
     1
 71
     1
  0
GROUP
  5
1BD88
102
{ACAD_REACTORS
330
D
102
}
330
D
100
AcDbGroup
300

 70
     1
 71
     1
  0
GROUP
  5
1BD89
102
{ACAD_REACTORS
330
D
102
}
330
D
100
AcDbGroup
300

 70
     1
 71
     1
  0
GROUP
  5
2B2B6
102
{ACAD_REACTORS
330
D
102
}
330
D
100
AcDbGroup
300

 70
     1
 71
     1
  0
GROUP
  5
265C2
102
{ACAD_REACTORS
330
D
102
}
330
D
100
AcDbGroup
300

 70
     1
 71
     1
  0
GROUP
  5
29A05
102
{ACAD_REACTORS
330
D
102
}
330
D
100
AcDbGroup
300

 70
     1
 71
     1
  0
GROUP
  5
29A06
102
{ACAD_REACTORS
330
D
102
}
330
D
100
AcDbGroup
300

 70
     3
 71
     1
  0
GROUP
  5
2B3C8
102
{ACAD_REACTORS
330
D
102
}
330
D
100
AcDbGroup
300

 70
     1
 71
     1
  0
GROUP
  5
2B5AB
102
{ACAD_REACTORS
330
D
102
}
330
D
100
AcDbGroup
300

 70
     1
 71
     1
340
2B46E
340
2B46D
  0
GROUP
  5
2B5AE
102
{ACAD_REACTORS
330
D
102
}
330
D
100
AcDbGroup
300

 70
     1
 71
     1
340
2B5AD
340
2B5AC
  0
GROUP
  5
1BD8C
102
{ACAD_REACTORS
330
D
102
}
330
D
100
AcDbGroup
300

 70
     1
 71
     1
  0
GROUP
  5
2B5B1
102
{ACAD_REACTORS
330
D
102
}
330
D
100
AcDbGroup
300

 70
     1
 71
     1
340
2B5B0
340
2B5AF
  0
GROUP
  5
2B5B4
102
{ACAD_REACTORS
330
D
102
}
330
D
100
AcDbGroup
300

 70
     1
 71
     1
340
2B5B3
340
2B5B2
  0
GROUP
  5
2B5B7
102
{ACAD_REACTORS
330
D
102
}
330
D
100
AcDbGroup
300

 70
     1
 71
     1
340
2B5B6
340
2B5B5
  0
GROUP
  5
2B5BA
102
{ACAD_REACTORS
330
D
102
}
330
D
100
AcDbGroup
300

 70
     1
 71
     1
340
2B5B9
340
2B5B8
  0
GROUP
  5
2B5BB
102
{ACAD_REACTORS
330
D
102
}
330
D
100
AcDbGroup
300

 70
     1
 71
     1
340
2B5B9
340
2B5B8
340
2B5B6
340
2B5B5
340
2B5B3
340
2B5B2
340
2B5B0
340
2B5AF
340
2B5AD
340
2B5AC
340
2B5AA
340
2B5A1
340
2B59D
340
2B59C
340
2B46E
340
2B46D
  0
GROUP
  5
2B5BC
102
{ACAD_REACTORS
330
D
102
}
330
D
100
AcDbGroup
300

 70
     1
 71
     1
340
2B485
340
2B484
  0
GROUP
  5
2B5BF
102
{ACAD_REACTORS
330
D
102
}
330
D
100
AcDbGroup
300

 70
     1
 71
     1
340
2B5BE
340
2B5BD
  0
GROUP
  5
2B5C2
102
{ACAD_REACTORS
330
D
102
}
330
D
100
AcDbGroup
300

 70
     1
 71
     1
340
2B5C1
340
2B5C0
  0
GROUP
  5
2B5C5
102
{ACAD_REACTORS
330
D
102
}
330
D
100
AcDbGroup
300

 70
     1
 71
     1
340
2B5C4
340
2B5C3
  0
GROUP
  5
2B5C6
102
{ACAD_REACTORS
330
D
102
}
330
D
100
AcDbGroup
300

 70
     1
 71
     1
340
2B5C4
340
2B5C3
340
2B5C1
340
2B5C0
340
2B5BE
340
2B5BD
340
2B586
340
2B581
340
2B57D
340
2B57C
340
2B485
340
2B484
  0
GROUP
  5
29A0E
102
{ACAD_REACTORS
330
D
102
}
330
D
100
AcDbGroup
300

 70
     3
 71
     1
  0
GROUP
  5
2B797
102
{ACAD_REACTORS
330
D
102
}
330
D
100
AcDbGroup
300

 70
     1
 71
     1
  0
GROUP
  5
2B798
102
{ACAD_REACTORS
330
D
102
}
330
D
100
AcDbGroup
300

 70
     1
 71
     1
  0
GROUP
  5
2B799
102
{ACAD_REACTORS
330
D
102
}
330
D
100
AcDbGroup
300

 70
     1
 71
     1
  0
GROUP
  5
2B79A
102
{ACAD_REACTORS
330
D
102
}
330
D
100
AcDbGroup
300

 70
     1
 71
     1
  0
GROUP
  5
2B79B
102
{ACAD_REACTORS
330
D
102
}
330
D
100
AcDbGroup
300

 70
     1
 71
     1
340
2B76A
340
2B769
  0
GROUP
  5
2B79C
102
{ACAD_REACTORS
330
D
102
}
330
D
100
AcDbGroup
300

 70
     1
 71
     1
340
2B774
340
2B773
  0
GROUP
  5
2B79F
102
{ACAD_REACTORS
330
D
102
}
330
D
100
AcDbGroup
300

 70
     1
 71
     1
340
2B79E
340
2B79D
  0
GROUP
  5
2B7A2
102
{ACAD_REACTORS
330
D
102
}
330
D
100
AcDbGroup
300

 70
     1
 71
     1
340
2B7A1
340
2B7A0
  0
GROUP
  5
2B7A3
102
{ACAD_REACTORS
330
D
102
}
330
D
100
AcDbGroup
300

 70
     1
 71
     1
340
2B7A1
340
2B7A0
340
2B79E
340
2B79D
340
2B774
340
2B773
340
2B76A
340
2B769
340
2B747
340
2B742
340
2B73B
340
2B719
340
2B709
340
2B708
340
2B6FB
340
2B6DD
340
2B6D9
340
2B6D8
340
2B6D7
340
2B6CB
340
2B6C7
340
2B6C6
340
2B6C5
340
2B6C4
340
2B6BF
340
2B6BD
340
2B6BB
340
2B6BA
340
2B6B9
340
2B6B6
340
2B6B4
340
2B6AF
340
2B6AD
340
2B6AA
340
2B6A9
340
2B6A7
340
2B6A1
340
2B6A0
340
2B69F
340
2B69E
340
2B69C
340
2B69A
  0
GROUP
  5
2B3C9
102
{ACAD_REACTORS
330
D
102
}
330
D
100
AcDbGroup
300

 70
     1
 71
     1
  0
GROUP
  5
2B7A6
102
{ACAD_REACTORS
330
D
102
}
330
D
100
AcDbGroup
300

 70
     1
 71
     1
340
2B291
340
2B290
340
2B287
340
2B286
340
2B285
340
2B281
  0
GROUP
  5
29A0F
102
{ACAD_REACTORS
330
D
102
}
330
D
100
AcDbGroup
300

 70
     1
 71
     1
  0
GROUP
  5
29A10
102
{ACAD_REACTORS
330
D
102
}
330
D
100
AcDbGroup
300

 70
     1
 71
     1
  0
GROUP
  5
29A11
102
{ACAD_REACTORS
330
D
102
}
330
D
100
AcDbGroup
300

 70
     3
 71
     1
  0
GROUP
  5
29A12
102
{ACAD_REACTORS
330
D
102
}
330
D
100
AcDbGroup
300

 70
     3
 71
     1
  0
GROUP
  5
21E84
102
{ACAD_REACTORS
330
D
102
}
330
D
100
AcDbGroup
300

 70
     1
 71
     1
  0
GROUP
  5
1FC80
102
{ACAD_REACTORS
330
D
102
}
330
D
100
AcDbGroup
300

 70
     1
 71
     1
  0
GROUP
  5
194F8
102
{ACAD_REACTORS
330
D
102
}
330
D
100
AcDbGroup
300

 70
     1
 71
     1
  0
GROUP
  5
29A13
102
{ACAD_REACTORS
330
D
102
}
330
D
100
AcDbGroup
300

 70
     3
 71
     1
  0
GROUP
  5
2A30E
102
{ACAD_REACTORS
330
D
102
}
330
D
100
AcDbGroup
300

 70
     1
 71
     1
  0
GROUP
  5
2B1E7
102
{ACAD_REACTORS
330
D
102
}
330
D
100
AcDbGroup
300

 70
     1
 71
     1
  0
GROUP
  5
2A30F
102
{ACAD_REACTORS
330
D
102
}
330
D
100
AcDbGroup
300

 70
     1
 71
     1
  0
GROUP
  5
2A310
102
{ACAD_REACTORS
330
D
102
}
330
D
100
AcDbGroup
300

 70
     1
 71
     1
  0
GROUP
  5
2A311
102
{ACAD_REACTORS
330
D
102
}
330
D
100
AcDbGroup
300

 70
     1
 71
     1
  0
GROUP
  5
2B3CA
102
{ACAD_REACTORS
330
D
102
}
330
D
100
AcDbGroup
300

 70
     1
 71
     1
  0
GROUP
  5
1BD8A
102
{ACAD_REACTORS
330
D
102
}
330
D
100
AcDbGroup
300

 70
     1
 71
     1
  0
GROUP
  5
29A07
102
{ACAD_REACTORS
330
D
102
}
330
D
100
AcDbGroup
300

 70
     3
 71
     1
  0
GROUP
  5
2A312
102
{ACAD_REACTORS
330
D
102
}
330
D
100
AcDbGroup
300

 70
     1
 71
     1
  0
GROUP
  5
2A313
102
{ACAD_REACTORS
330
D
102
}
330
D
100
AcDbGroup
300

 70
     1
 71
     1
  0
GROUP
  5
2A314
102
{ACAD_REACTORS
330
D
102
}
330
D
100
AcDbGroup
300

 70
     1
 71
     1
  0
GROUP
  5
2B2EB
102
{ACAD_REACTORS
330
D
102
}
330
D
100
AcDbGroup
300

 70
     1
 71
     1
  0
GROUP
  5
2B1F3
102
{ACAD_REACTORS
330
D
102
}
330
D
100
AcDbGroup
300

 70
     1
 71
     1
  0
GROUP
  5
2B1FF
102
{ACAD_REACTORS
330
D
102
}
330
D
100
AcDbGroup
300

 70
     1
 71
     1
  0
GROUP
  5
A49B
102
{ACAD_REACTORS
330
D
102
}
330
D
100
AcDbGroup
300

 70
     1
 71
     1
  0
GROUP
  5
2B20B
102
{ACAD_REACTORS
330
D
102
}
330
D
100
AcDbGroup
300

 70
     1
 71
     1
  0
GROUP
  5
2B219
102
{ACAD_REACTORS
330
D
102
}
330
D
100
AcDbGroup
300

 70
     1
 71
     1
  0
GROUP
  5
2B21A
102
{ACAD_REACTORS
330
D
102
}
330
D
100
AcDbGroup
300

 70
     1
 71
     1
  0
GROUP
  5
29A08
102
{ACAD_REACTORS
330
D
102
}
330
D
100
AcDbGroup
300

 70
     3
 71
     1
  0
GROUP
  5
2B2EA
102
{ACAD_REACTORS
330
D
102
}
330
D
100
AcDbGroup
300

 70
     1
 71
     1
  0
GROUP
  5
2B22F
102
{ACAD_REACTORS
330
D
102
}
330
D
100
AcDbGroup
300

 70
     1
 71
     1
  0
GROUP
  5
2B3FE
102
{ACAD_REACTORS
330
D
102
}
330
D
100
AcDbGroup
300

 70
     1
 71
     1
  0
GROUP
  5
2B230
102
{ACAD_REACTORS
330
D
102
}
330
D
100
AcDbGroup
300

 70
     1
 71
     1
  0
GROUP
  5
2B264
102
{ACAD_REACTORS
330
D
102
}
330
D
100
AcDbGroup
300

 70
     1
 71
     1
  0
GROUP
  5
2B2EC
102
{ACAD_REACTORS
330
D
102
}
330
D
100
AcDbGroup
300

 70
     1
 71
     1
  0
GROUP
  5
2B265
102
{ACAD_REACTORS
330
D
102
}
330
D
100
AcDbGroup
300

 70
     1
 71
     1
  0
GROUP
  5
2B266
102
{ACAD_REACTORS
330
D
102
}
330
D
100
AcDbGroup
300

 70
     1
 71
     1
  0
GROUP
  5
2B267
102
{ACAD_REACTORS
330
D
102
}
330
D
100
AcDbGroup
300

 70
     1
 71
     1
  0
GROUP
  5
194F7
102
{ACAD_REACTORS
330
D
102
}
330
D
100
AcDbGroup
300

 70
     1
 71
     1
  0
GROUP
  5
29A09
102
{ACAD_REACTORS
330
D
102
}
330
D
100
AcDbGroup
300

 70
     3
 71
     1
  0
GROUP
  5
2B27C
102
{ACAD_REACTORS
330
D
102
}
330
D
100
AcDbGroup
300

 70
     1
 71
     1
  0
GROUP
  5
2A315
102
{ACAD_REACTORS
330
D
102
}
330
D
100
AcDbGroup
300

 70
     1
 71
     1
  0
GROUP
  5
2B27D
102
{ACAD_REACTORS
330
D
102
}
330
D
100
AcDbGroup
300

 70
     1
 71
     1
  0
GROUP
  5
2B27E
102
{ACAD_REACTORS
330
D
102
}
330
D
100
AcDbGroup
300

 70
     1
 71
     1
  0
GROUP
  5
2B27F
102
{ACAD_REACTORS
330
D
102
}
330
D
100
AcDbGroup
300

 70
     1
 71
     1
  0
GROUP
  5
2B400
102
{ACAD_REACTORS
330
D
102
}
330
D
100
AcDbGroup
300

 70
     1
 71
     1
  0
GROUP
  5
2B2ED
102
{ACAD_REACTORS
330
D
102
}
330
D
100
AcDbGroup
300

 70
     1
 71
     1
  0
GROUP
  5
2B2EE
102
{ACAD_REACTORS
330
D
102
}
330
D
100
AcDbGroup
300

 70
     1
 71
     1
  0
GROUP
  5
2B321
102
{ACAD_REACTORS
330
D
102
}
330
D
100
AcDbGroup
300

 70
     1
 71
     1
  0
GROUP
  5
2B322
102
{ACAD_REACTORS
330
D
102
}
330
D
100
AcDbGroup
300

 70
     1
 71
     1
  0
GROUP
  5
A22E
102
{ACAD_REACTORS
330
D
102
}
330
D
100
AcDbGroup
300

 70
     1
 71
     1
  0
GROUP
  5
2B323
102
{ACAD_REACTORS
330
D
102
}
330
D
100
AcDbGroup
300

 70
     1
 71
     1
  0
GROUP
  5
2B324
102
{ACAD_REACTORS
330
D
102
}
330
D
100
AcDbGroup
300

 70
     1
 71
     1
  0
GROUP
  5
A49A
102
{ACAD_REACTORS
330
D
102
}
330
D
100
AcDbGroup
300

 70
     1
 71
     1
  0
GROUP
  5
2B3FF
102
{ACAD_REACTORS
330
D
102
}
330
D
100
AcDbGroup
300

 70
     1
 71
     1
  0
GROUP
  5
2B325
102
{ACAD_REACTORS
330
D
102
}
330
D
100
AcDbGroup
300

 70
     1
 71
     1
  0
GROUP
  5
194F5
102
{ACAD_REACTORS
330
D
102
}
330
D
100
AcDbGroup
300

 70
     1
 71
     1
  0
GROUP
  5
2B358
102
{ACAD_REACTORS
330
D
102
}
330
D
100
AcDbGroup
300

 70
     1
 71
     1
  0
GROUP
  5
2B359
102
{ACAD_REACTORS
330
D
102
}
330
D
100
AcDbGroup
300

 70
     1
 71
     1
  0
GROUP
  5
2B401
102
{ACAD_REACTORS
330
D
102
}
330
D
100
AcDbGroup
300

 70
     1
 71
     1
  0
GROUP
  5
2B35A
102
{ACAD_REACTORS
330
D
102
}
330
D
100
AcDbGroup
300

 70
     1
 71
     1
  0
GROUP
  5
29A0A
102
{ACAD_REACTORS
330
D
102
}
330
D
100
AcDbGroup
300

 70
     3
 71
     1
  0
GROUP
  5
2B35B
102
{ACAD_REACTORS
330
D
102
}
330
D
100
AcDbGroup
300

 70
     1
 71
     1
  0
GROUP
  5
2B35C
102
{ACAD_REACTORS
330
D
102
}
330
D
100
AcDbGroup
300

 70
     1
 71
     1
  0
GROUP
  5
2B38F
102
{ACAD_REACTORS
330
D
102
}
330
D
100
AcDbGroup
300

 70
     1
 71
     1
  0
GROUP
  5
2A316
102
{ACAD_REACTORS
330
D
102
}
330
D
100
AcDbGroup
300

 70
     1
 71
     1
  0
GROUP
  5
2B390
102
{ACAD_REACTORS
330
D
102
}
330
D
100
AcDbGroup
300

 70
     1
 71
     1
  0
GROUP
  5
2B280
102
{ACAD_REACTORS
330
D
102
}
330
D
100
AcDbGroup
300

 70
     1
 71
     1
  0
GROUP
  5
2B391
102
{ACAD_REACTORS
330
D
102
}
330
D
100
AcDbGroup
300

 70
     1
 71
     1
  0
GROUP
  5
2B392
102
{ACAD_REACTORS
330
D
102
}
330
D
100
AcDbGroup
300

 70
     1
 71
     1
  0
GROUP
  5
2B393
102
{ACAD_REACTORS
330
D
102
}
330
D
100
AcDbGroup
300

 70
     1
 71
     1
  0
GROUP
  5
9D4A
102
{ACAD_REACTORS
330
D
102
}
330
D
100
AcDbGroup
300

 70
     1
 71
     1
  0
GROUP
  5
29A0B
102
{ACAD_REACTORS
330
D
102
}
330
D
100
AcDbGroup
300

 70
     1
 71
     1
  0
GROUP
  5
2B461
102
{ACAD_REACTORS
330
D
102
}
330
D
100
AcDbGroup
300

 70
     1
 71
     1
  0
GROUP
  5
2B462
102
{ACAD_REACTORS
330
D
102
}
330
D
100
AcDbGroup
300

 70
     1
 71
     1
  0
GROUP
  5
2B463
102
{ACAD_REACTORS
330
D
102
}
330
D
100
AcDbGroup
300

 70
     1
 71
     1
  0
GROUP
  5
2B464
102
{ACAD_REACTORS
330
D
102
}
330
D
100
AcDbGroup
300

 70
     1
 71
     1
  0
GROUP
  5
2A317
102
{ACAD_REACTORS
330
D
102
}
330
D
100
AcDbGroup
300

 70
     1
 71
     1
  0
GROUP
  5
2B465
102
{ACAD_REACTORS
330
D
102
}
330
D
100
AcDbGroup
300

 70
     1
 71
     1
  0
GROUP
  5
2B466
102
{ACAD_REACTORS
330
D
102
}
330
D
100
AcDbGroup
300

 70
     1
 71
     1
  0
GROUP
  5
A22D
102
{ACAD_REACTORS
330
D
102
}
330
D
100
AcDbGroup
300

 70
     1
 71
     1
  0
GROUP
  5
2B467
102
{ACAD_REACTORS
330
D
102
}
330
D
100
AcDbGroup
300

 70
     1
 71
     1
  0
GROUP
  5
2B2B7
102
{ACAD_REACTORS
330
D
102
}
330
D
100
AcDbGroup
300

 70
     1
 71
     1
  0
GROUP
  5
2B468
102
{ACAD_REACTORS
330
D
102
}
330
D
100
AcDbGroup
300

 70
     1
 71
     1
  0
GROUP
  5
2B469
102
{ACAD_REACTORS
330
D
102
}
330
D
100
AcDbGroup
300

 70
     1
 71
     1
  0
GROUP
  5
2B46A
102
{ACAD_REACTORS
330
D
102
}
330
D
100
AcDbGroup
300

 70
     1
 71
     1
  0
GROUP
  5
194F6
102
{ACAD_REACTORS
330
D
102
}
330
D
100
AcDbGroup
300

 70
     1
 71
     1
  0
GROUP
  5
1BD8B
102
{ACAD_REACTORS
330
D
102
}
330
D
100
AcDbGroup
300

 70
     1
 71
     1
  0
GROUP
  5
2B49B
102
{ACAD_REACTORS
330
D
102
}
330
D
100
AcDbGroup
300

 70
     1
 71
     1
  0
GROUP
  5
2B49C
102
{ACAD_REACTORS
330
D
102
}
330
D
100
AcDbGroup
300

 70
     1
 71
     1
  0
GROUP
  5
2B49D
102
{ACAD_REACTORS
330
D
102
}
330
D
100
AcDbGroup
300

 70
     1
 71
     1
  0
GROUP
  5
2B2B4
102
{ACAD_REACTORS
330
D
102
}
330
D
100
AcDbGroup
300

 70
     1
 71
     1
  0
LAYOUT
  5
1B1E7
102
{ACAD_XDICTIONARY
360
2B7C0
102
}
102
{ACAD_REACTORS
330
1B1E4
102
}
330
1B1E4
100
AcDbPlotSettings
  1

  2
\\SERVER1\HP Color LaserJet 4500
  4

  6

 40
0.0
 41
0.0
 42
0.0
 43
0.0
 44
0.0
 45
0.0
 46
0.0
 47
0.0
 48
0.0
 49
0.0
140
0.0
141
0.0
142
1.0
143
1.0
 70
   688
 72
     0
 73
     0
 74
     5
  7

 75
    16
147
1.0
148
0.0
149
0.0
100
AcDbLayout
  1
Layout1
 70
     1
 71
     1
 10
0.0
 20
0.0
 11
420.0
 21
297.0
 12
0.0
 22
0.0
 32
0.0
 14
1.000000000000000E+20
 24
1.000000000000000E+20
 34
1.000000000000000E+20
 15
-1.000000000000000E+20
 25
-1.000000000000000E+20
 35
-1.000000000000000E+20
146
0.0
 13
0.0
 23
0.0
 33
0.0
 16
1.0
 26
0.0
 36
0.0
 17
0.0
 27
1.0
 37
0.0
 76
     0
330
15
  0
LAYOUT
  5
1B1E6
102
{ACAD_XDICTIONARY
360
2B7BE
102
}
102
{ACAD_REACTORS
330
1B1E4
102
}
330
1B1E4
100
AcDbPlotSettings
  1

  2
none_device
  4
ISO_A4_(210.00_x_297.00_MM)
  6

 40
7.5
 41
20.0
 42
7.5
 43
20.0
 44
210.0
 45
297.0
 46
0.0
 47
0.0
 48
0.0
 49
0.0
140
0.0
141
0.0
142
1.0
143
2.369619600310157
 70
 11952
 72
     1
 73
     1
 74
     0
  7

 75
     0
147
0.4220086632762115
148
1.897405373321419
149
21.04429993548442
100
AcDbLayout
  1
Model
 70
     1
 71
     0
 10
0.0
 20
0.0
 11
12.0
 21
9.0
 12
0.0
 22
0.0
 32
0.0
 14
0.0
 24
0.0
 34
0.0
 15
0.0
 25
0.0
 35
0.0
146
0.0
 13
0.0
 23
0.0
 33
0.0
 16
1.0
 26
0.0
 36
0.0
 17
0.0
 27
1.0
 37
0.0
 76
     0
330
18
1001
ACAD_PSEXT
1000
Kein
1000
Kein
1000
Nicht anwendbar
1000
Das Layout wird erst geplottet, wenn ein neuer Plotter-Konfigurationsname ausgewählt wird.
1070
     0
  0
MLINESTYLE
  5
1C
102
{ACAD_REACTORS
330
1B
102
}
330
1B
100
AcDbMlineStyle
  2
STANDARD
 70
     0
  3

 62
   256
 51
90.0
 52
90.0
 71
     2
 49
0.5
 62
   256
  6
BYLAYER
 49
-0.5
 62
   256
  6
BYLAYER
  0
ACDBPLACEHOLDER
  5
1B1E3
102
{ACAD_REACTORS
330
1B1E2
102
}
330
1B1E2
  0
TABLESTYLE
  5
2A32A
102
{ACAD_REACTORS
330
2A329
102
}
330
2A329
100
AcDbTableStyle
  3
Standard
 70
     0
 71
     0
 40
1.5
 41
1.5
280
     0
281
     0
  7
STANDARD
140
4.5
170
     2
 62
     0
 63
     7
283
     0
274
    -2
284
     1
 64
     0
275
    -2
285
     1
 65
     0
276
    -2
286
     1
 66
     0
277
    -2
287
     1
 67
     0
278
    -2
288
     1
 68
     0
279
    -2
289
     1
 69
     0
  7
STANDARD
140
6.0
170
     5
 62
     0
 63
     7
283
     0
274
    -2
284
     1
 64
     0
275
    -2
285
     1
 65
     0
276
    -2
286
     1
 66
     0
277
    -2
287
     1
 67
     0
278
    -2
288
     1
 68
     0
279
    -2
289
     1
 69
     0
  7
STANDARD
140
4.5
170
     5
 62
     0
 63
     7
283
     0
274
    -2
284
     1
 64
     0
275
    -2
285
     1
 65
     0
276
    -2
286
     1
 66
     0
277
    -2
287
     1
 67
     0
278
    -2
288
     1
 68
     0
279
    -2
289
     1
 69
     0
  0
DICTIONARYVAR
  5
2A332
102
{ACAD_REACTORS
330
9820
102
}
330
9820
100
DictionaryVariables
280
     0
  1
STANDARD
  0
DICTIONARYVAR
  5
1FD3B
102
{ACAD_REACTORS
330
9820
102
}
330
9820
100
DictionaryVariables
280
     0
  1
1
  0
DICTIONARYVAR
  5
2B4E4
102
{ACAD_REACTORS
330
9820
102
}
330
9820
100
DictionaryVariables
280
     0
  1

  0
DICTIONARYVAR
  5
9821
102
{ACAD_REACTORS
330
9820
102
}
330
9820
100
DictionaryVariables
280
     0
  1
127
  0
DICTIONARY
  5
2B7C0
330
1B1E7
100
AcDbDictionary
280
     1
281
     1
  3
ACAD_XREC_ROUNDTRIP
360
2B7C1
  0
DICTIONARY
  5
2B7BE
330
1B1E6
100
AcDbDictionary
280
     1
281
     1
  3
ACAD_XREC_ROUNDTRIP
360
2B7BF
  0
XRECORD
  5
2B7C1
102
{ACAD_REACTORS
330
2B7C0
102
}
330
2B7C0
100
AcDbXrecord
280
     1
102
SHADEPLOT
 70
     0
102
SHADEPLOTRESLEVEL
 70
     2
102
SHADEPLOTCUSTOMDPI
 70
   300
  0
XRECORD
  5
2B7BF
102
{ACAD_REACTORS
330
2B7BE
102
}
330
2B7BE
100
AcDbXrecord
280
     1
102
SHADEPLOT
 70
     0
102
SHADEPLOTRESLEVEL
 70
     2
102
SHADEPLOTCUSTOMDPI
 70
   300
  0
ENDSEC
  0
EOF
