  0
SECTION
  2
HEADER
  9
$ACADVER
  1
AC1015
  9
$ACADMAINTVER
 70
    20
  9
$DWGCODEPAGE
  3
ANSI_1252
  9
$INSBASE
 10
0.0
 20
0.0
 30
0.0
  9
$EXTMIN
 10
-0.0271839699360044
 20
-0.0192209888435855
 30
-0.0000000000000058
  9
$EXTMAX
 10
594.0271950346393
 20
420.0192288123715
 30
0.0000000000000104
  9
$LIMMIN
 10
0.0
 20
0.0
  9
$LIMMAX
 10
420.0
 20
297.0
  9
$ORTHOMODE
 70
     1
  9
$REGENMODE
 70
     1
  9
$FILLMODE
 70
     1
  9
$QTEXTMODE
 70
     0
  9
$MIRRTEXT
 70
     1
  9
$LTSCALE
 40
1.0
  9
$ATTMODE
 70
     1
  9
$TEXTSIZE
 40
2.0
  9
$TRACEWID
 40
1.0
  9
$TEXTSTYLE
  7
TASTENTEXT
  9
$CLAYER
  8
Modules
  9
$CELTYPE
  6
BYLAYER
  9
$CECOLOR
 62
   256
  9
$CELTSCALE
 40
1.0
  9
$DISPSILH
 70
     0
  9
$DIMSCALE
 40
1.0
  9
$DIMASZ
 40
2.5
  9
$DIMEXO
 40
0.625
  9
$DIMDLI
 40
3.75
  9
$DIMRND
 40
0.0
  9
$DIMDLE
 40
0.0
  9
$DIMEXE
 40
1.25
  9
$DIMTP
 40
0.0
  9
$DIMTM
 40
0.0
  9
$DIMTXT
 40
2.5
  9
$DIMCEN
 40
2.5
  9
$DIMTSZ
 40
0.0
  9
$DIMTOL
 70
     0
  9
$DIMLIM
 70
     0
  9
$DIMTIH
 70
     0
  9
$DIMTOH
 70
     0
  9
$DIMSE1
 70
     0
  9
$DIMSE2
 70
     0
  9
$DIMTAD
 70
     1
  9
$DIMZIN
 70
     8
  9
$DIMBLK
  1

  9
$DIMASO
 70
     1
  9
$DIMSHO
 70
     1
  9
$DIMPOST
  1

  9
$DIMAPOST
  1

  9
$DIMALT
 70
     0
  9
$DIMALTD
 70
     4
  9
$DIMALTF
 40
0.0394
  9
$DIMLFAC
 40
1.0
  9
$DIMTOFL
 70
     1
  9
$DIMTVP
 40
0.0
  9
$DIMTIX
 70
     0
  9
$DIMSOXD
 70
     0
  9
$DIMSAH
 70
     0
  9
$DIMBLK1
  1

  9
$DIMBLK2
  1

  9
$DIMSTYLE
  2
STANDARD
  9
$DIMCLRD
 70
     0
  9
$DIMCLRE
 70
     0
  9
$DIMCLRT
 70
     0
  9
$DIMTFAC
 40
1.0
  9
$DIMGAP
 40
0.625
  9
$DIMJUST
 70
     0
  9
$DIMSD1
 70
     0
  9
$DIMSD2
 70
     0
  9
$DIMTOLJ
 70
     1
  9
$DIMTZIN
 70
     0
  9
$DIMALTZ
 70
     0
  9
$DIMALTTZ
 70
     0
  9
$DIMUPT
 70
     0
  9
$DIMDEC
 70
     4
  9
$DIMTDEC
 70
     4
  9
$DIMALTU
 70
     8
  9
$DIMALTTD
 70
     4
  9
$DIMTXSTY
  7
STANDARD
  9
$DIMAUNIT
 70
     0
  9
$DIMADEC
 70
     0
  9
$DIMALTRND
 40
0.0
  9
$DIMAZIN
 70
     0
  9
$DIMDSEP
 70
    46
  9
$DIMATFIT
 70
     3
  9
$DIMFRAC
 70
     0
  9
$DIMLDRBLK
  1

  9
$DIMLUNIT
 70
     6
  9
$DIMLWD
 70
    -2
  9
$DIMLWE
 70
    -2
  9
$DIMTMOVE
 70
     0
  9
$LUNITS
 70
     2
  9
$LUPREC
 70
     4
  9
$SKETCHINC
 40
1.0
  9
$FILLETRAD
 40
1.0
  9
$AUNITS
 70
     0
  9
$AUPREC
 70
     0
  9
$MENU
  1
acad
  9
$ELEVATION
 40
0.0
  9
$PELEVATION
 40
0.0
  9
$THICKNESS
 40
0.0
  9
$LIMCHECK
 70
     0
  9
$CHAMFERA
 40
0.0
  9
$CHAMFERB
 40
0.0
  9
$CHAMFERC
 40
20.0
  9
$CHAMFERD
 40
0.0
  9
$SKPOLY
 70
     0
  9
$TDCREATE
 40
2451774.355798843
  9
$TDUCREATE
 40
2451774.314132176
  9
$TDUPDATE
 40
2455540.479921146
  9
$TDUUPDATE
 40
2455540.438254479
  9
$TDINDWG
 40
0.3728828704
  9
$TDUSRTIMER
 40
0.3728828704
  9
$USRTIMER
 70
     1
  9
$ANGBASE
 50
0.0
  9
$ANGDIR
 70
     0
  9
$PDMODE
 70
     0
  9
$PDSIZE
 40
0.0
  9
$PLINEWID
 40
0.0
  9
$SPLFRAME
 70
     0
  9
$SPLINETYPE
 70
     6
  9
$SPLINESEGS
 70
     8
  9
$HANDSEED
  5
2BEE2
  9
$SURFTAB1
 70
     6
  9
$SURFTAB2
 70
     6
  9
$SURFTYPE
 70
     6
  9
$SURFU
 70
     6
  9
$SURFV
 70
     6
  9
$UCSBASE
  2

  9
$UCSNAME
  2

  9
$UCSORG
 10
0.0
 20
0.0
 30
0.0
  9
$UCSXDIR
 10
1.0
 20
0.0
 30
0.0
  9
$UCSYDIR
 10
0.0
 20
1.0
 30
0.0
  9
$UCSORTHOREF
  2

  9
$UCSORTHOVIEW
 70
     0
  9
$UCSORGTOP
 10
0.0
 20
0.0
 30
0.0
  9
$UCSORGBOTTOM
 10
0.0
 20
0.0
 30
0.0
  9
$UCSORGLEFT
 10
0.0
 20
0.0
 30
0.0
  9
$UCSORGRIGHT
 10
0.0
 20
0.0
 30
0.0
  9
$UCSORGFRONT
 10
0.0
 20
0.0
 30
0.0
  9
$UCSORGBACK
 10
0.0
 20
0.0
 30
0.0
  9
$PUCSBASE
  2

  9
$PUCSNAME
  2

  9
$PUCSORG
 10
0.0
 20
0.0
 30
0.0
  9
$PUCSXDIR
 10
1.0
 20
0.0
 30
0.0
  9
$PUCSYDIR
 10
0.0
 20
1.0
 30
0.0
  9
$PUCSORTHOREF
  2

  9
$PUCSORTHOVIEW
 70
     0
  9
$PUCSORGTOP
 10
0.0
 20
0.0
 30
0.0
  9
$PUCSORGBOTTOM
 10
0.0
 20
0.0
 30
0.0
  9
$PUCSORGLEFT
 10
0.0
 20
0.0
 30
0.0
  9
$PUCSORGRIGHT
 10
0.0
 20
0.0
 30
0.0
  9
$PUCSORGFRONT
 10
0.0
 20
0.0
 30
0.0
  9
$PUCSORGBACK
 10
0.0
 20
0.0
 30
0.0
  9
$USERI1
 70
     0
  9
$USERI2
 70
     0
  9
$USERI3
 70
     0
  9
$USERI4
 70
     0
  9
$USERI5
 70
     0
  9
$USERR1
 40
0.0
  9
$USERR2
 40
0.0
  9
$USERR3
 40
0.0
  9
$USERR4
 40
0.0
  9
$USERR5
 40
0.0
  9
$WORLDVIEW
 70
     1
  9
$SHADEDGE
 70
     3
  9
$SHADEDIF
 70
    70
  9
$TILEMODE
 70
     1
  9
$MAXACTVP
 70
    48
  9
$PINSBASE
 10
0.0
 20
0.0
 30
0.0
  9
$PLIMCHECK
 70
     0
  9
$PEXTMIN
 10
1.000000000000000E+20
 20
1.000000000000000E+20
 30
1.000000000000000E+20
  9
$PEXTMAX
 10
-1.000000000000000E+20
 20
-1.000000000000000E+20
 30
-1.000000000000000E+20
  9
$PLIMMIN
 10
0.0
 20
0.0
  9
$PLIMMAX
 10
420.0
 20
297.0
  9
$UNITMODE
 70
     0
  9
$VISRETAIN
 70
     1
  9
$PLINEGEN
 70
     0
  9
$PSLTSCALE
 70
     1
  9
$TREEDEPTH
 70
  3020
  9
$CMLSTYLE
  2
STANDARD
  9
$CMLJUST
 70
     0
  9
$CMLSCALE
 40
20.0
  9
$PROXYGRAPHICS
 70
     1
  9
$MEASUREMENT
 70
     1
  9
$CELWEIGHT
370
    -1
  9
$ENDCAPS
280
     0
  9
$JOINSTYLE
280
     0
  9
$LWDISPLAY
290
     0
  9
$INSUNITS
 70
     0
  9
$HYPERLINKBASE
  1

  9
$STYLESHEET
  1

  9
$XEDIT
290
     1
  9
$CEPSNTYPE
380
     0
  9
$PSTYLEMODE
290
     1
  9
$FINGERPRINTGUID
  2
{E7552BDC-5169-4F54-A499-2C82C71F1FBB}
  9
$VERSIONGUID
  2
{3E25FFA7-B19A-43D0-A90D-22BADB341E54}
  9
$EXTNAMES
290
     1
  9
$PSVPSCALE
 40
0.0
  9
$OLESTARTUP
290
     0
  0
ENDSEC
  0
SECTION
  2
CLASSES
  0
CLASS
  1
DICTIONARYVAR
  2
AcDbDictionaryVar
  3
ObjectDBX Classes
 90
        0
280
     0
281
     0
  0
CLASS
  1
SORTENTSTABLE
  2
AcDbSortentsTable
  3
ObjectDBX Classes
 90
        0
280
     0
281
     0
  0
CLASS
  1
ACDBDICTIONARYWDFLT
  2
AcDbDictionaryWithDefault
  3
ObjectDBX Classes
 90
        0
280
     0
281
     0
  0
CLASS
  1
ACDBPLACEHOLDER
  2
AcDbPlaceHolder
  3
ObjectDBX Classes
 90
        0
280
     0
281
     0
  0
CLASS
  1
LAYOUT
  2
AcDbLayout
  3
ObjectDBX Classes
 90
        0
280
     0
281
     0
  0
CLASS
  1
TABLESTYLE
  2
AcDbTableStyle
  3
ObjectDBX Classes
 90
     2047
280
     0
281
     0
  0
ENDSEC
  0
SECTION
  2
TABLES
  0
TABLE
  2
VPORT
  5
8
330
0
100
AcDbSymbolTable
 70
     4
  0
VPORT
  5
2BEDC
330
8
100
AcDbSymbolTableRecord
100
AcDbViewportTableRecord
  2
*Active
 70
     0
 10
0.0
 20
0.0
 11
1.0
 21
1.0
 12
297.0000055323516
 22
210.000003911764
 13
0.0
 23
0.0
 14
10.0
 24
10.0
 15
10.0
 25
10.0
 16
0.0
 26
0.0
 36
1.0
 17
0.0
 27
0.0
 37
0.0
 40
422.6746743815575
 41
1.60523560209424
 42
50.0
 43
0.0
 44
0.0
 50
0.0
 51
0.0
 71
     0
 72
   100
 73
     1
 74
     1
 75
     0
 76
     0
 77
     0
 78
     0
281
     0
 65
     1
110
0.0
120
0.0
130
0.0
111
1.0
121
0.0
131
0.0
112
0.0
122
1.0
132
0.0
 79
     0
146
0.0
  0
ENDTAB
  0
TABLE
  2
LTYPE
  5
5
330
0
100
AcDbSymbolTable
 70
     1
  0
LTYPE
  5
12
330
5
100
AcDbSymbolTableRecord
100
AcDbLinetypeTableRecord
  2
BYBLOCK
 70
     0
  3

 72
    65
 73
     0
 40
0.0
  0
LTYPE
  5
13
330
5
100
AcDbSymbolTableRecord
100
AcDbLinetypeTableRecord
  2
BYLAYER
 70
     0
  3

 72
    65
 73
     0
 40
0.0
  0
LTYPE
  5
14
330
5
100
AcDbSymbolTableRecord
100
AcDbLinetypeTableRecord
  2
CONTINUOUS
 70
     0
  3
Solid line
 72
    65
 73
     0
 40
0.0
  0
ENDTAB
  0
TABLE
  2
LAYER
  5
2
102
{ACAD_XDICTIONARY
360
2AE1D
102
}
330
0
100
AcDbSymbolTable
 70
    11
  0
LAYER
  5
E
330
2
100
AcDbSymbolTableRecord
100
AcDbLayerTableRecord
  2
0
 70
     0
 62
     7
  6
CONTINUOUS
370
    -3
390
1B1E3
  0
LAYER
  5
143
330
2
100
AcDbSymbolTableRecord
100
AcDbLayerTableRecord
  2
DEFPOINTS
 70
     0
 62
     7
  6
CONTINUOUS
290
     0
370
    -3
390
1B1E3
  0
LAYER
  5
1848A
330
2
100
AcDbSymbolTableRecord
100
AcDbLayerTableRecord
  2
RAHMEN025
 70
     0
 62
     7
  6
CONTINUOUS
370
    -3
390
1B1E3
  0
LAYER
  5
1848B
330
2
100
AcDbSymbolTableRecord
100
AcDbLayerTableRecord
  2
RAHMEN07
 70
     0
 62
     5
  6
CONTINUOUS
370
    -3
390
1B1E3
  0
LAYER
  5
26712
330
2
100
AcDbSymbolTableRecord
100
AcDbLayerTableRecord
  2
Bemassung
 70
     0
 62
     3
  6
CONTINUOUS
370
    -3
390
1B1E3
  0
LAYER
  5
27B66
330
2
100
AcDbSymbolTableRecord
100
AcDbLayerTableRecord
  2
Frame
 70
     0
 62
     7
  6
CONTINUOUS
370
    -3
390
1B1E3
  0
LAYER
  5
299F2
330
2
100
AcDbSymbolTableRecord
100
AcDbLayerTableRecord
  2
Modules
 70
     0
 62
     5
  6
CONTINUOUS
370
    -3
390
1B1E3
  0
LAYER
  5
2BB20
330
2
100
AcDbSymbolTableRecord
100
AcDbLayerTableRecord
  2
TEXTFELD
 70
     0
 62
     7
  6
CONTINUOUS
370
    -3
390
1B1E3
  0
ENDTAB
  0
TABLE
  2
STYLE
  5
3
330
0
100
AcDbSymbolTable
 70
     3
  0
STYLE
  5
F
330
3
100
AcDbSymbolTableRecord
100
AcDbTextStyleTableRecord
  2
STANDARD
 70
     0
 40
0.0
 41
1.0
 50
0.0
 71
     0
 42
2.5
  3
txt
  4

  0
STYLE
  5
220D
330
3
100
AcDbSymbolTableRecord
100
AcDbTextStyleTableRecord
  2
TASTENTEXT
 70
     0
 40
2.0
 41
1.0
 50
0.0
 71
     0
 42
2.0
  3
ARIAL.TTF
  4

1001
ACAD
1000
Arial
1071
       34
  0
ENDTAB
  0
TABLE
  2
VIEW
  5
6
330
0
100
AcDbSymbolTable
 70
     0
  0
ENDTAB
  0
TABLE
  2
UCS
  5
7
330
0
100
AcDbSymbolTable
 70
     0
  0
ENDTAB
  0
TABLE
  2
APPID
  5
9
330
0
100
AcDbSymbolTable
 70
    11
  0
APPID
  5
10
330
9
100
AcDbSymbolTableRecord
100
AcDbRegAppTableRecord
  2
ACAD
 70
     0
  0
APPID
  5
29A02
330
9
100
AcDbSymbolTableRecord
100
AcDbRegAppTableRecord
  2
CONTENTTABDATA
 70
     0
  0
APPID
  5
29A03
330
9
100
AcDbSymbolTableRecord
100
AcDbRegAppTableRecord
  2
CONTENTCURRENTTAB
 70
     0
  0
APPID
  5
29A04
330
9
100
AcDbSymbolTableRecord
100
AcDbRegAppTableRecord
  2
DRAWINGVARIABLESXDATA
 70
     0
  0
APPID
  5
2AE16
330
9
100
AcDbSymbolTableRecord
100
AcDbRegAppTableRecord
  2
ACAD_EXEMPT_FROM_CAD_STANDARDS
 70
     0
  0
APPID
  5
2B642
330
9
100
AcDbSymbolTableRecord
100
AcDbRegAppTableRecord
  2
AcAecLayerStandard
 70
     0
  0
APPID
  5
2BB71
330
9
100
AcDbSymbolTableRecord
100
AcDbRegAppTableRecord
  2
ACAD_PSEXT
 70
     0
  0
APPID
  5
2BC7C
330
9
100
AcDbSymbolTableRecord
100
AcDbRegAppTableRecord
  2
ACAD_DSTYLE_DIMEXT_LENGTH
 70
     0
  0
APPID
  5
2BC7D
330
9
100
AcDbSymbolTableRecord
100
AcDbRegAppTableRecord
  2
ACAD_DSTYLE_DIMEXT_ENABLED
 70
     0
  0
APPID
  5
2BC7E
330
9
100
AcDbSymbolTableRecord
100
AcDbRegAppTableRecord
  2
ACAD_DSTYLE_DIMJOGGED_JOGANGLE_SYMBOL
 70
     0
  0
APPID
  5
2BC7F
330
9
100
AcDbSymbolTableRecord
100
AcDbRegAppTableRecord
  2
ACAD_DSTYLE_DIMARC_LENGTH_SYMBOL
 70
     0
  0
ENDTAB
  0
TABLE
  2
DIMSTYLE
  5
A
330
0
100
AcDbSymbolTable
 70
     1
100
AcDbDimStyleTable
 71
     1
340
1D
  0
DIMSTYLE
105
1D
102
{ACAD_REACTORS
330
280B2
330
280B3
102
}
330
A
100
AcDbSymbolTableRecord
100
AcDbDimStyleTableRecord
  2
STANDARD
 70
     0
340
F
  0
ENDTAB
  0
TABLE
  2
BLOCK_RECORD
  5
1
330
0
100
AcDbSymbolTable
 70
     7
  0
BLOCK_RECORD
  5
18
102
{ACAD_XDICTIONARY
360
9822
102
}
330
1
100
AcDbSymbolTableRecord
100
AcDbBlockTableRecord
  2
*MODEL_SPACE
340
1B1E6
  0
BLOCK_RECORD
  5
15
102
{ACAD_XDICTIONARY
360
2663A
102
}
330
1
100
AcDbSymbolTableRecord
100
AcDbBlockTableRecord
  2
*PAPER_SPACE
340
1B1E7
  0
BLOCK_RECORD
  5
280C0
330
1
100
AcDbSymbolTableRecord
100
AcDbBlockTableRecord
  2
*D0
340
0
  0
BLOCK_RECORD
  5
280CC
330
1
100
AcDbSymbolTableRecord
100
AcDbBlockTableRecord
  2
*D1
340
0
  0
ENDTAB
  0
ENDSEC
  0
SECTION
  2
BLOCKS
  0
BLOCK
  5
19
330
18
100
AcDbEntity
  8
0
100
AcDbBlockBegin
  2
*MODEL_SPACE
 70
     2
 10
0.0
 20
0.0
 30
0.0
  3
*MODEL_SPACE
  1

  0
ENDBLK
  5
1A
330
18
100
AcDbEntity
  8
0
100
AcDbBlockEnd
  0
BLOCK
  5
16
330
15
100
AcDbEntity
 67
     1
  8
0
100
AcDbBlockBegin
  2
*PAPER_SPACE
 70
     0
 10
0.0
 20
0.0
 30
0.0
  3
*PAPER_SPACE
  1

  0
ENDBLK
  5
17
330
15
100
AcDbEntity
 67
     1
  8
0
100
AcDbBlockEnd
  0
BLOCK
  5
280CA
330
280C0
100
AcDbEntity
  8
0
100
AcDbBlockBegin
  2
*D0
 70
     1
 10
0.0
 20
0.0
 30
0.0
  3
*D0
  1

  0
LINE
  5
28593
330
280C0
100
AcDbEntity
  8
Bemassung
 62
     0
100
AcDbLine
 10
77.67850856845661
 20
274.2696408898965
 30
0.0
 11
77.67850856845661
 21
287.9874221704664
 31
0.0
  0
LINE
  5
28594
330
280C0
100
AcDbEntity
  8
Bemassung
 62
     0
100
AcDbLine
 10
517.6785085684566
 20
274.2696408898965
 30
0.0
 11
517.6785085684566
 21
287.9874221704664
 31
0.0
  0
LINE
  5
28595
330
280C0
100
AcDbEntity
  8
Bemassung
 62
     0
100
AcDbLine
 10
80.1785085684566
 20
286.7374221704664
 30
0.0
 11
515.1785085684566
 21
286.7374221704664
 31
0.0
  0
SOLID
  5
28596
330
280C0
100
AcDbEntity
  8
Bemassung
 62
     0
100
AcDbTrace
 10
80.1785085684566
 20
287.1540888371331
 30
0.0
 11
80.1785085684566
 21
286.3207555037997
 31
0.0
 12
77.67850856845661
 22
286.7374221704664
 32
0.0
 13
77.67850856845661
 23
286.7374221704664
 33
0.0
  0
SOLID
  5
28597
330
280C0
100
AcDbEntity
  8
Bemassung
 62
     0
100
AcDbTrace
 10
515.1785085684566
 20
287.1540888371331
 30
0.0
 11
515.1785085684566
 21
286.3207555037997
 31
0.0
 12
517.6785085684566
 22
286.7374221704664
 32
0.0
 13
517.6785085684566
 23
286.7374221704664
 33
0.0
  0
MTEXT
  5
28598
330
280C0
100
AcDbEntity
  8
Bemassung
 62
     0
100
AcDbMText
 10
297.6785085684566
 20
288.6124221704664
 30
0.0
 40
2.5
 41
0.0
 71
     5
 72
     1
  1
\A1;448
 73
     1
 44
1.0
1001
ACAD
1000
MTEXTBEGIN
1070
    73
1070
     1
1070
    44
1040
1.0
1070
    74
1070
     0
1000
MTEXTEND
  0
POINT
  5
28599
330
280C0
100
AcDbEntity
  8
DEFPOINTS
 62
     0
100
AcDbPoint
 10
77.67850856845661
 20
273.6446408898966
 30
0.0
  0
POINT
  5
2859A
330
280C0
100
AcDbEntity
  8
DEFPOINTS
 62
     0
100
AcDbPoint
 10
517.6785085684566
 20
273.6446408898966
 30
0.0
  0
POINT
  5
2859B
330
280C0
100
AcDbEntity
  8
DEFPOINTS
 62
     0
100
AcDbPoint
 10
517.6785085684566
 20
286.7374221704664
 30
0.0
  0
ENDBLK
  5
280CB
330
280C0
100
AcDbEntity
  8
0
100
AcDbBlockEnd
  0
BLOCK
  5
280D6
330
280CC
100
AcDbEntity
  8
0
100
AcDbBlockBegin
  2
*D1
 70
     1
 10
0.0
 20
0.0
 30
0.0
  3
*D1
  1

  0
LINE
  5
2BA0F
330
280CC
100
AcDbEntity
  8
Bemassung
 62
     0
370
    -2
100
AcDbLine
 10
77.67850856845661
 20
273.6446408898966
 30
0.0
 11
65.77948934157143
 21
273.6446408898966
 31
0.0
  0
LINE
  5
2BA10
330
280CC
100
AcDbEntity
  8
Bemassung
 62
     0
370
    -2
100
AcDbLine
 10
77.67850856845661
 20
141.1446408898965
 30
0.0
 11
65.77948934157141
 21
141.1446408898965
 31
0.0
  0
LINE
  5
2BA11
330
280CC
100
AcDbEntity
  8
Bemassung
 62
     0
370
    -2
100
AcDbLine
 10
67.02948934157143
 20
271.1446408898965
 30
0.0
 11
67.02948934157141
 21
143.6446408898965
 31
0.0
  0
SOLID
  5
2BA12
330
280CC
100
AcDbEntity
  8
Bemassung
 62
     0
100
AcDbTrace
 10
66.61282267490476
 20
271.1446408898965
 30
0.0
 11
67.4461560082381
 21
271.1446408898965
 31
0.0
 12
67.02948934157143
 22
273.6446408898966
 32
0.0
 13
67.02948934157143
 23
273.6446408898966
 33
0.0
  0
SOLID
  5
2BA13
330
280CC
100
AcDbEntity
  8
Bemassung
 62
     0
100
AcDbTrace
 10
66.61282267490474
 20
143.6446408898965
 30
0.0
 11
67.44615600823808
 21
143.6446408898965
 31
0.0
 12
67.02948934157141
 22
141.1446408898965
 32
0.0
 13
67.02948934157141
 23
141.1446408898965
 33
0.0
  0
MTEXT
  5
2BA14
330
280CC
100
AcDbEntity
  8
Bemassung
 62
     0
100
AcDbMText
 10
65.15448934157139
 20
207.3946408898966
 30
0.0
 40
2.5
 41
0.0
 71
     5
 72
     1
  1
\A1;133
 11
0.0000000000000001
 21
1.0
 31
0.0
 73
     1
 44
1.0
1001
ACAD
1000
MTEXTBEGIN
1070
    73
1070
     1
1070
    44
1040
1.0
1070
    74
1070
     0
1000
MTEXTEND
  0
POINT
  5
2BA15
330
280CC
100
AcDbEntity
  8
DEFPOINTS
 62
     0
100
AcDbPoint
 10
78.30350856845661
 20
273.6446408898966
 30
0.0
  0
POINT
  5
2BA16
330
280CC
100
AcDbEntity
  8
DEFPOINTS
 62
     0
100
AcDbPoint
 10
78.30350856845661
 20
141.1446408898965
 30
0.0
  0
POINT
  5
2BA17
330
280CC
100
AcDbEntity
  8
DEFPOINTS
 62
     0
100
AcDbPoint
 10
67.02948934157141
 20
141.1446408898965
 30
0.0
  0
ENDBLK
  5
280D7
330
280CC
100
AcDbEntity
  8
0
100
AcDbBlockEnd
  0
ENDSEC
  0
SECTION
  2
ENTITIES
  0
LINE
  5
266D4
330
18
100
AcDbEntity
  8
RAHMEN07
100
AcDbLine
 10
589.0
 20
415.0
 30
0.0
 11
20.0
 21
415.0
 31
0.0
  0
LINE
  5
266D5
330
18
100
AcDbEntity
  8
RAHMEN07
100
AcDbLine
 10
20.0
 20
5.0
 30
0.0
 11
589.0
 21
5.0
 31
0.0
  0
LINE
  5
266D6
330
18
100
AcDbEntity
  8
RAHMEN025
100
AcDbLine
 10
594.0
 20
420.0
 30
0.0
 11
0.0
 21
420.0
 31
0.0
  0
LINE
  5
266D7
330
18
100
AcDbEntity
  8
RAHMEN025
100
AcDbLine
 10
0.0
 20
0.0
 30
0.0
 11
594.0
 21
0.0
 31
0.0
  0
LINE
  5
266D8
330
18
100
AcDbEntity
  8
RAHMEN07
100
AcDbLine
 10
20.0
 20
415.0
 30
0.0
 11
20.0
 21
5.0
 31
0.0
  0
LINE
  5
266D9
330
18
100
AcDbEntity
  8
RAHMEN025
100
AcDbLine
 10
0.0
 20
420.0
 30
0.0
 11
0.0
 21
0.0
 31
0.0
  0
LINE
  5
266DA
330
18
100
AcDbEntity
  8
RAHMEN07
100
AcDbLine
 10
589.0
 20
5.0
 30
0.0
 11
589.0
 21
415.0
 31
0.0
  0
LINE
  5
266DB
330
18
100
AcDbEntity
  8
RAHMEN025
100
AcDbLine
 10
594.0
 20
0.0
 30
0.0
 11
594.0
 21
420.0
 31
0.0
  0
LWPOLYLINE
  5
27E10
330
18
100
AcDbEntity
  8
Frame
100
AcDbPolyline
 90
        4
 70
     1
 43
0.0
 10
77.67850856845661
 20
141.1446408898965
 10
517.6785085684566
 20
141.1446408898965
 10
517.6785085684566
 20
273.6446408898966
 10
77.67850856845661
 20
273.6446408898966
  0
DIMENSION
  5
280B2
330
18
100
AcDbEntity
  8
Bemassung
100
AcDbDimension
  2
*D0
 10
517.6785085684566
 20
286.7374221704664
 30
0.0
 11
297.6785085684566
 21
288.6124221704664
 31
0.0
 70
    32
  1
448
 71
     5
 42
-1.0
  3
STANDARD
100
AcDbAlignedDimension
 13
77.67850856845661
 23
273.6446408898966
 33
0.0
 14
517.6785085684566
 24
273.6446408898966
 34
0.0
100
AcDbRotatedDimension
1001
ACAD
1000
DSTYLE
1002
{
1070
   270
1070
     8
1070
   270
1070
     8
1070
   270
1070
     8
1070
   270
1070
     8
1070
    41
1040
2.5
1070
    42
1040
0.625
1070
    43
1040
3.75
1070
    44
1040
1.25
1070
    73
1070
     0
1070
    74
1070
     0
1070
    77
1070
     1
1070
    78
1070
     8
1070
   140
1040
2.5
1070
   141
1040
2.5
1070
   143
1040
0.0394
1070
   147
1040
0.625
1070
   171
1070
     4
1070
   172
1070
     1
1070
   273
1070
     8
1070
   274
1070
     4
1070
   277
1070
     6
1002
}
  0
DIMENSION
  5
280B3
330
18
100
AcDbEntity
  8
Bemassung
100
AcDbDimension
  2
*D1
 10
67.02948934157141
 20
141.1446408898965
 30
0.0
 11
65.15448934157139
 21
207.3946408898966
 31
0.0
 70
    32
  1
133
 71
     5
 42
132.4999999999999
  3
STANDARD
100
AcDbAlignedDimension
 13
78.30350856845661
 23
273.6446408898966
 33
0.0
 14
78.30350856845661
 24
141.1446408898965
 34
0.0
 50
90.0
100
AcDbRotatedDimension
1001
ACAD
1000
DSTYLE
1002
{
1070
   270
1070
     8
1070
   270
1070
     8
1070
   270
1070
     8
1070
   270
1070
     8
1070
    41
1040
2.5
1070
    42
1040
0.625
1070
    43
1040
3.75
1070
    44
1040
1.25
1070
    73
1070
     0
1070
    74
1070
     0
1070
    77
1070
     1
1070
    78
1070
     8
1070
   140
1040
2.5
1070
   141
1040
2.5
1070
   143
1040
0.0394
1070
   147
1040
0.625
1070
   171
1070
     4
1070
   172
1070
     1
1070
   273
1070
     8
1070
   274
1070
     4
1070
   277
1070
     6
1002
}
  0
MTEXT
  5
29C9E
330
18
100
AcDbEntity
  8
Bemassung
100
AcDbMText
 10
268.8795574345149
 20
486.1830107780843
 30
0.0
 40
2.5
 41
0.0
 71
     1
 72
     1
  1

 11
-1.0
 21
0.0000000000000001
 31
0.0
 73
     1
 44
1.0
1001
ACAD
1000
MTEXTBEGIN
1070
    73
1070
     1
1070
    44
1040
1.0
1070
    74
1070
     0
1000
MTEXTEND
  0
MTEXT
  5
29C9F
330
18
100
AcDbEntity
  8
Bemassung
100
AcDbMText
 10
268.8795574345149
 20
486.1830107780843
 30
0.0
 40
2.5
 41
0.0
 71
     1
 72
     1
  1

 11
-1.0
 21
0.0000000000000001
 31
0.0
 73
     1
 44
1.0
1001
ACAD
1000
MTEXTBEGIN
1070
    73
1070
     1
1070
    44
1040
1.0
1070
    74
1070
     0
1000
MTEXTEND
  0
LWPOLYLINE
  5
2B6DE
102
{ACAD_REACTORS
330
2BA25
102
}
330
18
100
AcDbEntity
  8
Modules
100
AcDbPolyline
 90
        4
 70
     1
 43
0.0
 10
104.8085085684566
 20
271.8446408898965
 10
155.2685085684565
 20
271.8446408898965
 10
155.2685085684565
 20
143.4446408898967
 10
104.8085085684566
 20
143.4446408898967
  0
CIRCLE
  5
2B6E3
102
{ACAD_REACTORS
330
2B6E5
330
2BA25
102
}
330
18
100
AcDbEntity
  8
Modules
100
AcDbCircle
 10
112.3085085684566
 20
268.8446408898965
 30
0.0
 40
2.45
  0
LWPOLYLINE
  5
2B6E4
102
{ACAD_REACTORS
330
2B6E5
330
2BA25
102
}
330
18
100
AcDbEntity
  8
Modules
100
AcDbPolyline
 90
        6
 70
     1
 43
0.0
 10
111.673423272348
 20
269.9446408898966
 10
111.0383379762394
 20
268.8446408898965
 10
111.673423272348
 20
267.7446408898965
 10
112.9435938645652
 20
267.7446408898965
 10
113.5786791606738
 20
268.8446408898965
 10
112.9435938645652
 20
269.9446408898966
  0
CIRCLE
  5
2B6E6
102
{ACAD_REACTORS
330
2B6E8
330
2BA25
102
}
330
18
100
AcDbEntity
  8
Modules
100
AcDbCircle
 10
147.8685085684566
 20
268.8446408898965
 30
0.0
 40
2.45
  0
LWPOLYLINE
  5
2B6E7
102
{ACAD_REACTORS
330
2B6E8
330
2BA25
102
}
330
18
100
AcDbEntity
  8
Modules
100
AcDbPolyline
 90
        6
 70
     1
 43
0.0
 10
147.233423272348
 20
269.9446408898966
 10
146.5983379762394
 20
268.8446408898965
 10
147.233423272348
 20
267.7446408898965
 10
148.5035938645652
 20
267.7446408898965
 10
149.1386791606738
 20
268.8446408898965
 10
148.5035938645652
 20
269.9446408898966
  0
CIRCLE
  5
2B6E9
102
{ACAD_REACTORS
330
2B6EB
330
2BA25
102
}
330
18
100
AcDbEntity
  8
Modules
100
AcDbCircle
 10
147.8685085684565
 20
146.4446408898965
 30
0.0
 40
2.45
  0
LWPOLYLINE
  5
2B6EA
102
{ACAD_REACTORS
330
2B6EB
330
2BA25
102
}
330
18
100
AcDbEntity
  8
Modules
100
AcDbPolyline
 90
        6
 70
     1
 43
0.0
 10
147.2334232723479
 20
147.5446408898966
 10
146.5983379762393
 20
146.4446408898965
 10
147.2334232723479
 20
145.3446408898965
 10
148.5035938645651
 20
145.3446408898965
 10
149.1386791606737
 20
146.4446408898965
 10
148.5035938645651
 20
147.5446408898966
  0
CIRCLE
  5
2B6EC
102
{ACAD_REACTORS
330
2B6EE
330
2BA25
102
}
330
18
100
AcDbEntity
  8
Modules
100
AcDbCircle
 10
112.3085085684565
 20
146.4446408898965
 30
0.0
 40
2.45
  0
LWPOLYLINE
  5
2B6ED
102
{ACAD_REACTORS
330
2B6EE
330
2BA25
102
}
330
18
100
AcDbEntity
  8
Modules
100
AcDbPolyline
 90
        6
 70
     1
 43
0.0
 10
111.6734232723479
 20
147.5446408898966
 10
111.0383379762393
 20
146.4446408898965
 10
111.6734232723479
 20
145.3446408898965
 10
112.9435938645651
 20
145.3446408898965
 10
113.5786791606737
 20
146.4446408898965
 10
112.9435938645651
 20
147.5446408898966
  0
LINE
  5
2BB47
330
18
100
AcDbEntity
  8
TEXTFELD
100
AcDbLine
 10
589.0
 20
21.80000000000018
 30
0.0
 11
379.905891162972
 21
21.80000000000018
 31
0.0
  0
LINE
  5
2BB48
330
18
100
AcDbEntity
  8
TEXTFELD
100
AcDbLine
 10
469.000000000001
 20
13.40000000000054
 30
0.0
 11
389.0000000000001
 21
13.40000000000054
 31
0.0
  0
LINE
  5
2BB49
330
18
100
AcDbEntity
  8
TEXTFELD
100
AcDbLine
 10
589.0
 20
38.40000000000055
 30
0.0
 11
469.000000000001
 21
38.40000000000055
 31
0.0
  0
LINE
  5
2BB4A
330
18
100
AcDbEntity
  8
TEXTFELD
100
AcDbLine
 10
567.9617500899949
 20
5.0
 30
0.0
 11
567.9617500899958
 21
21.80000000000018
 31
0.0
  0
LINE
  5
2BB4B
330
18
100
AcDbEntity
  8
TEXTFELD
100
AcDbLine
 10
589.0
 20
13.40000000000054
 30
0.0
 11
567.9617500899949
 21
13.40000000000054
 31
0.0
  0
TEXT
  5
2BB4C
330
18
100
AcDbEntity
  8
TEXTFELD
100
AcDbText
 10
570.1557668242243
 20
15.59377413430138
 30
0.0
 40
3.0
  1
Page:
100
AcDbText
  0
TEXT
  5
2BB4D
330
18
100
AcDbEntity
  8
TEXTFELD
100
AcDbText
 10
570.1557668242243
 20
7.256695164528537
 30
0.0
 40
3.0
  1
1 / 1
100
AcDbText
  0
LINE
  5
2BB4E
330
18
100
AcDbEntity
  8
TEXTFELD
100
AcDbLine
 10
469.0000000000001
 20
5.000000000000909
 30
0.0
 11
469.0000000000001
 21
55.00000000000091
 31
0.0
  0
TEXT
  5
2BB4F
330
18
100
AcDbEntity
  8
TEXTFELD
100
AcDbText
 10
421.3100100949848
 20
15.59377413430138
 30
0.0
 40
3.0
  1
Date:
100
AcDbText
  0
LINE
  5
2BB50
330
18
100
AcDbEntity
  8
TEXTFELD
100
AcDbLine
 10
418.3971173822312
 20
21.80000000000018
 30
0.0
 11
418.3971173822303
 21
13.40000000000054
 31
0.0
  0
TEXT
  5
2BB51
330
18
100
AcDbEntity
  8
TEXTFELD
100
AcDbText
 10
380.5201699836723
 20
15.59377413430138
 30
0.0
 40
3.0
  1
Name:
100
AcDbText
  0
TEXT
  5
2BB52
330
18
100
AcDbEntity
  8
TEXTFELD
100
AcDbText
 10
380.5201699836723
 20
7.256695164528537
 30
0.0
 40
3.0
  1
File: 
100
AcDbText
  0
TEXT
  5
2BB53
330
18
100
AcDbEntity
  8
TEXTFELD
100
AcDbText
 10
471.9209941166032
 20
44.66562196635959
 30
0.0
 40
3.0
  1
Scale 1:1 (DIN A2)
100
AcDbText
  0
LINE
  5
2BB54
330
18
100
AcDbEntity
  8
TEXTFELD
100
AcDbLine
 10
567.9617500899951
 20
38.40000000000055
 30
0.0
 11
567.961750089996
 21
55.00000000000011
 31
0.0
  0
LINE
  5
2BB55
330
18
100
AcDbEntity
  8
TEXTFELD
100
AcDbLine
 10
589.0
 20
5.0
 30
0.0
 11
379.905891162972
 21
5.000000000000966
 31
0.0
  0
LINE
  5
2BB56
330
18
100
AcDbEntity
  8
TEXTFELD
100
AcDbLine
 10
379.905891162972
 20
5.000000000000909
 30
0.0
 11
379.905891162972
 21
55.00000000000091
 31
0.0
  0
LINE
  5
2BB57
330
18
100
AcDbEntity
  8
TEXTFELD
100
AcDbLine
 10
379.905891162972
 20
55.00000000000096
 30
0.0
 11
589.0
 21
55.0
 31
0.0
  0
LINE
  5
2BB58
330
18
100
AcDbEntity
  8
TEXTFELD
100
AcDbLine
 10
589.0
 20
55.0
 30
0.0
 11
589.0
 21
5.0
 31
0.0
  0
LINE
  5
2BB59
330
18
100
AcDbEntity
  8
TEXTFELD
100
AcDbLine
 10
469.0000000000001
 20
5.000000000000568
 30
0.0
 11
469.0000000000001
 21
55.00000000000056
 31
0.0
  0
TEXT
  5
2BB5A
330
18
100
AcDbEntity
  8
TEXTFELD
100
AcDbText
 10
396.7977009724123
 20
15.63053387341154
 30
0.0
 40
3.0
  1
Miethling
100
AcDbText
  0
TEXT
  5
2BB5B
330
18
100
AcDbEntity
  8
TEXTFELD
100
AcDbText
 10
381.8294790513039
 20
24.72697290493272
 30
0.0
 40
3.0
  1
Fax:
100
AcDbText
  0
TEXT
  5
2BB5C
330
18
100
AcDbEntity
  8
TEXTFELD
100
AcDbText
 10
381.8294790513039
 20
47.10386991868756
 30
0.0
 40
3.0
  1
DHD GmbH
100
AcDbText
  0
TEXT
  5
2BB5D
330
18
100
AcDbEntity
  8
TEXTFELD
100
AcDbText
 10
381.8294790513039
 20
41.75480612721446
 30
0.0
 40
3.0
  1
Haferkornstraße 5
100
AcDbText
  0
TEXT
  5
2BB5E
330
18
100
AcDbEntity
  8
TEXTFELD
100
AcDbText
 10
381.8294790513039
 20
36.29477517264729
 30
0.0
 40
3.0
  1
04129 Leipzig / Germany
100
AcDbText
  0
TEXT
  5
2BB5F
330
18
100
AcDbEntity
  8
TEXTFELD
100
AcDbText
 10
398.4805527305628
 20
24.53217067856315
 30
0.0
 40
3.0
  1
+ 49  341  5897022
100
AcDbText
  0
LINE
  5
2BB60
330
18
100
AcDbEntity
  8
TEXTFELD
100
AcDbLine
 10
469.000000000001
 20
13.4000000000002
 30
0.0
 11
379.9058911629721
 21
13.4000000000002
 31
0.0
  0
TEXT
  5
2BB61
330
18
100
AcDbEntity
  8
TEXTFELD
100
AcDbText
 10
381.8294790513039
 20
29.58568776218852
 30
0.0
 40
3.0
  1
Phone: + 49  341  5897020
100
AcDbText
  0
TEXT
  5
2BB62
330
18
100
AcDbEntity
  8
TEXTFELD
100
AcDbText
 10
391.0808922633569
 20
7.469098588154338
 30
0.0
 40
2.7
  1
52-5063_stationary_rearview.dwg
100
AcDbText
  0
TEXT
  5
2BB63
330
18
100
AcDbEntity
  8
TEXTFELD
100
AcDbText
 10
472.2337986924901
 20
27.39033464091245
 30
0.0
 40
3.5
  1
Rearview MB/CR Frame 3U, stationary
100
AcDbText
  0
TEXT
  5
2BB64
330
18
100
AcDbEntity
  8
TEXTFELD
100
AcDbText
 10
437.749650981688
 20
15.81476326692919
 30
0.0
 40
3.0
  1
09.12.2010
100
AcDbText
  0
TEXT
  5
2BB65
330
18
100
AcDbEntity
  8
TEXTFELD
100
AcDbText
 10
502.6275544891631
 20
9.994346401232292
 30
0.0
 40
5.0
  1
52-5063
100
AcDbText
  0
LINE
  5
2BBCD
102
{ACAD_REACTORS
330
2BC22
102
}
330
18
100
AcDbEntity
  8
Modules
100
AcDbLine
 10
404.3685085684567
 20
143.4446407191406
 30
0.0
 11
404.3685085684563
 21
271.8446410606525
 31
0.0
  0
LINE
  5
2BBCE
102
{ACAD_REACTORS
330
2BC22
102
}
330
18
100
AcDbEntity
  8
Modules
100
AcDbLine
 10
510.8685085684568
 20
143.4446407191407
 30
0.0
 11
404.3685085684567
 21
143.4446407191406
 31
0.0
  0
LINE
  5
2BBCF
102
{ACAD_REACTORS
330
2BC22
102
}
330
18
100
AcDbEntity
  8
Modules
100
AcDbLine
 10
510.8685085684562
 20
271.8446410606525
 30
0.0
 11
404.3685085684563
 21
271.8446410606525
 31
0.0
  0
LINE
  5
2BBD0
102
{ACAD_REACTORS
330
2BC22
102
}
330
18
100
AcDbEntity
  8
Modules
100
AcDbLine
 10
510.8685085684568
 20
143.4446407191407
 30
0.0
 11
510.8685085684562
 21
271.8446410606525
 31
0.0
  0
LINE
  5
2BBD1
102
{ACAD_REACTORS
330
2BC22
102
}
330
18
100
AcDbEntity
  8
Modules
100
AcDbLine
 10
440.4185085684565
 20
222.3946407191406
 30
0.0
 11
440.4185085684565
 21
241.6946407191407
 31
0.0
  0
ARC
  5
2BBD2
102
{ACAD_REACTORS
330
2BC22
102
}
330
18
100
AcDbEntity
  8
Modules
100
AcDbCircle
 10
439.4185085684565
 20
241.6946407191407
 30
0.0
 40
1.0
100
AcDbArc
 50
0.0
 51
90.0
  0
LINE
  5
2BBD3
102
{ACAD_REACTORS
330
2BC22
102
}
330
18
100
AcDbEntity
  8
Modules
100
AcDbLine
 10
416.4185085684565
 20
222.3946407191405
 30
0.0
 11
416.4185085684565
 21
241.6946407191406
 31
0.0
  0
ARC
  5
2BBD4
102
{ACAD_REACTORS
330
2BC22
102
}
330
18
100
AcDbEntity
  8
Modules
100
AcDbCircle
 10
417.4185085684564
 20
222.3946407191405
 30
0.0
 40
1.0
100
AcDbArc
 50
180.0
 51
270.0
  0
LINE
  5
2BBD5
102
{ACAD_REACTORS
330
2BC22
102
}
330
18
100
AcDbEntity
  8
Modules
100
AcDbLine
 10
442.5185085684566
 20
187.7946407191405
 30
0.0
 11
442.5185085684566
 21
244.4946407191407
 31
0.0
  0
ARC
  5
2BBD6
102
{ACAD_REACTORS
330
2BC22
102
}
330
18
100
AcDbEntity
  8
Modules
100
AcDbCircle
 10
441.0185085684566
 20
244.4946407191407
 30
0.0
 40
1.5
100
AcDbArc
 50
0.0
 51
90.0
  0
LINE
  5
2BBD7
102
{ACAD_REACTORS
330
2BC22
102
}
330
18
100
AcDbEntity
  8
Modules
100
AcDbLine
 10
441.0185085684566
 20
245.9946407191406
 30
0.0
 11
415.8185085684565
 21
245.9946407191405
 31
0.0
  0
ARC
  5
2BBD8
102
{ACAD_REACTORS
330
2BC22
102
}
330
18
100
AcDbEntity
  8
Modules
100
AcDbCircle
 10
415.8185085684565
 20
244.4946407191405
 30
0.0
 40
1.5
100
AcDbArc
 50
90.0
 51
180.0
  0
LINE
  5
2BBD9
102
{ACAD_REACTORS
330
2BC22
102
}
330
18
100
AcDbEntity
  8
Modules
100
AcDbLine
 10
414.3185085684566
 20
244.4946407191405
 30
0.0
 11
414.3185085684566
 21
187.7946407191407
 31
0.0
  0
ARC
  5
2BBDA
102
{ACAD_REACTORS
330
2BC22
102
}
330
18
100
AcDbEntity
  8
Modules
100
AcDbCircle
 10
415.8185085684565
 20
187.7946407191407
 30
0.0
 40
1.5
100
AcDbArc
 50
180.0
 51
270.0
  0
LINE
  5
2BBDB
102
{ACAD_REACTORS
330
2BC22
102
}
330
18
100
AcDbEntity
  8
Modules
100
AcDbLine
 10
415.8185085684565
 20
186.2946407191407
 30
0.0
 11
441.0185085684566
 21
186.2946407191405
 31
0.0
  0
ARC
  5
2BBDC
102
{ACAD_REACTORS
330
2BC22
102
}
330
18
100
AcDbEntity
  8
Modules
100
AcDbCircle
 10
441.0185085684566
 20
187.7946407191405
 30
0.0
 40
1.5
100
AcDbArc
 50
270.0
 51
0.0
  0
LWPOLYLINE
  5
2BBDD
102
{ACAD_REACTORS
330
2BC22
102
}
330
18
100
AcDbEntity
  8
Modules
100
AcDbPolyline
 90
        2
 70
     0
 43
0.0
 10
444.2685085684566
 20
185.3946407191406
 10
444.2685085684566
 20
246.8946407191408
  0
ARC
  5
2BBDE
102
{ACAD_REACTORS
330
2BC22
102
}
330
18
100
AcDbEntity
  8
Modules
100
AcDbCircle
 10
428.4185085684565
 20
254.6446407191406
 30
0.0
 40
2.5
100
AcDbArc
 50
59.86379162144906
 51
120.1362083785434
  0
ARC
  5
2BBDF
102
{ACAD_REACTORS
330
2BC22
102
}
330
18
100
AcDbEntity
  8
Modules
100
AcDbCircle
 10
415.0685085684566
 20
185.3946407191406
 30
0.0
 40
2.5
100
AcDbArc
 50
180.0
 51
239.863791621449
  0
ARC
  5
2BBE0
102
{ACAD_REACTORS
330
2BC22
102
}
330
18
100
AcDbEntity
  8
Modules
100
AcDbCircle
 10
415.0685085684566
 20
246.8946407191408
 30
0.0
 40
2.499999999999999
100
AcDbArc
 50
120.1362083785434
 51
180.0
  0
ARC
  5
2BBE1
102
{ACAD_REACTORS
330
2BC22
102
}
330
18
100
AcDbEntity
  8
Modules
100
AcDbCircle
 10
441.7685085684563
 20
185.3946407191406
 30
0.0
 40
2.5
100
AcDbArc
 50
300.1362083785509
 51
0.0
  0
ARC
  5
2BBE2
102
{ACAD_REACTORS
330
2BC22
102
}
330
18
100
AcDbEntity
  8
Modules
100
AcDbCircle
 10
441.7685085684563
 20
246.8946407191408
 30
0.0
 40
2.499999999999999
100
AcDbArc
 50
0.0
 51
59.86379162144906
  0
LINE
  5
2BBE3
102
{ACAD_REACTORS
330
2BC22
102
}
330
18
100
AcDbEntity
  8
Modules
100
AcDbLine
 10
413.8133651331789
 20
249.0567265076513
 30
0.0
 11
427.1633651331788
 21
256.8067265076512
 31
0.0
  0
LINE
  5
2BBE4
102
{ACAD_REACTORS
330
2BC22
102
}
330
18
100
AcDbEntity
  8
Modules
100
AcDbLine
 10
413.8133651331789
 20
183.23255493063
 30
0.0
 11
427.1633651331788
 21
175.48255493063
 31
0.0
  0
LINE
  5
2BBE5
102
{ACAD_REACTORS
330
2BC22
102
}
330
18
100
AcDbEntity
  8
Modules
100
AcDbLine
 10
443.0236520037342
 20
249.0567265076513
 30
0.0
 11
429.6736520037341
 21
256.8067265076512
 31
0.0
  0
LINE
  5
2BBE6
102
{ACAD_REACTORS
330
2BC22
102
}
330
18
100
AcDbEntity
  8
Modules
100
AcDbLine
 10
443.0236520037342
 20
183.23255493063
 30
0.0
 11
429.6736520037341
 21
175.48255493063
 31
0.0
  0
ARC
  5
2BBE7
102
{ACAD_REACTORS
330
2BC22
102
}
330
18
100
AcDbEntity
  8
Modules
100
AcDbCircle
 10
428.4185085684565
 20
177.6446407191406
 30
0.0
 40
2.5
100
AcDbArc
 50
239.863791621449
 51
300.1362083785509
  0
LINE
  5
2BBE8
102
{ACAD_REACTORS
330
2BC22
102
}
330
18
100
AcDbEntity
  8
Modules
100
AcDbLine
 10
421.3449775641112
 20
189.5946407191406
 30
0.0
 11
435.492039572802
 21
189.5946407191405
 31
0.0
  0
ARC
  5
2BBE9
102
{ACAD_REACTORS
330
2BC22
102
}
330
18
100
AcDbEntity
  8
Modules
100
AcDbCircle
 10
421.3449775641112
 20
190.5946407191406
 30
0.0
 40
1.0
100
AcDbArc
 50
223.8065105760125
 51
270.0
  0
LINE
  5
2BBEA
102
{ACAD_REACTORS
330
2BC22
102
}
330
18
100
AcDbEntity
  8
Modules
100
AcDbLine
 10
416.2185085684567
 20
202.8946407191406
 30
0.0
 11
416.2185085684567
 21
194.8967041401422
 31
0.0
  0
ARC
  5
2BBEB
102
{ACAD_REACTORS
330
2BC22
102
}
330
18
100
AcDbEntity
  8
Modules
100
AcDbCircle
 10
417.2185085684566
 20
194.8967041401422
 30
0.0
 40
1.0
100
AcDbArc
 50
180.0
 51
223.8065105760125
  0
LINE
  5
2BBEC
102
{ACAD_REACTORS
330
2BC22
102
}
330
18
100
AcDbEntity
  8
Modules
100
AcDbLine
 10
440.6185085684565
 20
194.896704140142
 30
0.0
 11
440.6185085684565
 21
202.8946407191405
 31
0.0
  0
ARC
  5
2BBED
102
{ACAD_REACTORS
330
2BC22
102
}
330
18
100
AcDbEntity
  8
Modules
100
AcDbCircle
 10
439.6185085684565
 20
194.896704140142
 30
0.0
 40
1.0
100
AcDbArc
 50
316.1934894239875
 51
0.0
  0
ARC
  5
2BBEE
102
{ACAD_REACTORS
330
2BC22
102
}
330
18
100
AcDbEntity
  8
Modules
100
AcDbCircle
 10
437.6185085684565
 20
202.8946407191405
 30
0.0
 40
3.0
100
AcDbArc
 50
0.0
 51
90.0
  0
LINE
  5
2BBEF
102
{ACAD_REACTORS
330
2BC22
102
}
330
18
100
AcDbEntity
  8
Modules
100
AcDbLine
 10
419.2185085684567
 20
205.8946407191406
 30
0.0
 11
437.6185085684565
 21
205.8946407191405
 31
0.0
  0
ARC
  5
2BBF0
102
{ACAD_REACTORS
330
2BC22
102
}
330
18
100
AcDbEntity
  8
Modules
100
AcDbCircle
 10
419.2185085684567
 20
202.8946407191406
 30
0.0
 40
3.0
100
AcDbArc
 50
90.0
 51
180.0
  0
LINE
  5
2BBF1
102
{ACAD_REACTORS
330
2BC22
102
}
330
18
100
AcDbEntity
  8
Modules
100
AcDbLine
 10
420.6232959895847
 20
189.9024155354112
 30
0.0
 11
416.4968269939302
 21
194.2044789564128
 31
0.0
  0
LINE
  5
2BBF2
102
{ACAD_REACTORS
330
2BC22
102
}
330
18
100
AcDbEntity
  8
Modules
100
AcDbLine
 10
436.2137211473284
 20
189.9024155354111
 30
0.0
 11
440.340190142983
 21
194.2044789564127
 31
0.0
  0
ARC
  5
2BBF3
102
{ACAD_REACTORS
330
2BC22
102
}
330
18
100
AcDbEntity
  8
Modules
100
AcDbCircle
 10
435.492039572802
 20
190.5946407191405
 30
0.0
 40
1.0
100
AcDbArc
 50
270.0
 51
316.1934894239875
  0
LINE
  5
2BBF4
102
{ACAD_REACTORS
330
2BC22
102
}
330
18
100
AcDbEntity
  8
Modules
100
AcDbLine
 10
439.4185085684565
 20
221.3946407191406
 30
0.0
 11
417.4185085684564
 21
221.3946407191405
 31
0.0
  0
ARC
  5
2BBF5
102
{ACAD_REACTORS
330
2BC22
102
}
330
18
100
AcDbEntity
  8
Modules
100
AcDbCircle
 10
439.4185085684565
 20
222.3946407191406
 30
0.0
 40
1.0
100
AcDbArc
 50
270.0
 51
0.0
  0
LINE
  5
2BBF6
102
{ACAD_REACTORS
330
2BC22
102
}
330
18
100
AcDbEntity
  8
Modules
100
AcDbLine
 10
437.1690395149395
 20
223.8946407191406
 30
0.0
 11
419.6679776219737
 21
223.8946407191406
 31
0.0
  0
LINE
  5
2BBF7
102
{ACAD_REACTORS
330
2BC22
102
}
330
18
100
AcDbEntity
  8
Modules
100
AcDbLine
 10
439.4185085684565
 20
242.6946407191407
 30
0.0
 11
417.4185085684564
 21
242.6946407191406
 31
0.0
  0
ARC
  5
2BBF8
102
{ACAD_REACTORS
330
2BC22
102
}
330
18
100
AcDbEntity
  8
Modules
100
AcDbCircle
 10
417.4185085684564
 20
241.6946407191406
 30
0.0
 40
1.0
100
AcDbArc
 50
90.0
 51
180.0
  0
LINE
  5
2BBF9
102
{ACAD_REACTORS
330
2BC22
102
}
330
18
100
AcDbEntity
  8
Modules
100
AcDbLine
 10
437.1690395149395
 20
240.1946407191406
 30
0.0
 11
419.6679776219737
 21
240.1946407191406
 31
0.0
  0
ARC
  5
2BBFA
102
{ACAD_REACTORS
330
2BC22
102
}
330
18
100
AcDbEntity
  8
Modules
100
AcDbCircle
 10
465.9131514255975
 20
232.0446407191405
 30
0.0
 40
47.79464285714107
100
AcDbArc
 50
171.211048651491
 51
188.788951348509
  0
ARC
  5
2BBFB
102
{ACAD_REACTORS
330
2BC22
102
}
330
18
100
AcDbEntity
  8
Modules
100
AcDbCircle
 10
419.6679776219737
 20
239.1946407191406
 30
0.0
 40
1.0
100
AcDbArc
 50
90.0
 51
171.211048651491
  0
ARC
  5
2BBFC
102
{ACAD_REACTORS
330
2BC22
102
}
330
18
100
AcDbEntity
  8
Modules
100
AcDbCircle
 10
419.6679776219737
 20
224.8946407191405
 30
0.0
 40
1.0
100
AcDbArc
 50
188.788951348509
 51
270.0
  0
ARC
  5
2BBFD
102
{ACAD_REACTORS
330
2BC22
102
}
330
18
100
AcDbEntity
  8
Modules
100
AcDbCircle
 10
390.9238657113156
 20
232.0446407191405
 30
0.0
 40
47.79464285714107
100
AcDbArc
 50
351.2110486514893
 51
8.788951348509012
  0
ARC
  5
2BBFE
102
{ACAD_REACTORS
330
2BC22
102
}
330
18
100
AcDbEntity
  8
Modules
100
AcDbCircle
 10
437.1690395149395
 20
224.8946407191406
 30
0.0
 40
1.0
100
AcDbArc
 50
270.0
 51
351.2110486514893
  0
ARC
  5
2BBFF
102
{ACAD_REACTORS
330
2BC22
102
}
330
18
100
AcDbEntity
  8
Modules
100
AcDbCircle
 10
437.1690395149395
 20
239.1946407191406
 30
0.0
 40
1.0
100
AcDbArc
 50
8.788951348509012
 51
90.0
  0
LINE
  5
2BC00
102
{ACAD_REACTORS
330
2BC22
102
}
330
18
100
AcDbEntity
  8
Modules
100
AcDbLine
 10
429.5185085684566
 20
193.7946407191406
 30
0.0
 11
429.5185085684566
 21
197.7946407191406
 31
0.0
  0
LINE
  5
2BC01
102
{ACAD_REACTORS
330
2BC22
102
}
330
18
100
AcDbEntity
  8
Modules
100
AcDbLine
 10
427.3185085684568
 20
193.7946407191406
 30
0.0
 11
427.3185085684568
 21
197.7946407191406
 31
0.0
  0
LINE
  5
2BC02
102
{ACAD_REACTORS
330
2BC22
102
}
330
18
100
AcDbEntity
  8
Modules
100
AcDbLine
 10
427.3185085684568
 20
197.7946407191406
 30
0.0
 11
429.5185085684566
 21
197.7946407191406
 31
0.0
  0
LINE
  5
2BC03
102
{ACAD_REACTORS
330
2BC22
102
}
330
18
100
AcDbEntity
  8
Modules
100
AcDbLine
 10
427.3185085684568
 20
193.7946407191406
 30
0.0
 11
429.5185085684566
 21
193.7946407191406
 31
0.0
  0
LINE
  5
2BC04
102
{ACAD_REACTORS
330
2BC22
102
}
330
18
100
AcDbEntity
  8
Modules
100
AcDbLine
 10
437.5185085684566
 20
198.0946407191405
 30
0.0
 11
437.5185085684566
 21
202.0946407191405
 31
0.0
  0
LINE
  5
2BC05
102
{ACAD_REACTORS
330
2BC22
102
}
330
18
100
AcDbEntity
  8
Modules
100
AcDbLine
 10
435.3185085684568
 20
198.0946407191405
 30
0.0
 11
435.3185085684568
 21
202.0946407191405
 31
0.0
  0
LINE
  5
2BC06
102
{ACAD_REACTORS
330
2BC22
102
}
330
18
100
AcDbEntity
  8
Modules
100
AcDbLine
 10
435.3185085684568
 20
202.0946407191405
 30
0.0
 11
437.5185085684566
 21
202.0946407191405
 31
0.0
  0
LINE
  5
2BC07
102
{ACAD_REACTORS
330
2BC22
102
}
330
18
100
AcDbEntity
  8
Modules
100
AcDbLine
 10
435.3185085684568
 20
198.0946407191405
 30
0.0
 11
437.5185085684566
 21
198.0946407191405
 31
0.0
  0
LINE
  5
2BC08
102
{ACAD_REACTORS
330
2BC22
102
}
330
18
100
AcDbEntity
  8
Modules
100
AcDbLine
 10
421.5185085684566
 20
198.0946407191405
 30
0.0
 11
421.5185085684566
 21
202.0946407191405
 31
0.0
  0
LINE
  5
2BC09
102
{ACAD_REACTORS
330
2BC22
102
}
330
18
100
AcDbEntity
  8
Modules
100
AcDbLine
 10
419.3185085684565
 20
198.0946407191405
 30
0.0
 11
419.3185085684568
 21
202.0946407191405
 31
0.0
  0
LINE
  5
2BC0A
102
{ACAD_REACTORS
330
2BC22
102
}
330
18
100
AcDbEntity
  8
Modules
100
AcDbLine
 10
419.3185085684568
 20
202.0946407191405
 30
0.0
 11
421.5185085684566
 21
202.0946407191405
 31
0.0
  0
LINE
  5
2BC0B
102
{ACAD_REACTORS
330
2BC22
102
}
330
18
100
AcDbEntity
  8
Modules
100
AcDbLine
 10
419.3185085684565
 20
198.0946407191405
 30
0.0
 11
421.5185085684566
 21
198.0946407191405
 31
0.0
  0
LWPOLYLINE
  5
2BC0C
102
{ACAD_REACTORS
330
2BC22
102
}
330
18
100
AcDbEntity
  8
Modules
100
AcDbPolyline
 90
        2
 70
     0
 43
0.0
 10
412.5685085684565
 20
185.3946407191406
 10
412.5685085684565
 20
246.8946407191408
  0
CIRCLE
  5
2BC0D
102
{ACAD_REACTORS
330
2BC22
102
}
330
18
100
AcDbEntity
  8
Modules
100
AcDbCircle
 10
504.3685085684563
 20
246.3446251813047
 30
0.0
 40
1.3
  0
CIRCLE
  5
2BC0E
102
{ACAD_REACTORS
330
2BC22
102
}
330
18
100
AcDbEntity
  8
Modules
100
AcDbCircle
 10
411.8685085684568
 20
268.8446407191407
 30
0.0
 40
2.45
  0
LWPOLYLINE
  5
2BC0F
102
{ACAD_REACTORS
330
2BC22
102
}
330
18
100
AcDbEntity
  8
Modules
100
AcDbPolyline
 90
        6
 70
     1
 43
0.0
 10
411.2334232723483
 20
269.9446407191407
 10
410.5983379762397
 20
268.8446407191407
 10
411.2334232723483
 20
267.7446407191407
 10
412.5035938645654
 20
267.7446407191407
 10
413.138679160674
 20
268.8446407191407
 10
412.5035938645654
 20
269.9446407191407
  0
CIRCLE
  5
2BC10
102
{ACAD_REACTORS
330
2BC22
102
}
330
18
100
AcDbEntity
  8
Modules
100
AcDbCircle
 10
503.3085085684565
 20
268.8446407191407
 30
0.0
 40
2.45
  0
LWPOLYLINE
  5
2BC11
102
{ACAD_REACTORS
330
2BC22
102
}
330
18
100
AcDbEntity
  8
Modules
100
AcDbPolyline
 90
        6
 70
     1
 43
0.0
 10
502.6734232723482
 20
269.9446407191407
 10
502.0383379762395
 20
268.8446407191407
 10
502.6734232723482
 20
267.7446407191407
 10
503.9435938645651
 20
267.7446407191407
 10
504.5786791606738
 20
268.8446407191407
 10
503.9435938645651
 20
269.9446407191407
  0
CIRCLE
  5
2BC12
102
{ACAD_REACTORS
330
2BC22
102
}
330
18
100
AcDbEntity
  8
Modules
100
AcDbCircle
 10
411.8685085684568
 20
146.4446407191407
 30
0.0
 40
2.45
  0
LWPOLYLINE
  5
2BC13
102
{ACAD_REACTORS
330
2BC22
102
}
330
18
100
AcDbEntity
  8
Modules
100
AcDbPolyline
 90
        6
 70
     1
 43
0.0
 10
411.2334232723483
 20
147.5446407191407
 10
410.5983379762397
 20
146.4446407191407
 10
411.2334232723483
 20
145.3446407191407
 10
412.5035938645654
 20
145.3446407191407
 10
413.138679160674
 20
146.4446407191407
 10
412.5035938645654
 20
147.5446407191407
  0
CIRCLE
  5
2BC14
102
{ACAD_REACTORS
330
2BC22
102
}
330
18
100
AcDbEntity
  8
Modules
100
AcDbCircle
 10
503.3085085684565
 20
146.4446407191407
 30
0.0
 40
2.45
  0
LWPOLYLINE
  5
2BC15
102
{ACAD_REACTORS
330
2BC22
102
}
330
18
100
AcDbEntity
  8
Modules
100
AcDbPolyline
 90
        6
 70
     1
 43
0.0
 10
502.6734232723482
 20
147.5446407191407
 10
502.0383379762395
 20
146.4446407191407
 10
502.6734232723482
 20
145.3446407191407
 10
503.9435938645651
 20
145.3446407191407
 10
504.5786791606738
 20
146.4446407191407
 10
503.9435938645651
 20
147.5446407191407
  0
CIRCLE
  5
2BC16
102
{ACAD_REACTORS
330
2BC22
102
}
330
18
100
AcDbEntity
  8
Modules
100
AcDbCircle
 10
428.4185085684565
 20
252.1446407191406
 30
0.0
 40
2.45
  0
LWPOLYLINE
  5
2BC17
102
{ACAD_REACTORS
330
2BC22
102
}
330
18
100
AcDbEntity
  8
Modules
100
AcDbPolyline
 90
        6
 70
     1
 43
0.0
 10
427.783423272348
 20
253.2446407191407
 10
427.1483379762394
 20
252.1446407191406
 10
427.783423272348
 20
251.0446407191406
 10
429.0535938645651
 20
251.0446407191406
 10
429.6886791606737
 20
252.1446407191406
 10
429.0535938645651
 20
253.2446407191407
  0
CIRCLE
  5
2BC18
102
{ACAD_REACTORS
330
2BC22
102
}
330
18
100
AcDbEntity
  8
Modules
100
AcDbCircle
 10
428.4185085684565
 20
180.1446407191406
 30
0.0
 40
2.45
  0
LWPOLYLINE
  5
2BC19
102
{ACAD_REACTORS
330
2BC22
102
}
330
18
100
AcDbEntity
  8
Modules
100
AcDbPolyline
 90
        6
 70
     1
 43
0.0
 10
427.783423272348
 20
181.2446407191406
 10
427.1483379762394
 20
180.1446407191406
 10
427.783423272348
 20
179.0446407191406
 10
429.0535938645651
 20
179.0446407191406
 10
429.6886791606737
 20
180.1446407191406
 10
429.0535938645651
 20
181.2446407191406
  0
CIRCLE
  5
2BC1A
102
{ACAD_REACTORS
330
2BC22
102
}
330
18
100
AcDbEntity
  8
Modules
100
AcDbCircle
 10
503.3085085684565
 20
257.1446407191407
 30
0.0
 40
2.45
  0
LWPOLYLINE
  5
2BC1B
102
{ACAD_REACTORS
330
2BC22
102
}
330
18
100
AcDbEntity
  8
Modules
100
AcDbPolyline
 90
        6
 70
     1
 43
0.0
 10
502.6734232723482
 20
258.2446407191407
 10
502.0383379762395
 20
257.1446407191407
 10
502.6734232723482
 20
256.0446407191407
 10
503.9435938645651
 20
256.0446407191407
 10
504.5786791606738
 20
257.1446407191407
 10
503.9435938645651
 20
258.2446407191407
  0
LINE
  5
2BC1C
102
{ACAD_REACTORS
330
2BC22
102
}
330
18
100
AcDbEntity
  8
Modules
100
AcDbLine
 10
510.3785085684568
 20
165.6246407191407
 30
0.0
 11
491.3785085684567
 21
165.6246407191407
 31
0.0
  0
LINE
  5
2BC1D
102
{ACAD_REACTORS
330
2BC22
102
}
330
18
100
AcDbEntity
  8
Modules
100
AcDbLine
 10
510.3785085684568
 20
164.6246407191408
 30
0.0
 11
491.3785085684567
 21
164.6246407191408
 31
0.0
  0
LINE
  5
2BC1E
102
{ACAD_REACTORS
330
2BC22
102
}
330
18
100
AcDbEntity
  8
Modules
100
AcDbLine
 10
510.3785085684568
 20
150.6246407191407
 30
0.0
 11
491.3785085684567
 21
150.6246407191407
 31
0.0
  0
LINE
  5
2BC1F
102
{ACAD_REACTORS
330
2BC22
102
}
330
18
100
AcDbEntity
  8
Modules
100
AcDbLine
 10
510.3785085684568
 20
151.6246407191407
 30
0.0
 11
491.3785085684567
 21
151.6246407191407
 31
0.0
  0
LINE
  5
2BC20
102
{ACAD_REACTORS
330
2BC22
102
}
330
18
100
AcDbEntity
  8
Modules
100
AcDbLine
 10
491.3785085684567
 20
150.6246407191407
 30
0.0
 11
491.3785085684567
 21
165.6246407191407
 31
0.0
  0
LINE
  5
2BC21
102
{ACAD_REACTORS
330
2BC22
102
}
330
18
100
AcDbEntity
  8
Modules
100
AcDbLine
 10
510.3785085684568
 20
150.6246407191407
 30
0.0
 11
510.3785085684568
 21
165.6246407191407
 31
0.0
  0
LINE
  5
2BC23
102
{ACAD_REACTORS
330
2BC78
102
}
330
18
100
AcDbEntity
  8
Modules
100
AcDbLine
 10
297.8685085684567
 20
143.4446407191406
 30
0.0
 11
297.8685085684563
 21
271.8446410606525
 31
0.0
  0
LINE
  5
2BC24
102
{ACAD_REACTORS
330
2BC78
102
}
330
18
100
AcDbEntity
  8
Modules
100
AcDbLine
 10
404.3685085684566
 20
143.4446407191407
 30
0.0
 11
297.8685085684567
 21
143.4446407191406
 31
0.0
  0
LINE
  5
2BC25
102
{ACAD_REACTORS
330
2BC78
102
}
330
18
100
AcDbEntity
  8
Modules
100
AcDbLine
 10
404.3685085684562
 20
271.8446410606525
 30
0.0
 11
297.8685085684563
 21
271.8446410606525
 31
0.0
  0
LINE
  5
2BC26
102
{ACAD_REACTORS
330
2BC78
102
}
330
18
100
AcDbEntity
  8
Modules
100
AcDbLine
 10
404.3685085684566
 20
143.4446407191407
 30
0.0
 11
404.3685085684562
 21
271.8446410606525
 31
0.0
  0
LINE
  5
2BC27
102
{ACAD_REACTORS
330
2BC78
102
}
330
18
100
AcDbEntity
  8
Modules
100
AcDbLine
 10
333.9185085684564
 20
222.3946407191406
 30
0.0
 11
333.9185085684564
 21
241.6946407191407
 31
0.0
  0
ARC
  5
2BC28
102
{ACAD_REACTORS
330
2BC78
102
}
330
18
100
AcDbEntity
  8
Modules
100
AcDbCircle
 10
332.9185085684565
 20
241.6946407191407
 30
0.0
 40
1.0
100
AcDbArc
 50
0.0
 51
90.0
  0
LINE
  5
2BC29
102
{ACAD_REACTORS
330
2BC78
102
}
330
18
100
AcDbEntity
  8
Modules
100
AcDbLine
 10
309.9185085684565
 20
222.3946407191405
 30
0.0
 11
309.9185085684565
 21
241.6946407191406
 31
0.0
  0
ARC
  5
2BC2A
102
{ACAD_REACTORS
330
2BC78
102
}
330
18
100
AcDbEntity
  8
Modules
100
AcDbCircle
 10
310.9185085684564
 20
222.3946407191405
 30
0.0
 40
1.0
100
AcDbArc
 50
180.0
 51
270.0
  0
LINE
  5
2BC2B
102
{ACAD_REACTORS
330
2BC78
102
}
330
18
100
AcDbEntity
  8
Modules
100
AcDbLine
 10
336.0185085684566
 20
187.7946407191405
 30
0.0
 11
336.0185085684566
 21
244.4946407191407
 31
0.0
  0
ARC
  5
2BC2C
102
{ACAD_REACTORS
330
2BC78
102
}
330
18
100
AcDbEntity
  8
Modules
100
AcDbCircle
 10
334.5185085684566
 20
244.4946407191407
 30
0.0
 40
1.5
100
AcDbArc
 50
0.0
 51
90.0
  0
LINE
  5
2BC2D
102
{ACAD_REACTORS
330
2BC78
102
}
330
18
100
AcDbEntity
  8
Modules
100
AcDbLine
 10
334.5185085684566
 20
245.9946407191406
 30
0.0
 11
309.3185085684565
 21
245.9946407191405
 31
0.0
  0
ARC
  5
2BC2E
102
{ACAD_REACTORS
330
2BC78
102
}
330
18
100
AcDbEntity
  8
Modules
100
AcDbCircle
 10
309.3185085684565
 20
244.4946407191405
 30
0.0
 40
1.5
100
AcDbArc
 50
90.0
 51
180.0
  0
LINE
  5
2BC2F
102
{ACAD_REACTORS
330
2BC78
102
}
330
18
100
AcDbEntity
  8
Modules
100
AcDbLine
 10
307.8185085684566
 20
244.4946407191405
 30
0.0
 11
307.8185085684566
 21
187.7946407191407
 31
0.0
  0
ARC
  5
2BC30
102
{ACAD_REACTORS
330
2BC78
102
}
330
18
100
AcDbEntity
  8
Modules
100
AcDbCircle
 10
309.3185085684565
 20
187.7946407191407
 30
0.0
 40
1.5
100
AcDbArc
 50
180.0
 51
270.0
  0
LINE
  5
2BC31
102
{ACAD_REACTORS
330
2BC78
102
}
330
18
100
AcDbEntity
  8
Modules
100
AcDbLine
 10
309.3185085684565
 20
186.2946407191407
 30
0.0
 11
334.5185085684566
 21
186.2946407191405
 31
0.0
  0
ARC
  5
2BC32
102
{ACAD_REACTORS
330
2BC78
102
}
330
18
100
AcDbEntity
  8
Modules
100
AcDbCircle
 10
334.5185085684566
 20
187.7946407191405
 30
0.0
 40
1.5
100
AcDbArc
 50
270.0
 51
0.0
  0
LWPOLYLINE
  5
2BC33
102
{ACAD_REACTORS
330
2BC78
102
}
330
18
100
AcDbEntity
  8
Modules
100
AcDbPolyline
 90
        2
 70
     0
 43
0.0
 10
337.7685085684566
 20
185.3946407191406
 10
337.7685085684566
 20
246.8946407191408
  0
ARC
  5
2BC34
102
{ACAD_REACTORS
330
2BC78
102
}
330
18
100
AcDbEntity
  8
Modules
100
AcDbCircle
 10
321.9185085684565
 20
254.6446407191406
 30
0.0
 40
2.5
100
AcDbArc
 50
59.86379162144902
 51
120.1362083785434
  0
ARC
  5
2BC35
102
{ACAD_REACTORS
330
2BC78
102
}
330
18
100
AcDbEntity
  8
Modules
100
AcDbCircle
 10
308.5685085684565
 20
185.3946407191406
 30
0.0
 40
2.5
100
AcDbArc
 50
180.0
 51
239.863791621449
  0
ARC
  5
2BC36
102
{ACAD_REACTORS
330
2BC78
102
}
330
18
100
AcDbEntity
  8
Modules
100
AcDbCircle
 10
308.5685085684565
 20
246.8946407191408
 30
0.0
 40
2.499999999999999
100
AcDbArc
 50
120.1362083785434
 51
180.0
  0
ARC
  5
2BC37
102
{ACAD_REACTORS
330
2BC78
102
}
330
18
100
AcDbEntity
  8
Modules
100
AcDbCircle
 10
335.2685085684564
 20
185.3946407191406
 30
0.0
 40
2.5
100
AcDbArc
 50
300.136208378551
 51
0.0
  0
ARC
  5
2BC38
102
{ACAD_REACTORS
330
2BC78
102
}
330
18
100
AcDbEntity
  8
Modules
100
AcDbCircle
 10
335.2685085684564
 20
246.8946407191408
 30
0.0
 40
2.499999999999999
100
AcDbArc
 50
0.0
 51
59.86379162144902
  0
LINE
  5
2BC39
102
{ACAD_REACTORS
330
2BC78
102
}
330
18
100
AcDbEntity
  8
Modules
100
AcDbLine
 10
307.3133651331789
 20
249.0567265076513
 30
0.0
 11
320.6633651331788
 21
256.8067265076512
 31
0.0
  0
LINE
  5
2BC3A
102
{ACAD_REACTORS
330
2BC78
102
}
330
18
100
AcDbEntity
  8
Modules
100
AcDbLine
 10
307.3133651331789
 20
183.23255493063
 30
0.0
 11
320.6633651331788
 21
175.48255493063
 31
0.0
  0
LINE
  5
2BC3B
102
{ACAD_REACTORS
330
2BC78
102
}
330
18
100
AcDbEntity
  8
Modules
100
AcDbLine
 10
336.5236520037342
 20
249.0567265076513
 30
0.0
 11
323.1736520037341
 21
256.8067265076512
 31
0.0
  0
LINE
  5
2BC3C
102
{ACAD_REACTORS
330
2BC78
102
}
330
18
100
AcDbEntity
  8
Modules
100
AcDbLine
 10
336.5236520037342
 20
183.23255493063
 30
0.0
 11
323.1736520037341
 21
175.48255493063
 31
0.0
  0
ARC
  5
2BC3D
102
{ACAD_REACTORS
330
2BC78
102
}
330
18
100
AcDbEntity
  8
Modules
100
AcDbCircle
 10
321.9185085684565
 20
177.6446407191406
 30
0.0
 40
2.5
100
AcDbArc
 50
239.863791621449
 51
300.136208378551
  0
LINE
  5
2BC3E
102
{ACAD_REACTORS
330
2BC78
102
}
330
18
100
AcDbEntity
  8
Modules
100
AcDbLine
 10
314.8449775641111
 20
189.5946407191406
 30
0.0
 11
328.992039572802
 21
189.5946407191405
 31
0.0
  0
ARC
  5
2BC3F
102
{ACAD_REACTORS
330
2BC78
102
}
330
18
100
AcDbEntity
  8
Modules
100
AcDbCircle
 10
314.8449775641111
 20
190.5946407191406
 30
0.0
 40
1.0
100
AcDbArc
 50
223.8065105760124
 51
270.0
  0
LINE
  5
2BC40
102
{ACAD_REACTORS
330
2BC78
102
}
330
18
100
AcDbEntity
  8
Modules
100
AcDbLine
 10
309.7185085684566
 20
202.8946407191406
 30
0.0
 11
309.7185085684566
 21
194.8967041401422
 31
0.0
  0
ARC
  5
2BC41
102
{ACAD_REACTORS
330
2BC78
102
}
330
18
100
AcDbEntity
  8
Modules
100
AcDbCircle
 10
310.7185085684566
 20
194.8967041401422
 30
0.0
 40
1.0
100
AcDbArc
 50
180.0
 51
223.8065105760124
  0
LINE
  5
2BC42
102
{ACAD_REACTORS
330
2BC78
102
}
330
18
100
AcDbEntity
  8
Modules
100
AcDbLine
 10
334.1185085684565
 20
194.896704140142
 30
0.0
 11
334.1185085684565
 21
202.8946407191405
 31
0.0
  0
ARC
  5
2BC43
102
{ACAD_REACTORS
330
2BC78
102
}
330
18
100
AcDbEntity
  8
Modules
100
AcDbCircle
 10
333.1185085684565
 20
194.896704140142
 30
0.0
 40
1.0
100
AcDbArc
 50
316.1934894239875
 51
0.0
  0
ARC
  5
2BC44
102
{ACAD_REACTORS
330
2BC78
102
}
330
18
100
AcDbEntity
  8
Modules
100
AcDbCircle
 10
331.1185085684565
 20
202.8946407191405
 30
0.0
 40
3.0
100
AcDbArc
 50
0.0
 51
90.0
  0
LINE
  5
2BC45
102
{ACAD_REACTORS
330
2BC78
102
}
330
18
100
AcDbEntity
  8
Modules
100
AcDbLine
 10
312.7185085684566
 20
205.8946407191406
 30
0.0
 11
331.1185085684565
 21
205.8946407191405
 31
0.0
  0
ARC
  5
2BC46
102
{ACAD_REACTORS
330
2BC78
102
}
330
18
100
AcDbEntity
  8
Modules
100
AcDbCircle
 10
312.7185085684566
 20
202.8946407191406
 30
0.0
 40
3.0
100
AcDbArc
 50
90.0
 51
180.0
  0
LINE
  5
2BC47
102
{ACAD_REACTORS
330
2BC78
102
}
330
18
100
AcDbEntity
  8
Modules
100
AcDbLine
 10
314.1232959895847
 20
189.9024155354112
 30
0.0
 11
309.9968269939302
 21
194.2044789564128
 31
0.0
  0
LINE
  5
2BC48
102
{ACAD_REACTORS
330
2BC78
102
}
330
18
100
AcDbEntity
  8
Modules
100
AcDbLine
 10
329.7137211473284
 20
189.9024155354111
 30
0.0
 11
333.8401901429829
 21
194.2044789564127
 31
0.0
  0
ARC
  5
2BC49
102
{ACAD_REACTORS
330
2BC78
102
}
330
18
100
AcDbEntity
  8
Modules
100
AcDbCircle
 10
328.992039572802
 20
190.5946407191405
 30
0.0
 40
1.0
100
AcDbArc
 50
270.0
 51
316.1934894239875
  0
LINE
  5
2BC4A
102
{ACAD_REACTORS
330
2BC78
102
}
330
18
100
AcDbEntity
  8
Modules
100
AcDbLine
 10
332.9185085684565
 20
221.3946407191406
 30
0.0
 11
310.9185085684564
 21
221.3946407191405
 31
0.0
  0
ARC
  5
2BC4B
102
{ACAD_REACTORS
330
2BC78
102
}
330
18
100
AcDbEntity
  8
Modules
100
AcDbCircle
 10
332.9185085684565
 20
222.3946407191406
 30
0.0
 40
1.0
100
AcDbArc
 50
270.0
 51
0.0
  0
LINE
  5
2BC4C
102
{ACAD_REACTORS
330
2BC78
102
}
330
18
100
AcDbEntity
  8
Modules
100
AcDbLine
 10
330.6690395149394
 20
223.8946407191406
 30
0.0
 11
313.1679776219737
 21
223.8946407191406
 31
0.0
  0
LINE
  5
2BC4D
102
{ACAD_REACTORS
330
2BC78
102
}
330
18
100
AcDbEntity
  8
Modules
100
AcDbLine
 10
332.9185085684565
 20
242.6946407191407
 30
0.0
 11
310.9185085684564
 21
242.6946407191406
 31
0.0
  0
ARC
  5
2BC4E
102
{ACAD_REACTORS
330
2BC78
102
}
330
18
100
AcDbEntity
  8
Modules
100
AcDbCircle
 10
310.9185085684564
 20
241.6946407191406
 30
0.0
 40
1.0
100
AcDbArc
 50
90.0
 51
180.0
  0
LINE
  5
2BC4F
102
{ACAD_REACTORS
330
2BC78
102
}
330
18
100
AcDbEntity
  8
Modules
100
AcDbLine
 10
330.6690395149394
 20
240.1946407191406
 30
0.0
 11
313.1679776219737
 21
240.1946407191406
 31
0.0
  0
ARC
  5
2BC50
102
{ACAD_REACTORS
330
2BC78
102
}
330
18
100
AcDbEntity
  8
Modules
100
AcDbCircle
 10
359.4131514255975
 20
232.0446407191405
 30
0.0
 40
47.79464285714107
100
AcDbArc
 50
171.2110486514909
 51
188.7889513485091
  0
ARC
  5
2BC51
102
{ACAD_REACTORS
330
2BC78
102
}
330
18
100
AcDbEntity
  8
Modules
100
AcDbCircle
 10
313.1679776219737
 20
239.1946407191406
 30
0.0
 40
1.0
100
AcDbArc
 50
90.0
 51
171.2110486514909
  0
ARC
  5
2BC52
102
{ACAD_REACTORS
330
2BC78
102
}
330
18
100
AcDbEntity
  8
Modules
100
AcDbCircle
 10
313.1679776219737
 20
224.8946407191405
 30
0.0
 40
1.0
100
AcDbArc
 50
188.7889513485091
 51
270.0
  0
ARC
  5
2BC53
102
{ACAD_REACTORS
330
2BC78
102
}
330
18
100
AcDbEntity
  8
Modules
100
AcDbCircle
 10
284.4238657113156
 20
232.0446407191405
 30
0.0
 40
47.79464285714107
100
AcDbArc
 50
351.2110486514893
 51
8.788951348509064
  0
ARC
  5
2BC54
102
{ACAD_REACTORS
330
2BC78
102
}
330
18
100
AcDbEntity
  8
Modules
100
AcDbCircle
 10
330.6690395149394
 20
224.8946407191406
 30
0.0
 40
1.0
100
AcDbArc
 50
270.0
 51
351.2110486514893
  0
ARC
  5
2BC55
102
{ACAD_REACTORS
330
2BC78
102
}
330
18
100
AcDbEntity
  8
Modules
100
AcDbCircle
 10
330.6690395149394
 20
239.1946407191406
 30
0.0
 40
1.0
100
AcDbArc
 50
8.788951348509064
 51
90.0
  0
LINE
  5
2BC56
102
{ACAD_REACTORS
330
2BC78
102
}
330
18
100
AcDbEntity
  8
Modules
100
AcDbLine
 10
323.0185085684566
 20
193.7946407191406
 30
0.0
 11
323.0185085684566
 21
197.7946407191406
 31
0.0
  0
LINE
  5
2BC57
102
{ACAD_REACTORS
330
2BC78
102
}
330
18
100
AcDbEntity
  8
Modules
100
AcDbLine
 10
320.8185085684568
 20
193.7946407191406
 30
0.0
 11
320.8185085684568
 21
197.7946407191406
 31
0.0
  0
LINE
  5
2BC58
102
{ACAD_REACTORS
330
2BC78
102
}
330
18
100
AcDbEntity
  8
Modules
100
AcDbLine
 10
320.8185085684568
 20
197.7946407191406
 30
0.0
 11
323.0185085684566
 21
197.7946407191406
 31
0.0
  0
LINE
  5
2BC59
102
{ACAD_REACTORS
330
2BC78
102
}
330
18
100
AcDbEntity
  8
Modules
100
AcDbLine
 10
320.8185085684568
 20
193.7946407191406
 30
0.0
 11
323.0185085684566
 21
193.7946407191406
 31
0.0
  0
LINE
  5
2BC5A
102
{ACAD_REACTORS
330
2BC78
102
}
330
18
100
AcDbEntity
  8
Modules
100
AcDbLine
 10
331.0185085684566
 20
198.0946407191405
 30
0.0
 11
331.0185085684566
 21
202.0946407191405
 31
0.0
  0
LINE
  5
2BC5B
102
{ACAD_REACTORS
330
2BC78
102
}
330
18
100
AcDbEntity
  8
Modules
100
AcDbLine
 10
328.8185085684568
 20
198.0946407191405
 30
0.0
 11
328.8185085684568
 21
202.0946407191405
 31
0.0
  0
LINE
  5
2BC5C
102
{ACAD_REACTORS
330
2BC78
102
}
330
18
100
AcDbEntity
  8
Modules
100
AcDbLine
 10
328.8185085684568
 20
202.0946407191405
 30
0.0
 11
331.0185085684566
 21
202.0946407191405
 31
0.0
  0
LINE
  5
2BC5D
102
{ACAD_REACTORS
330
2BC78
102
}
330
18
100
AcDbEntity
  8
Modules
100
AcDbLine
 10
328.8185085684568
 20
198.0946407191405
 30
0.0
 11
331.0185085684566
 21
198.0946407191405
 31
0.0
  0
LINE
  5
2BC5E
102
{ACAD_REACTORS
330
2BC78
102
}
330
18
100
AcDbEntity
  8
Modules
100
AcDbLine
 10
315.0185085684566
 20
198.0946407191405
 30
0.0
 11
315.0185085684566
 21
202.0946407191405
 31
0.0
  0
LINE
  5
2BC5F
102
{ACAD_REACTORS
330
2BC78
102
}
330
18
100
AcDbEntity
  8
Modules
100
AcDbLine
 10
312.8185085684565
 20
198.0946407191405
 30
0.0
 11
312.8185085684568
 21
202.0946407191405
 31
0.0
  0
LINE
  5
2BC60
102
{ACAD_REACTORS
330
2BC78
102
}
330
18
100
AcDbEntity
  8
Modules
100
AcDbLine
 10
312.8185085684568
 20
202.0946407191405
 30
0.0
 11
315.0185085684566
 21
202.0946407191405
 31
0.0
  0
LINE
  5
2BC61
102
{ACAD_REACTORS
330
2BC78
102
}
330
18
100
AcDbEntity
  8
Modules
100
AcDbLine
 10
312.8185085684565
 20
198.0946407191405
 30
0.0
 11
315.0185085684566
 21
198.0946407191405
 31
0.0
  0
LWPOLYLINE
  5
2BC62
102
{ACAD_REACTORS
330
2BC78
102
}
330
18
100
AcDbEntity
  8
Modules
100
AcDbPolyline
 90
        2
 70
     0
 43
0.0
 10
306.0685085684565
 20
185.3946407191406
 10
306.0685085684565
 20
246.8946407191408
  0
CIRCLE
  5
2BC63
102
{ACAD_REACTORS
330
2BC78
102
}
330
18
100
AcDbEntity
  8
Modules
100
AcDbCircle
 10
397.8685085684563
 20
246.3446251813047
 30
0.0
 40
1.3
  0
CIRCLE
  5
2BC64
102
{ACAD_REACTORS
330
2BC78
102
}
330
18
100
AcDbEntity
  8
Modules
100
AcDbCircle
 10
305.3685085684567
 20
268.8446407191407
 30
0.0
 40
2.45
  0
LWPOLYLINE
  5
2BC65
102
{ACAD_REACTORS
330
2BC78
102
}
330
18
100
AcDbEntity
  8
Modules
100
AcDbPolyline
 90
        6
 70
     1
 43
0.0
 10
304.7334232723483
 20
269.9446407191407
 10
304.0983379762397
 20
268.8446407191407
 10
304.7334232723483
 20
267.7446407191407
 10
306.0035938645654
 20
267.7446407191407
 10
306.638679160674
 20
268.8446407191407
 10
306.0035938645654
 20
269.9446407191407
  0
CIRCLE
  5
2BC66
102
{ACAD_REACTORS
330
2BC78
102
}
330
18
100
AcDbEntity
  8
Modules
100
AcDbCircle
 10
396.8085085684565
 20
268.8446407191407
 30
0.0
 40
2.45
  0
LWPOLYLINE
  5
2BC67
102
{ACAD_REACTORS
330
2BC78
102
}
330
18
100
AcDbEntity
  8
Modules
100
AcDbPolyline
 90
        6
 70
     1
 43
0.0
 10
396.1734232723482
 20
269.9446407191407
 10
395.5383379762395
 20
268.8446407191407
 10
396.1734232723482
 20
267.7446407191407
 10
397.4435938645652
 20
267.7446407191407
 10
398.0786791606738
 20
268.8446407191407
 10
397.4435938645652
 20
269.9446407191407
  0
CIRCLE
  5
2BC68
102
{ACAD_REACTORS
330
2BC78
102
}
330
18
100
AcDbEntity
  8
Modules
100
AcDbCircle
 10
305.3685085684567
 20
146.4446407191407
 30
0.0
 40
2.45
  0
LWPOLYLINE
  5
2BC69
102
{ACAD_REACTORS
330
2BC78
102
}
330
18
100
AcDbEntity
  8
Modules
100
AcDbPolyline
 90
        6
 70
     1
 43
0.0
 10
304.7334232723483
 20
147.5446407191407
 10
304.0983379762397
 20
146.4446407191407
 10
304.7334232723483
 20
145.3446407191407
 10
306.0035938645654
 20
145.3446407191407
 10
306.638679160674
 20
146.4446407191407
 10
306.0035938645654
 20
147.5446407191407
  0
CIRCLE
  5
2BC6A
102
{ACAD_REACTORS
330
2BC78
102
}
330
18
100
AcDbEntity
  8
Modules
100
AcDbCircle
 10
396.8085085684565
 20
146.4446407191407
 30
0.0
 40
2.45
  0
LWPOLYLINE
  5
2BC6B
102
{ACAD_REACTORS
330
2BC78
102
}
330
18
100
AcDbEntity
  8
Modules
100
AcDbPolyline
 90
        6
 70
     1
 43
0.0
 10
396.1734232723482
 20
147.5446407191407
 10
395.5383379762395
 20
146.4446407191407
 10
396.1734232723482
 20
145.3446407191407
 10
397.4435938645652
 20
145.3446407191407
 10
398.0786791606738
 20
146.4446407191407
 10
397.4435938645652
 20
147.5446407191407
  0
CIRCLE
  5
2BC6C
102
{ACAD_REACTORS
330
2BC78
102
}
330
18
100
AcDbEntity
  8
Modules
100
AcDbCircle
 10
321.9185085684565
 20
252.1446407191406
 30
0.0
 40
2.45
  0
LWPOLYLINE
  5
2BC6D
102
{ACAD_REACTORS
330
2BC78
102
}
330
18
100
AcDbEntity
  8
Modules
100
AcDbPolyline
 90
        6
 70
     1
 43
0.0
 10
321.283423272348
 20
253.2446407191407
 10
320.6483379762394
 20
252.1446407191406
 10
321.283423272348
 20
251.0446407191406
 10
322.5535938645651
 20
251.0446407191406
 10
323.1886791606737
 20
252.1446407191406
 10
322.5535938645651
 20
253.2446407191407
  0
CIRCLE
  5
2BC6E
102
{ACAD_REACTORS
330
2BC78
102
}
330
18
100
AcDbEntity
  8
Modules
100
AcDbCircle
 10
321.9185085684565
 20
180.1446407191406
 30
0.0
 40
2.45
  0
LWPOLYLINE
  5
2BC6F
102
{ACAD_REACTORS
330
2BC78
102
}
330
18
100
AcDbEntity
  8
Modules
100
AcDbPolyline
 90
        6
 70
     1
 43
0.0
 10
321.283423272348
 20
181.2446407191406
 10
320.6483379762394
 20
180.1446407191406
 10
321.283423272348
 20
179.0446407191406
 10
322.5535938645651
 20
179.0446407191406
 10
323.1886791606737
 20
180.1446407191406
 10
322.5535938645651
 20
181.2446407191406
  0
CIRCLE
  5
2BC70
102
{ACAD_REACTORS
330
2BC78
102
}
330
18
100
AcDbEntity
  8
Modules
100
AcDbCircle
 10
396.8085085684565
 20
257.1446407191407
 30
0.0
 40
2.45
  0
LWPOLYLINE
  5
2BC71
102
{ACAD_REACTORS
330
2BC78
102
}
330
18
100
AcDbEntity
  8
Modules
100
AcDbPolyline
 90
        6
 70
     1
 43
0.0
 10
396.1734232723482
 20
258.2446407191407
 10
395.5383379762395
 20
257.1446407191407
 10
396.1734232723482
 20
256.0446407191407
 10
397.4435938645652
 20
256.0446407191407
 10
398.0786791606738
 20
257.1446407191407
 10
397.4435938645652
 20
258.2446407191407
  0
LINE
  5
2BC72
102
{ACAD_REACTORS
330
2BC78
102
}
330
18
100
AcDbEntity
  8
Modules
100
AcDbLine
 10
403.8785085684566
 20
165.6246407191407
 30
0.0
 11
384.8785085684567
 21
165.6246407191407
 31
0.0
  0
LINE
  5
2BC73
102
{ACAD_REACTORS
330
2BC78
102
}
330
18
100
AcDbEntity
  8
Modules
100
AcDbLine
 10
403.8785085684566
 20
164.6246407191408
 30
0.0
 11
384.8785085684567
 21
164.6246407191408
 31
0.0
  0
LINE
  5
2BC74
102
{ACAD_REACTORS
330
2BC78
102
}
330
18
100
AcDbEntity
  8
Modules
100
AcDbLine
 10
403.8785085684566
 20
150.6246407191407
 30
0.0
 11
384.8785085684567
 21
150.6246407191407
 31
0.0
  0
LINE
  5
2BC75
102
{ACAD_REACTORS
330
2BC78
102
}
330
18
100
AcDbEntity
  8
Modules
100
AcDbLine
 10
403.8785085684566
 20
151.6246407191407
 30
0.0
 11
384.8785085684567
 21
151.6246407191407
 31
0.0
  0
LINE
  5
2BC76
102
{ACAD_REACTORS
330
2BC78
102
}
330
18
100
AcDbEntity
  8
Modules
100
AcDbLine
 10
384.8785085684567
 20
150.6246407191407
 30
0.0
 11
384.8785085684567
 21
165.6246407191407
 31
0.0
  0
LINE
  5
2BC77
102
{ACAD_REACTORS
330
2BC78
102
}
330
18
100
AcDbEntity
  8
Modules
100
AcDbLine
 10
403.8785085684566
 20
150.6246407191407
 30
0.0
 11
403.8785085684566
 21
165.6246407191407
 31
0.0
  0
CIRCLE
  5
2BDA9
102
{ACAD_REACTORS
330
2BE63
102
}
330
18
100
AcDbEntity
  8
Modules
100
AcDbCircle
 10
91.28850856845687
 20
246.5446408898966
 30
0.0
 40
1.6
  0
CIRCLE
  5
2BDAA
102
{ACAD_REACTORS
330
2BE63
102
}
330
18
100
AcDbEntity
  8
Modules
100
AcDbCircle
 10
96.28850856845687
 20
246.5446408898966
 30
0.0
 40
1.6
  0
CIRCLE
  5
2BDC1
102
{ACAD_REACTORS
330
2BE63
102
}
330
18
100
AcDbEntity
  8
Modules
100
AcDbCircle
 10
96.28850856845687
 20
241.5446408898966
 30
0.0
 40
1.6
  0
CIRCLE
  5
2BDC2
102
{ACAD_REACTORS
330
2BE63
102
}
330
18
100
AcDbEntity
  8
Modules
100
AcDbCircle
 10
91.28850856845687
 20
241.5446408898966
 30
0.0
 40
1.6
  0
LINE
  5
2BDC5
102
{ACAD_REACTORS
330
2BE63
102
}
330
18
100
AcDbEntity
  8
Modules
100
AcDbLine
 10
104.4685085684566
 20
271.8446408898966
 30
0.0
 11
84.48850856845671
 21
271.8446408898966
 31
0.0
  0
LINE
  5
2BDC6
102
{ACAD_REACTORS
330
2BE63
102
}
330
18
100
AcDbEntity
  8
Modules
100
AcDbLine
 10
104.4685085684566
 20
143.4446408898966
 30
0.0
 11
84.48850856845661
 21
143.4446408898965
 31
0.0
  0
LINE
  5
2BDC7
102
{ACAD_REACTORS
330
2BE63
102
}
330
18
100
AcDbEntity
  8
Modules
100
AcDbLine
 10
104.4685085684566
 20
143.4646408898966
 30
0.0
 11
104.4685085684566
 21
271.8646408898966
 31
0.0
  0
LINE
  5
2BDC8
102
{ACAD_REACTORS
330
2BE63
102
}
330
18
100
AcDbEntity
  8
Modules
100
AcDbLine
 10
84.48850856845671
 20
143.4646408898965
 30
0.0
 11
84.48850856845671
 21
271.8646408898966
 31
0.0
  0
LINE
  5
2BDCC
102
{ACAD_REACTORS
330
2BE63
102
}
330
18
100
AcDbEntity
  8
Modules
100
AcDbLine
 10
99.46350856845656
 20
212.8728078898965
 30
0.0
 11
99.46350856845661
 21
238.2728078898965
 31
0.0
  0
LINE
  5
2BDCD
102
{ACAD_REACTORS
330
2BE63
102
}
330
18
100
AcDbEntity
  8
Modules
100
AcDbLine
 10
98.46350856845656
 20
213.8728078898965
 30
0.0
 11
98.46350856845656
 21
224.5728078898965
 31
0.0
  0
LINE
  5
2BDCE
102
{ACAD_REACTORS
330
2BE63
102
}
330
18
100
AcDbEntity
  8
Modules
100
AcDbLine
 10
98.46350856845662
 20
226.5728078898965
 30
0.0
 11
98.46350856845662
 21
237.2728078898965
 31
0.0
  0
LINE
  5
2BDCF
102
{ACAD_REACTORS
330
2BE63
102
}
330
18
100
AcDbEntity
  8
Modules
100
AcDbLine
 10
89.11350856845659
 20
238.2728078898965
 30
0.0
 11
89.11350856845659
 21
212.8728078898966
 31
0.0
  0
LINE
  5
2BDD0
102
{ACAD_REACTORS
330
2BE63
102
}
330
18
100
AcDbEntity
  8
Modules
100
AcDbLine
 10
90.11350856845659
 20
237.2728078898965
 30
0.0
 11
90.11350856845659
 21
226.5728078898966
 31
0.0
  0
LINE
  5
2BDD1
102
{ACAD_REACTORS
330
2BE63
102
}
330
18
100
AcDbEntity
  8
Modules
100
AcDbLine
 10
90.11350856845659
 20
224.5728078898965
 30
0.0
 11
90.11350856845659
 21
213.8728078898965
 31
0.0
  0
LINE
  5
2BDD2
102
{ACAD_REACTORS
330
2BE63
102
}
330
18
100
AcDbEntity
  8
Modules
100
AcDbLine
 10
90.11350856845659
 20
224.5728078898965
 30
0.0
 11
98.46350856845656
 21
224.5728078898965
 31
0.0
  0
LINE
  5
2BDD3
102
{ACAD_REACTORS
330
2BE63
102
}
330
18
100
AcDbEntity
  8
Modules
100
AcDbLine
 10
90.11350856845659
 20
226.5728078898966
 30
0.0
 11
98.46350856845662
 21
226.5728078898965
 31
0.0
  0
LINE
  5
2BDD8
102
{ACAD_REACTORS
330
2BE63
102
}
330
18
100
AcDbEntity
  8
Modules
100
AcDbLine
 10
89.11350856845659
 20
212.8728078898966
 30
0.0
 11
99.46350856845656
 21
212.8728078898965
 31
0.0
  0
LINE
  5
2BDD9
102
{ACAD_REACTORS
330
2BE63
102
}
330
18
100
AcDbEntity
  8
Modules
100
AcDbLine
 10
90.11350856845659
 20
213.8728078898965
 30
0.0
 11
98.46350856845656
 21
213.8728078898965
 31
0.0
  0
LINE
  5
2BDDA
102
{ACAD_REACTORS
330
2BE63
102
}
330
18
100
AcDbEntity
  8
Modules
100
AcDbLine
 10
89.11350856845659
 20
238.2728078898965
 30
0.0
 11
99.46350856845661
 21
238.2728078898965
 31
0.0
  0
LINE
  5
2BDDB
102
{ACAD_REACTORS
330
2BE63
102
}
330
18
100
AcDbEntity
  8
Modules
100
AcDbLine
 10
90.11350856845659
 20
237.2728078898965
 30
0.0
 11
98.46350856845662
 21
237.2728078898965
 31
0.0
  0
CIRCLE
  5
2BDDF
102
{ACAD_REACTORS
330
2BE63
102
}
330
18
100
AcDbEntity
  8
Modules
100
AcDbCircle
 10
94.28850856845654
 20
231.9228078898965
 30
0.0
 40
1.75
  0
CIRCLE
  5
2BDE1
102
{ACAD_REACTORS
330
2BE63
102
}
330
18
100
AcDbEntity
  8
Modules
100
AcDbCircle
 10
94.28850856845654
 20
219.2228078898965
 30
0.0
 40
1.75
  0
LINE
  5
2BDE5
102
{ACAD_REACTORS
330
2BE63
102
}
330
18
100
AcDbEntity
  8
Modules
100
AcDbLine
 10
99.46350856845656
 20
186.6728078898965
 30
0.0
 11
99.46350856845661
 21
212.0728078898965
 31
0.0
  0
LINE
  5
2BDE6
102
{ACAD_REACTORS
330
2BE63
102
}
330
18
100
AcDbEntity
  8
Modules
100
AcDbLine
 10
98.46350856845656
 20
187.6728078898965
 30
0.0
 11
98.46350856845656
 21
198.3728078898965
 31
0.0
  0
LINE
  5
2BDE7
102
{ACAD_REACTORS
330
2BE63
102
}
330
18
100
AcDbEntity
  8
Modules
100
AcDbLine
 10
98.46350856845662
 20
200.3728078898965
 30
0.0
 11
98.46350856845662
 21
211.0728078898965
 31
0.0
  0
LINE
  5
2BDE8
102
{ACAD_REACTORS
330
2BE63
102
}
330
18
100
AcDbEntity
  8
Modules
100
AcDbLine
 10
89.11350856845659
 20
212.0728078898965
 30
0.0
 11
89.11350856845659
 21
186.6728078898965
 31
0.0
  0
LINE
  5
2BDE9
102
{ACAD_REACTORS
330
2BE63
102
}
330
18
100
AcDbEntity
  8
Modules
100
AcDbLine
 10
90.11350856845659
 20
211.0728078898965
 30
0.0
 11
90.11350856845659
 21
200.3728078898965
 31
0.0
  0
LINE
  5
2BDEA
102
{ACAD_REACTORS
330
2BE63
102
}
330
18
100
AcDbEntity
  8
Modules
100
AcDbLine
 10
90.11350856845659
 20
198.3728078898965
 30
0.0
 11
90.11350856845659
 21
187.6728078898965
 31
0.0
  0
LINE
  5
2BDEB
102
{ACAD_REACTORS
330
2BE63
102
}
330
18
100
AcDbEntity
  8
Modules
100
AcDbLine
 10
90.11350856845659
 20
198.3728078898965
 30
0.0
 11
98.46350856845656
 21
198.3728078898965
 31
0.0
  0
LINE
  5
2BDEC
102
{ACAD_REACTORS
330
2BE63
102
}
330
18
100
AcDbEntity
  8
Modules
100
AcDbLine
 10
90.11350856845659
 20
200.3728078898965
 30
0.0
 11
98.46350856845662
 21
200.3728078898965
 31
0.0
  0
LINE
  5
2BDF1
102
{ACAD_REACTORS
330
2BE63
102
}
330
18
100
AcDbEntity
  8
Modules
100
AcDbLine
 10
89.11350856845659
 20
186.6728078898965
 30
0.0
 11
99.46350856845656
 21
186.6728078898965
 31
0.0
  0
LINE
  5
2BDF2
102
{ACAD_REACTORS
330
2BE63
102
}
330
18
100
AcDbEntity
  8
Modules
100
AcDbLine
 10
90.11350856845659
 20
187.6728078898965
 30
0.0
 11
98.46350856845656
 21
187.6728078898965
 31
0.0
  0
LINE
  5
2BDF3
102
{ACAD_REACTORS
330
2BE63
102
}
330
18
100
AcDbEntity
  8
Modules
100
AcDbLine
 10
89.11350856845659
 20
212.0728078898965
 30
0.0
 11
99.46350856845661
 21
212.0728078898965
 31
0.0
  0
LINE
  5
2BDF4
102
{ACAD_REACTORS
330
2BE63
102
}
330
18
100
AcDbEntity
  8
Modules
100
AcDbLine
 10
90.11350856845659
 20
211.0728078898965
 30
0.0
 11
98.46350856845662
 21
211.0728078898965
 31
0.0
  0
CIRCLE
  5
2BDF8
102
{ACAD_REACTORS
330
2BE63
102
}
330
18
100
AcDbEntity
  8
Modules
100
AcDbCircle
 10
94.28850856845654
 20
205.7228078898965
 30
0.0
 40
1.75
  0
CIRCLE
  5
2BDFA
102
{ACAD_REACTORS
330
2BE63
102
}
330
18
100
AcDbEntity
  8
Modules
100
AcDbCircle
 10
94.28850856845654
 20
193.0228078898965
 30
0.0
 40
1.75
  0
LWPOLYLINE
  5
2BE18
102
{ACAD_REACTORS
330
2BE63
102
}
330
18
100
AcDbEntity
  8
Modules
100
AcDbPolyline
 90
        4
 70
     1
 43
0.0
 10
98.00161556010422
 20
167.8689749261125
 10
100.6586994309188
 20
167.8689749261125
 10
100.6586994309188
 20
172.0388451906449
 10
98.00161556010422
 20
172.0388451906449
  0
LWPOLYLINE
  5
2BE19
102
{ACAD_REACTORS
330
2BE63
102
}
330
18
100
AcDbEntity
  8
Modules
100
AcDbPolyline
 90
        4
 70
     1
 43
0.0
 10
98.00161556010424
 20
179.210436589148
 10
100.6586994309188
 20
179.210436589148
 10
100.6586994309188
 20
183.3803068536804
 10
98.00161556010424
 20
183.3803068536804
  0
LWPOLYLINE
  5
2BE1A
102
{ACAD_REACTORS
330
2BE63
102
}
330
18
100
AcDbEntity
  8
Modules
100
AcDbPolyline
 90
       13
 70
     0
 43
0.0
 10
90.66350856845655
 20
169.6246408898965
 10
97.56350856845649
 20
169.6246408898965
 10
97.56350856845653
 20
172.4246408898965
 10
99.64350856845651
 20
172.4246408898965
 10
99.64350856845655
 20
173.6246408898965
 10
100.6635085684566
 20
173.6246408898965
 10
100.6635085684566
 20
177.6246408898965
 10
99.64350856845655
 20
177.6246408898965
 10
99.6435085684566
 20
178.8246408898965
 10
97.56350856845656
 20
178.8246408898965
 10
97.56350856845656
 20
181.6246408898965
 10
90.66350856845657
 20
181.6246408898965
 10
90.66350856845655
 20
169.6246408898965
  0
LWPOLYLINE
  5
2BE1B
102
{ACAD_REACTORS
330
2BE63
102
}
330
18
100
AcDbEntity
  8
Modules
100
AcDbPolyline
 90
        4
 70
     1
 43
0.0
 10
87.88850856845666
 20
184.2946408898965
 10
102.1885085684566
 20
184.2946408898965
 10
102.1885085684566
 20
166.9946408898965
 10
87.88850856845666
 20
166.9946408898965
  0
LINE
  5
2BE1C
102
{ACAD_REACTORS
330
2BE63
102
}
330
18
100
AcDbEntity
  8
Modules
100
AcDbLine
 10
103.9785085684566
 20
165.6446408898967
 30
0.0
 11
84.97850856845662
 21
165.6446408898967
 31
0.0
  0
LINE
  5
2BE1D
102
{ACAD_REACTORS
330
2BE63
102
}
330
18
100
AcDbEntity
  8
Modules
100
AcDbLine
 10
103.9785085684566
 20
164.6446408898967
 30
0.0
 11
84.97850856845662
 21
164.6446408898967
 31
0.0
  0
LINE
  5
2BE1E
102
{ACAD_REACTORS
330
2BE63
102
}
330
18
100
AcDbEntity
  8
Modules
100
AcDbLine
 10
103.9785085684566
 20
150.6446408898967
 30
0.0
 11
84.97850856845662
 21
150.6446408898967
 31
0.0
  0
LINE
  5
2BE1F
102
{ACAD_REACTORS
330
2BE63
102
}
330
18
100
AcDbEntity
  8
Modules
100
AcDbLine
 10
103.9785085684566
 20
151.6446408898967
 30
0.0
 11
84.97850856845662
 21
151.6446408898967
 31
0.0
  0
LINE
  5
2BE20
102
{ACAD_REACTORS
330
2BE63
102
}
330
18
100
AcDbEntity
  8
Modules
100
AcDbLine
 10
84.97850856845662
 20
150.6446408898967
 30
0.0
 11
84.97850856845662
 21
165.6446408898967
 31
0.0
  0
LINE
  5
2BE21
102
{ACAD_REACTORS
330
2BE63
102
}
330
18
100
AcDbEntity
  8
Modules
100
AcDbLine
 10
103.9785085684566
 20
150.6446408898967
 30
0.0
 11
103.9785085684566
 21
165.6446408898967
 31
0.0
  0
CIRCLE
  5
2BE5D
102
{ACAD_REACTORS
330
2BE63
102
}
330
18
100
AcDbEntity
  8
Modules
100
AcDbCircle
 10
91.98850856845661
 20
268.8446408898966
 30
0.0
 40
2.45
  0
LWPOLYLINE
  5
2BE5E
102
{ACAD_REACTORS
330
2BE63
102
}
330
18
100
AcDbEntity
  8
Modules
100
AcDbPolyline
 90
        6
 70
     1
 43
0.0
 10
91.35342327234804
 20
269.9446408898966
 10
90.71833797623947
 20
268.8446408898966
 10
91.35342327234804
 20
267.7446408898966
 10
92.62359386456521
 20
267.7446408898966
 10
93.2586791606738
 20
268.8446408898966
 10
92.62359386456521
 20
269.9446408898966
  0
CIRCLE
  5
2BE5F
102
{ACAD_REACTORS
330
2BE63
102
}
330
18
100
AcDbEntity
  8
Modules
100
AcDbCircle
 10
91.98850856845661
 20
257.1446408898966
 30
0.0
 40
2.45
  0
LWPOLYLINE
  5
2BE60
102
{ACAD_REACTORS
330
2BE63
102
}
330
18
100
AcDbEntity
  8
Modules
100
AcDbPolyline
 90
        6
 70
     1
 43
0.0
 10
91.35342327234804
 20
258.2446408898966
 10
90.71833797623947
 20
257.1446408898966
 10
91.35342327234804
 20
256.0446408898966
 10
92.62359386456521
 20
256.0446408898966
 10
93.2586791606738
 20
257.1446408898966
 10
92.62359386456521
 20
258.2446408898966
  0
CIRCLE
  5
2BE61
102
{ACAD_REACTORS
330
2BE63
102
}
330
18
100
AcDbEntity
  8
Modules
100
AcDbCircle
 10
91.98850856845661
 20
146.4446408898966
 30
0.0
 40
2.45
  0
LWPOLYLINE
  5
2BE62
102
{ACAD_REACTORS
330
2BE63
102
}
330
18
100
AcDbEntity
  8
Modules
100
AcDbPolyline
 90
        6
 70
     1
 43
0.0
 10
91.35342327234804
 20
147.5446408898966
 10
90.71833797623947
 20
146.4446408898966
 10
91.35342327234804
 20
145.3446408898966
 10
92.62359386456521
 20
145.3446408898966
 10
93.2586791606738
 20
146.4446408898966
 10
92.62359386456521
 20
147.5446408898966
  0
LINE
  5
2BE68
102
{ACAD_REACTORS
330
2BE99
102
}
330
18
100
AcDbEntity
  8
Modules
100
AcDbLine
 10
175.5985085684571
 20
271.8446407191407
 30
0.0
 11
155.6185085684573
 21
271.8446407191407
 31
0.0
  0
LINE
  5
2BE69
102
{ACAD_REACTORS
330
2BE99
102
}
330
18
100
AcDbEntity
  8
Modules
100
AcDbLine
 10
175.5985085684572
 20
143.4446407191407
 30
0.0
 11
155.6185085684572
 21
143.4446407191406
 31
0.0
  0
LINE
  5
2BE6A
102
{ACAD_REACTORS
330
2BE99
102
}
330
18
100
AcDbEntity
  8
Modules
100
AcDbLine
 10
175.5985085684572
 20
143.4646407191407
 30
0.0
 11
175.5985085684571
 21
271.8446407191407
 31
0.0
  0
LINE
  5
2BE6B
102
{ACAD_REACTORS
330
2BE99
102
}
330
18
100
AcDbEntity
  8
Modules
100
AcDbLine
 10
155.6185085684573
 20
143.4646407191406
 30
0.0
 11
155.6185085684573
 21
271.8446407191407
 31
0.0
  0
CIRCLE
  5
2BE92
102
{ACAD_REACTORS
330
2BE99
102
}
330
18
100
AcDbEntity
  8
Modules
100
AcDbCircle
 10
163.1185085684571
 20
268.8446407191407
 30
0.0
 40
2.45
  0
LWPOLYLINE
  5
2BE93
102
{ACAD_REACTORS
330
2BE99
102
}
330
18
100
AcDbEntity
  8
Modules
100
AcDbPolyline
 90
        6
 70
     1
 43
0.0
 10
162.4834232723486
 20
269.9446407191407
 10
161.84833797624
 20
268.8446407191407
 10
162.4834232723486
 20
267.7446407191407
 10
163.7535938645658
 20
267.7446407191407
 10
164.3886791606743
 20
268.8446407191407
 10
163.7535938645658
 20
269.9446407191407
  0
CIRCLE
  5
2BE96
102
{ACAD_REACTORS
330
2BE99
102
}
330
18
100
AcDbEntity
  8
Modules
100
AcDbCircle
 10
163.1185085684571
 20
146.4446407191407
 30
0.0
 40
2.45
  0
LWPOLYLINE
  5
2BE97
102
{ACAD_REACTORS
330
2BE99
102
}
330
18
100
AcDbEntity
  8
Modules
100
AcDbPolyline
 90
        6
 70
     1
 43
0.0
 10
162.4834232723486
 20
147.5446407191407
 10
161.84833797624
 20
146.4446407191407
 10
162.4834232723486
 20
145.3446407191407
 10
163.7535938645658
 20
145.3446407191407
 10
164.3886791606743
 20
146.4446407191407
 10
163.7535938645658
 20
147.5446407191407
  0
LINE
  5
2BE9A
102
{ACAD_REACTORS
330
2BEA2
102
}
330
18
100
AcDbEntity
  8
Modules
100
AcDbLine
 10
195.9185085684571
 20
271.8446407191407
 30
0.0
 11
175.9385085684573
 21
271.8446407191407
 31
0.0
  0
LINE
  5
2BE9B
102
{ACAD_REACTORS
330
2BEA2
102
}
330
18
100
AcDbEntity
  8
Modules
100
AcDbLine
 10
195.9185085684572
 20
143.4446407191407
 30
0.0
 11
175.9385085684571
 21
143.4446407191406
 31
0.0
  0
LINE
  5
2BE9C
102
{ACAD_REACTORS
330
2BEA2
102
}
330
18
100
AcDbEntity
  8
Modules
100
AcDbLine
 10
195.9185085684572
 20
143.4646407191407
 30
0.0
 11
195.9185085684571
 21
271.8446407191407
 31
0.0
  0
LINE
  5
2BE9D
102
{ACAD_REACTORS
330
2BEA2
102
}
330
18
100
AcDbEntity
  8
Modules
100
AcDbLine
 10
175.9385085684573
 20
143.4646407191406
 30
0.0
 11
175.9385085684573
 21
271.8446407191407
 31
0.0
  0
CIRCLE
  5
2BE9E
102
{ACAD_REACTORS
330
2BEA2
102
}
330
18
100
AcDbEntity
  8
Modules
100
AcDbCircle
 10
183.4385085684571
 20
268.8446407191407
 30
0.0
 40
2.45
  0
LWPOLYLINE
  5
2BE9F
102
{ACAD_REACTORS
330
2BEA2
102
}
330
18
100
AcDbEntity
  8
Modules
100
AcDbPolyline
 90
        6
 70
     1
 43
0.0
 10
182.8034232723486
 20
269.9446407191407
 10
182.16833797624
 20
268.8446407191407
 10
182.8034232723486
 20
267.7446407191407
 10
184.0735938645657
 20
267.7446407191407
 10
184.7086791606743
 20
268.8446407191407
 10
184.0735938645657
 20
269.9446407191407
  0
CIRCLE
  5
2BEA0
102
{ACAD_REACTORS
330
2BEA2
102
}
330
18
100
AcDbEntity
  8
Modules
100
AcDbCircle
 10
183.4385085684571
 20
146.4446407191407
 30
0.0
 40
2.45
  0
LWPOLYLINE
  5
2BEA1
102
{ACAD_REACTORS
330
2BEA2
102
}
330
18
100
AcDbEntity
  8
Modules
100
AcDbPolyline
 90
        6
 70
     1
 43
0.0
 10
182.8034232723486
 20
147.5446407191407
 10
182.16833797624
 20
146.4446407191407
 10
182.8034232723486
 20
145.3446407191407
 10
184.0735938645657
 20
145.3446407191407
 10
184.7086791606743
 20
146.4446407191407
 10
184.0735938645657
 20
147.5446407191407
  0
LINE
  5
2BEA3
102
{ACAD_REACTORS
330
2BEAB
102
}
330
18
100
AcDbEntity
  8
Modules
100
AcDbLine
 10
216.2385085684572
 20
271.8446407191407
 30
0.0
 11
196.2585085684573
 21
271.8446407191407
 31
0.0
  0
LINE
  5
2BEA4
102
{ACAD_REACTORS
330
2BEAB
102
}
330
18
100
AcDbEntity
  8
Modules
100
AcDbLine
 10
216.2385085684572
 20
143.4446407191407
 30
0.0
 11
196.2585085684571
 21
143.4446407191406
 31
0.0
  0
LINE
  5
2BEA5
102
{ACAD_REACTORS
330
2BEAB
102
}
330
18
100
AcDbEntity
  8
Modules
100
AcDbLine
 10
216.2385085684572
 20
143.4646407191407
 30
0.0
 11
216.2385085684572
 21
271.8446407191407
 31
0.0
  0
LINE
  5
2BEA6
102
{ACAD_REACTORS
330
2BEAB
102
}
330
18
100
AcDbEntity
  8
Modules
100
AcDbLine
 10
196.2585085684573
 20
143.4646407191406
 30
0.0
 11
196.2585085684573
 21
271.8446407191407
 31
0.0
  0
CIRCLE
  5
2BEA7
102
{ACAD_REACTORS
330
2BEAB
102
}
330
18
100
AcDbEntity
  8
Modules
100
AcDbCircle
 10
203.7585085684571
 20
268.8446407191407
 30
0.0
 40
2.45
  0
LWPOLYLINE
  5
2BEA8
102
{ACAD_REACTORS
330
2BEAB
102
}
330
18
100
AcDbEntity
  8
Modules
100
AcDbPolyline
 90
        6
 70
     1
 43
0.0
 10
203.1234232723486
 20
269.9446407191407
 10
202.48833797624
 20
268.8446407191407
 10
203.1234232723486
 20
267.7446407191407
 10
204.3935938645658
 20
267.7446407191407
 10
205.0286791606743
 20
268.8446407191407
 10
204.3935938645658
 20
269.9446407191407
  0
CIRCLE
  5
2BEA9
102
{ACAD_REACTORS
330
2BEAB
102
}
330
18
100
AcDbEntity
  8
Modules
100
AcDbCircle
 10
203.7585085684571
 20
146.4446407191407
 30
0.0
 40
2.45
  0
LWPOLYLINE
  5
2BEAA
102
{ACAD_REACTORS
330
2BEAB
102
}
330
18
100
AcDbEntity
  8
Modules
100
AcDbPolyline
 90
        6
 70
     1
 43
0.0
 10
203.1234232723486
 20
147.5446407191407
 10
202.48833797624
 20
146.4446407191407
 10
203.1234232723486
 20
145.3446407191407
 10
204.3935938645658
 20
145.3446407191407
 10
205.0286791606743
 20
146.4446407191407
 10
204.3935938645658
 20
147.5446407191407
  0
LINE
  5
2BEAC
102
{ACAD_REACTORS
330
2BEB4
102
}
330
18
100
AcDbEntity
  8
Modules
100
AcDbLine
 10
236.5585085684572
 20
271.8446407191407
 30
0.0
 11
216.5785085684573
 21
271.8446407191407
 31
0.0
  0
LINE
  5
2BEAD
102
{ACAD_REACTORS
330
2BEB4
102
}
330
18
100
AcDbEntity
  8
Modules
100
AcDbLine
 10
236.5585085684572
 20
143.4446407191407
 30
0.0
 11
216.5785085684572
 21
143.4446407191406
 31
0.0
  0
LINE
  5
2BEAE
102
{ACAD_REACTORS
330
2BEB4
102
}
330
18
100
AcDbEntity
  8
Modules
100
AcDbLine
 10
236.5585085684572
 20
143.4646407191407
 30
0.0
 11
236.5585085684572
 21
271.8446407191407
 31
0.0
  0
LINE
  5
2BEAF
102
{ACAD_REACTORS
330
2BEB4
102
}
330
18
100
AcDbEntity
  8
Modules
100
AcDbLine
 10
216.5785085684573
 20
143.4646407191406
 30
0.0
 11
216.5785085684573
 21
271.8446407191407
 31
0.0
  0
CIRCLE
  5
2BEB0
102
{ACAD_REACTORS
330
2BEB4
102
}
330
18
100
AcDbEntity
  8
Modules
100
AcDbCircle
 10
224.0785085684572
 20
268.8446407191407
 30
0.0
 40
2.45
  0
LWPOLYLINE
  5
2BEB1
102
{ACAD_REACTORS
330
2BEB4
102
}
330
18
100
AcDbEntity
  8
Modules
100
AcDbPolyline
 90
        6
 70
     1
 43
0.0
 10
223.4434232723486
 20
269.9446407191407
 10
222.80833797624
 20
268.8446407191407
 10
223.4434232723486
 20
267.7446407191407
 10
224.7135938645658
 20
267.7446407191407
 10
225.3486791606744
 20
268.8446407191407
 10
224.7135938645658
 20
269.9446407191407
  0
CIRCLE
  5
2BEB2
102
{ACAD_REACTORS
330
2BEB4
102
}
330
18
100
AcDbEntity
  8
Modules
100
AcDbCircle
 10
224.0785085684572
 20
146.4446407191407
 30
0.0
 40
2.45
  0
LWPOLYLINE
  5
2BEB3
102
{ACAD_REACTORS
330
2BEB4
102
}
330
18
100
AcDbEntity
  8
Modules
100
AcDbPolyline
 90
        6
 70
     1
 43
0.0
 10
223.4434232723486
 20
147.5446407191407
 10
222.80833797624
 20
146.4446407191407
 10
223.4434232723486
 20
145.3446407191407
 10
224.7135938645658
 20
145.3446407191407
 10
225.3486791606744
 20
146.4446407191407
 10
224.7135938645658
 20
147.5446407191407
  0
LINE
  5
2BEB5
102
{ACAD_REACTORS
330
2BEBD
102
}
330
18
100
AcDbEntity
  8
Modules
100
AcDbLine
 10
256.8785085684571
 20
271.8446407191407
 30
0.0
 11
236.8985085684573
 21
271.8446407191407
 31
0.0
  0
LINE
  5
2BEB6
102
{ACAD_REACTORS
330
2BEBD
102
}
330
18
100
AcDbEntity
  8
Modules
100
AcDbLine
 10
256.8785085684571
 20
143.4446407191407
 30
0.0
 11
236.8985085684572
 21
143.4446407191406
 31
0.0
  0
LINE
  5
2BEB7
102
{ACAD_REACTORS
330
2BEBD
102
}
330
18
100
AcDbEntity
  8
Modules
100
AcDbLine
 10
256.8785085684571
 20
143.4646407191407
 30
0.0
 11
256.8785085684571
 21
271.8446407191407
 31
0.0
  0
LINE
  5
2BEB8
102
{ACAD_REACTORS
330
2BEBD
102
}
330
18
100
AcDbEntity
  8
Modules
100
AcDbLine
 10
236.8985085684573
 20
143.4646407191406
 30
0.0
 11
236.8985085684573
 21
271.8446407191407
 31
0.0
  0
CIRCLE
  5
2BEB9
102
{ACAD_REACTORS
330
2BEBD
102
}
330
18
100
AcDbEntity
  8
Modules
100
AcDbCircle
 10
244.3985085684572
 20
268.8446407191407
 30
0.0
 40
2.45
  0
LWPOLYLINE
  5
2BEBA
102
{ACAD_REACTORS
330
2BEBD
102
}
330
18
100
AcDbEntity
  8
Modules
100
AcDbPolyline
 90
        6
 70
     1
 43
0.0
 10
243.7634232723486
 20
269.9446407191407
 10
243.12833797624
 20
268.8446407191407
 10
243.7634232723486
 20
267.7446407191407
 10
245.0335938645658
 20
267.7446407191407
 10
245.6686791606744
 20
268.8446407191407
 10
245.0335938645658
 20
269.9446407191407
  0
CIRCLE
  5
2BEBB
102
{ACAD_REACTORS
330
2BEBD
102
}
330
18
100
AcDbEntity
  8
Modules
100
AcDbCircle
 10
244.3985085684572
 20
146.4446407191407
 30
0.0
 40
2.45
  0
LWPOLYLINE
  5
2BEBC
102
{ACAD_REACTORS
330
2BEBD
102
}
330
18
100
AcDbEntity
  8
Modules
100
AcDbPolyline
 90
        6
 70
     1
 43
0.0
 10
243.7634232723486
 20
147.5446407191407
 10
243.12833797624
 20
146.4446407191407
 10
243.7634232723486
 20
145.3446407191407
 10
245.0335938645658
 20
145.3446407191407
 10
245.6686791606744
 20
146.4446407191407
 10
245.0335938645658
 20
147.5446407191407
  0
LINE
  5
2BECC
102
{ACAD_REACTORS
330
2BED4
102
}
330
18
100
AcDbEntity
  8
Modules
100
AcDbLine
 10
297.4785085684571
 20
143.4446407191407
 30
0.0
 11
257.1785085684571
 21
143.4446407191406
 31
0.0
  0
LINE
  5
2BECD
102
{ACAD_REACTORS
330
2BED4
102
}
330
18
100
AcDbEntity
  8
Modules
100
AcDbLine
 10
297.4785085684571
 20
143.4446407191407
 30
0.0
 11
297.4785085684571
 21
271.8446407191407
 31
0.0
  0
LINE
  5
2BECE
102
{ACAD_REACTORS
330
2BED4
102
}
330
18
100
AcDbEntity
  8
Modules
100
AcDbLine
 10
297.4785085684571
 20
271.8446407191407
 30
0.0
 11
257.1785085684572
 21
271.8446407191407
 31
0.0
  0
LINE
  5
2BECF
102
{ACAD_REACTORS
330
2BED4
102
}
330
18
100
AcDbEntity
  8
Modules
100
AcDbLine
 10
257.1785085684572
 20
143.4446407191406
 30
0.0
 11
257.1785085684572
 21
271.8446407191407
 31
0.0
  0
CIRCLE
  5
2BED0
102
{ACAD_REACTORS
330
2BED4
102
}
330
18
100
AcDbEntity
  8
Modules
100
AcDbCircle
 10
274.838508568457
 20
268.8446407191407
 30
0.0
 40
2.45
  0
LWPOLYLINE
  5
2BED1
102
{ACAD_REACTORS
330
2BED4
102
}
330
18
100
AcDbEntity
  8
Modules
100
AcDbPolyline
 90
        6
 70
     1
 43
0.0
 10
274.2034232723485
 20
269.9446407191407
 10
273.5683379762399
 20
268.8446407191407
 10
274.2034232723485
 20
267.7446407191407
 10
275.4735938645656
 20
267.7446407191407
 10
276.1086791606743
 20
268.8446407191407
 10
275.4735938645656
 20
269.9446407191407
  0
CIRCLE
  5
2BED2
102
{ACAD_REACTORS
330
2BED4
102
}
330
18
100
AcDbEntity
  8
Modules
100
AcDbCircle
 10
274.838508568457
 20
146.4446407191407
 30
0.0
 40
2.45
  0
LWPOLYLINE
  5
2BED3
102
{ACAD_REACTORS
330
2BED4
102
}
330
18
100
AcDbEntity
  8
Modules
100
AcDbPolyline
 90
        6
 70
     1
 43
0.0
 10
274.2034232723485
 20
147.5446407191407
 10
273.5683379762399
 20
146.4446407191407
 10
274.2034232723485
 20
145.3446407191407
 10
275.4735938645656
 20
145.3446407191407
 10
276.1086791606743
 20
146.4446407191407
 10
275.4735938645656
 20
147.5446407191407
  0
ENDSEC
  0
SECTION
  2
OBJECTS
  0
DICTIONARY
  5
C
330
0
100
AcDbDictionary
281
     1
  3
ACAD_COLOR
350
2A328
  3
ACAD_GROUP
350
D
  3
ACAD_LAYOUT
350
1B1E4
  3
ACAD_MATERIAL
350
2A327
  3
ACAD_MLINESTYLE
350
1B
  3
ACAD_PLOTSETTINGS
350
1B1E5
  3
ACAD_PLOTSTYLENAME
350
1B1E2
  3
ACAD_TABLESTYLE
350
2A329
  3
ACDBHEADERROUNDTRIPXREC
350
2BEDD
  3
ACDBVARIABLEDICTIONARY
350
9820
  0
DICTIONARY
  5
2AE1D
330
2
100
AcDbDictionary
280
     1
281
     1
  3
ACAD_LAYERFILTERS
360
2AE1F
  3
ACAD_LAYERSTATES
360
2BB21
  3
ACLYDICTIONARY
360
2AE1E
  0
DICTIONARY
  5
9822
330
18
100
AcDbDictionary
280
     1
281
     1
  3
ACAD_LAYOUTSELFREF
360
28585
  3
ACAD_SORTENTS
360
9823
  0
DICTIONARY
  5
2663A
330
15
100
AcDbDictionary
280
     1
281
     1
  3
ACAD_LAYOUTSELFREF
360
28584
  0
DICTIONARY
  5
2A328
102
{ACAD_REACTORS
330
C
102
}
330
C
100
AcDbDictionary
281
     1
  0
DICTIONARY
  5
D
102
{ACAD_REACTORS
330
C
102
}
330
C
100
AcDbDictionary
281
     1
  3
*A1
350
981F
  3
*A10
350
2B995
  3
*A100
350
2B4D2
  3
*A101
350
A49A
  3
*A102
350
2A316
  3
*A103
350
2A317
  3
*A104
350
1BD8B
  3
*A105
350
1FC8F
  3
*A106
350
2601A
  3
*A107
350
2B2EE
  3
*A108
350
2B3FD
  3
*A109
350
21E84
  3
*A11
350
2B998
  3
*A110
350
1BD84
  3
*A111
350
29A0D
  3
*A112
350
1BD8C
  3
*A113
350
2B1E7
  3
*A114
350
2B1F3
  3
*A115
350
2B1FF
  3
*A116
350
A49B
  3
*A117
350
2B20B
  3
*A118
350
2B61E
  3
*A119
350
2B219
  3
*A12
350
2B99B
  3
*A120
350
2B21A
  3
*A121
350
2B321
  3
*A122
350
1BD86
  3
*A123
350
2B22F
  3
*A124
350
1BD85
  3
*A125
350
2B3FE
  3
*A126
350
2B230
  3
*A127
350
2B264
  3
*A128
350
2B265
  3
*A129
350
2B266
  3
*A13
350
29A11
  3
*A130
350
2B61F
  3
*A131
350
2B267
  3
*A132
350
194F7
  3
*A133
350
29A0E
  3
*A134
350
2B27C
  3
*A135
350
2B27D
  3
*A136
350
2B322
  3
*A137
350
1BD82
  3
*A138
350
2B27E
  3
*A139
350
2B27F
  3
*A14
350
2B99E
  3
*A140
350
2B323
  3
*A141
350
2B324
  3
*A142
350
2B6E5
  3
*A143
350
2B3FF
  3
*A144
350
2B3C9
  3
*A145
350
2B325
  3
*A146
350
194F5
  3
*A147
350
2B358
  3
*A148
350
2B359
  3
*A149
350
2B401
  3
*A15
350
2B9A1
  3
*A150
350
2B3C7
  3
*A151
350
2B35A
  3
*A152
350
2B35B
  3
*A153
350
2B35C
  3
*A154
350
2B461
  3
*A155
350
29A0F
  3
*A156
350
2B38F
  3
*A157
350
2B390
  3
*A158
350
2B280
  3
*A159
350
2B391
  3
*A16
350
9D4A
  3
*A160
350
2B392
  3
*A161
350
2B393
  3
*A162
350
2B5F8
  3
*A163
350
2BB11
  3
*A164
350
2B6E8
  3
*A165
350
2B6EB
  3
*A166
350
2B400
  3
*A167
350
9D2A
  3
*A168
350
2B6EE
  3
*A169
350
2B2B4
  3
*A17
350
2B9A5
  3
*A170
350
2B6F5
  3
*A171
350
2B6F8
  3
*A172
350
1BD83
  3
*A173
350
2B6FB
  3
*A174
350
2B6FE
  3
*A175
350
2B986
  3
*A176
350
2B989
  3
*A177
350
2BC22
  3
*A178
350
2BC78
  3
*A18
350
2B9A8
  3
*A180
350
2BE63
  3
*A182
350
2BE99
  3
*A183
350
2BEA2
  3
*A184
350
2BEAB
  3
*A185
350
2BEB4
  3
*A186
350
2BEBD
  3
*A187
350
2BED4
  3
*A19
350
2B463
  3
*A2
350
29A10
  3
*A20
350
2B9AB
  3
*A21
350
2B2B6
  3
*A22
350
2601B
  3
*A23
350
2B9AE
  3
*A24
350
29A12
  3
*A25
350
2B9B1
  3
*A26
350
2B9B4
  3
*A27
350
2B9B8
  3
*A28
350
2B5FE
  3
*A29
350
2B9BB
  3
*A3
350
2B462
  3
*A30
350
2B9E6
  3
*A31
350
2B9E9
  3
*A32
350
2B9EC
  3
*A33
350
2B464
  3
*A34
350
1BD87
  3
*A35
350
2B61C
  3
*A36
350
2B2B7
  3
*A37
350
2B9EF
  3
*A38
350
2B9F1
  3
*A39
350
2B601
  3
*A4
350
2B5FB
  3
*A40
350
2B465
  3
*A41
350
2B466
  3
*A42
350
A22D
  3
*A43
350
2B467
  3
*A44
350
2B468
  3
*A45
350
2B469
  3
*A46
350
1FC80
  3
*A47
350
2B46A
  3
*A48
350
1BD88
  3
*A49
350
194F6
  3
*A5
350
2B98C
  3
*A50
350
194F8
  3
*A51
350
2B604
  3
*A52
350
2B49A
  3
*A53
350
2B49B
  3
*A54
350
2B49C
  3
*A55
350
2B49D
  3
*A56
350
2B49E
  3
*A57
350
9FC0
  3
*A58
350
2B3C6
  3
*A59
350
2B4CE
  3
*A6
350
2B98F
  3
*A60
350
2B4CF
  3
*A61
350
1BD89
  3
*A62
350
2B4D0
  3
*A63
350
2B606
  3
*A64
350
2B4D1
  3
*A65
350
2BA25
  3
*A66
350
2BAFE
  3
*A67
350
2BAFF
  3
*A68
350
29A13
  3
*A69
350
2BB00
  3
*A7
350
2B2B5
  3
*A70
350
2BB01
  3
*A71
350
2BB04
  3
*A72
350
265C2
  3
*A73
350
29A05
  3
*A74
350
2B2EA
  3
*A75
350
2B2B3
  3
*A76
350
29A06
  3
*A77
350
2B3C8
  3
*A78
350
29A07
  3
*A79
350
2A30E
  3
*A8
350
2B992
  3
*A80
350
29A08
  3
*A81
350
2B2EC
  3
*A82
350
29A09
  3
*A83
350
A22E
  3
*A84
350
29A0A
  3
*A85
350
29A0B
  3
*A86
350
29A0C
  3
*A87
350
2A30F
  3
*A88
350
2A310
  3
*A89
350
2B61B
  3
*A9
350
2B2EB
  3
*A90
350
2A311
  3
*A91
350
2B3CA
  3
*A92
350
2B2ED
  3
*A93
350
1BD8A
  3
*A94
350
2B61D
  3
*A95
350
2A312
  3
*A96
350
2A313
  3
*A97
350
9FC1
  3
*A98
350
2A314
  3
*A99
350
2A315
  0
DICTIONARY
  5
1B1E4
102
{ACAD_REACTORS
330
C
102
}
330
C
100
AcDbDictionary
281
     1
  3
Layout1
350
1B1E7
  3
Model
350
1B1E6
  0
DICTIONARY
  5
2A327
102
{ACAD_REACTORS
330
C
102
}
330
C
100
AcDbDictionary
281
     1
  0
DICTIONARY
  5
1B
102
{ACAD_REACTORS
330
C
102
}
330
C
100
AcDbDictionary
281
     1
  3
STANDARD
350
1C
  0
DICTIONARY
  5
1B1E5
102
{ACAD_REACTORS
330
C
102
}
330
C
100
AcDbDictionary
281
     1
  0
ACDBDICTIONARYWDFLT
  5
1B1E2
102
{ACAD_REACTORS
330
C
102
}
330
C
100
AcDbDictionary
281
     1
  3
Normal
350
1B1E3
100
AcDbDictionaryWithDefault
340
1B1E3
1001
ACAD
1000
TREAT_AS_HARD
1070
     0
  0
DICTIONARY
  5
2A329
102
{ACAD_REACTORS
330
C
102
}
330
C
100
AcDbDictionary
281
     1
  3
Standard
350
2A32A
  0
DICTIONARY
  5
2BEDD
102
{ACAD_REACTORS
330
C
102
}
330
C
100
AcDbDictionary
281
     1
  0
DICTIONARY
  5
9820
102
{ACAD_REACTORS
330
C
102
}
330
C
100
AcDbDictionary
281
     1
  3
CTABLESTYLE
350
2A332
  3
DIMASSOC
350
1FD3B
  3
PROJECTNAME
350
2BA08
  3
SORTENTS
350
9821
  0
DICTIONARY
  5
2AE1F
102
{ACAD_REACTORS
330
2AE1D
102
}
330
2AE1D
100
AcDbDictionary
281
     1
  0
DICTIONARY
  5
2BB21
102
{ACAD_REACTORS
330
2AE1D
102
}
330
2AE1D
100
AcDbDictionary
281
     1
  0
DICTIONARY
  5
2AE1E
102
{ACAD_REACTORS
330
2AE1D
102
}
330
2AE1D
100
AcDbDictionary
281
     1
1001
ACAD
1000
<AllUsed
  0
XRECORD
  5
28585
102
{ACAD_REACTORS
330
9822
102
}
330
9822
100
AcDbXrecord
280
     1
340
18
  0
SORTENTSTABLE
  5
9823
102
{ACAD_REACTORS
330
9822
102
}
330
9822
100
AcDbSortentsTable
330
18
331
2B6E3
  5
2B6E6
331
2B6E4
  5
2B6E7
331
2B6E7
  5
2B6EA
331
2B6E9
  5
2B6EC
331
266D4
  5
266D4
331
2B6EA
  5
2B6ED
331
266D5
  5
266D5
331
266D6
  5
266D6
331
266D9
  5
266D9
331
266DA
  5
266DA
331
29C9F
  5
29C9F
331
29C9E
  5
29C9E
331
266DB
  5
266DB
331
2B6DE
  5
2B6E2
331
280B3
  5
280B3
331
280B2
  5
280B2
331
27E10
  5
27E10
331
266D8
  5
266D8
331
266D7
  5
266D7
331
2B6ED
  5
2B6F1
331
2B6EC
  5
2B6F0
331
2B6E6
  5
2B6E9
  0
XRECORD
  5
28584
102
{ACAD_REACTORS
330
2663A
102
}
330
2663A
100
AcDbXrecord
280
     1
340
15
  0
GROUP
  5
981F
102
{ACAD_REACTORS
330
D
102
}
330
D
100
AcDbGroup
300

 70
     1
 71
     1
  0
GROUP
  5
2B995
102
{ACAD_REACTORS
330
D
102
}
330
D
100
AcDbGroup
300

 70
     1
 71
     1
  0
GROUP
  5
2B4D2
102
{ACAD_REACTORS
330
D
102
}
330
D
100
AcDbGroup
300

 70
     1
 71
     1
  0
GROUP
  5
A49A
102
{ACAD_REACTORS
330
D
102
}
330
D
100
AcDbGroup
300

 70
     1
 71
     1
  0
GROUP
  5
2A316
102
{ACAD_REACTORS
330
D
102
}
330
D
100
AcDbGroup
300

 70
     1
 71
     1
  0
GROUP
  5
2A317
102
{ACAD_REACTORS
330
D
102
}
330
D
100
AcDbGroup
300

 70
     1
 71
     1
  0
GROUP
  5
1BD8B
102
{ACAD_REACTORS
330
D
102
}
330
D
100
AcDbGroup
300

 70
     1
 71
     1
  0
GROUP
  5
1FC8F
102
{ACAD_REACTORS
330
D
102
}
330
D
100
AcDbGroup
300

 70
     1
 71
     1
  0
GROUP
  5
2601A
102
{ACAD_REACTORS
330
D
102
}
330
D
100
AcDbGroup
300

 70
     1
 71
     1
  0
GROUP
  5
2B2EE
102
{ACAD_REACTORS
330
D
102
}
330
D
100
AcDbGroup
300

 70
     1
 71
     1
  0
GROUP
  5
2B3FD
102
{ACAD_REACTORS
330
D
102
}
330
D
100
AcDbGroup
300

 70
     1
 71
     1
  0
GROUP
  5
21E84
102
{ACAD_REACTORS
330
D
102
}
330
D
100
AcDbGroup
300

 70
     1
 71
     1
  0
GROUP
  5
2B998
102
{ACAD_REACTORS
330
D
102
}
330
D
100
AcDbGroup
300

 70
     1
 71
     1
  0
GROUP
  5
1BD84
102
{ACAD_REACTORS
330
D
102
}
330
D
100
AcDbGroup
300

 70
     1
 71
     1
  0
GROUP
  5
29A0D
102
{ACAD_REACTORS
330
D
102
}
330
D
100
AcDbGroup
300

 70
     3
 71
     1
  0
GROUP
  5
1BD8C
102
{ACAD_REACTORS
330
D
102
}
330
D
100
AcDbGroup
300

 70
     1
 71
     1
  0
GROUP
  5
2B1E7
102
{ACAD_REACTORS
330
D
102
}
330
D
100
AcDbGroup
300

 70
     1
 71
     1
  0
GROUP
  5
2B1F3
102
{ACAD_REACTORS
330
D
102
}
330
D
100
AcDbGroup
300

 70
     1
 71
     1
  0
GROUP
  5
2B1FF
102
{ACAD_REACTORS
330
D
102
}
330
D
100
AcDbGroup
300

 70
     1
 71
     1
  0
GROUP
  5
A49B
102
{ACAD_REACTORS
330
D
102
}
330
D
100
AcDbGroup
300

 70
     1
 71
     1
  0
GROUP
  5
2B20B
102
{ACAD_REACTORS
330
D
102
}
330
D
100
AcDbGroup
300

 70
     1
 71
     1
  0
GROUP
  5
2B61E
102
{ACAD_REACTORS
330
D
102
}
330
D
100
AcDbGroup
300

 70
     1
 71
     1
  0
GROUP
  5
2B219
102
{ACAD_REACTORS
330
D
102
}
330
D
100
AcDbGroup
300

 70
     1
 71
     1
  0
GROUP
  5
2B99B
102
{ACAD_REACTORS
330
D
102
}
330
D
100
AcDbGroup
300

 70
     1
 71
     1
  0
GROUP
  5
2B21A
102
{ACAD_REACTORS
330
D
102
}
330
D
100
AcDbGroup
300

 70
     1
 71
     1
  0
GROUP
  5
2B321
102
{ACAD_REACTORS
330
D
102
}
330
D
100
AcDbGroup
300

 70
     1
 71
     1
  0
GROUP
  5
1BD86
102
{ACAD_REACTORS
330
D
102
}
330
D
100
AcDbGroup
300

 70
     1
 71
     1
  0
GROUP
  5
2B22F
102
{ACAD_REACTORS
330
D
102
}
330
D
100
AcDbGroup
300

 70
     1
 71
     1
  0
GROUP
  5
1BD85
102
{ACAD_REACTORS
330
D
102
}
330
D
100
AcDbGroup
300

 70
     1
 71
     1
  0
GROUP
  5
2B3FE
102
{ACAD_REACTORS
330
D
102
}
330
D
100
AcDbGroup
300

 70
     1
 71
     1
  0
GROUP
  5
2B230
102
{ACAD_REACTORS
330
D
102
}
330
D
100
AcDbGroup
300

 70
     1
 71
     1
  0
GROUP
  5
2B264
102
{ACAD_REACTORS
330
D
102
}
330
D
100
AcDbGroup
300

 70
     1
 71
     1
  0
GROUP
  5
2B265
102
{ACAD_REACTORS
330
D
102
}
330
D
100
AcDbGroup
300

 70
     1
 71
     1
  0
GROUP
  5
2B266
102
{ACAD_REACTORS
330
D
102
}
330
D
100
AcDbGroup
300

 70
     1
 71
     1
  0
GROUP
  5
29A11
102
{ACAD_REACTORS
330
D
102
}
330
D
100
AcDbGroup
300

 70
     3
 71
     1
  0
GROUP
  5
2B61F
102
{ACAD_REACTORS
330
D
102
}
330
D
100
AcDbGroup
300

 70
     1
 71
     1
  0
GROUP
  5
2B267
102
{ACAD_REACTORS
330
D
102
}
330
D
100
AcDbGroup
300

 70
     1
 71
     1
  0
GROUP
  5
194F7
102
{ACAD_REACTORS
330
D
102
}
330
D
100
AcDbGroup
300

 70
     1
 71
     1
  0
GROUP
  5
29A0E
102
{ACAD_REACTORS
330
D
102
}
330
D
100
AcDbGroup
300

 70
     3
 71
     1
  0
GROUP
  5
2B27C
102
{ACAD_REACTORS
330
D
102
}
330
D
100
AcDbGroup
300

 70
     1
 71
     1
  0
GROUP
  5
2B27D
102
{ACAD_REACTORS
330
D
102
}
330
D
100
AcDbGroup
300

 70
     1
 71
     1
  0
GROUP
  5
2B322
102
{ACAD_REACTORS
330
D
102
}
330
D
100
AcDbGroup
300

 70
     1
 71
     1
  0
GROUP
  5
1BD82
102
{ACAD_REACTORS
330
D
102
}
330
D
100
AcDbGroup
300

 70
     1
 71
     1
  0
GROUP
  5
2B27E
102
{ACAD_REACTORS
330
D
102
}
330
D
100
AcDbGroup
300

 70
     1
 71
     1
  0
GROUP
  5
2B27F
102
{ACAD_REACTORS
330
D
102
}
330
D
100
AcDbGroup
300

 70
     1
 71
     1
  0
GROUP
  5
2B99E
102
{ACAD_REACTORS
330
D
102
}
330
D
100
AcDbGroup
300

 70
     1
 71
     1
  0
GROUP
  5
2B323
102
{ACAD_REACTORS
330
D
102
}
330
D
100
AcDbGroup
300

 70
     1
 71
     1
  0
GROUP
  5
2B324
102
{ACAD_REACTORS
330
D
102
}
330
D
100
AcDbGroup
300

 70
     1
 71
     1
  0
GROUP
  5
2B6E5
102
{ACAD_REACTORS
330
D
102
}
330
D
100
AcDbGroup
300

 70
     1
 71
     1
340
2B6E4
340
2B6E3
  0
GROUP
  5
2B3FF
102
{ACAD_REACTORS
330
D
102
}
330
D
100
AcDbGroup
300

 70
     1
 71
     1
  0
GROUP
  5
2B3C9
102
{ACAD_REACTORS
330
D
102
}
330
D
100
AcDbGroup
300

 70
     1
 71
     1
  0
GROUP
  5
2B325
102
{ACAD_REACTORS
330
D
102
}
330
D
100
AcDbGroup
300

 70
     1
 71
     1
  0
GROUP
  5
194F5
102
{ACAD_REACTORS
330
D
102
}
330
D
100
AcDbGroup
300

 70
     1
 71
     1
  0
GROUP
  5
2B358
102
{ACAD_REACTORS
330
D
102
}
330
D
100
AcDbGroup
300

 70
     1
 71
     1
  0
GROUP
  5
2B359
102
{ACAD_REACTORS
330
D
102
}
330
D
100
AcDbGroup
300

 70
     1
 71
     1
  0
GROUP
  5
2B401
102
{ACAD_REACTORS
330
D
102
}
330
D
100
AcDbGroup
300

 70
     1
 71
     1
  0
GROUP
  5
2B9A1
102
{ACAD_REACTORS
330
D
102
}
330
D
100
AcDbGroup
300

 70
     1
 71
     1
  0
GROUP
  5
2B3C7
102
{ACAD_REACTORS
330
D
102
}
330
D
100
AcDbGroup
300

 70
     1
 71
     1
  0
GROUP
  5
2B35A
102
{ACAD_REACTORS
330
D
102
}
330
D
100
AcDbGroup
300

 70
     1
 71
     1
  0
GROUP
  5
2B35B
102
{ACAD_REACTORS
330
D
102
}
330
D
100
AcDbGroup
300

 70
     1
 71
     1
  0
GROUP
  5
2B35C
102
{ACAD_REACTORS
330
D
102
}
330
D
100
AcDbGroup
300

 70
     1
 71
     1
  0
GROUP
  5
2B461
102
{ACAD_REACTORS
330
D
102
}
330
D
100
AcDbGroup
300

 70
     1
 71
     1
  0
GROUP
  5
29A0F
102
{ACAD_REACTORS
330
D
102
}
330
D
100
AcDbGroup
300

 70
     1
 71
     1
  0
GROUP
  5
2B38F
102
{ACAD_REACTORS
330
D
102
}
330
D
100
AcDbGroup
300

 70
     1
 71
     1
  0
GROUP
  5
2B390
102
{ACAD_REACTORS
330
D
102
}
330
D
100
AcDbGroup
300

 70
     1
 71
     1
  0
GROUP
  5
2B280
102
{ACAD_REACTORS
330
D
102
}
330
D
100
AcDbGroup
300

 70
     1
 71
     1
  0
GROUP
  5
2B391
102
{ACAD_REACTORS
330
D
102
}
330
D
100
AcDbGroup
300

 70
     1
 71
     1
  0
GROUP
  5
9D4A
102
{ACAD_REACTORS
330
D
102
}
330
D
100
AcDbGroup
300

 70
     1
 71
     1
  0
GROUP
  5
2B392
102
{ACAD_REACTORS
330
D
102
}
330
D
100
AcDbGroup
300

 70
     1
 71
     1
  0
GROUP
  5
2B393
102
{ACAD_REACTORS
330
D
102
}
330
D
100
AcDbGroup
300

 70
     1
 71
     1
  0
GROUP
  5
2B5F8
102
{ACAD_REACTORS
330
D
102
}
330
D
100
AcDbGroup
300

 70
     1
 71
     1
  0
GROUP
  5
2BB11
102
{ACAD_REACTORS
330
D
102
}
330
D
100
AcDbGroup
300

 70
     1
 71
     1
  0
GROUP
  5
2B6E8
102
{ACAD_REACTORS
330
D
102
}
330
D
100
AcDbGroup
300

 70
     1
 71
     1
340
2B6E7
340
2B6E6
  0
GROUP
  5
2B6EB
102
{ACAD_REACTORS
330
D
102
}
330
D
100
AcDbGroup
300

 70
     1
 71
     1
340
2B6EA
340
2B6E9
  0
GROUP
  5
2B400
102
{ACAD_REACTORS
330
D
102
}
330
D
100
AcDbGroup
300

 70
     1
 71
     1
  0
GROUP
  5
9D2A
102
{ACAD_REACTORS
330
D
102
}
330
D
100
AcDbGroup
300

 70
     1
 71
     1
  0
GROUP
  5
2B6EE
102
{ACAD_REACTORS
330
D
102
}
330
D
100
AcDbGroup
300

 70
     1
 71
     1
340
2B6ED
340
2B6EC
  0
GROUP
  5
2B2B4
102
{ACAD_REACTORS
330
D
102
}
330
D
100
AcDbGroup
300

 70
     1
 71
     1
  0
GROUP
  5
2B9A5
102
{ACAD_REACTORS
330
D
102
}
330
D
100
AcDbGroup
300

 70
     1
 71
     1
  0
GROUP
  5
2B6F5
102
{ACAD_REACTORS
330
D
102
}
330
D
100
AcDbGroup
300

 70
     1
 71
     1
  0
GROUP
  5
2B6F8
102
{ACAD_REACTORS
330
D
102
}
330
D
100
AcDbGroup
300

 70
     1
 71
     1
  0
GROUP
  5
1BD83
102
{ACAD_REACTORS
330
D
102
}
330
D
100
AcDbGroup
300

 70
     1
 71
     1
  0
GROUP
  5
2B6FB
102
{ACAD_REACTORS
330
D
102
}
330
D
100
AcDbGroup
300

 70
     1
 71
     1
  0
GROUP
  5
2B6FE
102
{ACAD_REACTORS
330
D
102
}
330
D
100
AcDbGroup
300

 70
     1
 71
     1
  0
GROUP
  5
2B986
102
{ACAD_REACTORS
330
D
102
}
330
D
100
AcDbGroup
300

 70
     1
 71
     1
  0
GROUP
  5
2B989
102
{ACAD_REACTORS
330
D
102
}
330
D
100
AcDbGroup
300

 70
     1
 71
     1
  0
GROUP
  5
2BC22
102
{ACAD_REACTORS
330
D
102
}
330
D
100
AcDbGroup
300

 70
     1
 71
     1
340
2BC21
340
2BC20
340
2BC1F
340
2BC1E
340
2BC1D
340
2BC1C
340
2BC1B
340
2BC1A
340
2BC19
340
2BC18
340
2BC17
340
2BC16
340
2BC15
340
2BC14
340
2BC13
340
2BC12
340
2BC11
340
2BC10
340
2BC0F
340
2BC0E
340
2BC0D
340
2BC0C
340
2BC0B
340
2BC0A
340
2BC09
340
2BC08
340
2BC07
340
2BC06
340
2BC05
340
2BC04
340
2BC03
340
2BC02
340
2BC01
340
2BC00
340
2BBFF
340
2BBFE
340
2BBFD
340
2BBFC
340
2BBFB
340
2BBFA
340
2BBF9
340
2BBF8
340
2BBF7
340
2BBF6
340
2BBF5
340
2BBF4
340
2BBF3
340
2BBF2
340
2BBF1
340
2BBF0
340
2BBEF
340
2BBEE
340
2BBED
340
2BBEC
340
2BBEB
340
2BBEA
340
2BBE9
340
2BBE8
340
2BBE7
340
2BBE6
340
2BBE5
340
2BBE4
340
2BBE3
340
2BBE2
340
2BBE1
340
2BBE0
340
2BBDF
340
2BBDE
340
2BBDD
340
2BBDC
340
2BBDB
340
2BBDA
340
2BBD9
340
2BBD8
340
2BBD7
340
2BBD6
340
2BBD5
340
2BBD4
340
2BBD3
340
2BBD2
340
2BBD1
340
2BBD0
340
2BBCF
340
2BBCE
340
2BBCD
  0
GROUP
  5
2BC78
102
{ACAD_REACTORS
330
D
102
}
330
D
100
AcDbGroup
300

 70
     1
 71
     1
340
2BC77
340
2BC76
340
2BC75
340
2BC74
340
2BC73
340
2BC72
340
2BC71
340
2BC70
340
2BC6F
340
2BC6E
340
2BC6D
340
2BC6C
340
2BC6B
340
2BC6A
340
2BC69
340
2BC68
340
2BC67
340
2BC66
340
2BC65
340
2BC64
340
2BC63
340
2BC62
340
2BC61
340
2BC60
340
2BC5F
340
2BC5E
340
2BC5D
340
2BC5C
340
2BC5B
340
2BC5A
340
2BC59
340
2BC58
340
2BC57
340
2BC56
340
2BC55
340
2BC54
340
2BC53
340
2BC52
340
2BC51
340
2BC50
340
2BC4F
340
2BC4E
340
2BC4D
340
2BC4C
340
2BC4B
340
2BC4A
340
2BC49
340
2BC48
340
2BC47
340
2BC46
340
2BC45
340
2BC44
340
2BC43
340
2BC42
340
2BC41
340
2BC40
340
2BC3F
340
2BC3E
340
2BC3D
340
2BC3C
340
2BC3B
340
2BC3A
340
2BC39
340
2BC38
340
2BC37
340
2BC36
340
2BC35
340
2BC34
340
2BC33
340
2BC32
340
2BC31
340
2BC30
340
2BC2F
340
2BC2E
340
2BC2D
340
2BC2C
340
2BC2B
340
2BC2A
340
2BC29
340
2BC28
340
2BC27
340
2BC26
340
2BC25
340
2BC24
340
2BC23
  0
GROUP
  5
2B9A8
102
{ACAD_REACTORS
330
D
102
}
330
D
100
AcDbGroup
300

 70
     1
 71
     1
  0
GROUP
  5
2BE63
102
{ACAD_REACTORS
330
D
102
}
330
D
100
AcDbGroup
300

 70
     1
 71
     1
340
2BE62
340
2BE61
340
2BE60
340
2BE5F
340
2BE5E
340
2BE5D
340
2BE21
340
2BE20
340
2BE1F
340
2BE1E
340
2BE1D
340
2BE1C
340
2BE1B
340
2BE1A
340
2BE19
340
2BE18
340
2BDFA
340
2BDF8
340
2BDF4
340
2BDF3
340
2BDF2
340
2BDF1
340
2BDEC
340
2BDEB
340
2BDEA
340
2BDE9
340
2BDE8
340
2BDE7
340
2BDE6
340
2BDE5
340
2BDE1
340
2BDDF
340
2BDDB
340
2BDDA
340
2BDD9
340
2BDD8
340
2BDD3
340
2BDD2
340
2BDD1
340
2BDD0
340
2BDCF
340
2BDCE
340
2BDCD
340
2BDCC
340
2BDC8
340
2BDC7
340
2BDC6
340
2BDC5
340
2BDC2
340
2BDC1
340
2BDAA
340
2BDA9
  0
GROUP
  5
2BE99
102
{ACAD_REACTORS
330
D
102
}
330
D
100
AcDbGroup
300

 70
     1
 71
     1
340
2BE97
340
2BE96
340
2BE93
340
2BE92
340
2BE6B
340
2BE6A
340
2BE69
340
2BE68
  0
GROUP
  5
2BEA2
102
{ACAD_REACTORS
330
D
102
}
330
D
100
AcDbGroup
300

 70
     1
 71
     1
340
2BEA1
340
2BEA0
340
2BE9F
340
2BE9E
340
2BE9D
340
2BE9C
340
2BE9B
340
2BE9A
  0
GROUP
  5
2BEAB
102
{ACAD_REACTORS
330
D
102
}
330
D
100
AcDbGroup
300

 70
     1
 71
     1
340
2BEAA
340
2BEA9
340
2BEA8
340
2BEA7
340
2BEA6
340
2BEA5
340
2BEA4
340
2BEA3
  0
GROUP
  5
2BEB4
102
{ACAD_REACTORS
330
D
102
}
330
D
100
AcDbGroup
300

 70
     1
 71
     1
340
2BEB3
340
2BEB2
340
2BEB1
340
2BEB0
340
2BEAF
340
2BEAE
340
2BEAD
340
2BEAC
  0
GROUP
  5
2BEBD
102
{ACAD_REACTORS
330
D
102
}
330
D
100
AcDbGroup
300

 70
     1
 71
     1
340
2BEBC
340
2BEBB
340
2BEBA
340
2BEB9
340
2BEB8
340
2BEB7
340
2BEB6
340
2BEB5
  0
GROUP
  5
2BED4
102
{ACAD_REACTORS
330
D
102
}
330
D
100
AcDbGroup
300

 70
     1
 71
     1
340
2BED3
340
2BED2
340
2BED1
340
2BED0
340
2BECF
340
2BECE
340
2BECD
340
2BECC
  0
GROUP
  5
2B463
102
{ACAD_REACTORS
330
D
102
}
330
D
100
AcDbGroup
300

 70
     1
 71
     1
  0
GROUP
  5
29A10
102
{ACAD_REACTORS
330
D
102
}
330
D
100
AcDbGroup
300

 70
     1
 71
     1
  0
GROUP
  5
2B9AB
102
{ACAD_REACTORS
330
D
102
}
330
D
100
AcDbGroup
300

 70
     1
 71
     1
  0
GROUP
  5
2B2B6
102
{ACAD_REACTORS
330
D
102
}
330
D
100
AcDbGroup
300

 70
     1
 71
     1
  0
GROUP
  5
2601B
102
{ACAD_REACTORS
330
D
102
}
330
D
100
AcDbGroup
300

 70
     1
 71
     1
  0
GROUP
  5
2B9AE
102
{ACAD_REACTORS
330
D
102
}
330
D
100
AcDbGroup
300

 70
     1
 71
     1
  0
GROUP
  5
29A12
102
{ACAD_REACTORS
330
D
102
}
330
D
100
AcDbGroup
300

 70
     3
 71
     1
  0
GROUP
  5
2B9B1
102
{ACAD_REACTORS
330
D
102
}
330
D
100
AcDbGroup
300

 70
     1
 71
     1
  0
GROUP
  5
2B9B4
102
{ACAD_REACTORS
330
D
102
}
330
D
100
AcDbGroup
300

 70
     1
 71
     1
  0
GROUP
  5
2B9B8
102
{ACAD_REACTORS
330
D
102
}
330
D
100
AcDbGroup
300

 70
     1
 71
     1
  0
GROUP
  5
2B5FE
102
{ACAD_REACTORS
330
D
102
}
330
D
100
AcDbGroup
300

 70
     1
 71
     1
  0
GROUP
  5
2B9BB
102
{ACAD_REACTORS
330
D
102
}
330
D
100
AcDbGroup
300

 70
     1
 71
     1
  0
GROUP
  5
2B462
102
{ACAD_REACTORS
330
D
102
}
330
D
100
AcDbGroup
300

 70
     1
 71
     1
  0
GROUP
  5
2B9E6
102
{ACAD_REACTORS
330
D
102
}
330
D
100
AcDbGroup
300

 70
     1
 71
     1
  0
GROUP
  5
2B9E9
102
{ACAD_REACTORS
330
D
102
}
330
D
100
AcDbGroup
300

 70
     1
 71
     1
  0
GROUP
  5
2B9EC
102
{ACAD_REACTORS
330
D
102
}
330
D
100
AcDbGroup
300

 70
     1
 71
     1
  0
GROUP
  5
2B464
102
{ACAD_REACTORS
330
D
102
}
330
D
100
AcDbGroup
300

 70
     1
 71
     1
  0
GROUP
  5
1BD87
102
{ACAD_REACTORS
330
D
102
}
330
D
100
AcDbGroup
300

 70
     1
 71
     1
  0
GROUP
  5
2B61C
102
{ACAD_REACTORS
330
D
102
}
330
D
100
AcDbGroup
300

 70
     1
 71
     1
  0
GROUP
  5
2B2B7
102
{ACAD_REACTORS
330
D
102
}
330
D
100
AcDbGroup
300

 70
     1
 71
     1
  0
GROUP
  5
2B9EF
102
{ACAD_REACTORS
330
D
102
}
330
D
100
AcDbGroup
300

 70
     1
 71
     1
  0
GROUP
  5
2B9F1
102
{ACAD_REACTORS
330
D
102
}
330
D
100
AcDbGroup
300

 70
     1
 71
     1
  0
GROUP
  5
2B601
102
{ACAD_REACTORS
330
D
102
}
330
D
100
AcDbGroup
300

 70
     1
 71
     1
  0
GROUP
  5
2B5FB
102
{ACAD_REACTORS
330
D
102
}
330
D
100
AcDbGroup
300

 70
     1
 71
     1
  0
GROUP
  5
2B465
102
{ACAD_REACTORS
330
D
102
}
330
D
100
AcDbGroup
300

 70
     1
 71
     1
  0
GROUP
  5
2B466
102
{ACAD_REACTORS
330
D
102
}
330
D
100
AcDbGroup
300

 70
     1
 71
     1
  0
GROUP
  5
A22D
102
{ACAD_REACTORS
330
D
102
}
330
D
100
AcDbGroup
300

 70
     1
 71
     1
  0
GROUP
  5
2B467
102
{ACAD_REACTORS
330
D
102
}
330
D
100
AcDbGroup
300

 70
     1
 71
     1
  0
GROUP
  5
2B468
102
{ACAD_REACTORS
330
D
102
}
330
D
100
AcDbGroup
300

 70
     1
 71
     1
  0
GROUP
  5
2B469
102
{ACAD_REACTORS
330
D
102
}
330
D
100
AcDbGroup
300

 70
     1
 71
     1
  0
GROUP
  5
1FC80
102
{ACAD_REACTORS
330
D
102
}
330
D
100
AcDbGroup
300

 70
     1
 71
     1
  0
GROUP
  5
2B46A
102
{ACAD_REACTORS
330
D
102
}
330
D
100
AcDbGroup
300

 70
     1
 71
     1
  0
GROUP
  5
1BD88
102
{ACAD_REACTORS
330
D
102
}
330
D
100
AcDbGroup
300

 70
     1
 71
     1
  0
GROUP
  5
194F6
102
{ACAD_REACTORS
330
D
102
}
330
D
100
AcDbGroup
300

 70
     1
 71
     1
  0
GROUP
  5
2B98C
102
{ACAD_REACTORS
330
D
102
}
330
D
100
AcDbGroup
300

 70
     1
 71
     1
  0
GROUP
  5
194F8
102
{ACAD_REACTORS
330
D
102
}
330
D
100
AcDbGroup
300

 70
     1
 71
     1
  0
GROUP
  5
2B604
102
{ACAD_REACTORS
330
D
102
}
330
D
100
AcDbGroup
300

 70
     1
 71
     1
  0
GROUP
  5
2B49A
102
{ACAD_REACTORS
330
D
102
}
330
D
100
AcDbGroup
300

 70
     1
 71
     1
  0
GROUP
  5
2B49B
102
{ACAD_REACTORS
330
D
102
}
330
D
100
AcDbGroup
300

 70
     1
 71
     1
  0
GROUP
  5
2B49C
102
{ACAD_REACTORS
330
D
102
}
330
D
100
AcDbGroup
300

 70
     1
 71
     1
  0
GROUP
  5
2B49D
102
{ACAD_REACTORS
330
D
102
}
330
D
100
AcDbGroup
300

 70
     1
 71
     1
  0
GROUP
  5
2B49E
102
{ACAD_REACTORS
330
D
102
}
330
D
100
AcDbGroup
300

 70
     1
 71
     1
  0
GROUP
  5
9FC0
102
{ACAD_REACTORS
330
D
102
}
330
D
100
AcDbGroup
300

 70
     1
 71
     1
  0
GROUP
  5
2B3C6
102
{ACAD_REACTORS
330
D
102
}
330
D
100
AcDbGroup
300

 70
     1
 71
     1
  0
GROUP
  5
2B4CE
102
{ACAD_REACTORS
330
D
102
}
330
D
100
AcDbGroup
300

 70
     1
 71
     1
  0
GROUP
  5
2B98F
102
{ACAD_REACTORS
330
D
102
}
330
D
100
AcDbGroup
300

 70
     1
 71
     1
  0
GROUP
  5
2B4CF
102
{ACAD_REACTORS
330
D
102
}
330
D
100
AcDbGroup
300

 70
     1
 71
     1
  0
GROUP
  5
1BD89
102
{ACAD_REACTORS
330
D
102
}
330
D
100
AcDbGroup
300

 70
     1
 71
     1
  0
GROUP
  5
2B4D0
102
{ACAD_REACTORS
330
D
102
}
330
D
100
AcDbGroup
300

 70
     1
 71
     1
  0
GROUP
  5
2B606
102
{ACAD_REACTORS
330
D
102
}
330
D
100
AcDbGroup
300

 70
     1
 71
     1
  0
GROUP
  5
2B4D1
102
{ACAD_REACTORS
330
D
102
}
330
D
100
AcDbGroup
300

 70
     1
 71
     1
  0
GROUP
  5
2BA25
102
{ACAD_REACTORS
330
D
102
}
330
D
100
AcDbGroup
300

 70
     1
 71
     1
340
2B6ED
340
2B6EC
340
2B6EA
340
2B6E9
340
2B6E7
340
2B6E6
340
2B6E4
340
2B6E3
340
2B6DE
  0
GROUP
  5
2BAFE
102
{ACAD_REACTORS
330
D
102
}
330
D
100
AcDbGroup
300

 70
     1
 71
     1
  0
GROUP
  5
2BAFF
102
{ACAD_REACTORS
330
D
102
}
330
D
100
AcDbGroup
300

 70
     1
 71
     1
  0
GROUP
  5
29A13
102
{ACAD_REACTORS
330
D
102
}
330
D
100
AcDbGroup
300

 70
     3
 71
     1
  0
GROUP
  5
2BB00
102
{ACAD_REACTORS
330
D
102
}
330
D
100
AcDbGroup
300

 70
     1
 71
     1
  0
GROUP
  5
2B2B5
102
{ACAD_REACTORS
330
D
102
}
330
D
100
AcDbGroup
300

 70
     1
 71
     1
  0
GROUP
  5
2BB01
102
{ACAD_REACTORS
330
D
102
}
330
D
100
AcDbGroup
300

 70
     1
 71
     1
  0
GROUP
  5
2BB04
102
{ACAD_REACTORS
330
D
102
}
330
D
100
AcDbGroup
300

 70
     1
 71
     1
  0
GROUP
  5
265C2
102
{ACAD_REACTORS
330
D
102
}
330
D
100
AcDbGroup
300

 70
     1
 71
     1
  0
GROUP
  5
29A05
102
{ACAD_REACTORS
330
D
102
}
330
D
100
AcDbGroup
300

 70
     1
 71
     1
  0
GROUP
  5
2B2EA
102
{ACAD_REACTORS
330
D
102
}
330
D
100
AcDbGroup
300

 70
     1
 71
     1
  0
GROUP
  5
2B2B3
102
{ACAD_REACTORS
330
D
102
}
330
D
100
AcDbGroup
300

 70
     1
 71
     1
  0
GROUP
  5
29A06
102
{ACAD_REACTORS
330
D
102
}
330
D
100
AcDbGroup
300

 70
     3
 71
     1
  0
GROUP
  5
2B3C8
102
{ACAD_REACTORS
330
D
102
}
330
D
100
AcDbGroup
300

 70
     1
 71
     1
  0
GROUP
  5
29A07
102
{ACAD_REACTORS
330
D
102
}
330
D
100
AcDbGroup
300

 70
     3
 71
     1
  0
GROUP
  5
2A30E
102
{ACAD_REACTORS
330
D
102
}
330
D
100
AcDbGroup
300

 70
     1
 71
     1
  0
GROUP
  5
2B992
102
{ACAD_REACTORS
330
D
102
}
330
D
100
AcDbGroup
300

 70
     1
 71
     1
  0
GROUP
  5
29A08
102
{ACAD_REACTORS
330
D
102
}
330
D
100
AcDbGroup
300

 70
     3
 71
     1
  0
GROUP
  5
2B2EC
102
{ACAD_REACTORS
330
D
102
}
330
D
100
AcDbGroup
300

 70
     1
 71
     1
  0
GROUP
  5
29A09
102
{ACAD_REACTORS
330
D
102
}
330
D
100
AcDbGroup
300

 70
     3
 71
     1
  0
GROUP
  5
A22E
102
{ACAD_REACTORS
330
D
102
}
330
D
100
AcDbGroup
300

 70
     1
 71
     1
  0
GROUP
  5
29A0A
102
{ACAD_REACTORS
330
D
102
}
330
D
100
AcDbGroup
300

 70
     3
 71
     1
  0
GROUP
  5
29A0B
102
{ACAD_REACTORS
330
D
102
}
330
D
100
AcDbGroup
300

 70
     1
 71
     1
  0
GROUP
  5
29A0C
102
{ACAD_REACTORS
330
D
102
}
330
D
100
AcDbGroup
300

 70
     1
 71
     1
  0
GROUP
  5
2A30F
102
{ACAD_REACTORS
330
D
102
}
330
D
100
AcDbGroup
300

 70
     1
 71
     1
  0
GROUP
  5
2A310
102
{ACAD_REACTORS
330
D
102
}
330
D
100
AcDbGroup
300

 70
     1
 71
     1
  0
GROUP
  5
2B61B
102
{ACAD_REACTORS
330
D
102
}
330
D
100
AcDbGroup
300

 70
     1
 71
     1
  0
GROUP
  5
2B2EB
102
{ACAD_REACTORS
330
D
102
}
330
D
100
AcDbGroup
300

 70
     1
 71
     1
  0
GROUP
  5
2A311
102
{ACAD_REACTORS
330
D
102
}
330
D
100
AcDbGroup
300

 70
     1
 71
     1
  0
GROUP
  5
2B3CA
102
{ACAD_REACTORS
330
D
102
}
330
D
100
AcDbGroup
300

 70
     1
 71
     1
  0
GROUP
  5
2B2ED
102
{ACAD_REACTORS
330
D
102
}
330
D
100
AcDbGroup
300

 70
     1
 71
     1
  0
GROUP
  5
1BD8A
102
{ACAD_REACTORS
330
D
102
}
330
D
100
AcDbGroup
300

 70
     1
 71
     1
  0
GROUP
  5
2B61D
102
{ACAD_REACTORS
330
D
102
}
330
D
100
AcDbGroup
300

 70
     1
 71
     1
  0
GROUP
  5
2A312
102
{ACAD_REACTORS
330
D
102
}
330
D
100
AcDbGroup
300

 70
     1
 71
     1
  0
GROUP
  5
2A313
102
{ACAD_REACTORS
330
D
102
}
330
D
100
AcDbGroup
300

 70
     1
 71
     1
  0
GROUP
  5
9FC1
102
{ACAD_REACTORS
330
D
102
}
330
D
100
AcDbGroup
300

 70
     1
 71
     1
  0
GROUP
  5
2A314
102
{ACAD_REACTORS
330
D
102
}
330
D
100
AcDbGroup
300

 70
     1
 71
     1
  0
GROUP
  5
2A315
102
{ACAD_REACTORS
330
D
102
}
330
D
100
AcDbGroup
300

 70
     1
 71
     1
  0
LAYOUT
  5
1B1E7
102
{ACAD_XDICTIONARY
360
2BEE0
102
}
102
{ACAD_REACTORS
330
1B1E4
102
}
330
1B1E4
100
AcDbPlotSettings
  1

  2
\\SERVER1\HP Color LaserJet 4500
  4

  6

 40
0.0
 41
0.0
 42
0.0
 43
0.0
 44
0.0
 45
0.0
 46
0.0
 47
0.0
 48
0.0
 49
0.0
140
0.0
141
0.0
142
1.0
143
1.0
 70
   688
 72
     0
 73
     0
 74
     5
  7

 75
    16
147
1.0
148
0.0
149
0.0
100
AcDbLayout
  1
Layout1
 70
     1
 71
     1
 10
0.0
 20
0.0
 11
420.0
 21
297.0
 12
0.0
 22
0.0
 32
0.0
 14
1.000000000000000E+20
 24
1.000000000000000E+20
 34
1.000000000000000E+20
 15
-1.000000000000000E+20
 25
-1.000000000000000E+20
 35
-1.000000000000000E+20
146
0.0
 13
0.0
 23
0.0
 33
0.0
 16
1.0
 26
0.0
 36
0.0
 17
0.0
 27
1.0
 37
0.0
 76
     0
330
15
  0
LAYOUT
  5
1B1E6
102
{ACAD_XDICTIONARY
360
2BEDE
102
}
102
{ACAD_REACTORS
330
1B1E4
102
}
330
1B1E4
100
AcDbPlotSettings
  1

  2
\\SERVER1\HP Color LaserJet 4500
  4

  6

 40
0.0
 41
0.0
 42
0.0
 43
0.0
 44
0.0
 45
0.0
 46
0.0
 47
0.0
 48
0.0
 49
0.0
140
0.0
141
0.0
142
1.0
143
1.0
 70
  1712
 72
     0
 73
     0
 74
     0
  7

 75
     0
147
1.0
148
0.0
149
0.0
100
AcDbLayout
  1
Model
 70
     1
 71
     0
 10
0.0
 20
0.0
 11
12.0
 21
9.0
 12
0.0
 22
0.0
 32
0.0
 14
0.0
 24
0.0
 34
0.0
 15
0.0
 25
0.0
 35
0.0
146
0.0
 13
0.0
 23
0.0
 33
0.0
 16
1.0
 26
0.0
 36
0.0
 17
0.0
 27
1.0
 37
0.0
 76
     0
330
18
  0
MLINESTYLE
  5
1C
102
{ACAD_REACTORS
330
1B
102
}
330
1B
100
AcDbMlineStyle
  2
STANDARD
 70
     0
  3

 62
   256
 51
90.0
 52
90.0
 71
     2
 49
0.5
 62
   256
  6
BYLAYER
 49
-0.5
 62
   256
  6
BYLAYER
  0
ACDBPLACEHOLDER
  5
1B1E3
102
{ACAD_REACTORS
330
1B1E2
102
}
330
1B1E2
  0
TABLESTYLE
  5
2A32A
102
{ACAD_REACTORS
330
2A329
102
}
330
2A329
100
AcDbTableStyle
  3
Standard
 70
     0
 71
     0
 40
1.5
 41
1.5
280
     0
281
     0
  7
STANDARD
140
4.5
170
     2
 62
     0
 63
     7
283
     0
274
    -2
284
     1
 64
     0
275
    -2
285
     1
 65
     0
276
    -2
286
     1
 66
     0
277
    -2
287
     1
 67
     0
278
    -2
288
     1
 68
     0
279
    -2
289
     1
 69
     0
  7
STANDARD
140
6.0
170
     5
 62
     0
 63
     7
283
     0
274
    -2
284
     1
 64
     0
275
    -2
285
     1
 65
     0
276
    -2
286
     1
 66
     0
277
    -2
287
     1
 67
     0
278
    -2
288
     1
 68
     0
279
    -2
289
     1
 69
     0
  7
STANDARD
140
4.5
170
     5
 62
     0
 63
     7
283
     0
274
    -2
284
     1
 64
     0
275
    -2
285
     1
 65
     0
276
    -2
286
     1
 66
     0
277
    -2
287
     1
 67
     0
278
    -2
288
     1
 68
     0
279
    -2
289
     1
 69
     0
  0
DICTIONARYVAR
  5
2A332
102
{ACAD_REACTORS
330
9820
102
}
330
9820
100
DictionaryVariables
280
     0
  1
STANDARD
  0
DICTIONARYVAR
  5
1FD3B
102
{ACAD_REACTORS
330
9820
102
}
330
9820
100
DictionaryVariables
280
     0
  1
1
  0
DICTIONARYVAR
  5
2BA08
102
{ACAD_REACTORS
330
9820
102
}
330
9820
100
DictionaryVariables
280
     0
  1

  0
DICTIONARYVAR
  5
9821
102
{ACAD_REACTORS
330
9820
102
}
330
9820
100
DictionaryVariables
280
     0
  1
127
  0
DICTIONARY
  5
2BEE0
330
1B1E7
100
AcDbDictionary
280
     1
281
     1
  3
ACAD_XREC_ROUNDTRIP
360
2BEE1
  0
DICTIONARY
  5
2BEDE
330
1B1E6
100
AcDbDictionary
280
     1
281
     1
  3
ACAD_XREC_ROUNDTRIP
360
2BEDF
  0
XRECORD
  5
2BEE1
102
{ACAD_REACTORS
330
2BEE0
102
}
330
2BEE0
100
AcDbXrecord
280
     1
102
SHADEPLOT
 70
     0
102
SHADEPLOTRESLEVEL
 70
     2
102
SHADEPLOTCUSTOMDPI
 70
   300
  0
XRECORD
  5
2BEDF
102
{ACAD_REACTORS
330
2BEDE
102
}
330
2BEDE
100
AcDbXrecord
280
     1
102
SHADEPLOT
 70
     0
102
SHADEPLOTRESLEVEL
 70
     2
102
SHADEPLOTCUSTOMDPI
 70
   300
  0
ENDSEC
  0
EOF
