  0
SECTION
  2
HEADER
  9
$ACADVER
  1
AC1015
  9
$ACADMAINTVER
 70
    20
  9
$DWGCODEPAGE
  3
ANSI_1252
  9
$INSBASE
 10
0.0
 20
0.0
 30
0.0
  9
$EXTMIN
 10
-0.0271839699360044
 20
-0.0242491079161482
 30
-0.0000000000000058
  9
$EXTMAX
 10
594.0271950346393
 20
420.0011755596022
 30
0.0000000000000104
  9
$LIMMIN
 10
0.0
 20
0.0
  9
$LIMMAX
 10
420.0
 20
297.0
  9
$ORTHOMODE
 70
     1
  9
$REGENMODE
 70
     1
  9
$FILLMODE
 70
     1
  9
$QTEXTMODE
 70
     0
  9
$MIRRTEXT
 70
     1
  9
$LTSCALE
 40
1.0
  9
$ATTMODE
 70
     1
  9
$TEXTSIZE
 40
2.0
  9
$TRACEWID
 40
1.0
  9
$TEXTSTYLE
  7
TASTENTEXT
  9
$CLAYER
  8
Modules
  9
$CELTYPE
  6
VERDECKT2
  9
$CECOLOR
 62
   256
  9
$CELTSCALE
 40
1.0
  9
$DISPSILH
 70
     0
  9
$DIMSCALE
 40
1.0
  9
$DIMASZ
 40
2.5
  9
$DIMEXO
 40
0.625
  9
$DIMDLI
 40
3.75
  9
$DIMRND
 40
0.0
  9
$DIMDLE
 40
0.0
  9
$DIMEXE
 40
1.25
  9
$DIMTP
 40
0.0
  9
$DIMTM
 40
0.0
  9
$DIMTXT
 40
2.5
  9
$DIMCEN
 40
2.5
  9
$DIMTSZ
 40
0.0
  9
$DIMTOL
 70
     0
  9
$DIMLIM
 70
     0
  9
$DIMTIH
 70
     0
  9
$DIMTOH
 70
     0
  9
$DIMSE1
 70
     0
  9
$DIMSE2
 70
     0
  9
$DIMTAD
 70
     1
  9
$DIMZIN
 70
     8
  9
$DIMBLK
  1

  9
$DIMASO
 70
     1
  9
$DIMSHO
 70
     1
  9
$DIMPOST
  1

  9
$DIMAPOST
  1

  9
$DIMALT
 70
     0
  9
$DIMALTD
 70
     4
  9
$DIMALTF
 40
0.0394
  9
$DIMLFAC
 40
1.0
  9
$DIMTOFL
 70
     1
  9
$DIMTVP
 40
0.0
  9
$DIMTIX
 70
     0
  9
$DIMSOXD
 70
     0
  9
$DIMSAH
 70
     0
  9
$DIMBLK1
  1

  9
$DIMBLK2
  1

  9
$DIMSTYLE
  2
STANDARD
  9
$DIMCLRD
 70
     0
  9
$DIMCLRE
 70
     0
  9
$DIMCLRT
 70
     0
  9
$DIMTFAC
 40
1.0
  9
$DIMGAP
 40
0.625
  9
$DIMJUST
 70
     0
  9
$DIMSD1
 70
     0
  9
$DIMSD2
 70
     0
  9
$DIMTOLJ
 70
     1
  9
$DIMTZIN
 70
     0
  9
$DIMALTZ
 70
     0
  9
$DIMALTTZ
 70
     0
  9
$DIMUPT
 70
     0
  9
$DIMDEC
 70
     4
  9
$DIMTDEC
 70
     4
  9
$DIMALTU
 70
     8
  9
$DIMALTTD
 70
     4
  9
$DIMTXSTY
  7
STANDARD
  9
$DIMAUNIT
 70
     0
  9
$DIMADEC
 70
     0
  9
$DIMALTRND
 40
0.0
  9
$DIMAZIN
 70
     0
  9
$DIMDSEP
 70
    46
  9
$DIMATFIT
 70
     3
  9
$DIMFRAC
 70
     0
  9
$DIMLDRBLK
  1

  9
$DIMLUNIT
 70
     6
  9
$DIMLWD
 70
    -2
  9
$DIMLWE
 70
    -2
  9
$DIMTMOVE
 70
     0
  9
$LUNITS
 70
     2
  9
$LUPREC
 70
     4
  9
$SKETCHINC
 40
1.0
  9
$FILLETRAD
 40
1.0
  9
$AUNITS
 70
     0
  9
$AUPREC
 70
     0
  9
$MENU
  1
acad
  9
$ELEVATION
 40
0.0
  9
$PELEVATION
 40
0.0
  9
$THICKNESS
 40
0.0
  9
$LIMCHECK
 70
     0
  9
$CHAMFERA
 40
0.0
  9
$CHAMFERB
 40
0.0
  9
$CHAMFERC
 40
20.0
  9
$CHAMFERD
 40
0.0
  9
$SKPOLY
 70
     0
  9
$TDCREATE
 40
2451774.355798843
  9
$TDUCREATE
 40
2451774.314132176
  9
$TDUPDATE
 40
2454161.490111760
  9
$TDUUPDATE
 40
2454161.448445093
  9
$TDINDWG
 40
0.3397663657
  9
$TDUSRTIMER
 40
0.3397663657
  9
$USRTIMER
 70
     1
  9
$ANGBASE
 50
0.0
  9
$ANGDIR
 70
     0
  9
$PDMODE
 70
     0
  9
$PDSIZE
 40
0.0
  9
$PLINEWID
 40
0.0
  9
$SPLFRAME
 70
     0
  9
$SPLINETYPE
 70
     6
  9
$SPLINESEGS
 70
     8
  9
$HANDSEED
  5
2B558
  9
$SURFTAB1
 70
     6
  9
$SURFTAB2
 70
     6
  9
$SURFTYPE
 70
     6
  9
$SURFU
 70
     6
  9
$SURFV
 70
     6
  9
$UCSBASE
  2

  9
$UCSNAME
  2

  9
$UCSORG
 10
0.0
 20
0.0
 30
0.0
  9
$UCSXDIR
 10
1.0
 20
0.0
 30
0.0
  9
$UCSYDIR
 10
0.0
 20
1.0
 30
0.0
  9
$UCSORTHOREF
  2

  9
$UCSORTHOVIEW
 70
     0
  9
$UCSORGTOP
 10
0.0
 20
0.0
 30
0.0
  9
$UCSORGBOTTOM
 10
0.0
 20
0.0
 30
0.0
  9
$UCSORGLEFT
 10
0.0
 20
0.0
 30
0.0
  9
$UCSORGRIGHT
 10
0.0
 20
0.0
 30
0.0
  9
$UCSORGFRONT
 10
0.0
 20
0.0
 30
0.0
  9
$UCSORGBACK
 10
0.0
 20
0.0
 30
0.0
  9
$PUCSBASE
  2

  9
$PUCSNAME
  2

  9
$PUCSORG
 10
0.0
 20
0.0
 30
0.0
  9
$PUCSXDIR
 10
1.0
 20
0.0
 30
0.0
  9
$PUCSYDIR
 10
0.0
 20
1.0
 30
0.0
  9
$PUCSORTHOREF
  2

  9
$PUCSORTHOVIEW
 70
     0
  9
$PUCSORGTOP
 10
0.0
 20
0.0
 30
0.0
  9
$PUCSORGBOTTOM
 10
0.0
 20
0.0
 30
0.0
  9
$PUCSORGLEFT
 10
0.0
 20
0.0
 30
0.0
  9
$PUCSORGRIGHT
 10
0.0
 20
0.0
 30
0.0
  9
$PUCSORGFRONT
 10
0.0
 20
0.0
 30
0.0
  9
$PUCSORGBACK
 10
0.0
 20
0.0
 30
0.0
  9
$USERI1
 70
     0
  9
$USERI2
 70
     0
  9
$USERI3
 70
     0
  9
$USERI4
 70
     0
  9
$USERI5
 70
     0
  9
$USERR1
 40
0.0
  9
$USERR2
 40
0.0
  9
$USERR3
 40
0.0
  9
$USERR4
 40
0.0
  9
$USERR5
 40
0.0
  9
$WORLDVIEW
 70
     1
  9
$SHADEDGE
 70
     3
  9
$SHADEDIF
 70
    70
  9
$TILEMODE
 70
     1
  9
$MAXACTVP
 70
    48
  9
$PINSBASE
 10
0.0
 20
0.0
 30
0.0
  9
$PLIMCHECK
 70
     0
  9
$PEXTMIN
 10
1.000000000000000E+20
 20
1.000000000000000E+20
 30
1.000000000000000E+20
  9
$PEXTMAX
 10
-1.000000000000000E+20
 20
-1.000000000000000E+20
 30
-1.000000000000000E+20
  9
$PLIMMIN
 10
0.0
 20
0.0
  9
$PLIMMAX
 10
420.0
 20
297.0
  9
$UNITMODE
 70
     0
  9
$VISRETAIN
 70
     1
  9
$PLINEGEN
 70
     0
  9
$PSLTSCALE
 70
     1
  9
$TREEDEPTH
 70
  3020
  9
$CMLSTYLE
  2
STANDARD
  9
$CMLJUST
 70
     0
  9
$CMLSCALE
 40
20.0
  9
$PROXYGRAPHICS
 70
     1
  9
$MEASUREMENT
 70
     1
  9
$CELWEIGHT
370
    -1
  9
$ENDCAPS
280
     0
  9
$JOINSTYLE
280
     0
  9
$LWDISPLAY
290
     0
  9
$INSUNITS
 70
     0
  9
$HYPERLINKBASE
  1

  9
$STYLESHEET
  1

  9
$XEDIT
290
     1
  9
$CEPSNTYPE
380
     0
  9
$PSTYLEMODE
290
     1
  9
$FINGERPRINTGUID
  2
{E7552BDC-5169-4F54-A499-2C82C71F1FBB}
  9
$VERSIONGUID
  2
{0A20E718-A999-44E7-A53E-6798FAAD4C81}
  9
$EXTNAMES
290
     1
  9
$PSVPSCALE
 40
0.0
  9
$OLESTARTUP
290
     0
  0
ENDSEC
  0
SECTION
  2
CLASSES
  0
CLASS
  1
DICTIONARYVAR
  2
AcDbDictionaryVar
  3
ObjectDBX Classes
 90
        0
280
     0
281
     0
  0
CLASS
  1
SORTENTSTABLE
  2
AcDbSortentsTable
  3
ObjectDBX Classes
 90
        0
280
     0
281
     0
  0
CLASS
  1
ACDBDICTIONARYWDFLT
  2
AcDbDictionaryWithDefault
  3
ObjectDBX Classes
 90
        0
280
     0
281
     0
  0
CLASS
  1
ACDBPLACEHOLDER
  2
AcDbPlaceHolder
  3
ObjectDBX Classes
 90
        0
280
     0
281
     0
  0
CLASS
  1
LAYOUT
  2
AcDbLayout
  3
ObjectDBX Classes
 90
        0
280
     0
281
     0
  0
CLASS
  1
TABLESTYLE
  2
AcDbTableStyle
  3
ObjectDBX Classes
 90
     2047
280
     0
281
     0
  0
ENDSEC
  0
SECTION
  2
TABLES
  0
TABLE
  2
VPORT
  5
8
330
0
100
AcDbSymbolTable
 70
     3
  0
VPORT
  5
2B552
330
8
100
AcDbSymbolTableRecord
100
AcDbViewportTableRecord
  2
*Active
 70
     0
 10
0.0
 20
0.0
 11
1.0
 21
1.0
 12
297.0000055323517
 22
209.988463225843
 13
0.0
 23
0.0
 14
10.0
 24
10.0
 15
10.0
 25
10.0
 16
0.0
 26
0.0
 36
1.0
 17
0.0
 27
0.0
 37
0.0
 40
462.0899200526053
 41
1.293715846994535
 42
50.0
 43
0.0
 44
0.0
 50
0.0
 51
0.0
 71
     0
 72
   100
 73
     1
 74
     1
 75
     0
 76
     0
 77
     0
 78
     0
281
     0
 65
     1
110
0.0
120
0.0
130
0.0
111
1.0
121
0.0
131
0.0
112
0.0
122
1.0
132
0.0
 79
     0
146
0.0
  0
ENDTAB
  0
TABLE
  2
LTYPE
  5
5
330
0
100
AcDbSymbolTable
 70
     2
  0
LTYPE
  5
12
330
5
100
AcDbSymbolTableRecord
100
AcDbLinetypeTableRecord
  2
BYBLOCK
 70
     0
  3

 72
    65
 73
     0
 40
0.0
  0
LTYPE
  5
13
330
5
100
AcDbSymbolTableRecord
100
AcDbLinetypeTableRecord
  2
BYLAYER
 70
     0
  3

 72
    65
 73
     0
 40
0.0
  0
LTYPE
  5
14
330
5
100
AcDbSymbolTableRecord
100
AcDbLinetypeTableRecord
  2
CONTINUOUS
 70
     0
  3
Solid line
 72
    65
 73
     0
 40
0.0
  0
LTYPE
  5
2B4F8
330
5
100
AcDbSymbolTableRecord
100
AcDbLinetypeTableRecord
  2
VERDECKT2
 70
     0
  3
Verdeckt (.5x) _ _ _ _ _ _ _ _ _ _ _ _ _ _ _ _ 
 72
    65
 73
     2
 40
4.762499999999999
 49
3.174999999999999
 74
     0
 49
-1.587499999999999
 74
     0
  0
ENDTAB
  0
TABLE
  2
LAYER
  5
2
102
{ACAD_XDICTIONARY
360
2AE1D
102
}
330
0
100
AcDbSymbolTable
 70
     9
  0
LAYER
  5
E
330
2
100
AcDbSymbolTableRecord
100
AcDbLayerTableRecord
  2
0
 70
     0
 62
     7
  6
CONTINUOUS
370
    -3
390
1B1E3
  0
LAYER
  5
143
330
2
100
AcDbSymbolTableRecord
100
AcDbLayerTableRecord
  2
DEFPOINTS
 70
     0
 62
     7
  6
CONTINUOUS
290
     0
370
    -3
390
1B1E3
  0
LAYER
  5
1848A
330
2
100
AcDbSymbolTableRecord
100
AcDbLayerTableRecord
  2
RAHMEN025
 70
     0
 62
     7
  6
CONTINUOUS
370
    -3
390
1B1E3
  0
LAYER
  5
1848B
330
2
100
AcDbSymbolTableRecord
100
AcDbLayerTableRecord
  2
RAHMEN07
 70
     0
 62
     5
  6
CONTINUOUS
370
    -3
390
1B1E3
  0
LAYER
  5
26712
330
2
100
AcDbSymbolTableRecord
100
AcDbLayerTableRecord
  2
Bemassung
 70
     0
 62
     3
  6
CONTINUOUS
370
    -3
390
1B1E3
  0
LAYER
  5
27B66
330
2
100
AcDbSymbolTableRecord
100
AcDbLayerTableRecord
  2
Frame
 70
     0
 62
     7
  6
CONTINUOUS
370
    -3
390
1B1E3
  0
LAYER
  5
299F2
330
2
100
AcDbSymbolTableRecord
100
AcDbLayerTableRecord
  2
Modules
 70
     0
 62
     5
  6
CONTINUOUS
370
    -3
390
1B1E3
  0
LAYER
  5
2B4F9
330
2
100
AcDbSymbolTableRecord
100
AcDbLayerTableRecord
  2
TEXTFELD
 70
     0
 62
     7
  6
CONTINUOUS
370
    -3
390
1B1E3
  0
ENDTAB
  0
TABLE
  2
STYLE
  5
3
330
0
100
AcDbSymbolTable
 70
     5
  0
STYLE
  5
F
330
3
100
AcDbSymbolTableRecord
100
AcDbTextStyleTableRecord
  2
STANDARD
 70
     0
 40
0.0
 41
1.0
 50
0.0
 71
     0
 42
2.5
  3
txt
  4

  0
STYLE
  5
220D
330
3
100
AcDbSymbolTableRecord
100
AcDbTextStyleTableRecord
  2
TASTENTEXT
 70
     0
 40
2.0
 41
1.0
 50
0.0
 71
     0
 42
2.0
  3
ARIAL.TTF
  4

1001
ACAD
1000
Arial
1071
       34
  0
ENDTAB
  0
TABLE
  2
VIEW
  5
6
330
0
100
AcDbSymbolTable
 70
     0
  0
ENDTAB
  0
TABLE
  2
UCS
  5
7
330
0
100
AcDbSymbolTable
 70
     0
  0
ENDTAB
  0
TABLE
  2
APPID
  5
9
330
0
100
AcDbSymbolTable
 70
    10
  0
APPID
  5
10
330
9
100
AcDbSymbolTableRecord
100
AcDbRegAppTableRecord
  2
ACAD
 70
     0
  0
APPID
  5
29A02
330
9
100
AcDbSymbolTableRecord
100
AcDbRegAppTableRecord
  2
CONTENTTABDATA
 70
     0
  0
APPID
  5
29A03
330
9
100
AcDbSymbolTableRecord
100
AcDbRegAppTableRecord
  2
CONTENTCURRENTTAB
 70
     0
  0
APPID
  5
29A04
330
9
100
AcDbSymbolTableRecord
100
AcDbRegAppTableRecord
  2
DRAWINGVARIABLESXDATA
 70
     0
  0
APPID
  5
2AE16
330
9
100
AcDbSymbolTableRecord
100
AcDbRegAppTableRecord
  2
ACAD_EXEMPT_FROM_CAD_STANDARDS
 70
     0
  0
APPID
  5
2B4FA
330
9
100
AcDbSymbolTableRecord
100
AcDbRegAppTableRecord
  2
ACAD_PSEXT
 70
     0
  0
APPID
  5
2B4FB
330
9
100
AcDbSymbolTableRecord
100
AcDbRegAppTableRecord
  2
ACAD_DSTYLE_DIMEXT_LENGTH
 70
     0
  0
APPID
  5
2B4FC
330
9
100
AcDbSymbolTableRecord
100
AcDbRegAppTableRecord
  2
ACAD_DSTYLE_DIMEXT_ENABLED
 70
     0
  0
APPID
  5
2B4FD
330
9
100
AcDbSymbolTableRecord
100
AcDbRegAppTableRecord
  2
ACAD_DSTYLE_DIMJOGGED_JOGANGLE_SYMBOL
 70
     0
  0
APPID
  5
2B4FE
330
9
100
AcDbSymbolTableRecord
100
AcDbRegAppTableRecord
  2
ACAD_DSTYLE_DIMARC_LENGTH_SYMBOL
 70
     0
  0
ENDTAB
  0
TABLE
  2
DIMSTYLE
  5
A
330
0
100
AcDbSymbolTable
 70
     1
100
AcDbDimStyleTable
 71
     1
340
1D
  0
DIMSTYLE
105
1D
102
{ACAD_REACTORS
330
280B1
330
280B2
330
280B3
102
}
330
A
100
AcDbSymbolTableRecord
100
AcDbDimStyleTableRecord
  2
STANDARD
 70
     0
340
F
  0
ENDTAB
  0
TABLE
  2
BLOCK_RECORD
  5
1
330
0
100
AcDbSymbolTable
 70
     5
  0
BLOCK_RECORD
  5
18
102
{ACAD_XDICTIONARY
360
9822
102
}
330
1
100
AcDbSymbolTableRecord
100
AcDbBlockTableRecord
  2
*MODEL_SPACE
340
1B1E6
  0
BLOCK_RECORD
  5
15
102
{ACAD_XDICTIONARY
360
2663A
102
}
330
1
100
AcDbSymbolTableRecord
100
AcDbBlockTableRecord
  2
*PAPER_SPACE
340
1B1E7
  0
BLOCK_RECORD
  5
280B4
330
1
100
AcDbSymbolTableRecord
100
AcDbBlockTableRecord
  2
*D1
340
0
  0
BLOCK_RECORD
  5
280C0
330
1
100
AcDbSymbolTableRecord
100
AcDbBlockTableRecord
  2
*D2
340
0
  0
BLOCK_RECORD
  5
280CC
330
1
100
AcDbSymbolTableRecord
100
AcDbBlockTableRecord
  2
*D3
340
0
  0
ENDTAB
  0
ENDSEC
  0
SECTION
  2
BLOCKS
  0
BLOCK
  5
19
330
18
100
AcDbEntity
  8
0
100
AcDbBlockBegin
  2
*MODEL_SPACE
 70
     2
 10
0.0
 20
0.0
 30
0.0
  3
*MODEL_SPACE
  1

  0
ENDBLK
  5
1A
330
18
100
AcDbEntity
  8
0
100
AcDbBlockEnd
  0
BLOCK
  5
16
330
15
100
AcDbEntity
 67
     1
  8
0
100
AcDbBlockBegin
  2
*PAPER_SPACE
 70
     0
 10
0.0
 20
0.0
 30
0.0
  3
*PAPER_SPACE
  1

  0
ENDBLK
  5
17
330
15
100
AcDbEntity
 67
     1
  8
0
100
AcDbBlockEnd
  0
BLOCK
  5
280BE
330
280B4
100
AcDbEntity
  8
0
100
AcDbBlockBegin
  2
*D1
 70
     1
 10
0.0
 20
0.0
 30
0.0
  3
*D1
  1

  0
LINE
  5
2858A
330
280B4
100
AcDbEntity
  8
Bemassung
 62
     0
100
AcDbLine
 10
56.6785085684566
 20
274.2696408898965
 30
0.0
 11
56.6785085684566
 21
293.8093002240704
 31
0.0
  0
LINE
  5
2858B
330
280B4
100
AcDbEntity
  8
Bemassung
 62
     0
100
AcDbLine
 10
538.6785085684566
 20
274.2696408898965
 30
0.0
 11
538.6785085684566
 21
293.8093002240704
 31
0.0
  0
LINE
  5
2858C
330
280B4
100
AcDbEntity
  8
Bemassung
 62
     0
100
AcDbLine
 10
59.1785085684566
 20
292.5593002240704
 30
0.0
 11
536.1785085684566
 21
292.5593002240704
 31
0.0
  0
SOLID
  5
2858D
330
280B4
100
AcDbEntity
  8
Bemassung
 62
     0
100
AcDbTrace
 10
59.1785085684566
 20
292.9759668907371
 30
0.0
 11
59.1785085684566
 21
292.1426335574037
 31
0.0
 12
56.6785085684566
 22
292.5593002240704
 32
0.0
 13
56.6785085684566
 23
292.5593002240704
 33
0.0
  0
SOLID
  5
2858E
330
280B4
100
AcDbEntity
  8
Bemassung
 62
     0
100
AcDbTrace
 10
536.1785085684566
 20
292.9759668907371
 30
0.0
 11
536.1785085684566
 21
292.1426335574037
 31
0.0
 12
538.6785085684566
 22
292.5593002240704
 32
0.0
 13
538.6785085684566
 23
292.5593002240704
 33
0.0
  0
MTEXT
  5
2858F
330
280B4
100
AcDbEntity
  8
Bemassung
 62
     0
100
AcDbMText
 10
297.6785085684566
 20
294.4343002240704
 30
0.0
 40
2.5
 41
0.0
 71
     5
 72
     1
  1
\A1;483
 73
     1
 44
1.0
1001
ACAD
1000
MTEXTBEGIN
1070
    73
1070
     1
1070
    44
1040
1.0
1070
    74
1070
     0
1000
MTEXTEND
  0
POINT
  5
28590
330
280B4
100
AcDbEntity
  8
DEFPOINTS
 62
     0
100
AcDbPoint
 10
56.6785085684566
 20
273.6446408898966
 30
0.0
  0
POINT
  5
28591
330
280B4
100
AcDbEntity
  8
DEFPOINTS
 62
     0
100
AcDbPoint
 10
538.6785085684566
 20
273.6446408898966
 30
0.0
  0
POINT
  5
28592
330
280B4
100
AcDbEntity
  8
DEFPOINTS
 62
     0
100
AcDbPoint
 10
538.6785085684566
 20
292.5593002240704
 30
0.0
  0
ENDBLK
  5
280BF
330
280B4
100
AcDbEntity
  8
0
100
AcDbBlockEnd
  0
BLOCK
  5
280CA
330
280C0
100
AcDbEntity
  8
0
100
AcDbBlockBegin
  2
*D2
 70
     1
 10
0.0
 20
0.0
 30
0.0
  3
*D2
  1

  0
LINE
  5
28593
330
280C0
100
AcDbEntity
  8
Bemassung
 62
     0
100
AcDbLine
 10
77.67850856845661
 20
274.2696408898965
 30
0.0
 11
77.67850856845661
 21
287.9874221704664
 31
0.0
  0
LINE
  5
28594
330
280C0
100
AcDbEntity
  8
Bemassung
 62
     0
100
AcDbLine
 10
517.6785085684566
 20
274.2696408898965
 30
0.0
 11
517.6785085684566
 21
287.9874221704664
 31
0.0
  0
LINE
  5
28595
330
280C0
100
AcDbEntity
  8
Bemassung
 62
     0
100
AcDbLine
 10
80.1785085684566
 20
286.7374221704664
 30
0.0
 11
515.1785085684566
 21
286.7374221704664
 31
0.0
  0
SOLID
  5
28596
330
280C0
100
AcDbEntity
  8
Bemassung
 62
     0
100
AcDbTrace
 10
80.1785085684566
 20
287.1540888371331
 30
0.0
 11
80.1785085684566
 21
286.3207555037997
 31
0.0
 12
77.67850856845661
 22
286.7374221704664
 32
0.0
 13
77.67850856845661
 23
286.7374221704664
 33
0.0
  0
SOLID
  5
28597
330
280C0
100
AcDbEntity
  8
Bemassung
 62
     0
100
AcDbTrace
 10
515.1785085684566
 20
287.1540888371331
 30
0.0
 11
515.1785085684566
 21
286.3207555037997
 31
0.0
 12
517.6785085684566
 22
286.7374221704664
 32
0.0
 13
517.6785085684566
 23
286.7374221704664
 33
0.0
  0
MTEXT
  5
28598
330
280C0
100
AcDbEntity
  8
Bemassung
 62
     0
100
AcDbMText
 10
297.6785085684566
 20
288.6124221704664
 30
0.0
 40
2.5
 41
0.0
 71
     5
 72
     1
  1
\A1;448
 73
     1
 44
1.0
1001
ACAD
1000
MTEXTBEGIN
1070
    73
1070
     1
1070
    44
1040
1.0
1070
    74
1070
     0
1000
MTEXTEND
  0
POINT
  5
28599
330
280C0
100
AcDbEntity
  8
DEFPOINTS
 62
     0
100
AcDbPoint
 10
77.67850856845661
 20
273.6446408898966
 30
0.0
  0
POINT
  5
2859A
330
280C0
100
AcDbEntity
  8
DEFPOINTS
 62
     0
100
AcDbPoint
 10
517.6785085684566
 20
273.6446408898966
 30
0.0
  0
POINT
  5
2859B
330
280C0
100
AcDbEntity
  8
DEFPOINTS
 62
     0
100
AcDbPoint
 10
517.6785085684566
 20
286.7374221704664
 30
0.0
  0
ENDBLK
  5
280CB
330
280C0
100
AcDbEntity
  8
0
100
AcDbBlockEnd
  0
BLOCK
  5
280D6
330
280CC
100
AcDbEntity
  8
0
100
AcDbBlockBegin
  2
*D3
 70
     1
 10
0.0
 20
0.0
 30
0.0
  3
*D3
  1

  0
LINE
  5
2859C
330
280CC
100
AcDbEntity
  8
Bemassung
 62
     0
100
AcDbLine
 10
56.0535085684566
 20
273.6446408898966
 30
0.0
 11
44.15448934157145
 21
273.6446408898966
 31
0.0
  0
LINE
  5
2859D
330
280CC
100
AcDbEntity
  8
Bemassung
 62
     0
100
AcDbLine
 10
56.0535085684566
 20
141.1446408898965
 30
0.0
 11
44.15448934157141
 21
141.1446408898965
 31
0.0
  0
LINE
  5
2859E
330
280CC
100
AcDbEntity
  8
Bemassung
 62
     0
100
AcDbLine
 10
45.40448934157144
 20
271.1446408898965
 30
0.0
 11
45.40448934157141
 21
143.6446408898965
 31
0.0
  0
SOLID
  5
2859F
330
280CC
100
AcDbEntity
  8
Bemassung
 62
     0
100
AcDbTrace
 10
44.98782267490478
 20
271.1446408898965
 30
0.0
 11
45.82115600823811
 21
271.1446408898965
 31
0.0
 12
45.40448934157145
 22
273.6446408898966
 32
0.0
 13
45.40448934157145
 23
273.6446408898966
 33
0.0
  0
SOLID
  5
285A0
330
280CC
100
AcDbEntity
  8
Bemassung
 62
     0
100
AcDbTrace
 10
44.98782267490475
 20
143.6446408898965
 30
0.0
 11
45.82115600823807
 21
143.6446408898965
 31
0.0
 12
45.40448934157141
 22
141.1446408898965
 32
0.0
 13
45.40448934157141
 23
141.1446408898965
 33
0.0
  0
MTEXT
  5
285A1
330
280CC
100
AcDbEntity
  8
Bemassung
 62
     0
100
AcDbMText
 10
43.52948934157139
 20
207.3946408898966
 30
0.0
 40
2.5
 41
0.0
 71
     5
 72
     1
  1
\A1;133
 11
0.0000000000000001
 21
1.0
 31
0.0
 73
     1
 44
1.0
1001
ACAD
1000
MTEXTBEGIN
1070
    73
1070
     1
1070
    44
1040
1.0
1070
    74
1070
     0
1000
MTEXTEND
  0
POINT
  5
285A2
330
280CC
100
AcDbEntity
  8
DEFPOINTS
 62
     0
100
AcDbPoint
 10
56.6785085684566
 20
273.6446408898966
 30
0.0
  0
POINT
  5
285A3
330
280CC
100
AcDbEntity
  8
DEFPOINTS
 62
     0
100
AcDbPoint
 10
56.6785085684566
 20
141.1446408898965
 30
0.0
  0
POINT
  5
285A4
330
280CC
100
AcDbEntity
  8
DEFPOINTS
 62
     0
100
AcDbPoint
 10
45.40448934157141
 20
141.1446408898965
 30
0.0
  0
ENDBLK
  5
280D7
330
280CC
100
AcDbEntity
  8
0
100
AcDbBlockEnd
  0
ENDSEC
  0
SECTION
  2
ENTITIES
  0
LINE
  5
266D4
330
18
100
AcDbEntity
  8
RAHMEN07
100
AcDbLine
 10
589.0
 20
415.0
 30
0.0
 11
20.0
 21
415.0
 31
0.0
  0
LINE
  5
266D5
330
18
100
AcDbEntity
  8
RAHMEN07
100
AcDbLine
 10
20.0
 20
5.0
 30
0.0
 11
589.0
 21
5.0
 31
0.0
  0
LINE
  5
266D6
330
18
100
AcDbEntity
  8
RAHMEN025
100
AcDbLine
 10
594.0
 20
420.0
 30
0.0
 11
0.0
 21
420.0
 31
0.0
  0
LINE
  5
266D7
330
18
100
AcDbEntity
  8
RAHMEN025
100
AcDbLine
 10
0.0
 20
0.0
 30
0.0
 11
594.0
 21
0.0
 31
0.0
  0
LINE
  5
266D8
330
18
100
AcDbEntity
  8
RAHMEN07
100
AcDbLine
 10
20.0
 20
415.0
 30
0.0
 11
20.0
 21
5.0
 31
0.0
  0
LINE
  5
266D9
330
18
100
AcDbEntity
  8
RAHMEN025
100
AcDbLine
 10
0.0
 20
420.0
 30
0.0
 11
0.0
 21
0.0
 31
0.0
  0
LINE
  5
266DA
330
18
100
AcDbEntity
  8
RAHMEN07
100
AcDbLine
 10
589.0
 20
5.0
 30
0.0
 11
589.0
 21
415.0
 31
0.0
  0
LINE
  5
266DB
330
18
100
AcDbEntity
  8
RAHMEN025
100
AcDbLine
 10
594.0
 20
0.0
 30
0.0
 11
594.0
 21
420.0
 31
0.0
  0
LWPOLYLINE
  5
280A8
330
18
100
AcDbEntity
  8
Frame
100
AcDbPolyline
 90
        4
 70
     0
 43
0.0
 10
71.05777928511116
 20
253.7362323425052
 10
71.05777928511116
 20
253.7095032565292
 10
65.202050475671
 20
253.7095032565292
 10
65.202050475671
 20
253.7362323425052
  0
ARC
  5
280A9
330
18
100
AcDbEntity
  8
Frame
100
AcDbCircle
 10
66.61526480096421
 20
257.4967210702009
 30
0.0
 40
4.01726899775711
100
AcDbArc
 50
110.5965227266884
 51
250.515959274006
  0
LWPOLYLINE
  5
280AB
330
18
100
AcDbEntity
  8
Frame
100
AcDbPolyline
 90
        3
 70
     0
 43
0.0
 10
65.202050475671
 20
261.2572097978966
 10
65.202050475671
 20
261.2572097978966
 10
71.05777928511116
 20
261.2572097978966
  0
DIMENSION
  5
280B1
330
18
100
AcDbEntity
  8
Bemassung
100
AcDbDimension
  2
*D1
 10
538.6785085684566
 20
292.5593002240704
 30
0.0
 11
297.6785085684566
 21
294.4343002240704
 31
0.0
 70
    32
  1
483
 71
     5
 42
-1.0
  3
STANDARD
100
AcDbAlignedDimension
 13
56.6785085684566
 23
273.6446408898966
 33
0.0
 14
538.6785085684566
 24
273.6446408898966
 34
0.0
100
AcDbRotatedDimension
1001
ACAD
1000
DSTYLE
1002
{
1070
   270
1070
     8
1070
   270
1070
     8
1070
   270
1070
     8
1070
   270
1070
     8
1070
    41
1040
2.5
1070
    42
1040
0.625
1070
    43
1040
3.75
1070
    44
1040
1.25
1070
    73
1070
     0
1070
    74
1070
     0
1070
    77
1070
     1
1070
    78
1070
     8
1070
   140
1040
2.5
1070
   141
1040
2.5
1070
   143
1040
0.0394
1070
   147
1040
0.625
1070
   171
1070
     4
1070
   172
1070
     1
1070
   273
1070
     8
1070
   274
1070
     4
1070
   277
1070
     6
1002
}
  0
DIMENSION
  5
280B2
330
18
100
AcDbEntity
  8
Bemassung
100
AcDbDimension
  2
*D2
 10
517.6785085684566
 20
286.7374221704664
 30
0.0
 11
297.6785085684566
 21
288.6124221704664
 31
0.0
 70
    32
  1
448
 71
     5
 42
-1.0
  3
STANDARD
100
AcDbAlignedDimension
 13
77.67850856845661
 23
273.6446408898966
 33
0.0
 14
517.6785085684566
 24
273.6446408898966
 34
0.0
100
AcDbRotatedDimension
1001
ACAD
1000
DSTYLE
1002
{
1070
   270
1070
     8
1070
   270
1070
     8
1070
   270
1070
     8
1070
   270
1070
     8
1070
    41
1040
2.5
1070
    42
1040
0.625
1070
    43
1040
3.75
1070
    44
1040
1.25
1070
    73
1070
     0
1070
    74
1070
     0
1070
    77
1070
     1
1070
    78
1070
     8
1070
   140
1040
2.5
1070
   141
1040
2.5
1070
   143
1040
0.0394
1070
   147
1040
0.625
1070
   171
1070
     4
1070
   172
1070
     1
1070
   273
1070
     8
1070
   274
1070
     4
1070
   277
1070
     6
1002
}
  0
DIMENSION
  5
280B3
330
18
100
AcDbEntity
  8
Bemassung
100
AcDbDimension
  2
*D3
 10
45.40448934157141
 20
141.1446408898965
 30
0.0
 11
43.52948934157139
 21
207.3946408898966
 31
0.0
 70
    32
  1
133
 71
     5
 42
-1.0
  3
STANDARD
100
AcDbAlignedDimension
 13
56.6785085684566
 23
273.6446408898966
 33
0.0
 14
56.6785085684566
 24
141.1446408898965
 34
0.0
 50
90.0
100
AcDbRotatedDimension
1001
ACAD
1000
DSTYLE
1002
{
1070
   270
1070
     8
1070
   270
1070
     8
1070
   270
1070
     8
1070
   270
1070
     8
1070
    41
1040
2.5
1070
    42
1040
0.625
1070
    43
1040
3.75
1070
    44
1040
1.25
1070
    73
1070
     0
1070
    74
1070
     0
1070
    77
1070
     1
1070
    78
1070
     8
1070
   140
1040
2.5
1070
   141
1040
2.5
1070
   143
1040
0.0394
1070
   147
1040
0.625
1070
   171
1070
     4
1070
   172
1070
     1
1070
   273
1070
     8
1070
   274
1070
     4
1070
   277
1070
     6
1002
}
  0
ARC
  5
28114
330
18
100
AcDbEntity
  8
Frame
100
AcDbCircle
 10
69.64456495981796
 20
257.4967210702009
 30
0.0
 40
4.01726899775711
100
AcDbArc
 50
289.4840407259939
 51
69.40347727331154
  0
LWPOLYLINE
  5
28115
330
18
100
AcDbEntity
  8
Frame
100
AcDbPolyline
 90
        4
 70
     0
 43
0.0
 10
71.05777928511116
 20
161.0530494372879
 10
71.05777928511116
 20
161.0797785232639
 10
65.202050475671
 20
161.0797785232639
 10
65.202050475671
 20
161.0530494372879
  0
ARC
  5
28116
330
18
100
AcDbEntity
  8
Frame
100
AcDbCircle
 10
66.61526480096421
 20
157.2925607095922
 30
0.0
 40
4.01726899775711
100
AcDbArc
 50
109.4840407259939
 51
249.4034772733116
  0
LWPOLYLINE
  5
28117
330
18
100
AcDbEntity
  8
Frame
100
AcDbPolyline
 90
        3
 70
     0
 43
0.0
 10
65.202050475671
 20
153.5320719818965
 10
65.202050475671
 20
153.5320719818965
 10
71.05777928511116
 20
153.5320719818965
  0
ARC
  5
28118
330
18
100
AcDbEntity
  8
Frame
100
AcDbCircle
 10
69.64456495981796
 20
157.2925607095922
 30
0.0
 40
4.01726899775711
100
AcDbArc
 50
290.5965227266884
 51
70.51595927400609
  0
LWPOLYLINE
  5
28119
330
18
100
AcDbEntity
  8
Frame
100
AcDbPolyline
 90
        4
 70
     0
 43
0.0
 10
524.2992378518022
 20
253.7362323425052
 10
524.2992378518022
 20
253.7095032565292
 10
530.1549666612422
 20
253.7095032565292
 10
530.1549666612422
 20
253.7362323425052
  0
ARC
  5
2811A
330
18
100
AcDbEntity
  8
Frame
100
AcDbCircle
 10
528.741752335949
 20
257.4967210702009
 30
0.0
 40
4.01726899775711
100
AcDbArc
 50
289.4840407259939
 51
69.40347727331154
  0
LWPOLYLINE
  5
2811B
330
18
100
AcDbEntity
  8
Frame
100
AcDbPolyline
 90
        3
 70
     0
 43
0.0
 10
530.1549666612422
 20
261.2572097978966
 10
530.1549666612422
 20
261.2572097978966
 10
524.2992378518022
 20
261.2572097978966
  0
ARC
  5
2811C
330
18
100
AcDbEntity
  8
Frame
100
AcDbCircle
 10
525.7124521770954
 20
257.4967210702009
 30
0.0
 40
4.01726899775711
100
AcDbArc
 50
110.5965227266884
 51
250.515959274006
  0
LWPOLYLINE
  5
2811D
330
18
100
AcDbEntity
  8
Frame
100
AcDbPolyline
 90
        4
 70
     0
 43
0.0
 10
524.2992378518022
 20
161.0530494372879
 10
524.2992378518022
 20
161.0797785232639
 10
530.1549666612422
 20
161.0797785232639
 10
530.1549666612422
 20
161.0530494372879
  0
ARC
  5
2811E
330
18
100
AcDbEntity
  8
Frame
100
AcDbCircle
 10
528.741752335949
 20
157.2925607095922
 30
0.0
 40
4.01726899775711
100
AcDbArc
 50
290.5965227266884
 51
70.51595927400609
  0
LWPOLYLINE
  5
2811F
330
18
100
AcDbEntity
  8
Frame
100
AcDbPolyline
 90
        3
 70
     0
 43
0.0
 10
530.1549666612422
 20
153.5320719818965
 10
530.1549666612422
 20
153.5320719818965
 10
524.2992378518022
 20
153.5320719818965
  0
ARC
  5
28120
330
18
100
AcDbEntity
  8
Frame
100
AcDbCircle
 10
525.7124521770954
 20
157.2925607095922
 30
0.0
 40
4.01726899775711
100
AcDbArc
 50
109.4840407259939
 51
249.4034772733116
  0
MTEXT
  5
29C9E
330
18
100
AcDbEntity
  8
Bemassung
100
AcDbMText
 10
268.8795574345149
 20
486.1830107780843
 30
0.0
 40
2.5
 41
0.0
 71
     1
 72
     1
  1

 11
-1.0
 21
0.0000000000000001
 31
0.0
 73
     1
 44
1.0
1001
ACAD
1000
MTEXTBEGIN
1070
    73
1070
     1
1070
    44
1040
1.0
1070
    74
1070
     0
1000
MTEXTEND
  0
MTEXT
  5
29C9F
330
18
100
AcDbEntity
  8
Bemassung
100
AcDbMText
 10
268.8795574345149
 20
486.1830107780843
 30
0.0
 40
2.5
 41
0.0
 71
     1
 72
     1
  1

 11
-1.0
 21
0.0000000000000001
 31
0.0
 73
     1
 44
1.0
1001
ACAD
1000
MTEXTBEGIN
1070
    73
1070
     1
1070
    44
1040
1.0
1070
    74
1070
     0
1000
MTEXTEND
  0
POINT
  5
2A8F9
102
{ACAD_REACTORS
330
2B27E
102
}
330
18
100
AcDbEntity
  8
Modules
100
AcDbPoint
 10
114.6285085684571
 20
271.8446408898966
 30
0.0
  0
CIRCLE
  5
2AB76
102
{ACAD_REACTORS
330
2B1E7
330
2B27E
102
}
330
18
100
AcDbEntity
  8
Modules
100
AcDbCircle
 10
88.7885085684574
 20
252.6446408898966
 30
0.0
 40
1.0
  0
CIRCLE
  5
2AB78
102
{ACAD_REACTORS
330
2B1E7
330
2B27E
102
}
330
18
100
AcDbEntity
  8
Modules
100
AcDbCircle
 10
100.8630034925692
 20
245.7441459631844
 30
0.0
 40
11.1
  0
LWPOLYLINE
  5
2AE20
102
{ACAD_REACTORS
330
2B27E
102
}
330
18
100
AcDbEntity
  8
Modules
100
AcDbPolyline
 90
        4
 70
     1
 43
0.0
 10
84.48850856845661
 20
271.8446408898966
 10
114.6285085684571
 20
271.8446408898966
 10
114.6285085684571
 20
143.4446408898966
 10
84.48850856845661
 20
143.4446408898966
  0
CIRCLE
  5
2AE21
102
{ACAD_REACTORS
330
2B27E
102
}
330
18
100
AcDbEntity
  8
Modules
100
AcDbCircle
 10
97.06850856845724
 20
268.8446408898966
 30
0.0
 40
2.45
  0
LWPOLYLINE
  5
2AE22
102
{ACAD_REACTORS
330
2B27E
102
}
330
18
100
AcDbEntity
  8
Modules
100
AcDbPolyline
 90
        6
 70
     1
 43
0.0
 10
96.43342327234865
 20
269.9446408898966
 10
95.79833797624006
 20
268.8446408898966
 10
96.43342327234865
 20
267.7446408898966
 10
97.70359386456583
 20
267.7446408898966
 10
98.3386791606744
 20
268.8446408898966
 10
97.70359386456583
 20
269.9446408898966
  0
CIRCLE
  5
2AE24
102
{ACAD_REACTORS
330
2B1E7
330
2B27E
102
}
330
18
100
AcDbEntity
  8
Modules
100
AcDbCircle
 10
110.7630034826692
 20
255.6441459532844
 30
0.0
 40
2.75
  0
LWPOLYLINE
  5
2AE25
102
{ACAD_REACTORS
330
2B1E7
330
2B27E
102
}
330
18
100
AcDbEntity
  8
Modules
100
AcDbPolyline
 90
        6
 70
     1
 43
0.0
 10
110.1279181865607
 20
256.7441459532844
 10
109.4928328904521
 20
255.6441459532844
 10
110.1279181865607
 20
254.5441459532844
 10
111.3980887787778
 20
254.5441459532844
 10
112.0331740748864
 20
255.6441459532844
 10
111.3980887787778
 20
256.7441459532844
  0
CIRCLE
  5
2AE26
102
{ACAD_REACTORS
330
2B1E7
330
2B27E
102
}
330
18
100
AcDbEntity
  8
Modules
100
AcDbCircle
 10
100.8630034925692
 20
245.7441459631844
 30
0.0
 40
8.00002255446822
  0
CIRCLE
  5
2AE27
102
{ACAD_REACTORS
330
2B1E7
330
2B27E
102
}
330
18
100
AcDbEntity
  8
Modules
100
AcDbCircle
 10
96.91300349651932
 20
245.7251459631844
 30
0.0
 40
1.29999999870013
  0
CIRCLE
  5
2AE28
102
{ACAD_REACTORS
330
2B1E7
330
2B27E
102
}
330
18
100
AcDbEntity
  8
Modules
100
AcDbCircle
 10
100.8630034925692
 20
249.7751459591345
 30
0.0
 40
1.29999999870013
  0
CIRCLE
  5
2AE29
102
{ACAD_REACTORS
330
2B1E7
330
2B27E
102
}
330
18
100
AcDbEntity
  8
Modules
100
AcDbCircle
 10
100.8630034925692
 20
241.6751459672345
 30
0.0
 40
1.29999999870013
  0
CIRCLE
  5
2AE2A
102
{ACAD_REACTORS
330
2B1E7
330
2B27E
102
}
330
18
100
AcDbEntity
  8
Modules
100
AcDbCircle
 10
90.96350856585708
 20
235.8256510364721
 30
0.0
 40
2.75
  0
LWPOLYLINE
  5
2AE2B
102
{ACAD_REACTORS
330
2B1E7
330
2B27E
102
}
330
18
100
AcDbEntity
  8
Modules
100
AcDbPolyline
 90
        6
 70
     1
 43
0.0
 10
90.32842326974849
 20
236.9256510364721
 10
89.69333797363992
 20
235.8256510364721
 10
90.32842326974849
 20
234.7256510364721
 10
91.59859386196567
 20
234.7256510364721
 10
92.23367915807425
 20
235.8256510364721
 10
91.59859386196567
 20
236.9256510364721
  0
CIRCLE
  5
2AE2C
102
{ACAD_REACTORS
330
2B1E7
330
2B27E
102
}
330
18
100
AcDbEntity
  8
Modules
100
AcDbCircle
 10
100.8630034925692
 20
245.7441459631844
 30
0.0
 40
9.75
  0
POINT
  5
2AE2F
102
{ACAD_REACTORS
330
2B27F
102
}
330
18
100
AcDbEntity
  8
Modules
100
AcDbPoint
 10
480.3885085684571
 20
271.8446408898966
 30
0.0
  0
CIRCLE
  5
2AF46
102
{ACAD_REACTORS
330
2B219
330
2B27F
102
}
330
18
100
AcDbEntity
  8
Modules
100
AcDbCircle
 10
454.5485085684574
 20
252.6446408898966
 30
0.0
 40
1.0
  0
CIRCLE
  5
2AF47
102
{ACAD_REACTORS
330
2B219
330
2B27F
102
}
330
18
100
AcDbEntity
  8
Modules
100
AcDbCircle
 10
466.6230034925693
 20
245.7441459631844
 30
0.0
 40
11.1
  0
CIRCLE
  5
2AF48
102
{ACAD_REACTORS
330
2B219
330
2B27F
102
}
330
18
100
AcDbEntity
  8
Modules
100
AcDbCircle
 10
466.6230034925693
 20
245.7441459631844
 30
0.0
 40
9.75
  0
LWPOLYLINE
  5
2B1DA
102
{ACAD_REACTORS
330
2B27F
102
}
330
18
100
AcDbEntity
  8
Modules
100
AcDbPolyline
 90
        4
 70
     1
 43
0.0
 10
450.2485085684567
 20
271.8446408898966
 10
480.3885085684571
 20
271.8446408898966
 10
480.3885085684571
 20
143.4446408898966
 10
450.2485085684567
 20
143.4446408898966
  0
CIRCLE
  5
2B1DB
102
{ACAD_REACTORS
330
2B27F
102
}
330
18
100
AcDbEntity
  8
Modules
100
AcDbCircle
 10
462.8285085684573
 20
268.8446408898966
 30
0.0
 40
2.45
  0
LWPOLYLINE
  5
2B1DC
102
{ACAD_REACTORS
330
2B27F
102
}
330
18
100
AcDbEntity
  8
Modules
100
AcDbPolyline
 90
        6
 70
     1
 43
0.0
 10
462.1934232723487
 20
269.9446408898966
 10
461.5583379762401
 20
268.8446408898966
 10
462.1934232723487
 20
267.7446408898966
 10
463.4635938645658
 20
267.7446408898966
 10
464.0986791606744
 20
268.8446408898966
 10
463.4635938645658
 20
269.9446408898966
  0
CIRCLE
  5
2B1DD
102
{ACAD_REACTORS
330
2B219
330
2B27F
102
}
330
18
100
AcDbEntity
  8
Modules
100
AcDbCircle
 10
476.5230034826693
 20
255.6441459532844
 30
0.0
 40
2.75
  0
LWPOLYLINE
  5
2B1DE
102
{ACAD_REACTORS
330
2B219
330
2B27F
102
}
330
18
100
AcDbEntity
  8
Modules
100
AcDbPolyline
 90
        6
 70
     1
 43
0.0
 10
475.8879181865607
 20
256.7441459532844
 10
475.2528328904522
 20
255.6441459532844
 10
475.8879181865607
 20
254.5441459532844
 10
477.1580887787778
 20
254.5441459532844
 10
477.7931740748864
 20
255.6441459532844
 10
477.1580887787778
 20
256.7441459532844
  0
CIRCLE
  5
2B1DF
102
{ACAD_REACTORS
330
2B219
330
2B27F
102
}
330
18
100
AcDbEntity
  8
Modules
100
AcDbCircle
 10
466.6230034925693
 20
245.7441459631844
 30
0.0
 40
8.00002255446822
  0
CIRCLE
  5
2B1E0
102
{ACAD_REACTORS
330
2B219
330
2B27F
102
}
330
18
100
AcDbEntity
  8
Modules
100
AcDbCircle
 10
462.6730034965193
 20
245.7251459631844
 30
0.0
 40
1.29999999870013
  0
CIRCLE
  5
2B1E1
102
{ACAD_REACTORS
330
2B219
330
2B27F
102
}
330
18
100
AcDbEntity
  8
Modules
100
AcDbCircle
 10
466.6230034925693
 20
249.7751459591345
 30
0.0
 40
1.29999999870013
  0
CIRCLE
  5
2B1E2
102
{ACAD_REACTORS
330
2B219
330
2B27F
102
}
330
18
100
AcDbEntity
  8
Modules
100
AcDbCircle
 10
466.6230034925693
 20
241.6751459672345
 30
0.0
 40
1.29999999870013
  0
CIRCLE
  5
2B1E3
102
{ACAD_REACTORS
330
2B27F
102
}
330
18
100
AcDbEntity
  8
Modules
100
AcDbCircle
 10
456.7235085658571
 20
235.8256510364721
 30
0.0
 40
2.75
  0
LWPOLYLINE
  5
2B1E4
102
{ACAD_REACTORS
330
2B219
330
2B27F
102
}
330
18
100
AcDbEntity
  8
Modules
100
AcDbPolyline
 90
        6
 70
     1
 43
0.0
 10
456.0884232697485
 20
236.9256510364721
 10
455.4533379736398
 20
235.8256510364721
 10
456.0884232697485
 20
234.7256510364721
 10
457.3585938619657
 20
234.7256510364721
 10
457.9936791580743
 20
235.8256510364721
 10
457.3585938619657
 20
236.9256510364721
  0
CIRCLE
  5
2B1E5
102
{ACAD_REACTORS
330
2B27E
102
}
330
18
100
AcDbEntity
  8
Modules
100
AcDbCircle
 10
97.06850856845711
 20
146.4446408898966
 30
0.0
 40
2.45
  0
LWPOLYLINE
  5
2B1E6
102
{ACAD_REACTORS
330
2B27E
102
}
330
18
100
AcDbEntity
  8
Modules
100
AcDbPolyline
 90
        6
 70
     1
 43
0.0
 10
96.43342327234854
 20
147.5446408898966
 10
95.79833797623996
 20
146.4446408898966
 10
96.43342327234854
 20
145.3446408898966
 10
97.7035938645657
 20
145.3446408898966
 10
98.33867916067429
 20
146.4446408898966
 10
97.7035938645657
 20
147.5446408898966
  0
CIRCLE
  5
2B1E8
102
{ACAD_REACTORS
330
2B1F3
330
2B27E
102
}
330
18
100
AcDbEntity
  8
Modules
100
AcDbCircle
 10
88.7885085684574
 20
227.6256408898965
 30
0.0
 40
1.0
  0
CIRCLE
  5
2B1E9
102
{ACAD_REACTORS
330
2B1F3
330
2B27E
102
}
330
18
100
AcDbEntity
  8
Modules
100
AcDbCircle
 10
100.8630034925692
 20
220.7251459631844
 30
0.0
 40
11.1
  0
CIRCLE
  5
2B1EA
102
{ACAD_REACTORS
330
2B1F3
330
2B27E
102
}
330
18
100
AcDbEntity
  8
Modules
100
AcDbCircle
 10
100.8630034925692
 20
220.7251459631844
 30
0.0
 40
9.75
  0
CIRCLE
  5
2B1EB
102
{ACAD_REACTORS
330
2B1F3
330
2B27E
102
}
330
18
100
AcDbEntity
  8
Modules
100
AcDbCircle
 10
110.7630034826692
 20
230.6251459532843
 30
0.0
 40
2.75
  0
LWPOLYLINE
  5
2B1EC
102
{ACAD_REACTORS
330
2B1F3
330
2B27E
102
}
330
18
100
AcDbEntity
  8
Modules
100
AcDbPolyline
 90
        6
 70
     1
 43
0.0
 10
110.1279181865607
 20
231.7251459532844
 10
109.4928328904521
 20
230.6251459532843
 10
110.1279181865607
 20
229.5251459532843
 10
111.3980887787778
 20
229.5251459532843
 10
112.0331740748864
 20
230.6251459532843
 10
111.3980887787778
 20
231.7251459532844
  0
CIRCLE
  5
2B1ED
102
{ACAD_REACTORS
330
2B1F3
330
2B27E
102
}
330
18
100
AcDbEntity
  8
Modules
100
AcDbCircle
 10
100.8630034925692
 20
220.7251459631844
 30
0.0
 40
8.00002255446822
  0
CIRCLE
  5
2B1EE
102
{ACAD_REACTORS
330
2B1F3
330
2B27E
102
}
330
18
100
AcDbEntity
  8
Modules
100
AcDbCircle
 10
96.91300349651932
 20
220.7061459631844
 30
0.0
 40
1.29999999870013
  0
CIRCLE
  5
2B1EF
102
{ACAD_REACTORS
330
2B1F3
330
2B27E
102
}
330
18
100
AcDbEntity
  8
Modules
100
AcDbCircle
 10
100.8630034925692
 20
224.7561459591345
 30
0.0
 40
1.29999999870013
  0
CIRCLE
  5
2B1F0
102
{ACAD_REACTORS
330
2B1F3
330
2B27E
102
}
330
18
100
AcDbEntity
  8
Modules
100
AcDbCircle
 10
100.8630034925692
 20
216.6561459672344
 30
0.0
 40
1.29999999870013
  0
CIRCLE
  5
2B1F1
102
{ACAD_REACTORS
330
2B1F3
330
2B27E
102
}
330
18
100
AcDbEntity
  8
Modules
100
AcDbCircle
 10
90.96350856585708
 20
210.806651036472
 30
0.0
 40
2.75
  0
LWPOLYLINE
  5
2B1F2
102
{ACAD_REACTORS
330
2B1F3
330
2B27E
102
}
330
18
100
AcDbEntity
  8
Modules
100
AcDbPolyline
 90
        6
 70
     1
 43
0.0
 10
90.32842326974849
 20
211.906651036472
 10
89.69333797363992
 20
210.806651036472
 10
90.32842326974849
 20
209.706651036472
 10
91.59859386196567
 20
209.706651036472
 10
92.23367915807425
 20
210.806651036472
 10
91.59859386196567
 20
211.906651036472
  0
CIRCLE
  5
2B1F4
102
{ACAD_REACTORS
330
2B1FF
330
2B27E
102
}
330
18
100
AcDbEntity
  8
Modules
100
AcDbCircle
 10
88.7885085684574
 20
202.6256408898966
 30
0.0
 40
1.0
  0
CIRCLE
  5
2B1F5
102
{ACAD_REACTORS
330
2B1FF
330
2B27E
102
}
330
18
100
AcDbEntity
  8
Modules
100
AcDbCircle
 10
100.8630034925692
 20
195.7251459631844
 30
0.0
 40
11.1
  0
CIRCLE
  5
2B1F6
102
{ACAD_REACTORS
330
2B1FF
330
2B27E
102
}
330
18
100
AcDbEntity
  8
Modules
100
AcDbCircle
 10
100.8630034925692
 20
195.7251459631844
 30
0.0
 40
9.75
  0
CIRCLE
  5
2B1F7
102
{ACAD_REACTORS
330
2B1FF
330
2B27E
102
}
330
18
100
AcDbEntity
  8
Modules
100
AcDbCircle
 10
110.7630034826692
 20
205.6251459532844
 30
0.0
 40
2.75
  0
LWPOLYLINE
  5
2B1F8
102
{ACAD_REACTORS
330
2B1FF
330
2B27E
102
}
330
18
100
AcDbEntity
  8
Modules
100
AcDbPolyline
 90
        6
 70
     1
 43
0.0
 10
110.1279181865607
 20
206.7251459532844
 10
109.4928328904521
 20
205.6251459532844
 10
110.1279181865607
 20
204.5251459532844
 10
111.3980887787778
 20
204.5251459532844
 10
112.0331740748864
 20
205.6251459532844
 10
111.3980887787778
 20
206.7251459532844
  0
CIRCLE
  5
2B1F9
102
{ACAD_REACTORS
330
2B1FF
330
2B27E
102
}
330
18
100
AcDbEntity
  8
Modules
100
AcDbCircle
 10
100.8630034925692
 20
195.7251459631844
 30
0.0
 40
8.00002255446822
  0
CIRCLE
  5
2B1FA
102
{ACAD_REACTORS
330
2B1FF
330
2B27E
102
}
330
18
100
AcDbEntity
  8
Modules
100
AcDbCircle
 10
96.91300349651932
 20
195.7061459631844
 30
0.0
 40
1.29999999870013
  0
CIRCLE
  5
2B1FB
102
{ACAD_REACTORS
330
2B1FF
330
2B27E
102
}
330
18
100
AcDbEntity
  8
Modules
100
AcDbCircle
 10
100.8630034925692
 20
199.7561459591345
 30
0.0
 40
1.29999999870013
  0
CIRCLE
  5
2B1FC
102
{ACAD_REACTORS
330
2B1FF
330
2B27E
102
}
330
18
100
AcDbEntity
  8
Modules
100
AcDbCircle
 10
100.8630034925692
 20
191.6561459672344
 30
0.0
 40
1.29999999870013
  0
CIRCLE
  5
2B1FD
102
{ACAD_REACTORS
330
2B1FF
330
2B27E
102
}
330
18
100
AcDbEntity
  8
Modules
100
AcDbCircle
 10
90.96350856585708
 20
185.8066510364721
 30
0.0
 40
2.75
  0
LWPOLYLINE
  5
2B1FE
102
{ACAD_REACTORS
330
2B1FF
330
2B27E
102
}
330
18
100
AcDbEntity
  8
Modules
100
AcDbPolyline
 90
        6
 70
     1
 43
0.0
 10
90.32842326974849
 20
186.9066510364721
 10
89.69333797363992
 20
185.8066510364721
 10
90.32842326974849
 20
184.7066510364721
 10
91.59859386196567
 20
184.7066510364721
 10
92.23367915807425
 20
185.8066510364721
 10
91.59859386196567
 20
186.9066510364721
  0
CIRCLE
  5
2B200
102
{ACAD_REACTORS
330
2B20B
330
2B27E
102
}
330
18
100
AcDbEntity
  8
Modules
100
AcDbCircle
 10
88.7885085684574
 20
177.6256408898965
 30
0.0
 40
1.0
  0
CIRCLE
  5
2B201
102
{ACAD_REACTORS
330
2B20B
330
2B27E
102
}
330
18
100
AcDbEntity
  8
Modules
100
AcDbCircle
 10
100.8630034925692
 20
170.7251459631844
 30
0.0
 40
11.1
  0
CIRCLE
  5
2B202
102
{ACAD_REACTORS
330
2B20B
330
2B27E
102
}
330
18
100
AcDbEntity
  8
Modules
100
AcDbCircle
 10
100.8630034925692
 20
170.7251459631844
 30
0.0
 40
9.75
  0
CIRCLE
  5
2B203
102
{ACAD_REACTORS
330
2B20B
330
2B27E
102
}
330
18
100
AcDbEntity
  8
Modules
100
AcDbCircle
 10
110.7630034826692
 20
180.6251459532843
 30
0.0
 40
2.75
  0
LWPOLYLINE
  5
2B204
102
{ACAD_REACTORS
330
2B20B
330
2B27E
102
}
330
18
100
AcDbEntity
  8
Modules
100
AcDbPolyline
 90
        6
 70
     1
 43
0.0
 10
110.1279181865607
 20
181.7251459532844
 10
109.4928328904521
 20
180.6251459532843
 10
110.1279181865607
 20
179.5251459532843
 10
111.3980887787778
 20
179.5251459532843
 10
112.0331740748864
 20
180.6251459532843
 10
111.3980887787778
 20
181.7251459532844
  0
CIRCLE
  5
2B205
102
{ACAD_REACTORS
330
2B20B
330
2B27E
102
}
330
18
100
AcDbEntity
  8
Modules
100
AcDbCircle
 10
100.8630034925692
 20
170.7251459631844
 30
0.0
 40
8.00002255446822
  0
CIRCLE
  5
2B206
102
{ACAD_REACTORS
330
2B20B
330
2B27E
102
}
330
18
100
AcDbEntity
  8
Modules
100
AcDbCircle
 10
96.91300349651932
 20
170.7061459631844
 30
0.0
 40
1.29999999870013
  0
CIRCLE
  5
2B207
102
{ACAD_REACTORS
330
2B20B
330
2B27E
102
}
330
18
100
AcDbEntity
  8
Modules
100
AcDbCircle
 10
100.8630034925692
 20
174.7561459591344
 30
0.0
 40
1.29999999870013
  0
CIRCLE
  5
2B208
102
{ACAD_REACTORS
330
2B20B
330
2B27E
102
}
330
18
100
AcDbEntity
  8
Modules
100
AcDbCircle
 10
100.8630034925692
 20
166.6561459672344
 30
0.0
 40
1.29999999870013
  0
CIRCLE
  5
2B209
102
{ACAD_REACTORS
330
2B20B
330
2B27E
102
}
330
18
100
AcDbEntity
  8
Modules
100
AcDbCircle
 10
90.96350856585708
 20
160.806651036472
 30
0.0
 40
2.75
  0
LWPOLYLINE
  5
2B20A
102
{ACAD_REACTORS
330
2B20B
330
2B27E
102
}
330
18
100
AcDbEntity
  8
Modules
100
AcDbPolyline
 90
        6
 70
     1
 43
0.0
 10
90.32842326974849
 20
161.906651036472
 10
89.69333797363992
 20
160.806651036472
 10
90.32842326974849
 20
159.706651036472
 10
91.59859386196567
 20
159.706651036472
 10
92.23367915807425
 20
160.806651036472
 10
91.59859386196567
 20
161.906651036472
  0
CIRCLE
  5
2B20D
102
{ACAD_REACTORS
330
2B21A
330
2B27F
102
}
330
18
100
AcDbEntity
  8
Modules
100
AcDbCircle
 10
454.5485085684574
 20
227.6256408898965
 30
0.0
 40
1.0
  0
CIRCLE
  5
2B20E
102
{ACAD_REACTORS
330
2B21A
330
2B27F
102
}
330
18
100
AcDbEntity
  8
Modules
100
AcDbCircle
 10
466.6230034925693
 20
220.7251459631844
 30
0.0
 40
11.1
  0
CIRCLE
  5
2B20F
102
{ACAD_REACTORS
330
2B21A
330
2B27F
102
}
330
18
100
AcDbEntity
  8
Modules
100
AcDbCircle
 10
466.6230034925693
 20
220.7251459631844
 30
0.0
 40
9.75
  0
CIRCLE
  5
2B210
102
{ACAD_REACTORS
330
2B21A
330
2B27F
102
}
330
18
100
AcDbEntity
  8
Modules
100
AcDbCircle
 10
476.5230034826693
 20
230.6251459532843
 30
0.0
 40
2.75
  0
LWPOLYLINE
  5
2B211
102
{ACAD_REACTORS
330
2B21A
330
2B27F
102
}
330
18
100
AcDbEntity
  8
Modules
100
AcDbPolyline
 90
        6
 70
     1
 43
0.0
 10
475.8879181865607
 20
231.7251459532844
 10
475.2528328904522
 20
230.6251459532843
 10
475.8879181865607
 20
229.5251459532843
 10
477.1580887787778
 20
229.5251459532843
 10
477.7931740748864
 20
230.6251459532843
 10
477.1580887787778
 20
231.7251459532844
  0
CIRCLE
  5
2B213
102
{ACAD_REACTORS
330
2B21A
330
2B27F
102
}
330
18
100
AcDbEntity
  8
Modules
100
AcDbCircle
 10
462.6730034965193
 20
220.7061459631844
 30
0.0
 40
1.29999999870013
  0
CIRCLE
  5
2B214
102
{ACAD_REACTORS
330
2B21A
330
2B27F
102
}
330
18
100
AcDbEntity
  8
Modules
100
AcDbCircle
 10
466.6230034925693
 20
224.7561459591345
 30
0.0
 40
1.29999999870013
  0
CIRCLE
  5
2B215
102
{ACAD_REACTORS
330
2B21A
330
2B27F
102
}
330
18
100
AcDbEntity
  8
Modules
100
AcDbCircle
 10
466.6230034925693
 20
216.6561459672344
 30
0.0
 40
1.29999999870013
  0
CIRCLE
  5
2B216
102
{ACAD_REACTORS
330
2B21A
330
2B27F
102
}
330
18
100
AcDbEntity
  8
Modules
100
AcDbCircle
 10
456.7235085658571
 20
210.806651036472
 30
0.0
 40
2.75
  0
LWPOLYLINE
  5
2B217
102
{ACAD_REACTORS
330
2B21A
330
2B27F
102
}
330
18
100
AcDbEntity
  8
Modules
100
AcDbPolyline
 90
        6
 70
     1
 43
0.0
 10
456.0884232697485
 20
211.906651036472
 10
455.4533379736398
 20
210.806651036472
 10
456.0884232697485
 20
209.706651036472
 10
457.3585938619657
 20
209.706651036472
 10
457.9936791580743
 20
210.806651036472
 10
457.3585938619657
 20
211.906651036472
  0
CIRCLE
  5
2B21B
102
{ACAD_REACTORS
330
2B22F
330
2B27F
102
}
330
18
100
AcDbEntity
  8
Modules
100
AcDbCircle
 10
454.5485085684574
 20
202.6256408898966
 30
0.0
 40
1.0
  0
CIRCLE
  5
2B21C
102
{ACAD_REACTORS
330
2B22F
330
2B27F
102
}
330
18
100
AcDbEntity
  8
Modules
100
AcDbCircle
 10
466.6230034925693
 20
195.7251459631844
 30
0.0
 40
11.1
  0
CIRCLE
  5
2B21D
102
{ACAD_REACTORS
330
2B22F
330
2B27F
102
}
330
18
100
AcDbEntity
  8
Modules
100
AcDbCircle
 10
466.6230034925693
 20
195.7251459631844
 30
0.0
 40
9.75
  0
CIRCLE
  5
2B21E
102
{ACAD_REACTORS
330
2B22F
330
2B27F
102
}
330
18
100
AcDbEntity
  8
Modules
100
AcDbCircle
 10
476.5230034826693
 20
205.6251459532844
 30
0.0
 40
2.75
  0
LWPOLYLINE
  5
2B21F
102
{ACAD_REACTORS
330
2B22F
330
2B27F
102
}
330
18
100
AcDbEntity
  8
Modules
100
AcDbPolyline
 90
        6
 70
     1
 43
0.0
 10
475.8879181865607
 20
206.7251459532844
 10
475.2528328904522
 20
205.6251459532844
 10
475.8879181865607
 20
204.5251459532844
 10
477.1580887787778
 20
204.5251459532844
 10
477.7931740748864
 20
205.6251459532844
 10
477.1580887787778
 20
206.7251459532844
  0
CIRCLE
  5
2B220
102
{ACAD_REACTORS
330
2B22F
330
2B27F
102
}
330
18
100
AcDbEntity
  8
Modules
100
AcDbCircle
 10
466.6230034925693
 20
195.7251459631844
 30
0.0
 40
8.00002255446822
  0
CIRCLE
  5
2B221
102
{ACAD_REACTORS
330
2B22F
330
2B27F
102
}
330
18
100
AcDbEntity
  8
Modules
100
AcDbCircle
 10
462.6730034965193
 20
195.7061459631844
 30
0.0
 40
1.29999999870013
  0
CIRCLE
  5
2B222
102
{ACAD_REACTORS
330
2B22F
330
2B27F
102
}
330
18
100
AcDbEntity
  8
Modules
100
AcDbCircle
 10
466.6230034925693
 20
199.7561459591345
 30
0.0
 40
1.29999999870013
  0
CIRCLE
  5
2B223
102
{ACAD_REACTORS
330
2B22F
330
2B27F
102
}
330
18
100
AcDbEntity
  8
Modules
100
AcDbCircle
 10
466.6230034925693
 20
191.6561459672344
 30
0.0
 40
1.29999999870013
  0
LWPOLYLINE
  5
2B224
102
{ACAD_REACTORS
330
2B22F
330
2B27F
102
}
330
18
100
AcDbEntity
  8
Modules
100
AcDbPolyline
 90
        6
 70
     1
 43
0.0
 10
456.0884232697485
 20
186.9066510364721
 10
455.4533379736398
 20
185.8066510364721
 10
456.0884232697485
 20
184.7066510364721
 10
457.3585938619657
 20
184.7066510364721
 10
457.9936791580743
 20
185.8066510364721
 10
457.3585938619657
 20
186.9066510364721
  0
CIRCLE
  5
2B225
102
{ACAD_REACTORS
330
2B230
330
2B27F
102
}
330
18
100
AcDbEntity
  8
Modules
100
AcDbCircle
 10
454.5485085684574
 20
177.6066408898965
 30
0.0
 40
1.0
  0
CIRCLE
  5
2B226
102
{ACAD_REACTORS
330
2B230
330
2B27F
102
}
330
18
100
AcDbEntity
  8
Modules
100
AcDbCircle
 10
466.6230034925693
 20
170.7061459631844
 30
0.0
 40
11.1
  0
CIRCLE
  5
2B227
102
{ACAD_REACTORS
330
2B230
330
2B27F
102
}
330
18
100
AcDbEntity
  8
Modules
100
AcDbCircle
 10
466.6230034925693
 20
170.7061459631844
 30
0.0
 40
9.75
  0
CIRCLE
  5
2B228
102
{ACAD_REACTORS
330
2B230
330
2B27F
102
}
330
18
100
AcDbEntity
  8
Modules
100
AcDbCircle
 10
476.5230034826693
 20
180.6061459532843
 30
0.0
 40
2.75
  0
LWPOLYLINE
  5
2B229
102
{ACAD_REACTORS
330
2B230
330
2B27F
102
}
330
18
100
AcDbEntity
  8
Modules
100
AcDbPolyline
 90
        6
 70
     1
 43
0.0
 10
475.8879181865607
 20
181.7061459532843
 10
475.2528328904522
 20
180.6061459532843
 10
475.8879181865607
 20
179.5061459532843
 10
477.1580887787778
 20
179.5061459532843
 10
477.7931740748864
 20
180.6061459532843
 10
477.1580887787778
 20
181.7061459532843
  0
CIRCLE
  5
2B22A
102
{ACAD_REACTORS
330
2B230
330
2B27F
102
}
330
18
100
AcDbEntity
  8
Modules
100
AcDbCircle
 10
462.6730034965193
 20
170.6871459631843
 30
0.0
 40
1.29999999870013
  0
CIRCLE
  5
2B22B
102
{ACAD_REACTORS
330
2B230
330
2B27F
102
}
330
18
100
AcDbEntity
  8
Modules
100
AcDbCircle
 10
466.6230034925693
 20
174.7371459591344
 30
0.0
 40
1.29999999870013
  0
CIRCLE
  5
2B22C
102
{ACAD_REACTORS
330
2B230
330
2B27F
102
}
330
18
100
AcDbEntity
  8
Modules
100
AcDbCircle
 10
466.6230034925693
 20
166.6371459672344
 30
0.0
 40
1.29999999870013
  0
CIRCLE
  5
2B22D
102
{ACAD_REACTORS
330
2B230
330
2B27F
102
}
330
18
100
AcDbEntity
  8
Modules
100
AcDbCircle
 10
456.7235085658571
 20
160.787651036472
 30
0.0
 40
2.75
  0
LWPOLYLINE
  5
2B22E
102
{ACAD_REACTORS
330
2B230
330
2B27F
102
}
330
18
100
AcDbEntity
  8
Modules
100
AcDbPolyline
 90
        6
 70
     1
 43
0.0
 10
456.0884232697485
 20
161.887651036472
 10
455.4533379736398
 20
160.787651036472
 10
456.0884232697485
 20
159.687651036472
 10
457.3585938619657
 20
159.687651036472
 10
457.9936791580743
 20
160.787651036472
 10
457.3585938619657
 20
161.887651036472
  0
CIRCLE
  5
2B231
102
{ACAD_REACTORS
330
2B27F
102
}
330
18
100
AcDbEntity
  8
Modules
100
AcDbCircle
 10
462.8285085684571
 20
146.4446408898966
 30
0.0
 40
2.45
  0
LWPOLYLINE
  5
2B232
102
{ACAD_REACTORS
330
2B27F
102
}
330
18
100
AcDbEntity
  8
Modules
100
AcDbPolyline
 90
        6
 70
     1
 43
0.0
 10
462.1934232723486
 20
147.5446408898966
 10
461.5583379762399
 20
146.4446408898966
 10
462.1934232723486
 20
145.3446408898966
 10
463.4635938645657
 20
145.3446408898966
 10
464.0986791606743
 20
146.4446408898966
 10
463.4635938645657
 20
147.5446408898966
  0
POINT
  5
2B234
102
{ACAD_REACTORS
330
2B27F
102
}
330
18
100
AcDbEntity
  8
Modules
100
AcDbPoint
 10
480.3885085684571
 20
271.8446408898966
 30
0.0
  0
POINT
  5
2B235
102
{ACAD_REACTORS
330
2B280
102
}
330
18
100
AcDbEntity
  8
Modules
100
AcDbPoint
 10
388.9485085684571
 20
271.8446408898966
 30
0.0
  0
LWPOLYLINE
  5
2B239
102
{ACAD_REACTORS
330
2B280
102
}
330
18
100
AcDbEntity
  8
Modules
100
AcDbPolyline
 90
        4
 70
     1
 43
0.0
 10
358.8085085684566
 20
271.8446408898966
 10
388.9485085684571
 20
271.8446408898966
 10
388.9485085684571
 20
143.4446408898966
 10
358.8085085684566
 20
143.4446408898966
  0
CIRCLE
  5
2B23A
102
{ACAD_REACTORS
330
2B280
102
}
330
18
100
AcDbEntity
  8
Modules
100
AcDbCircle
 10
371.3885085684573
 20
268.8446408898966
 30
0.0
 40
2.45
  0
LWPOLYLINE
  5
2B23B
102
{ACAD_REACTORS
330
2B280
102
}
330
18
100
AcDbEntity
  8
Modules
100
AcDbPolyline
 90
        6
 70
     1
 43
0.0
 10
370.7534232723487
 20
269.9446408898966
 10
370.1183379762401
 20
268.8446408898966
 10
370.7534232723487
 20
267.7446408898966
 10
372.0235938645658
 20
267.7446408898966
 10
372.6586791606745
 20
268.8446408898966
 10
372.0235938645658
 20
269.9446408898966
  0
CIRCLE
  5
2B242
102
{ACAD_REACTORS
330
2B280
102
}
330
18
100
AcDbEntity
  8
Modules
100
AcDbCircle
 10
365.2835085658571
 20
235.8256510364721
 30
0.0
 40
2.75
  0
CIRCLE
  5
2B244
102
{ACAD_REACTORS
330
2B265
330
2B280
102
}
330
18
100
AcDbEntity
  8
Modules
100
AcDbCircle
 10
363.1085085684575
 20
227.6256408898965
 30
0.0
 40
1.0
  0
CIRCLE
  5
2B245
102
{ACAD_REACTORS
330
2B265
330
2B280
102
}
330
18
100
AcDbEntity
  8
Modules
100
AcDbCircle
 10
375.1830034925693
 20
220.7251459631844
 30
0.0
 40
11.1
  0
CIRCLE
  5
2B246
102
{ACAD_REACTORS
330
2B265
330
2B280
102
}
330
18
100
AcDbEntity
  8
Modules
100
AcDbCircle
 10
375.1830034925693
 20
220.7251459631844
 30
0.0
 40
9.75
  0
CIRCLE
  5
2B247
102
{ACAD_REACTORS
330
2B265
330
2B280
102
}
330
18
100
AcDbEntity
  8
Modules
100
AcDbCircle
 10
385.0830034826693
 20
230.6251459532843
 30
0.0
 40
2.75
  0
LWPOLYLINE
  5
2B248
102
{ACAD_REACTORS
330
2B265
330
2B280
102
}
330
18
100
AcDbEntity
  8
Modules
100
AcDbPolyline
 90
        6
 70
     1
 43
0.0
 10
384.4479181865608
 20
231.7251459532844
 10
383.8128328904522
 20
230.6251459532843
 10
384.4479181865608
 20
229.5251459532843
 10
385.7180887787779
 20
229.5251459532843
 10
386.3531740748864
 20
230.6251459532843
 10
385.7180887787779
 20
231.7251459532844
  0
CIRCLE
  5
2B249
102
{ACAD_REACTORS
330
2B265
330
2B280
102
}
330
18
100
AcDbEntity
  8
Modules
100
AcDbCircle
 10
371.2330034965193
 20
220.7061459631844
 30
0.0
 40
1.29999999870013
  0
CIRCLE
  5
2B24A
102
{ACAD_REACTORS
330
2B265
330
2B280
102
}
330
18
100
AcDbEntity
  8
Modules
100
AcDbCircle
 10
375.1830034925693
 20
224.7561459591345
 30
0.0
 40
1.29999999870013
  0
CIRCLE
  5
2B24B
102
{ACAD_REACTORS
330
2B265
330
2B280
102
}
330
18
100
AcDbEntity
  8
Modules
100
AcDbCircle
 10
375.1830034925693
 20
216.6561459672344
 30
0.0
 40
1.29999999870013
  0
CIRCLE
  5
2B24C
102
{ACAD_REACTORS
330
2B265
330
2B280
102
}
330
18
100
AcDbEntity
  8
Modules
100
AcDbCircle
 10
365.2835085658571
 20
210.806651036472
 30
0.0
 40
2.75
  0
LWPOLYLINE
  5
2B24D
102
{ACAD_REACTORS
330
2B265
330
2B280
102
}
330
18
100
AcDbEntity
  8
Modules
100
AcDbPolyline
 90
        6
 70
     1
 43
0.0
 10
364.6484232697485
 20
211.906651036472
 10
364.0133379736399
 20
210.806651036472
 10
364.6484232697485
 20
209.706651036472
 10
365.9185938619657
 20
209.706651036472
 10
366.5536791580743
 20
210.806651036472
 10
365.9185938619657
 20
211.906651036472
  0
CIRCLE
  5
2B258
102
{ACAD_REACTORS
330
2B267
330
2B280
102
}
330
18
100
AcDbEntity
  8
Modules
100
AcDbCircle
 10
363.1085085684575
 20
177.6066408898965
 30
0.0
 40
1.0
  0
CIRCLE
  5
2B259
102
{ACAD_REACTORS
330
2B267
330
2B280
102
}
330
18
100
AcDbEntity
  8
Modules
100
AcDbCircle
 10
375.1830034925693
 20
170.7061459631844
 30
0.0
 40
11.1
  0
CIRCLE
  5
2B25A
102
{ACAD_REACTORS
330
2B267
330
2B280
102
}
330
18
100
AcDbEntity
  8
Modules
100
AcDbCircle
 10
375.1830034925693
 20
170.7061459631844
 30
0.0
 40
9.75
  0
CIRCLE
  5
2B25B
102
{ACAD_REACTORS
330
2B267
330
2B280
102
}
330
18
100
AcDbEntity
  8
Modules
100
AcDbCircle
 10
385.0830034826693
 20
180.6061459532843
 30
0.0
 40
2.75
  0
LWPOLYLINE
  5
2B25C
102
{ACAD_REACTORS
330
2B267
330
2B280
102
}
330
18
100
AcDbEntity
  8
Modules
100
AcDbPolyline
 90
        6
 70
     1
 43
0.0
 10
384.4479181865608
 20
181.7061459532843
 10
383.8128328904522
 20
180.6061459532843
 10
384.4479181865608
 20
179.5061459532843
 10
385.7180887787779
 20
179.5061459532843
 10
386.3531740748864
 20
180.6061459532843
 10
385.7180887787779
 20
181.7061459532843
  0
CIRCLE
  5
2B25D
102
{ACAD_REACTORS
330
2B267
330
2B280
102
}
330
18
100
AcDbEntity
  8
Modules
100
AcDbCircle
 10
371.2330034965193
 20
170.6871459631843
 30
0.0
 40
1.29999999870013
  0
CIRCLE
  5
2B25E
102
{ACAD_REACTORS
330
2B267
330
2B280
102
}
330
18
100
AcDbEntity
  8
Modules
100
AcDbCircle
 10
375.1830034925693
 20
174.7371459591344
 30
0.0
 40
1.29999999870013
  0
CIRCLE
  5
2B25F
102
{ACAD_REACTORS
330
2B267
330
2B280
102
}
330
18
100
AcDbEntity
  8
Modules
100
AcDbCircle
 10
375.1830034925693
 20
166.6371459672344
 30
0.0
 40
1.29999999870013
  0
CIRCLE
  5
2B260
102
{ACAD_REACTORS
330
2B267
330
2B280
102
}
330
18
100
AcDbEntity
  8
Modules
100
AcDbCircle
 10
365.2835085658571
 20
160.787651036472
 30
0.0
 40
2.75
  0
LWPOLYLINE
  5
2B261
102
{ACAD_REACTORS
330
2B267
330
2B280
102
}
330
18
100
AcDbEntity
  8
Modules
100
AcDbPolyline
 90
        6
 70
     1
 43
0.0
 10
364.6484232697485
 20
161.887651036472
 10
364.0133379736399
 20
160.787651036472
 10
364.6484232697485
 20
159.687651036472
 10
365.9185938619657
 20
159.687651036472
 10
366.5536791580743
 20
160.787651036472
 10
365.9185938619657
 20
161.887651036472
  0
CIRCLE
  5
2B262
102
{ACAD_REACTORS
330
2B280
102
}
330
18
100
AcDbEntity
  8
Modules
100
AcDbCircle
 10
371.3885085684572
 20
146.4446408898966
 30
0.0
 40
2.45
  0
LWPOLYLINE
  5
2B263
102
{ACAD_REACTORS
330
2B280
102
}
330
18
100
AcDbEntity
  8
Modules
100
AcDbPolyline
 90
        6
 70
     1
 43
0.0
 10
370.7534232723486
 20
147.5446408898966
 10
370.11833797624
 20
146.4446408898966
 10
370.7534232723486
 20
145.3446408898966
 10
372.0235938645657
 20
145.3446408898966
 10
372.6586791606743
 20
146.4446408898966
 10
372.0235938645657
 20
147.5446408898966
  0
CIRCLE
  5
2B268
102
{ACAD_REACTORS
330
2B27C
330
2B280
102
}
330
18
100
AcDbEntity
  8
Modules
100
AcDbCircle
 10
363.1085085684575
 20
252.6446408898966
 30
0.0
 40
1.0
  0
CIRCLE
  5
2B269
102
{ACAD_REACTORS
330
2B27C
330
2B280
102
}
330
18
100
AcDbEntity
  8
Modules
100
AcDbCircle
 10
375.1830034925693
 20
245.7441459631844
 30
0.0
 40
11.1
  0
CIRCLE
  5
2B26A
102
{ACAD_REACTORS
330
2B27C
330
2B280
102
}
330
18
100
AcDbEntity
  8
Modules
100
AcDbCircle
 10
375.1830034925693
 20
245.7441459631844
 30
0.0
 40
9.75
  0
CIRCLE
  5
2B26B
102
{ACAD_REACTORS
330
2B27C
330
2B280
102
}
330
18
100
AcDbEntity
  8
Modules
100
AcDbCircle
 10
385.0830034826693
 20
255.6441459532844
 30
0.0
 40
2.75
  0
LWPOLYLINE
  5
2B26C
102
{ACAD_REACTORS
330
2B27C
330
2B280
102
}
330
18
100
AcDbEntity
  8
Modules
100
AcDbPolyline
 90
        6
 70
     1
 43
0.0
 10
384.4479181865608
 20
256.7441459532844
 10
383.8128328904522
 20
255.6441459532844
 10
384.4479181865608
 20
254.5441459532844
 10
385.7180887787779
 20
254.5441459532844
 10
386.3531740748864
 20
255.6441459532844
 10
385.7180887787779
 20
256.7441459532844
  0
CIRCLE
  5
2B26D
102
{ACAD_REACTORS
330
2B27C
330
2B280
102
}
330
18
100
AcDbEntity
  8
Modules
100
AcDbCircle
 10
371.2330034965193
 20
245.7251459631844
 30
0.0
 40
1.29999999870013
  0
CIRCLE
  5
2B26E
102
{ACAD_REACTORS
330
2B27C
330
2B280
102
}
330
18
100
AcDbEntity
  8
Modules
100
AcDbCircle
 10
375.1830034925693
 20
249.7751459591345
 30
0.0
 40
1.29999999870013
  0
CIRCLE
  5
2B26F
102
{ACAD_REACTORS
330
2B27C
330
2B280
102
}
330
18
100
AcDbEntity
  8
Modules
100
AcDbCircle
 10
375.1830034925693
 20
241.6751459672345
 30
0.0
 40
1.29999999870013
  0
CIRCLE
  5
2B270
102
{ACAD_REACTORS
330
2B27C
330
2B280
102
}
330
18
100
AcDbEntity
  8
Modules
100
AcDbCircle
 10
365.2835085658571
 20
235.8256510364721
 30
0.0
 40
2.75
  0
LWPOLYLINE
  5
2B271
102
{ACAD_REACTORS
330
2B27C
330
2B280
102
}
330
18
100
AcDbEntity
  8
Modules
100
AcDbPolyline
 90
        6
 70
     1
 43
0.0
 10
364.6484232697485
 20
236.9256510364721
 10
364.0133379736399
 20
235.8256510364721
 10
364.6484232697485
 20
234.7256510364721
 10
365.9185938619657
 20
234.7256510364721
 10
366.5536791580743
 20
235.8256510364721
 10
365.9185938619657
 20
236.9256510364721
  0
CIRCLE
  5
2B272
102
{ACAD_REACTORS
330
2B27D
330
2B280
102
}
330
18
100
AcDbEntity
  8
Modules
100
AcDbCircle
 10
363.1085085684575
 20
202.6256408898966
 30
0.0
 40
1.0
  0
CIRCLE
  5
2B273
102
{ACAD_REACTORS
330
2B27D
330
2B280
102
}
330
18
100
AcDbEntity
  8
Modules
100
AcDbCircle
 10
375.1830034925693
 20
195.7251459631844
 30
0.0
 40
11.1
  0
CIRCLE
  5
2B274
102
{ACAD_REACTORS
330
2B27D
330
2B280
102
}
330
18
100
AcDbEntity
  8
Modules
100
AcDbCircle
 10
375.1830034925693
 20
195.7251459631844
 30
0.0
 40
9.75
  0
CIRCLE
  5
2B275
102
{ACAD_REACTORS
330
2B27D
330
2B280
102
}
330
18
100
AcDbEntity
  8
Modules
100
AcDbCircle
 10
385.0830034826693
 20
205.6251459532844
 30
0.0
 40
2.75
  0
LWPOLYLINE
  5
2B276
102
{ACAD_REACTORS
330
2B27D
330
2B280
102
}
330
18
100
AcDbEntity
  8
Modules
100
AcDbPolyline
 90
        6
 70
     1
 43
0.0
 10
384.4479181865608
 20
206.7251459532844
 10
383.8128328904522
 20
205.6251459532844
 10
384.4479181865608
 20
204.5251459532844
 10
385.7180887787779
 20
204.5251459532844
 10
386.3531740748864
 20
205.6251459532844
 10
385.7180887787779
 20
206.7251459532844
  0
CIRCLE
  5
2B277
102
{ACAD_REACTORS
330
2B27D
330
2B280
102
}
330
18
100
AcDbEntity
  8
Modules
100
AcDbCircle
 10
371.2330034965193
 20
195.7061459631844
 30
0.0
 40
1.29999999870013
  0
CIRCLE
  5
2B278
102
{ACAD_REACTORS
330
2B27D
330
2B280
102
}
330
18
100
AcDbEntity
  8
Modules
100
AcDbCircle
 10
375.1830034925693
 20
199.7561459591345
 30
0.0
 40
1.29999999870013
  0
CIRCLE
  5
2B279
102
{ACAD_REACTORS
330
2B27D
330
2B280
102
}
330
18
100
AcDbEntity
  8
Modules
100
AcDbCircle
 10
375.1830034925693
 20
191.6561459672344
 30
0.0
 40
1.29999999870013
  0
CIRCLE
  5
2B27A
102
{ACAD_REACTORS
330
2B27D
330
2B280
102
}
330
18
100
AcDbEntity
  8
Modules
100
AcDbCircle
 10
365.2835085658571
 20
185.8066510364721
 30
0.0
 40
2.75
  0
LWPOLYLINE
  5
2B27B
102
{ACAD_REACTORS
330
2B27D
330
2B280
102
}
330
18
100
AcDbEntity
  8
Modules
100
AcDbPolyline
 90
        6
 70
     1
 43
0.0
 10
364.6484232697485
 20
186.9066510364721
 10
364.0133379736399
 20
185.8066510364721
 10
364.6484232697485
 20
184.7066510364721
 10
365.9185938619657
 20
184.7066510364721
 10
366.5536791580743
 20
185.8066510364721
 10
365.9185938619657
 20
186.9066510364721
  0
POINT
  5
2B281
102
{ACAD_REACTORS
330
2B2B3
102
}
330
18
100
AcDbEntity
  8
Modules
100
AcDbPoint
 10
145.1085085684571
 20
271.8446408898966
 30
0.0
  0
CIRCLE
  5
2B282
102
{ACAD_REACTORS
330
2B2B3
330
2B2B7
102
}
330
18
100
AcDbEntity
  8
Modules
100
AcDbCircle
 10
119.2685085684574
 20
252.6446408898966
 30
0.0
 40
1.0
  0
CIRCLE
  5
2B283
102
{ACAD_REACTORS
330
2B2B3
330
2B2B7
102
}
330
18
100
AcDbEntity
  8
Modules
100
AcDbCircle
 10
131.3430034925692
 20
245.7441459631844
 30
0.0
 40
11.1
  0
CIRCLE
  5
2B284
102
{ACAD_REACTORS
330
2B2B3
330
2B2B7
102
}
330
18
100
AcDbEntity
  8
Modules
100
AcDbCircle
 10
131.3430034925692
 20
245.7441459631844
 30
0.0
 40
9.75
  0
LWPOLYLINE
  5
2B285
102
{ACAD_REACTORS
330
2B2B3
102
}
330
18
100
AcDbEntity
  8
Modules
100
AcDbPolyline
 90
        4
 70
     1
 43
0.0
 10
114.9685085684566
 20
271.8446408898966
 10
145.1085085684571
 20
271.8446408898966
 10
145.1085085684571
 20
143.4446408898966
 10
114.9685085684566
 20
143.4446408898966
  0
CIRCLE
  5
2B286
102
{ACAD_REACTORS
330
2B2B3
102
}
330
18
100
AcDbEntity
  8
Modules
100
AcDbCircle
 10
127.5485085684572
 20
268.8446408898966
 30
0.0
 40
2.45
  0
LWPOLYLINE
  5
2B287
102
{ACAD_REACTORS
330
2B2B3
102
}
330
18
100
AcDbEntity
  8
Modules
100
AcDbPolyline
 90
        6
 70
     1
 43
0.0
 10
126.9134232723486
 20
269.9446408898966
 10
126.27833797624
 20
268.8446408898966
 10
126.9134232723486
 20
267.7446408898966
 10
128.1835938645658
 20
267.7446408898966
 10
128.8186791606744
 20
268.8446408898966
 10
128.1835938645658
 20
269.9446408898966
  0
CIRCLE
  5
2B288
102
{ACAD_REACTORS
330
2B2B3
330
2B2B7
102
}
330
18
100
AcDbEntity
  8
Modules
100
AcDbCircle
 10
141.2430034826693
 20
255.6441459532844
 30
0.0
 40
2.75
  0
LWPOLYLINE
  5
2B289
102
{ACAD_REACTORS
330
2B2B3
330
2B2B7
102
}
330
18
100
AcDbEntity
  8
Modules
100
AcDbPolyline
 90
        6
 70
     1
 43
0.0
 10
140.6079181865607
 20
256.7441459532844
 10
139.9728328904521
 20
255.6441459532844
 10
140.6079181865607
 20
254.5441459532844
 10
141.8780887787778
 20
254.5441459532844
 10
142.5131740748864
 20
255.6441459532844
 10
141.8780887787778
 20
256.7441459532844
  0
CIRCLE
  5
2B28A
102
{ACAD_REACTORS
330
2B2B3
330
2B2B7
102
}
330
18
100
AcDbEntity
  8
Modules
100
AcDbCircle
 10
131.3430034925692
 20
245.7441459631844
 30
0.0
 40
8.00002255446822
  0
CIRCLE
  5
2B28B
102
{ACAD_REACTORS
330
2B2B3
330
2B2B7
102
}
330
18
100
AcDbEntity
  8
Modules
100
AcDbCircle
 10
127.3930034965193
 20
245.7251459631844
 30
0.0
 40
1.29999999870013
  0
CIRCLE
  5
2B28C
102
{ACAD_REACTORS
330
2B2B3
330
2B2B7
102
}
330
18
100
AcDbEntity
  8
Modules
100
AcDbCircle
 10
131.3430034925692
 20
249.7751459591345
 30
0.0
 40
1.29999999870013
  0
CIRCLE
  5
2B28D
102
{ACAD_REACTORS
330
2B2B3
330
2B2B7
102
}
330
18
100
AcDbEntity
  8
Modules
100
AcDbCircle
 10
131.3430034925692
 20
241.6751459672345
 30
0.0
 40
1.29999999870013
  0
CIRCLE
  5
2B28E
102
{ACAD_REACTORS
330
2B2B3
330
2B2B7
102
}
330
18
100
AcDbEntity
  8
Modules
100
AcDbCircle
 10
121.4435085658571
 20
235.8256510364721
 30
0.0
 40
2.75
  0
LWPOLYLINE
  5
2B28F
102
{ACAD_REACTORS
330
2B2B3
330
2B2B7
102
}
330
18
100
AcDbEntity
  8
Modules
100
AcDbPolyline
 90
        6
 70
     1
 43
0.0
 10
120.8084232697485
 20
236.9256510364721
 10
120.1733379736399
 20
235.8256510364721
 10
120.8084232697485
 20
234.7256510364721
 10
122.0785938619656
 20
234.7256510364721
 10
122.7136791580742
 20
235.8256510364721
 10
122.0785938619656
 20
236.9256510364721
  0
CIRCLE
  5
2B290
102
{ACAD_REACTORS
330
2B2B3
102
}
330
18
100
AcDbEntity
  8
Modules
100
AcDbCircle
 10
127.5485085684571
 20
146.4446408898966
 30
0.0
 40
2.45
  0
LWPOLYLINE
  5
2B291
102
{ACAD_REACTORS
330
2B2B3
102
}
330
18
100
AcDbEntity
  8
Modules
100
AcDbPolyline
 90
        6
 70
     1
 43
0.0
 10
126.9134232723485
 20
147.5446408898966
 10
126.2783379762399
 20
146.4446408898966
 10
126.9134232723485
 20
145.3446408898966
 10
128.1835938645657
 20
145.3446408898966
 10
128.8186791606743
 20
146.4446408898966
 10
128.1835938645657
 20
147.5446408898966
  0
CIRCLE
  5
2B292
102
{ACAD_REACTORS
330
2B2B3
330
2B2B4
102
}
330
18
100
AcDbEntity
  8
Modules
100
AcDbCircle
 10
119.2685085684574
 20
227.6256408898965
 30
0.0
 40
1.0
  0
CIRCLE
  5
2B293
102
{ACAD_REACTORS
330
2B2B3
330
2B2B4
102
}
330
18
100
AcDbEntity
  8
Modules
100
AcDbCircle
 10
131.3430034925692
 20
220.7251459631844
 30
0.0
 40
11.1
  0
CIRCLE
  5
2B294
102
{ACAD_REACTORS
330
2B2B3
330
2B2B4
102
}
330
18
100
AcDbEntity
  8
Modules
100
AcDbCircle
 10
131.3430034925692
 20
220.7251459631844
 30
0.0
 40
9.75
  0
CIRCLE
  5
2B295
102
{ACAD_REACTORS
330
2B2B3
330
2B2B4
102
}
330
18
100
AcDbEntity
  8
Modules
100
AcDbCircle
 10
141.2430034826693
 20
230.6251459532843
 30
0.0
 40
2.75
  0
LWPOLYLINE
  5
2B296
102
{ACAD_REACTORS
330
2B2B3
330
2B2B4
102
}
330
18
100
AcDbEntity
  8
Modules
100
AcDbPolyline
 90
        6
 70
     1
 43
0.0
 10
140.6079181865607
 20
231.7251459532844
 10
139.9728328904521
 20
230.6251459532843
 10
140.6079181865607
 20
229.5251459532843
 10
141.8780887787778
 20
229.5251459532843
 10
142.5131740748864
 20
230.6251459532843
 10
141.8780887787778
 20
231.7251459532844
  0
CIRCLE
  5
2B297
102
{ACAD_REACTORS
330
2B2B3
330
2B2B4
102
}
330
18
100
AcDbEntity
  8
Modules
100
AcDbCircle
 10
131.3430034925692
 20
220.7251459631844
 30
0.0
 40
8.00002255446822
  0
CIRCLE
  5
2B298
102
{ACAD_REACTORS
330
2B2B3
330
2B2B4
102
}
330
18
100
AcDbEntity
  8
Modules
100
AcDbCircle
 10
127.3930034965193
 20
220.7061459631844
 30
0.0
 40
1.29999999870013
  0
CIRCLE
  5
2B299
102
{ACAD_REACTORS
330
2B2B3
330
2B2B4
102
}
330
18
100
AcDbEntity
  8
Modules
100
AcDbCircle
 10
131.3430034925692
 20
224.7561459591345
 30
0.0
 40
1.29999999870013
  0
CIRCLE
  5
2B29A
102
{ACAD_REACTORS
330
2B2B3
330
2B2B4
102
}
330
18
100
AcDbEntity
  8
Modules
100
AcDbCircle
 10
131.3430034925692
 20
216.6561459672344
 30
0.0
 40
1.29999999870013
  0
CIRCLE
  5
2B29B
102
{ACAD_REACTORS
330
2B2B3
330
2B2B4
102
}
330
18
100
AcDbEntity
  8
Modules
100
AcDbCircle
 10
121.4435085658571
 20
210.806651036472
 30
0.0
 40
2.75
  0
LWPOLYLINE
  5
2B29C
102
{ACAD_REACTORS
330
2B2B3
330
2B2B4
102
}
330
18
100
AcDbEntity
  8
Modules
100
AcDbPolyline
 90
        6
 70
     1
 43
0.0
 10
120.8084232697485
 20
211.906651036472
 10
120.1733379736399
 20
210.806651036472
 10
120.8084232697485
 20
209.706651036472
 10
122.0785938619656
 20
209.706651036472
 10
122.7136791580742
 20
210.806651036472
 10
122.0785938619656
 20
211.906651036472
  0
CIRCLE
  5
2B29D
102
{ACAD_REACTORS
330
2B2B3
330
2B2B5
102
}
330
18
100
AcDbEntity
  8
Modules
100
AcDbCircle
 10
119.2685085684574
 20
202.6256408898966
 30
0.0
 40
1.0
  0
CIRCLE
  5
2B29E
102
{ACAD_REACTORS
330
2B2B3
330
2B2B5
102
}
330
18
100
AcDbEntity
  8
Modules
100
AcDbCircle
 10
131.3430034925692
 20
195.7251459631844
 30
0.0
 40
11.1
  0
CIRCLE
  5
2B29F
102
{ACAD_REACTORS
330
2B2B3
330
2B2B5
102
}
330
18
100
AcDbEntity
  8
Modules
100
AcDbCircle
 10
131.3430034925692
 20
195.7251459631844
 30
0.0
 40
9.75
  0
CIRCLE
  5
2B2A0
102
{ACAD_REACTORS
330
2B2B3
330
2B2B5
102
}
330
18
100
AcDbEntity
  8
Modules
100
AcDbCircle
 10
141.2430034826693
 20
205.6251459532844
 30
0.0
 40
2.75
  0
LWPOLYLINE
  5
2B2A1
102
{ACAD_REACTORS
330
2B2B3
330
2B2B5
102
}
330
18
100
AcDbEntity
  8
Modules
100
AcDbPolyline
 90
        6
 70
     1
 43
0.0
 10
140.6079181865607
 20
206.7251459532844
 10
139.9728328904521
 20
205.6251459532844
 10
140.6079181865607
 20
204.5251459532844
 10
141.8780887787778
 20
204.5251459532844
 10
142.5131740748864
 20
205.6251459532844
 10
141.8780887787778
 20
206.7251459532844
  0
CIRCLE
  5
2B2A2
102
{ACAD_REACTORS
330
2B2B3
330
2B2B5
102
}
330
18
100
AcDbEntity
  8
Modules
100
AcDbCircle
 10
131.3430034925692
 20
195.7251459631844
 30
0.0
 40
8.00002255446822
  0
CIRCLE
  5
2B2A3
102
{ACAD_REACTORS
330
2B2B3
330
2B2B5
102
}
330
18
100
AcDbEntity
  8
Modules
100
AcDbCircle
 10
127.3930034965193
 20
195.7061459631844
 30
0.0
 40
1.29999999870013
  0
CIRCLE
  5
2B2A4
102
{ACAD_REACTORS
330
2B2B3
330
2B2B5
102
}
330
18
100
AcDbEntity
  8
Modules
100
AcDbCircle
 10
131.3430034925692
 20
199.7561459591345
 30
0.0
 40
1.29999999870013
  0
CIRCLE
  5
2B2A5
102
{ACAD_REACTORS
330
2B2B3
330
2B2B5
102
}
330
18
100
AcDbEntity
  8
Modules
100
AcDbCircle
 10
131.3430034925692
 20
191.6561459672344
 30
0.0
 40
1.29999999870013
  0
CIRCLE
  5
2B2A6
102
{ACAD_REACTORS
330
2B2B3
330
2B2B5
102
}
330
18
100
AcDbEntity
  8
Modules
100
AcDbCircle
 10
121.4435085658571
 20
185.8066510364721
 30
0.0
 40
2.75
  0
LWPOLYLINE
  5
2B2A7
102
{ACAD_REACTORS
330
2B2B3
330
2B2B5
102
}
330
18
100
AcDbEntity
  8
Modules
100
AcDbPolyline
 90
        6
 70
     1
 43
0.0
 10
120.8084232697485
 20
186.9066510364721
 10
120.1733379736399
 20
185.8066510364721
 10
120.8084232697485
 20
184.7066510364721
 10
122.0785938619656
 20
184.7066510364721
 10
122.7136791580742
 20
185.8066510364721
 10
122.0785938619656
 20
186.9066510364721
  0
CIRCLE
  5
2B2A8
102
{ACAD_REACTORS
330
2B2B3
330
2B2B6
102
}
330
18
100
AcDbEntity
  8
Modules
100
AcDbCircle
 10
119.2685085684574
 20
177.6256408898965
 30
0.0
 40
1.0
  0
CIRCLE
  5
2B2A9
102
{ACAD_REACTORS
330
2B2B3
330
2B2B6
102
}
330
18
100
AcDbEntity
  8
Modules
100
AcDbCircle
 10
131.3430034925692
 20
170.7251459631844
 30
0.0
 40
11.1
  0
CIRCLE
  5
2B2AA
102
{ACAD_REACTORS
330
2B2B3
330
2B2B6
102
}
330
18
100
AcDbEntity
  8
Modules
100
AcDbCircle
 10
131.3430034925692
 20
170.7251459631844
 30
0.0
 40
9.75
  0
CIRCLE
  5
2B2AB
102
{ACAD_REACTORS
330
2B2B3
330
2B2B6
102
}
330
18
100
AcDbEntity
  8
Modules
100
AcDbCircle
 10
141.2430034826693
 20
180.6251459532843
 30
0.0
 40
2.75
  0
LWPOLYLINE
  5
2B2AC
102
{ACAD_REACTORS
330
2B2B3
330
2B2B6
102
}
330
18
100
AcDbEntity
  8
Modules
100
AcDbPolyline
 90
        6
 70
     1
 43
0.0
 10
140.6079181865607
 20
181.7251459532844
 10
139.9728328904521
 20
180.6251459532843
 10
140.6079181865607
 20
179.5251459532843
 10
141.8780887787778
 20
179.5251459532843
 10
142.5131740748864
 20
180.6251459532843
 10
141.8780887787778
 20
181.7251459532844
  0
CIRCLE
  5
2B2AD
102
{ACAD_REACTORS
330
2B2B3
330
2B2B6
102
}
330
18
100
AcDbEntity
  8
Modules
100
AcDbCircle
 10
131.3430034925692
 20
170.7251459631844
 30
0.0
 40
8.00002255446822
  0
CIRCLE
  5
2B2AE
102
{ACAD_REACTORS
330
2B2B3
330
2B2B6
102
}
330
18
100
AcDbEntity
  8
Modules
100
AcDbCircle
 10
127.3930034965193
 20
170.7061459631844
 30
0.0
 40
1.29999999870013
  0
CIRCLE
  5
2B2AF
102
{ACAD_REACTORS
330
2B2B3
330
2B2B6
102
}
330
18
100
AcDbEntity
  8
Modules
100
AcDbCircle
 10
131.3430034925692
 20
174.7561459591344
 30
0.0
 40
1.29999999870013
  0
CIRCLE
  5
2B2B0
102
{ACAD_REACTORS
330
2B2B3
330
2B2B6
102
}
330
18
100
AcDbEntity
  8
Modules
100
AcDbCircle
 10
131.3430034925692
 20
166.6561459672344
 30
0.0
 40
1.29999999870013
  0
CIRCLE
  5
2B2B1
102
{ACAD_REACTORS
330
2B2B3
330
2B2B6
102
}
330
18
100
AcDbEntity
  8
Modules
100
AcDbCircle
 10
121.4435085658571
 20
160.806651036472
 30
0.0
 40
2.75
  0
LWPOLYLINE
  5
2B2B2
102
{ACAD_REACTORS
330
2B2B3
330
2B2B6
102
}
330
18
100
AcDbEntity
  8
Modules
100
AcDbPolyline
 90
        6
 70
     1
 43
0.0
 10
120.8084232697485
 20
161.906651036472
 10
120.1733379736399
 20
160.806651036472
 10
120.8084232697485
 20
159.706651036472
 10
122.0785938619656
 20
159.706651036472
 10
122.7136791580742
 20
160.806651036472
 10
122.0785938619656
 20
161.906651036472
  0
POINT
  5
2B2B8
102
{ACAD_REACTORS
330
2B2EA
102
}
330
18
100
AcDbEntity
  8
Modules
100
AcDbPoint
 10
175.5885085684571
 20
271.8446408898966
 30
0.0
  0
CIRCLE
  5
2B2B9
102
{ACAD_REACTORS
330
2B2EA
330
2B2EE
102
}
330
18
100
AcDbEntity
  8
Modules
100
AcDbCircle
 10
149.7485085684574
 20
252.6446408898966
 30
0.0
 40
1.0
  0
CIRCLE
  5
2B2BA
102
{ACAD_REACTORS
330
2B2EA
330
2B2EE
102
}
330
18
100
AcDbEntity
  8
Modules
100
AcDbCircle
 10
161.8230034925692
 20
245.7441459631844
 30
0.0
 40
11.1
  0
CIRCLE
  5
2B2BB
102
{ACAD_REACTORS
330
2B2EA
330
2B2EE
102
}
330
18
100
AcDbEntity
  8
Modules
100
AcDbCircle
 10
161.8230034925692
 20
245.7441459631844
 30
0.0
 40
9.75
  0
LWPOLYLINE
  5
2B2BC
102
{ACAD_REACTORS
330
2B2EA
102
}
330
18
100
AcDbEntity
  8
Modules
100
AcDbPolyline
 90
        4
 70
     1
 43
0.0
 10
145.4485085684566
 20
271.8446408898966
 10
175.5885085684571
 20
271.8446408898966
 10
175.5885085684571
 20
143.4446408898966
 10
145.4485085684566
 20
143.4446408898966
  0
CIRCLE
  5
2B2BD
102
{ACAD_REACTORS
330
2B2EA
102
}
330
18
100
AcDbEntity
  8
Modules
100
AcDbCircle
 10
158.0285085684572
 20
268.8446408898966
 30
0.0
 40
2.45
  0
LWPOLYLINE
  5
2B2BE
102
{ACAD_REACTORS
330
2B2EA
102
}
330
18
100
AcDbEntity
  8
Modules
100
AcDbPolyline
 90
        6
 70
     1
 43
0.0
 10
157.3934232723486
 20
269.9446408898966
 10
156.75833797624
 20
268.8446408898966
 10
157.3934232723486
 20
267.7446408898966
 10
158.6635938645658
 20
267.7446408898966
 10
159.2986791606744
 20
268.8446408898966
 10
158.6635938645658
 20
269.9446408898966
  0
CIRCLE
  5
2B2BF
102
{ACAD_REACTORS
330
2B2EA
330
2B2EE
102
}
330
18
100
AcDbEntity
  8
Modules
100
AcDbCircle
 10
171.7230034826692
 20
255.6441459532844
 30
0.0
 40
2.75
  0
LWPOLYLINE
  5
2B2C0
102
{ACAD_REACTORS
330
2B2EA
330
2B2EE
102
}
330
18
100
AcDbEntity
  8
Modules
100
AcDbPolyline
 90
        6
 70
     1
 43
0.0
 10
171.0879181865607
 20
256.7441459532844
 10
170.4528328904521
 20
255.6441459532844
 10
171.0879181865607
 20
254.5441459532844
 10
172.3580887787778
 20
254.5441459532844
 10
172.9931740748864
 20
255.6441459532844
 10
172.3580887787778
 20
256.7441459532844
  0
CIRCLE
  5
2B2C1
102
{ACAD_REACTORS
330
2B2EA
330
2B2EE
102
}
330
18
100
AcDbEntity
  8
Modules
100
AcDbCircle
 10
161.8230034925692
 20
245.7441459631844
 30
0.0
 40
8.00002255446822
  0
CIRCLE
  5
2B2C2
102
{ACAD_REACTORS
330
2B2EA
330
2B2EE
102
}
330
18
100
AcDbEntity
  8
Modules
100
AcDbCircle
 10
157.8730034965193
 20
245.7251459631844
 30
0.0
 40
1.29999999870013
  0
CIRCLE
  5
2B2C3
102
{ACAD_REACTORS
330
2B2EA
330
2B2EE
102
}
330
18
100
AcDbEntity
  8
Modules
100
AcDbCircle
 10
161.8230034925692
 20
249.7751459591345
 30
0.0
 40
1.29999999870013
  0
CIRCLE
  5
2B2C4
102
{ACAD_REACTORS
330
2B2EA
330
2B2EE
102
}
330
18
100
AcDbEntity
  8
Modules
100
AcDbCircle
 10
161.8230034925692
 20
241.6751459672345
 30
0.0
 40
1.29999999870013
  0
CIRCLE
  5
2B2C5
102
{ACAD_REACTORS
330
2B2EA
330
2B2EE
102
}
330
18
100
AcDbEntity
  8
Modules
100
AcDbCircle
 10
151.9235085658571
 20
235.8256510364721
 30
0.0
 40
2.75
  0
LWPOLYLINE
  5
2B2C6
102
{ACAD_REACTORS
330
2B2EA
330
2B2EE
102
}
330
18
100
AcDbEntity
  8
Modules
100
AcDbPolyline
 90
        6
 70
     1
 43
0.0
 10
151.2884232697485
 20
236.9256510364721
 10
150.6533379736399
 20
235.8256510364721
 10
151.2884232697485
 20
234.7256510364721
 10
152.5585938619657
 20
234.7256510364721
 10
153.1936791580742
 20
235.8256510364721
 10
152.5585938619657
 20
236.9256510364721
  0
CIRCLE
  5
2B2C7
102
{ACAD_REACTORS
330
2B2EA
102
}
330
18
100
AcDbEntity
  8
Modules
100
AcDbCircle
 10
158.0285085684571
 20
146.4446408898966
 30
0.0
 40
2.45
  0
LWPOLYLINE
  5
2B2C8
102
{ACAD_REACTORS
330
2B2EA
102
}
330
18
100
AcDbEntity
  8
Modules
100
AcDbPolyline
 90
        6
 70
     1
 43
0.0
 10
157.3934232723485
 20
147.5446408898966
 10
156.7583379762399
 20
146.4446408898966
 10
157.3934232723485
 20
145.3446408898966
 10
158.6635938645657
 20
145.3446408898966
 10
159.2986791606743
 20
146.4446408898966
 10
158.6635938645657
 20
147.5446408898966
  0
CIRCLE
  5
2B2C9
102
{ACAD_REACTORS
330
2B2EA
330
2B2EB
102
}
330
18
100
AcDbEntity
  8
Modules
100
AcDbCircle
 10
149.7485085684574
 20
227.6256408898965
 30
0.0
 40
1.0
  0
CIRCLE
  5
2B2CA
102
{ACAD_REACTORS
330
2B2EA
330
2B2EB
102
}
330
18
100
AcDbEntity
  8
Modules
100
AcDbCircle
 10
161.8230034925692
 20
220.7251459631844
 30
0.0
 40
11.1
  0
CIRCLE
  5
2B2CB
102
{ACAD_REACTORS
330
2B2EA
330
2B2EB
102
}
330
18
100
AcDbEntity
  8
Modules
100
AcDbCircle
 10
161.8230034925692
 20
220.7251459631844
 30
0.0
 40
9.75
  0
CIRCLE
  5
2B2CC
102
{ACAD_REACTORS
330
2B2EA
330
2B2EB
102
}
330
18
100
AcDbEntity
  8
Modules
100
AcDbCircle
 10
171.7230034826692
 20
230.6251459532843
 30
0.0
 40
2.75
  0
LWPOLYLINE
  5
2B2CD
102
{ACAD_REACTORS
330
2B2EA
330
2B2EB
102
}
330
18
100
AcDbEntity
  8
Modules
100
AcDbPolyline
 90
        6
 70
     1
 43
0.0
 10
171.0879181865607
 20
231.7251459532844
 10
170.4528328904521
 20
230.6251459532843
 10
171.0879181865607
 20
229.5251459532843
 10
172.3580887787778
 20
229.5251459532843
 10
172.9931740748864
 20
230.6251459532843
 10
172.3580887787778
 20
231.7251459532844
  0
CIRCLE
  5
2B2CE
102
{ACAD_REACTORS
330
2B2EA
330
2B2EB
102
}
330
18
100
AcDbEntity
  8
Modules
100
AcDbCircle
 10
161.8230034925692
 20
220.7251459631844
 30
0.0
 40
8.00002255446822
  0
CIRCLE
  5
2B2CF
102
{ACAD_REACTORS
330
2B2EA
330
2B2EB
102
}
330
18
100
AcDbEntity
  8
Modules
100
AcDbCircle
 10
157.8730034965193
 20
220.7061459631844
 30
0.0
 40
1.29999999870013
  0
CIRCLE
  5
2B2D0
102
{ACAD_REACTORS
330
2B2EA
330
2B2EB
102
}
330
18
100
AcDbEntity
  8
Modules
100
AcDbCircle
 10
161.8230034925692
 20
224.7561459591345
 30
0.0
 40
1.29999999870013
  0
CIRCLE
  5
2B2D1
102
{ACAD_REACTORS
330
2B2EA
330
2B2EB
102
}
330
18
100
AcDbEntity
  8
Modules
100
AcDbCircle
 10
161.8230034925692
 20
216.6561459672344
 30
0.0
 40
1.29999999870013
  0
CIRCLE
  5
2B2D2
102
{ACAD_REACTORS
330
2B2EA
330
2B2EB
102
}
330
18
100
AcDbEntity
  8
Modules
100
AcDbCircle
 10
151.9235085658571
 20
210.806651036472
 30
0.0
 40
2.75
  0
LWPOLYLINE
  5
2B2D3
102
{ACAD_REACTORS
330
2B2EA
330
2B2EB
102
}
330
18
100
AcDbEntity
  8
Modules
100
AcDbPolyline
 90
        6
 70
     1
 43
0.0
 10
151.2884232697485
 20
211.906651036472
 10
150.6533379736399
 20
210.806651036472
 10
151.2884232697485
 20
209.706651036472
 10
152.5585938619657
 20
209.706651036472
 10
153.1936791580742
 20
210.806651036472
 10
152.5585938619657
 20
211.906651036472
  0
CIRCLE
  5
2B2D4
102
{ACAD_REACTORS
330
2B2EA
330
2B2EC
102
}
330
18
100
AcDbEntity
  8
Modules
100
AcDbCircle
 10
149.7485085684574
 20
202.6256408898966
 30
0.0
 40
1.0
  0
CIRCLE
  5
2B2D5
102
{ACAD_REACTORS
330
2B2EA
330
2B2EC
102
}
330
18
100
AcDbEntity
  8
Modules
100
AcDbCircle
 10
161.8230034925692
 20
195.7251459631844
 30
0.0
 40
11.1
  0
CIRCLE
  5
2B2D6
102
{ACAD_REACTORS
330
2B2EA
330
2B2EC
102
}
330
18
100
AcDbEntity
  8
Modules
100
AcDbCircle
 10
161.8230034925692
 20
195.7251459631844
 30
0.0
 40
9.75
  0
CIRCLE
  5
2B2D7
102
{ACAD_REACTORS
330
2B2EA
330
2B2EC
102
}
330
18
100
AcDbEntity
  8
Modules
100
AcDbCircle
 10
171.7230034826692
 20
205.6251459532844
 30
0.0
 40
2.75
  0
LWPOLYLINE
  5
2B2D8
102
{ACAD_REACTORS
330
2B2EA
330
2B2EC
102
}
330
18
100
AcDbEntity
  8
Modules
100
AcDbPolyline
 90
        6
 70
     1
 43
0.0
 10
171.0879181865607
 20
206.7251459532844
 10
170.4528328904521
 20
205.6251459532844
 10
171.0879181865607
 20
204.5251459532844
 10
172.3580887787778
 20
204.5251459532844
 10
172.9931740748864
 20
205.6251459532844
 10
172.3580887787778
 20
206.7251459532844
  0
CIRCLE
  5
2B2D9
102
{ACAD_REACTORS
330
2B2EA
330
2B2EC
102
}
330
18
100
AcDbEntity
  8
Modules
100
AcDbCircle
 10
161.8230034925692
 20
195.7251459631844
 30
0.0
 40
8.00002255446822
  0
CIRCLE
  5
2B2DA
102
{ACAD_REACTORS
330
2B2EA
330
2B2EC
102
}
330
18
100
AcDbEntity
  8
Modules
100
AcDbCircle
 10
157.8730034965193
 20
195.7061459631844
 30
0.0
 40
1.29999999870013
  0
CIRCLE
  5
2B2DB
102
{ACAD_REACTORS
330
2B2EA
330
2B2EC
102
}
330
18
100
AcDbEntity
  8
Modules
100
AcDbCircle
 10
161.8230034925692
 20
199.7561459591345
 30
0.0
 40
1.29999999870013
  0
CIRCLE
  5
2B2DC
102
{ACAD_REACTORS
330
2B2EA
330
2B2EC
102
}
330
18
100
AcDbEntity
  8
Modules
100
AcDbCircle
 10
161.8230034925692
 20
191.6561459672344
 30
0.0
 40
1.29999999870013
  0
CIRCLE
  5
2B2DD
102
{ACAD_REACTORS
330
2B2EA
330
2B2EC
102
}
330
18
100
AcDbEntity
  8
Modules
100
AcDbCircle
 10
151.9235085658571
 20
185.8066510364721
 30
0.0
 40
2.75
  0
LWPOLYLINE
  5
2B2DE
102
{ACAD_REACTORS
330
2B2EA
330
2B2EC
102
}
330
18
100
AcDbEntity
  8
Modules
100
AcDbPolyline
 90
        6
 70
     1
 43
0.0
 10
151.2884232697485
 20
186.9066510364721
 10
150.6533379736399
 20
185.8066510364721
 10
151.2884232697485
 20
184.7066510364721
 10
152.5585938619657
 20
184.7066510364721
 10
153.1936791580742
 20
185.8066510364721
 10
152.5585938619657
 20
186.9066510364721
  0
CIRCLE
  5
2B2DF
102
{ACAD_REACTORS
330
2B2EA
330
2B2ED
102
}
330
18
100
AcDbEntity
  8
Modules
100
AcDbCircle
 10
149.7485085684574
 20
177.6256408898965
 30
0.0
 40
1.0
  0
CIRCLE
  5
2B2E0
102
{ACAD_REACTORS
330
2B2EA
330
2B2ED
102
}
330
18
100
AcDbEntity
  8
Modules
100
AcDbCircle
 10
161.8230034925692
 20
170.7251459631844
 30
0.0
 40
11.1
  0
CIRCLE
  5
2B2E1
102
{ACAD_REACTORS
330
2B2EA
330
2B2ED
102
}
330
18
100
AcDbEntity
  8
Modules
100
AcDbCircle
 10
161.8230034925692
 20
170.7251459631844
 30
0.0
 40
9.75
  0
CIRCLE
  5
2B2E2
102
{ACAD_REACTORS
330
2B2EA
330
2B2ED
102
}
330
18
100
AcDbEntity
  8
Modules
100
AcDbCircle
 10
171.7230034826692
 20
180.6251459532843
 30
0.0
 40
2.75
  0
LWPOLYLINE
  5
2B2E3
102
{ACAD_REACTORS
330
2B2EA
330
2B2ED
102
}
330
18
100
AcDbEntity
  8
Modules
100
AcDbPolyline
 90
        6
 70
     1
 43
0.0
 10
171.0879181865607
 20
181.7251459532844
 10
170.4528328904521
 20
180.6251459532843
 10
171.0879181865607
 20
179.5251459532843
 10
172.3580887787778
 20
179.5251459532843
 10
172.9931740748864
 20
180.6251459532843
 10
172.3580887787778
 20
181.7251459532844
  0
CIRCLE
  5
2B2E4
102
{ACAD_REACTORS
330
2B2EA
330
2B2ED
102
}
330
18
100
AcDbEntity
  8
Modules
100
AcDbCircle
 10
161.8230034925692
 20
170.7251459631844
 30
0.0
 40
8.00002255446822
  0
CIRCLE
  5
2B2E5
102
{ACAD_REACTORS
330
2B2EA
330
2B2ED
102
}
330
18
100
AcDbEntity
  8
Modules
100
AcDbCircle
 10
157.8730034965193
 20
170.7061459631844
 30
0.0
 40
1.29999999870013
  0
CIRCLE
  5
2B2E6
102
{ACAD_REACTORS
330
2B2EA
330
2B2ED
102
}
330
18
100
AcDbEntity
  8
Modules
100
AcDbCircle
 10
161.8230034925692
 20
174.7561459591344
 30
0.0
 40
1.29999999870013
  0
CIRCLE
  5
2B2E7
102
{ACAD_REACTORS
330
2B2EA
330
2B2ED
102
}
330
18
100
AcDbEntity
  8
Modules
100
AcDbCircle
 10
161.8230034925692
 20
166.6561459672344
 30
0.0
 40
1.29999999870013
  0
CIRCLE
  5
2B2E8
102
{ACAD_REACTORS
330
2B2EA
330
2B2ED
102
}
330
18
100
AcDbEntity
  8
Modules
100
AcDbCircle
 10
151.9235085658571
 20
160.806651036472
 30
0.0
 40
2.75
  0
LWPOLYLINE
  5
2B2E9
102
{ACAD_REACTORS
330
2B2EA
330
2B2ED
102
}
330
18
100
AcDbEntity
  8
Modules
100
AcDbPolyline
 90
        6
 70
     1
 43
0.0
 10
151.2884232697485
 20
161.906651036472
 10
150.6533379736399
 20
160.806651036472
 10
151.2884232697485
 20
159.706651036472
 10
152.5585938619657
 20
159.706651036472
 10
153.1936791580742
 20
160.806651036472
 10
152.5585938619657
 20
161.906651036472
  0
POINT
  5
2B2EF
102
{ACAD_REACTORS
330
2B321
102
}
330
18
100
AcDbEntity
  8
Modules
100
AcDbPoint
 10
206.0685085684571
 20
271.8446408898966
 30
0.0
  0
CIRCLE
  5
2B2F0
102
{ACAD_REACTORS
330
2B321
330
2B325
102
}
330
18
100
AcDbEntity
  8
Modules
100
AcDbCircle
 10
180.2285085684574
 20
252.6446408898966
 30
0.0
 40
1.0
  0
CIRCLE
  5
2B2F1
102
{ACAD_REACTORS
330
2B321
330
2B325
102
}
330
18
100
AcDbEntity
  8
Modules
100
AcDbCircle
 10
192.3030034925692
 20
245.7441459631844
 30
0.0
 40
11.1
  0
CIRCLE
  5
2B2F2
102
{ACAD_REACTORS
330
2B321
330
2B325
102
}
330
18
100
AcDbEntity
  8
Modules
100
AcDbCircle
 10
192.3030034925692
 20
245.7441459631844
 30
0.0
 40
9.75
  0
LWPOLYLINE
  5
2B2F3
102
{ACAD_REACTORS
330
2B321
102
}
330
18
100
AcDbEntity
  8
Modules
100
AcDbPolyline
 90
        4
 70
     1
 43
0.0
 10
175.9285085684566
 20
271.8446408898966
 10
206.0685085684571
 20
271.8446408898966
 10
206.0685085684571
 20
143.4446408898966
 10
175.9285085684566
 20
143.4446408898966
  0
CIRCLE
  5
2B2F4
102
{ACAD_REACTORS
330
2B321
102
}
330
18
100
AcDbEntity
  8
Modules
100
AcDbCircle
 10
188.5085085684572
 20
268.8446408898966
 30
0.0
 40
2.45
  0
LWPOLYLINE
  5
2B2F5
102
{ACAD_REACTORS
330
2B321
102
}
330
18
100
AcDbEntity
  8
Modules
100
AcDbPolyline
 90
        6
 70
     1
 43
0.0
 10
187.8734232723486
 20
269.9446408898966
 10
187.2383379762401
 20
268.8446408898966
 10
187.8734232723486
 20
267.7446408898966
 10
189.1435938645658
 20
267.7446408898966
 10
189.7786791606744
 20
268.8446408898966
 10
189.1435938645658
 20
269.9446408898966
  0
CIRCLE
  5
2B2F6
102
{ACAD_REACTORS
330
2B321
330
2B325
102
}
330
18
100
AcDbEntity
  8
Modules
100
AcDbCircle
 10
202.2030034826693
 20
255.6441459532844
 30
0.0
 40
2.75
  0
LWPOLYLINE
  5
2B2F7
102
{ACAD_REACTORS
330
2B321
330
2B325
102
}
330
18
100
AcDbEntity
  8
Modules
100
AcDbPolyline
 90
        6
 70
     1
 43
0.0
 10
201.5679181865607
 20
256.7441459532844
 10
200.9328328904521
 20
255.6441459532844
 10
201.5679181865607
 20
254.5441459532844
 10
202.8380887787779
 20
254.5441459532844
 10
203.4731740748865
 20
255.6441459532844
 10
202.8380887787779
 20
256.7441459532844
  0
CIRCLE
  5
2B2F8
102
{ACAD_REACTORS
330
2B321
330
2B325
102
}
330
18
100
AcDbEntity
  8
Modules
100
AcDbCircle
 10
192.3030034925692
 20
245.7441459631844
 30
0.0
 40
8.00002255446822
  0
CIRCLE
  5
2B2F9
102
{ACAD_REACTORS
330
2B321
330
2B325
102
}
330
18
100
AcDbEntity
  8
Modules
100
AcDbCircle
 10
188.3530034965193
 20
245.7251459631844
 30
0.0
 40
1.29999999870013
  0
CIRCLE
  5
2B2FA
102
{ACAD_REACTORS
330
2B321
330
2B325
102
}
330
18
100
AcDbEntity
  8
Modules
100
AcDbCircle
 10
192.3030034925692
 20
249.7751459591345
 30
0.0
 40
1.29999999870013
  0
CIRCLE
  5
2B2FB
102
{ACAD_REACTORS
330
2B321
330
2B325
102
}
330
18
100
AcDbEntity
  8
Modules
100
AcDbCircle
 10
192.3030034925692
 20
241.6751459672345
 30
0.0
 40
1.29999999870013
  0
CIRCLE
  5
2B2FC
102
{ACAD_REACTORS
330
2B321
330
2B325
102
}
330
18
100
AcDbEntity
  8
Modules
100
AcDbCircle
 10
182.4035085658571
 20
235.8256510364721
 30
0.0
 40
2.75
  0
LWPOLYLINE
  5
2B2FD
102
{ACAD_REACTORS
330
2B321
330
2B325
102
}
330
18
100
AcDbEntity
  8
Modules
100
AcDbPolyline
 90
        6
 70
     1
 43
0.0
 10
181.7684232697485
 20
236.9256510364721
 10
181.1333379736399
 20
235.8256510364721
 10
181.7684232697485
 20
234.7256510364721
 10
183.0385938619656
 20
234.7256510364721
 10
183.6736791580742
 20
235.8256510364721
 10
183.0385938619656
 20
236.9256510364721
  0
CIRCLE
  5
2B2FE
102
{ACAD_REACTORS
330
2B321
102
}
330
18
100
AcDbEntity
  8
Modules
100
AcDbCircle
 10
188.5085085684571
 20
146.4446408898966
 30
0.0
 40
2.45
  0
LWPOLYLINE
  5
2B2FF
102
{ACAD_REACTORS
330
2B321
102
}
330
18
100
AcDbEntity
  8
Modules
100
AcDbPolyline
 90
        6
 70
     1
 43
0.0
 10
187.8734232723485
 20
147.5446408898966
 10
187.2383379762399
 20
146.4446408898966
 10
187.8734232723485
 20
145.3446408898966
 10
189.1435938645657
 20
145.3446408898966
 10
189.7786791606743
 20
146.4446408898966
 10
189.1435938645657
 20
147.5446408898966
  0
CIRCLE
  5
2B300
102
{ACAD_REACTORS
330
2B321
330
2B322
102
}
330
18
100
AcDbEntity
  8
Modules
100
AcDbCircle
 10
180.2285085684574
 20
227.6256408898965
 30
0.0
 40
1.0
  0
CIRCLE
  5
2B301
102
{ACAD_REACTORS
330
2B321
330
2B322
102
}
330
18
100
AcDbEntity
  8
Modules
100
AcDbCircle
 10
192.3030034925692
 20
220.7251459631844
 30
0.0
 40
11.1
  0
CIRCLE
  5
2B302
102
{ACAD_REACTORS
330
2B321
330
2B322
102
}
330
18
100
AcDbEntity
  8
Modules
100
AcDbCircle
 10
192.3030034925692
 20
220.7251459631844
 30
0.0
 40
9.75
  0
CIRCLE
  5
2B303
102
{ACAD_REACTORS
330
2B321
330
2B322
102
}
330
18
100
AcDbEntity
  8
Modules
100
AcDbCircle
 10
202.2030034826693
 20
230.6251459532843
 30
0.0
 40
2.75
  0
LWPOLYLINE
  5
2B304
102
{ACAD_REACTORS
330
2B321
330
2B322
102
}
330
18
100
AcDbEntity
  8
Modules
100
AcDbPolyline
 90
        6
 70
     1
 43
0.0
 10
201.5679181865607
 20
231.7251459532844
 10
200.9328328904521
 20
230.6251459532843
 10
201.5679181865607
 20
229.5251459532843
 10
202.8380887787779
 20
229.5251459532843
 10
203.4731740748865
 20
230.6251459532843
 10
202.8380887787779
 20
231.7251459532844
  0
CIRCLE
  5
2B305
102
{ACAD_REACTORS
330
2B321
330
2B322
102
}
330
18
100
AcDbEntity
  8
Modules
100
AcDbCircle
 10
192.3030034925692
 20
220.7251459631844
 30
0.0
 40
8.00002255446822
  0
CIRCLE
  5
2B306
102
{ACAD_REACTORS
330
2B321
330
2B322
102
}
330
18
100
AcDbEntity
  8
Modules
100
AcDbCircle
 10
188.3530034965193
 20
220.7061459631844
 30
0.0
 40
1.29999999870013
  0
CIRCLE
  5
2B307
102
{ACAD_REACTORS
330
2B321
330
2B322
102
}
330
18
100
AcDbEntity
  8
Modules
100
AcDbCircle
 10
192.3030034925692
 20
224.7561459591345
 30
0.0
 40
1.29999999870013
  0
CIRCLE
  5
2B308
102
{ACAD_REACTORS
330
2B321
330
2B322
102
}
330
18
100
AcDbEntity
  8
Modules
100
AcDbCircle
 10
192.3030034925692
 20
216.6561459672344
 30
0.0
 40
1.29999999870013
  0
CIRCLE
  5
2B309
102
{ACAD_REACTORS
330
2B321
330
2B322
102
}
330
18
100
AcDbEntity
  8
Modules
100
AcDbCircle
 10
182.4035085658571
 20
210.806651036472
 30
0.0
 40
2.75
  0
LWPOLYLINE
  5
2B30A
102
{ACAD_REACTORS
330
2B321
330
2B322
102
}
330
18
100
AcDbEntity
  8
Modules
100
AcDbPolyline
 90
        6
 70
     1
 43
0.0
 10
181.7684232697485
 20
211.906651036472
 10
181.1333379736399
 20
210.806651036472
 10
181.7684232697485
 20
209.706651036472
 10
183.0385938619656
 20
209.706651036472
 10
183.6736791580742
 20
210.806651036472
 10
183.0385938619656
 20
211.906651036472
  0
CIRCLE
  5
2B30B
102
{ACAD_REACTORS
330
2B321
330
2B323
102
}
330
18
100
AcDbEntity
  8
Modules
100
AcDbCircle
 10
180.2285085684574
 20
202.6256408898966
 30
0.0
 40
1.0
  0
CIRCLE
  5
2B30C
102
{ACAD_REACTORS
330
2B321
330
2B323
102
}
330
18
100
AcDbEntity
  8
Modules
100
AcDbCircle
 10
192.3030034925692
 20
195.7251459631844
 30
0.0
 40
11.1
  0
CIRCLE
  5
2B30D
102
{ACAD_REACTORS
330
2B321
330
2B323
102
}
330
18
100
AcDbEntity
  8
Modules
100
AcDbCircle
 10
192.3030034925692
 20
195.7251459631844
 30
0.0
 40
9.75
  0
CIRCLE
  5
2B30E
102
{ACAD_REACTORS
330
2B321
330
2B323
102
}
330
18
100
AcDbEntity
  8
Modules
100
AcDbCircle
 10
202.2030034826693
 20
205.6251459532844
 30
0.0
 40
2.75
  0
LWPOLYLINE
  5
2B30F
102
{ACAD_REACTORS
330
2B321
330
2B323
102
}
330
18
100
AcDbEntity
  8
Modules
100
AcDbPolyline
 90
        6
 70
     1
 43
0.0
 10
201.5679181865607
 20
206.7251459532844
 10
200.9328328904521
 20
205.6251459532844
 10
201.5679181865607
 20
204.5251459532844
 10
202.8380887787779
 20
204.5251459532844
 10
203.4731740748865
 20
205.6251459532844
 10
202.8380887787779
 20
206.7251459532844
  0
CIRCLE
  5
2B310
102
{ACAD_REACTORS
330
2B321
330
2B323
102
}
330
18
100
AcDbEntity
  8
Modules
100
AcDbCircle
 10
192.3030034925692
 20
195.7251459631844
 30
0.0
 40
8.00002255446822
  0
CIRCLE
  5
2B311
102
{ACAD_REACTORS
330
2B321
330
2B323
102
}
330
18
100
AcDbEntity
  8
Modules
100
AcDbCircle
 10
188.3530034965193
 20
195.7061459631844
 30
0.0
 40
1.29999999870013
  0
CIRCLE
  5
2B312
102
{ACAD_REACTORS
330
2B321
330
2B323
102
}
330
18
100
AcDbEntity
  8
Modules
100
AcDbCircle
 10
192.3030034925692
 20
199.7561459591345
 30
0.0
 40
1.29999999870013
  0
CIRCLE
  5
2B313
102
{ACAD_REACTORS
330
2B321
330
2B323
102
}
330
18
100
AcDbEntity
  8
Modules
100
AcDbCircle
 10
192.3030034925692
 20
191.6561459672344
 30
0.0
 40
1.29999999870013
  0
CIRCLE
  5
2B314
102
{ACAD_REACTORS
330
2B321
330
2B323
102
}
330
18
100
AcDbEntity
  8
Modules
100
AcDbCircle
 10
182.4035085658571
 20
185.8066510364721
 30
0.0
 40
2.75
  0
LWPOLYLINE
  5
2B315
102
{ACAD_REACTORS
330
2B321
330
2B323
102
}
330
18
100
AcDbEntity
  8
Modules
100
AcDbPolyline
 90
        6
 70
     1
 43
0.0
 10
181.7684232697485
 20
186.9066510364721
 10
181.1333379736399
 20
185.8066510364721
 10
181.7684232697485
 20
184.7066510364721
 10
183.0385938619656
 20
184.7066510364721
 10
183.6736791580742
 20
185.8066510364721
 10
183.0385938619656
 20
186.9066510364721
  0
CIRCLE
  5
2B316
102
{ACAD_REACTORS
330
2B321
330
2B324
102
}
330
18
100
AcDbEntity
  8
Modules
100
AcDbCircle
 10
180.2285085684574
 20
177.6256408898965
 30
0.0
 40
1.0
  0
CIRCLE
  5
2B317
102
{ACAD_REACTORS
330
2B321
330
2B324
102
}
330
18
100
AcDbEntity
  8
Modules
100
AcDbCircle
 10
192.3030034925692
 20
170.7251459631844
 30
0.0
 40
11.1
  0
CIRCLE
  5
2B318
102
{ACAD_REACTORS
330
2B321
330
2B324
102
}
330
18
100
AcDbEntity
  8
Modules
100
AcDbCircle
 10
192.3030034925692
 20
170.7251459631844
 30
0.0
 40
9.75
  0
CIRCLE
  5
2B319
102
{ACAD_REACTORS
330
2B321
330
2B324
102
}
330
18
100
AcDbEntity
  8
Modules
100
AcDbCircle
 10
202.2030034826693
 20
180.6251459532843
 30
0.0
 40
2.75
  0
LWPOLYLINE
  5
2B31A
102
{ACAD_REACTORS
330
2B321
330
2B324
102
}
330
18
100
AcDbEntity
  8
Modules
100
AcDbPolyline
 90
        6
 70
     1
 43
0.0
 10
201.5679181865607
 20
181.7251459532844
 10
200.9328328904521
 20
180.6251459532843
 10
201.5679181865607
 20
179.5251459532843
 10
202.8380887787779
 20
179.5251459532843
 10
203.4731740748865
 20
180.6251459532843
 10
202.8380887787779
 20
181.7251459532844
  0
CIRCLE
  5
2B31B
102
{ACAD_REACTORS
330
2B321
330
2B324
102
}
330
18
100
AcDbEntity
  8
Modules
100
AcDbCircle
 10
192.3030034925692
 20
170.7251459631844
 30
0.0
 40
8.00002255446822
  0
CIRCLE
  5
2B31C
102
{ACAD_REACTORS
330
2B321
330
2B324
102
}
330
18
100
AcDbEntity
  8
Modules
100
AcDbCircle
 10
188.3530034965193
 20
170.7061459631844
 30
0.0
 40
1.29999999870013
  0
CIRCLE
  5
2B31D
102
{ACAD_REACTORS
330
2B321
330
2B324
102
}
330
18
100
AcDbEntity
  8
Modules
100
AcDbCircle
 10
192.3030034925692
 20
174.7561459591344
 30
0.0
 40
1.29999999870013
  0
CIRCLE
  5
2B31E
102
{ACAD_REACTORS
330
2B321
330
2B324
102
}
330
18
100
AcDbEntity
  8
Modules
100
AcDbCircle
 10
192.3030034925692
 20
166.6561459672344
 30
0.0
 40
1.29999999870013
  0
CIRCLE
  5
2B31F
102
{ACAD_REACTORS
330
2B321
330
2B324
102
}
330
18
100
AcDbEntity
  8
Modules
100
AcDbCircle
 10
182.4035085658571
 20
160.806651036472
 30
0.0
 40
2.75
  0
LWPOLYLINE
  5
2B320
102
{ACAD_REACTORS
330
2B321
330
2B324
102
}
330
18
100
AcDbEntity
  8
Modules
100
AcDbPolyline
 90
        6
 70
     1
 43
0.0
 10
181.7684232697485
 20
161.906651036472
 10
181.1333379736399
 20
160.806651036472
 10
181.7684232697485
 20
159.706651036472
 10
183.0385938619656
 20
159.706651036472
 10
183.6736791580742
 20
160.806651036472
 10
183.0385938619656
 20
161.906651036472
  0
POINT
  5
2B326
102
{ACAD_REACTORS
330
2B358
102
}
330
18
100
AcDbEntity
  8
Modules
100
AcDbPoint
 10
236.5485085684571
 20
271.8446408898966
 30
0.0
  0
CIRCLE
  5
2B327
102
{ACAD_REACTORS
330
2B358
330
2B35C
102
}
330
18
100
AcDbEntity
  8
Modules
100
AcDbCircle
 10
210.7085085684574
 20
252.6446408898966
 30
0.0
 40
1.0
  0
CIRCLE
  5
2B328
102
{ACAD_REACTORS
330
2B358
330
2B35C
102
}
330
18
100
AcDbEntity
  8
Modules
100
AcDbCircle
 10
222.7830034925692
 20
245.7441459631844
 30
0.0
 40
11.1
  0
CIRCLE
  5
2B329
102
{ACAD_REACTORS
330
2B358
330
2B35C
102
}
330
18
100
AcDbEntity
  8
Modules
100
AcDbCircle
 10
222.7830034925692
 20
245.7441459631844
 30
0.0
 40
9.75
  0
LWPOLYLINE
  5
2B32A
102
{ACAD_REACTORS
330
2B358
102
}
330
18
100
AcDbEntity
  8
Modules
100
AcDbPolyline
 90
        4
 70
     1
 43
0.0
 10
206.4085085684566
 20
271.8446408898966
 10
236.5485085684571
 20
271.8446408898966
 10
236.5485085684571
 20
143.4446408898966
 10
206.4085085684566
 20
143.4446408898966
  0
CIRCLE
  5
2B32B
102
{ACAD_REACTORS
330
2B358
102
}
330
18
100
AcDbEntity
  8
Modules
100
AcDbCircle
 10
218.9885085684572
 20
268.8446408898966
 30
0.0
 40
2.45
  0
LWPOLYLINE
  5
2B32C
102
{ACAD_REACTORS
330
2B358
102
}
330
18
100
AcDbEntity
  8
Modules
100
AcDbPolyline
 90
        6
 70
     1
 43
0.0
 10
218.3534232723487
 20
269.9446408898966
 10
217.71833797624
 20
268.8446408898966
 10
218.3534232723487
 20
267.7446408898966
 10
219.6235938645658
 20
267.7446408898966
 10
220.2586791606744
 20
268.8446408898966
 10
219.6235938645658
 20
269.9446408898966
  0
CIRCLE
  5
2B32D
102
{ACAD_REACTORS
330
2B358
330
2B35C
102
}
330
18
100
AcDbEntity
  8
Modules
100
AcDbCircle
 10
232.6830034826693
 20
255.6441459532844
 30
0.0
 40
2.75
  0
LWPOLYLINE
  5
2B32E
102
{ACAD_REACTORS
330
2B358
330
2B35C
102
}
330
18
100
AcDbEntity
  8
Modules
100
AcDbPolyline
 90
        6
 70
     1
 43
0.0
 10
232.0479181865607
 20
256.7441459532844
 10
231.4128328904521
 20
255.6441459532844
 10
232.0479181865607
 20
254.5441459532844
 10
233.3180887787778
 20
254.5441459532844
 10
233.9531740748864
 20
255.6441459532844
 10
233.3180887787778
 20
256.7441459532844
  0
CIRCLE
  5
2B32F
102
{ACAD_REACTORS
330
2B358
330
2B35C
102
}
330
18
100
AcDbEntity
  8
Modules
100
AcDbCircle
 10
222.7830034925692
 20
245.7441459631844
 30
0.0
 40
8.00002255446822
  0
CIRCLE
  5
2B330
102
{ACAD_REACTORS
330
2B358
330
2B35C
102
}
330
18
100
AcDbEntity
  8
Modules
100
AcDbCircle
 10
218.8330034965193
 20
245.7251459631844
 30
0.0
 40
1.29999999870013
  0
CIRCLE
  5
2B331
102
{ACAD_REACTORS
330
2B358
330
2B35C
102
}
330
18
100
AcDbEntity
  8
Modules
100
AcDbCircle
 10
222.7830034925692
 20
249.7751459591345
 30
0.0
 40
1.29999999870013
  0
CIRCLE
  5
2B332
102
{ACAD_REACTORS
330
2B358
330
2B35C
102
}
330
18
100
AcDbEntity
  8
Modules
100
AcDbCircle
 10
222.7830034925692
 20
241.6751459672345
 30
0.0
 40
1.29999999870013
  0
CIRCLE
  5
2B333
102
{ACAD_REACTORS
330
2B358
330
2B35C
102
}
330
18
100
AcDbEntity
  8
Modules
100
AcDbCircle
 10
212.8835085658571
 20
235.8256510364721
 30
0.0
 40
2.75
  0
LWPOLYLINE
  5
2B334
102
{ACAD_REACTORS
330
2B358
330
2B35C
102
}
330
18
100
AcDbEntity
  8
Modules
100
AcDbPolyline
 90
        6
 70
     1
 43
0.0
 10
212.2484232697485
 20
236.9256510364721
 10
211.6133379736399
 20
235.8256510364721
 10
212.2484232697485
 20
234.7256510364721
 10
213.5185938619656
 20
234.7256510364721
 10
214.1536791580743
 20
235.8256510364721
 10
213.5185938619656
 20
236.9256510364721
  0
CIRCLE
  5
2B335
102
{ACAD_REACTORS
330
2B358
102
}
330
18
100
AcDbEntity
  8
Modules
100
AcDbCircle
 10
218.9885085684571
 20
146.4446408898966
 30
0.0
 40
2.45
  0
LWPOLYLINE
  5
2B336
102
{ACAD_REACTORS
330
2B358
102
}
330
18
100
AcDbEntity
  8
Modules
100
AcDbPolyline
 90
        6
 70
     1
 43
0.0
 10
218.3534232723486
 20
147.5446408898966
 10
217.71833797624
 20
146.4446408898966
 10
218.3534232723486
 20
145.3446408898966
 10
219.6235938645657
 20
145.3446408898966
 10
220.2586791606743
 20
146.4446408898966
 10
219.6235938645657
 20
147.5446408898966
  0
CIRCLE
  5
2B337
102
{ACAD_REACTORS
330
2B358
330
2B359
102
}
330
18
100
AcDbEntity
  8
Modules
100
AcDbCircle
 10
210.7085085684574
 20
227.6256408898965
 30
0.0
 40
1.0
  0
CIRCLE
  5
2B338
102
{ACAD_REACTORS
330
2B358
330
2B359
102
}
330
18
100
AcDbEntity
  8
Modules
100
AcDbCircle
 10
222.7830034925692
 20
220.7251459631844
 30
0.0
 40
11.1
  0
CIRCLE
  5
2B339
102
{ACAD_REACTORS
330
2B358
330
2B359
102
}
330
18
100
AcDbEntity
  8
Modules
100
AcDbCircle
 10
222.7830034925692
 20
220.7251459631844
 30
0.0
 40
9.75
  0
CIRCLE
  5
2B33A
102
{ACAD_REACTORS
330
2B358
330
2B359
102
}
330
18
100
AcDbEntity
  8
Modules
100
AcDbCircle
 10
232.6830034826693
 20
230.6251459532843
 30
0.0
 40
2.75
  0
LWPOLYLINE
  5
2B33B
102
{ACAD_REACTORS
330
2B358
330
2B359
102
}
330
18
100
AcDbEntity
  8
Modules
100
AcDbPolyline
 90
        6
 70
     1
 43
0.0
 10
232.0479181865607
 20
231.7251459532844
 10
231.4128328904521
 20
230.6251459532843
 10
232.0479181865607
 20
229.5251459532843
 10
233.3180887787778
 20
229.5251459532843
 10
233.9531740748864
 20
230.6251459532843
 10
233.3180887787778
 20
231.7251459532844
  0
CIRCLE
  5
2B33C
102
{ACAD_REACTORS
330
2B358
330
2B359
102
}
330
18
100
AcDbEntity
  8
Modules
100
AcDbCircle
 10
222.7830034925692
 20
220.7251459631844
 30
0.0
 40
8.00002255446822
  0
CIRCLE
  5
2B33D
102
{ACAD_REACTORS
330
2B358
330
2B359
102
}
330
18
100
AcDbEntity
  8
Modules
100
AcDbCircle
 10
218.8330034965193
 20
220.7061459631844
 30
0.0
 40
1.29999999870013
  0
CIRCLE
  5
2B33E
102
{ACAD_REACTORS
330
2B358
330
2B359
102
}
330
18
100
AcDbEntity
  8
Modules
100
AcDbCircle
 10
222.7830034925692
 20
224.7561459591345
 30
0.0
 40
1.29999999870013
  0
CIRCLE
  5
2B33F
102
{ACAD_REACTORS
330
2B358
330
2B359
102
}
330
18
100
AcDbEntity
  8
Modules
100
AcDbCircle
 10
222.7830034925692
 20
216.6561459672344
 30
0.0
 40
1.29999999870013
  0
CIRCLE
  5
2B340
102
{ACAD_REACTORS
330
2B358
330
2B359
102
}
330
18
100
AcDbEntity
  8
Modules
100
AcDbCircle
 10
212.8835085658571
 20
210.806651036472
 30
0.0
 40
2.75
  0
LWPOLYLINE
  5
2B341
102
{ACAD_REACTORS
330
2B358
330
2B359
102
}
330
18
100
AcDbEntity
  8
Modules
100
AcDbPolyline
 90
        6
 70
     1
 43
0.0
 10
212.2484232697485
 20
211.906651036472
 10
211.6133379736399
 20
210.806651036472
 10
212.2484232697485
 20
209.706651036472
 10
213.5185938619656
 20
209.706651036472
 10
214.1536791580743
 20
210.806651036472
 10
213.5185938619656
 20
211.906651036472
  0
CIRCLE
  5
2B342
102
{ACAD_REACTORS
330
2B358
330
2B35A
102
}
330
18
100
AcDbEntity
  8
Modules
100
AcDbCircle
 10
210.7085085684574
 20
202.6256408898966
 30
0.0
 40
1.0
  0
CIRCLE
  5
2B343
102
{ACAD_REACTORS
330
2B358
330
2B35A
102
}
330
18
100
AcDbEntity
  8
Modules
100
AcDbCircle
 10
222.7830034925692
 20
195.7251459631844
 30
0.0
 40
11.1
  0
CIRCLE
  5
2B344
102
{ACAD_REACTORS
330
2B358
330
2B35A
102
}
330
18
100
AcDbEntity
  8
Modules
100
AcDbCircle
 10
222.7830034925692
 20
195.7251459631844
 30
0.0
 40
9.75
  0
CIRCLE
  5
2B345
102
{ACAD_REACTORS
330
2B358
330
2B35A
102
}
330
18
100
AcDbEntity
  8
Modules
100
AcDbCircle
 10
232.6830034826693
 20
205.6251459532844
 30
0.0
 40
2.75
  0
LWPOLYLINE
  5
2B346
102
{ACAD_REACTORS
330
2B358
330
2B35A
102
}
330
18
100
AcDbEntity
  8
Modules
100
AcDbPolyline
 90
        6
 70
     1
 43
0.0
 10
232.0479181865607
 20
206.7251459532844
 10
231.4128328904521
 20
205.6251459532844
 10
232.0479181865607
 20
204.5251459532844
 10
233.3180887787778
 20
204.5251459532844
 10
233.9531740748864
 20
205.6251459532844
 10
233.3180887787778
 20
206.7251459532844
  0
CIRCLE
  5
2B347
102
{ACAD_REACTORS
330
2B358
330
2B35A
102
}
330
18
100
AcDbEntity
  8
Modules
100
AcDbCircle
 10
222.7830034925692
 20
195.7251459631844
 30
0.0
 40
8.00002255446822
  0
CIRCLE
  5
2B348
102
{ACAD_REACTORS
330
2B358
330
2B35A
102
}
330
18
100
AcDbEntity
  8
Modules
100
AcDbCircle
 10
218.8330034965193
 20
195.7061459631844
 30
0.0
 40
1.29999999870013
  0
CIRCLE
  5
2B349
102
{ACAD_REACTORS
330
2B358
330
2B35A
102
}
330
18
100
AcDbEntity
  8
Modules
100
AcDbCircle
 10
222.7830034925692
 20
199.7561459591345
 30
0.0
 40
1.29999999870013
  0
CIRCLE
  5
2B34A
102
{ACAD_REACTORS
330
2B358
330
2B35A
102
}
330
18
100
AcDbEntity
  8
Modules
100
AcDbCircle
 10
222.7830034925692
 20
191.6561459672344
 30
0.0
 40
1.29999999870013
  0
CIRCLE
  5
2B34B
102
{ACAD_REACTORS
330
2B358
330
2B35A
102
}
330
18
100
AcDbEntity
  8
Modules
100
AcDbCircle
 10
212.8835085658571
 20
185.8066510364721
 30
0.0
 40
2.75
  0
LWPOLYLINE
  5
2B34C
102
{ACAD_REACTORS
330
2B358
330
2B35A
102
}
330
18
100
AcDbEntity
  8
Modules
100
AcDbPolyline
 90
        6
 70
     1
 43
0.0
 10
212.2484232697485
 20
186.9066510364721
 10
211.6133379736399
 20
185.8066510364721
 10
212.2484232697485
 20
184.7066510364721
 10
213.5185938619656
 20
184.7066510364721
 10
214.1536791580743
 20
185.8066510364721
 10
213.5185938619656
 20
186.9066510364721
  0
CIRCLE
  5
2B34D
102
{ACAD_REACTORS
330
2B358
330
2B35B
102
}
330
18
100
AcDbEntity
  8
Modules
100
AcDbCircle
 10
210.7085085684574
 20
177.6256408898965
 30
0.0
 40
1.0
  0
CIRCLE
  5
2B34E
102
{ACAD_REACTORS
330
2B358
330
2B35B
102
}
330
18
100
AcDbEntity
  8
Modules
100
AcDbCircle
 10
222.7830034925692
 20
170.7251459631844
 30
0.0
 40
11.1
  0
CIRCLE
  5
2B34F
102
{ACAD_REACTORS
330
2B358
330
2B35B
102
}
330
18
100
AcDbEntity
  8
Modules
100
AcDbCircle
 10
222.7830034925692
 20
170.7251459631844
 30
0.0
 40
9.75
  0
CIRCLE
  5
2B350
102
{ACAD_REACTORS
330
2B358
330
2B35B
102
}
330
18
100
AcDbEntity
  8
Modules
100
AcDbCircle
 10
232.6830034826693
 20
180.6251459532843
 30
0.0
 40
2.75
  0
LWPOLYLINE
  5
2B351
102
{ACAD_REACTORS
330
2B358
330
2B35B
102
}
330
18
100
AcDbEntity
  8
Modules
100
AcDbPolyline
 90
        6
 70
     1
 43
0.0
 10
232.0479181865607
 20
181.7251459532844
 10
231.4128328904521
 20
180.6251459532843
 10
232.0479181865607
 20
179.5251459532843
 10
233.3180887787778
 20
179.5251459532843
 10
233.9531740748864
 20
180.6251459532843
 10
233.3180887787778
 20
181.7251459532844
  0
CIRCLE
  5
2B352
102
{ACAD_REACTORS
330
2B358
330
2B35B
102
}
330
18
100
AcDbEntity
  8
Modules
100
AcDbCircle
 10
222.7830034925692
 20
170.7251459631844
 30
0.0
 40
8.00002255446822
  0
CIRCLE
  5
2B353
102
{ACAD_REACTORS
330
2B358
330
2B35B
102
}
330
18
100
AcDbEntity
  8
Modules
100
AcDbCircle
 10
218.8330034965193
 20
170.7061459631844
 30
0.0
 40
1.29999999870013
  0
CIRCLE
  5
2B354
102
{ACAD_REACTORS
330
2B358
330
2B35B
102
}
330
18
100
AcDbEntity
  8
Modules
100
AcDbCircle
 10
222.7830034925692
 20
174.7561459591344
 30
0.0
 40
1.29999999870013
  0
CIRCLE
  5
2B355
102
{ACAD_REACTORS
330
2B358
330
2B35B
102
}
330
18
100
AcDbEntity
  8
Modules
100
AcDbCircle
 10
222.7830034925692
 20
166.6561459672344
 30
0.0
 40
1.29999999870013
  0
CIRCLE
  5
2B356
102
{ACAD_REACTORS
330
2B358
330
2B35B
102
}
330
18
100
AcDbEntity
  8
Modules
100
AcDbCircle
 10
212.8835085658571
 20
160.806651036472
 30
0.0
 40
2.75
  0
LWPOLYLINE
  5
2B357
102
{ACAD_REACTORS
330
2B358
330
2B35B
102
}
330
18
100
AcDbEntity
  8
Modules
100
AcDbPolyline
 90
        6
 70
     1
 43
0.0
 10
212.2484232697485
 20
161.906651036472
 10
211.6133379736399
 20
160.806651036472
 10
212.2484232697485
 20
159.706651036472
 10
213.5185938619656
 20
159.706651036472
 10
214.1536791580743
 20
160.806651036472
 10
213.5185938619656
 20
161.906651036472
  0
POINT
  5
2B35D
102
{ACAD_REACTORS
330
2B38F
102
}
330
18
100
AcDbEntity
  8
Modules
100
AcDbPoint
 10
267.0285085684571
 20
271.8446408898966
 30
0.0
  0
CIRCLE
  5
2B35E
102
{ACAD_REACTORS
330
2B38F
330
2B393
102
}
330
18
100
AcDbEntity
  8
Modules
100
AcDbCircle
 10
241.1885085684574
 20
252.6446408898966
 30
0.0
 40
1.0
  0
CIRCLE
  5
2B35F
102
{ACAD_REACTORS
330
2B38F
330
2B393
102
}
330
18
100
AcDbEntity
  8
Modules
100
AcDbCircle
 10
253.2630034925693
 20
245.7441459631844
 30
0.0
 40
11.1
  0
CIRCLE
  5
2B360
102
{ACAD_REACTORS
330
2B38F
330
2B393
102
}
330
18
100
AcDbEntity
  8
Modules
100
AcDbCircle
 10
253.2630034925693
 20
245.7441459631844
 30
0.0
 40
9.75
  0
LWPOLYLINE
  5
2B361
102
{ACAD_REACTORS
330
2B38F
102
}
330
18
100
AcDbEntity
  8
Modules
100
AcDbPolyline
 90
        4
 70
     1
 43
0.0
 10
236.8885085684566
 20
271.8446408898966
 10
267.0285085684571
 20
271.8446408898966
 10
267.0285085684571
 20
143.4446408898966
 10
236.8885085684566
 20
143.4446408898966
  0
CIRCLE
  5
2B362
102
{ACAD_REACTORS
330
2B38F
102
}
330
18
100
AcDbEntity
  8
Modules
100
AcDbCircle
 10
249.4685085684572
 20
268.8446408898966
 30
0.0
 40
2.45
  0
LWPOLYLINE
  5
2B363
102
{ACAD_REACTORS
330
2B38F
102
}
330
18
100
AcDbEntity
  8
Modules
100
AcDbPolyline
 90
        6
 70
     1
 43
0.0
 10
248.8334232723487
 20
269.9446408898966
 10
248.1983379762401
 20
268.8446408898966
 10
248.8334232723487
 20
267.7446408898966
 10
250.1035938645658
 20
267.7446408898966
 10
250.7386791606744
 20
268.8446408898966
 10
250.1035938645658
 20
269.9446408898966
  0
CIRCLE
  5
2B364
102
{ACAD_REACTORS
330
2B38F
330
2B393
102
}
330
18
100
AcDbEntity
  8
Modules
100
AcDbCircle
 10
263.1630034826693
 20
255.6441459532844
 30
0.0
 40
2.75
  0
LWPOLYLINE
  5
2B365
102
{ACAD_REACTORS
330
2B38F
330
2B393
102
}
330
18
100
AcDbEntity
  8
Modules
100
AcDbPolyline
 90
        6
 70
     1
 43
0.0
 10
262.5279181865607
 20
256.7441459532844
 10
261.8928328904521
 20
255.6441459532844
 10
262.5279181865607
 20
254.5441459532844
 10
263.7980887787779
 20
254.5441459532844
 10
264.4331740748864
 20
255.6441459532844
 10
263.7980887787779
 20
256.7441459532844
  0
CIRCLE
  5
2B366
102
{ACAD_REACTORS
330
2B38F
330
2B393
102
}
330
18
100
AcDbEntity
  8
Modules
100
AcDbCircle
 10
253.2630034925693
 20
245.7441459631844
 30
0.0
 40
8.00002255446822
  0
CIRCLE
  5
2B367
102
{ACAD_REACTORS
330
2B38F
330
2B393
102
}
330
18
100
AcDbEntity
  8
Modules
100
AcDbCircle
 10
249.3130034965194
 20
245.7251459631844
 30
0.0
 40
1.29999999870013
  0
CIRCLE
  5
2B368
102
{ACAD_REACTORS
330
2B38F
330
2B393
102
}
330
18
100
AcDbEntity
  8
Modules
100
AcDbCircle
 10
253.2630034925693
 20
249.7751459591345
 30
0.0
 40
1.29999999870013
  0
CIRCLE
  5
2B369
102
{ACAD_REACTORS
330
2B38F
330
2B393
102
}
330
18
100
AcDbEntity
  8
Modules
100
AcDbCircle
 10
253.2630034925693
 20
241.6751459672345
 30
0.0
 40
1.29999999870013
  0
CIRCLE
  5
2B36A
102
{ACAD_REACTORS
330
2B38F
330
2B393
102
}
330
18
100
AcDbEntity
  8
Modules
100
AcDbCircle
 10
243.3635085658571
 20
235.8256510364721
 30
0.0
 40
2.75
  0
LWPOLYLINE
  5
2B36B
102
{ACAD_REACTORS
330
2B38F
330
2B393
102
}
330
18
100
AcDbEntity
  8
Modules
100
AcDbPolyline
 90
        6
 70
     1
 43
0.0
 10
242.7284232697485
 20
236.9256510364721
 10
242.0933379736399
 20
235.8256510364721
 10
242.7284232697485
 20
234.7256510364721
 10
243.9985938619657
 20
234.7256510364721
 10
244.6336791580742
 20
235.8256510364721
 10
243.9985938619657
 20
236.9256510364721
  0
CIRCLE
  5
2B36C
102
{ACAD_REACTORS
330
2B38F
102
}
330
18
100
AcDbEntity
  8
Modules
100
AcDbCircle
 10
249.4685085684571
 20
146.4446408898966
 30
0.0
 40
2.45
  0
LWPOLYLINE
  5
2B36D
102
{ACAD_REACTORS
330
2B38F
102
}
330
18
100
AcDbEntity
  8
Modules
100
AcDbPolyline
 90
        6
 70
     1
 43
0.0
 10
248.8334232723485
 20
147.5446408898966
 10
248.1983379762399
 20
146.4446408898966
 10
248.8334232723485
 20
145.3446408898966
 10
250.1035938645657
 20
145.3446408898966
 10
250.7386791606743
 20
146.4446408898966
 10
250.1035938645657
 20
147.5446408898966
  0
CIRCLE
  5
2B36E
102
{ACAD_REACTORS
330
2B38F
330
2B390
102
}
330
18
100
AcDbEntity
  8
Modules
100
AcDbCircle
 10
241.1885085684574
 20
227.6256408898965
 30
0.0
 40
1.0
  0
CIRCLE
  5
2B36F
102
{ACAD_REACTORS
330
2B38F
330
2B390
102
}
330
18
100
AcDbEntity
  8
Modules
100
AcDbCircle
 10
253.2630034925693
 20
220.7251459631844
 30
0.0
 40
11.1
  0
CIRCLE
  5
2B370
102
{ACAD_REACTORS
330
2B38F
330
2B390
102
}
330
18
100
AcDbEntity
  8
Modules
100
AcDbCircle
 10
253.2630034925693
 20
220.7251459631844
 30
0.0
 40
9.75
  0
CIRCLE
  5
2B371
102
{ACAD_REACTORS
330
2B38F
330
2B390
102
}
330
18
100
AcDbEntity
  8
Modules
100
AcDbCircle
 10
263.1630034826693
 20
230.6251459532843
 30
0.0
 40
2.75
  0
LWPOLYLINE
  5
2B372
102
{ACAD_REACTORS
330
2B38F
330
2B390
102
}
330
18
100
AcDbEntity
  8
Modules
100
AcDbPolyline
 90
        6
 70
     1
 43
0.0
 10
262.5279181865607
 20
231.7251459532844
 10
261.8928328904521
 20
230.6251459532843
 10
262.5279181865607
 20
229.5251459532843
 10
263.7980887787779
 20
229.5251459532843
 10
264.4331740748864
 20
230.6251459532843
 10
263.7980887787779
 20
231.7251459532844
  0
CIRCLE
  5
2B373
102
{ACAD_REACTORS
330
2B38F
330
2B390
102
}
330
18
100
AcDbEntity
  8
Modules
100
AcDbCircle
 10
253.2630034925693
 20
220.7251459631844
 30
0.0
 40
8.00002255446822
  0
CIRCLE
  5
2B374
102
{ACAD_REACTORS
330
2B38F
330
2B390
102
}
330
18
100
AcDbEntity
  8
Modules
100
AcDbCircle
 10
249.3130034965194
 20
220.7061459631844
 30
0.0
 40
1.29999999870013
  0
CIRCLE
  5
2B375
102
{ACAD_REACTORS
330
2B38F
330
2B390
102
}
330
18
100
AcDbEntity
  8
Modules
100
AcDbCircle
 10
253.2630034925693
 20
224.7561459591345
 30
0.0
 40
1.29999999870013
  0
CIRCLE
  5
2B376
102
{ACAD_REACTORS
330
2B38F
330
2B390
102
}
330
18
100
AcDbEntity
  8
Modules
100
AcDbCircle
 10
253.2630034925693
 20
216.6561459672344
 30
0.0
 40
1.29999999870013
  0
CIRCLE
  5
2B377
102
{ACAD_REACTORS
330
2B38F
330
2B390
102
}
330
18
100
AcDbEntity
  8
Modules
100
AcDbCircle
 10
243.3635085658571
 20
210.806651036472
 30
0.0
 40
2.75
  0
LWPOLYLINE
  5
2B378
102
{ACAD_REACTORS
330
2B38F
330
2B390
102
}
330
18
100
AcDbEntity
  8
Modules
100
AcDbPolyline
 90
        6
 70
     1
 43
0.0
 10
242.7284232697485
 20
211.906651036472
 10
242.0933379736399
 20
210.806651036472
 10
242.7284232697485
 20
209.706651036472
 10
243.9985938619657
 20
209.706651036472
 10
244.6336791580742
 20
210.806651036472
 10
243.9985938619657
 20
211.906651036472
  0
CIRCLE
  5
2B379
102
{ACAD_REACTORS
330
2B38F
330
2B391
102
}
330
18
100
AcDbEntity
  8
Modules
100
AcDbCircle
 10
241.1885085684574
 20
202.6256408898966
 30
0.0
 40
1.0
  0
CIRCLE
  5
2B37A
102
{ACAD_REACTORS
330
2B38F
330
2B391
102
}
330
18
100
AcDbEntity
  8
Modules
100
AcDbCircle
 10
253.2630034925693
 20
195.7251459631844
 30
0.0
 40
11.1
  0
CIRCLE
  5
2B37B
102
{ACAD_REACTORS
330
2B38F
330
2B391
102
}
330
18
100
AcDbEntity
  8
Modules
100
AcDbCircle
 10
253.2630034925693
 20
195.7251459631844
 30
0.0
 40
9.75
  0
CIRCLE
  5
2B37C
102
{ACAD_REACTORS
330
2B38F
330
2B391
102
}
330
18
100
AcDbEntity
  8
Modules
100
AcDbCircle
 10
263.1630034826693
 20
205.6251459532844
 30
0.0
 40
2.75
  0
LWPOLYLINE
  5
2B37D
102
{ACAD_REACTORS
330
2B38F
330
2B391
102
}
330
18
100
AcDbEntity
  8
Modules
100
AcDbPolyline
 90
        6
 70
     1
 43
0.0
 10
262.5279181865607
 20
206.7251459532844
 10
261.8928328904521
 20
205.6251459532844
 10
262.5279181865607
 20
204.5251459532844
 10
263.7980887787779
 20
204.5251459532844
 10
264.4331740748864
 20
205.6251459532844
 10
263.7980887787779
 20
206.7251459532844
  0
CIRCLE
  5
2B37E
102
{ACAD_REACTORS
330
2B38F
330
2B391
102
}
330
18
100
AcDbEntity
  8
Modules
100
AcDbCircle
 10
253.2630034925693
 20
195.7251459631844
 30
0.0
 40
8.00002255446822
  0
CIRCLE
  5
2B37F
102
{ACAD_REACTORS
330
2B38F
330
2B391
102
}
330
18
100
AcDbEntity
  8
Modules
100
AcDbCircle
 10
249.3130034965194
 20
195.7061459631844
 30
0.0
 40
1.29999999870013
  0
CIRCLE
  5
2B380
102
{ACAD_REACTORS
330
2B38F
330
2B391
102
}
330
18
100
AcDbEntity
  8
Modules
100
AcDbCircle
 10
253.2630034925693
 20
199.7561459591345
 30
0.0
 40
1.29999999870013
  0
CIRCLE
  5
2B381
102
{ACAD_REACTORS
330
2B38F
330
2B391
102
}
330
18
100
AcDbEntity
  8
Modules
100
AcDbCircle
 10
253.2630034925693
 20
191.6561459672344
 30
0.0
 40
1.29999999870013
  0
CIRCLE
  5
2B382
102
{ACAD_REACTORS
330
2B38F
330
2B391
102
}
330
18
100
AcDbEntity
  8
Modules
100
AcDbCircle
 10
243.3635085658571
 20
185.8066510364721
 30
0.0
 40
2.75
  0
LWPOLYLINE
  5
2B383
102
{ACAD_REACTORS
330
2B38F
330
2B391
102
}
330
18
100
AcDbEntity
  8
Modules
100
AcDbPolyline
 90
        6
 70
     1
 43
0.0
 10
242.7284232697485
 20
186.9066510364721
 10
242.0933379736399
 20
185.8066510364721
 10
242.7284232697485
 20
184.7066510364721
 10
243.9985938619657
 20
184.7066510364721
 10
244.6336791580742
 20
185.8066510364721
 10
243.9985938619657
 20
186.9066510364721
  0
CIRCLE
  5
2B384
102
{ACAD_REACTORS
330
2B38F
330
2B392
102
}
330
18
100
AcDbEntity
  8
Modules
100
AcDbCircle
 10
241.1885085684574
 20
177.6256408898965
 30
0.0
 40
1.0
  0
CIRCLE
  5
2B385
102
{ACAD_REACTORS
330
2B38F
330
2B392
102
}
330
18
100
AcDbEntity
  8
Modules
100
AcDbCircle
 10
253.2630034925693
 20
170.7251459631844
 30
0.0
 40
11.1
  0
CIRCLE
  5
2B386
102
{ACAD_REACTORS
330
2B38F
330
2B392
102
}
330
18
100
AcDbEntity
  8
Modules
100
AcDbCircle
 10
253.2630034925693
 20
170.7251459631844
 30
0.0
 40
9.75
  0
CIRCLE
  5
2B387
102
{ACAD_REACTORS
330
2B38F
330
2B392
102
}
330
18
100
AcDbEntity
  8
Modules
100
AcDbCircle
 10
263.1630034826693
 20
180.6251459532843
 30
0.0
 40
2.75
  0
LWPOLYLINE
  5
2B388
102
{ACAD_REACTORS
330
2B38F
330
2B392
102
}
330
18
100
AcDbEntity
  8
Modules
100
AcDbPolyline
 90
        6
 70
     1
 43
0.0
 10
262.5279181865607
 20
181.7251459532844
 10
261.8928328904521
 20
180.6251459532843
 10
262.5279181865607
 20
179.5251459532843
 10
263.7980887787779
 20
179.5251459532843
 10
264.4331740748864
 20
180.6251459532843
 10
263.7980887787779
 20
181.7251459532844
  0
CIRCLE
  5
2B389
102
{ACAD_REACTORS
330
2B38F
330
2B392
102
}
330
18
100
AcDbEntity
  8
Modules
100
AcDbCircle
 10
253.2630034925693
 20
170.7251459631844
 30
0.0
 40
8.00002255446822
  0
CIRCLE
  5
2B38A
102
{ACAD_REACTORS
330
2B38F
330
2B392
102
}
330
18
100
AcDbEntity
  8
Modules
100
AcDbCircle
 10
249.3130034965194
 20
170.7061459631844
 30
0.0
 40
1.29999999870013
  0
CIRCLE
  5
2B38B
102
{ACAD_REACTORS
330
2B38F
330
2B392
102
}
330
18
100
AcDbEntity
  8
Modules
100
AcDbCircle
 10
253.2630034925693
 20
174.7561459591344
 30
0.0
 40
1.29999999870013
  0
CIRCLE
  5
2B38C
102
{ACAD_REACTORS
330
2B38F
330
2B392
102
}
330
18
100
AcDbEntity
  8
Modules
100
AcDbCircle
 10
253.2630034925693
 20
166.6561459672344
 30
0.0
 40
1.29999999870013
  0
CIRCLE
  5
2B38D
102
{ACAD_REACTORS
330
2B38F
330
2B392
102
}
330
18
100
AcDbEntity
  8
Modules
100
AcDbCircle
 10
243.3635085658571
 20
160.806651036472
 30
0.0
 40
2.75
  0
LWPOLYLINE
  5
2B38E
102
{ACAD_REACTORS
330
2B38F
330
2B392
102
}
330
18
100
AcDbEntity
  8
Modules
100
AcDbPolyline
 90
        6
 70
     1
 43
0.0
 10
242.7284232697485
 20
161.906651036472
 10
242.0933379736399
 20
160.806651036472
 10
242.7284232697485
 20
159.706651036472
 10
243.9985938619657
 20
159.706651036472
 10
244.6336791580742
 20
160.806651036472
 10
243.9985938619657
 20
161.906651036472
  0
POINT
  5
2B394
102
{ACAD_REACTORS
330
2B3C6
102
}
330
18
100
AcDbEntity
  8
Modules
100
AcDbPoint
 10
297.5085085684571
 20
271.8446408898966
 30
0.0
  0
CIRCLE
  5
2B395
102
{ACAD_REACTORS
330
2B3C6
330
2B3CA
102
}
330
18
100
AcDbEntity
  8
Modules
100
AcDbCircle
 10
271.6685085684574
 20
252.6446408898966
 30
0.0
 40
1.0
  0
CIRCLE
  5
2B396
102
{ACAD_REACTORS
330
2B3C6
330
2B3CA
102
}
330
18
100
AcDbEntity
  8
Modules
100
AcDbCircle
 10
283.7430034925692
 20
245.7441459631844
 30
0.0
 40
11.1
  0
CIRCLE
  5
2B397
102
{ACAD_REACTORS
330
2B3C6
330
2B3CA
102
}
330
18
100
AcDbEntity
  8
Modules
100
AcDbCircle
 10
283.7430034925692
 20
245.7441459631844
 30
0.0
 40
9.75
  0
LWPOLYLINE
  5
2B398
102
{ACAD_REACTORS
330
2B3C6
102
}
330
18
100
AcDbEntity
  8
Modules
100
AcDbPolyline
 90
        4
 70
     1
 43
0.0
 10
267.3685085684566
 20
271.8446408898966
 10
297.5085085684571
 20
271.8446408898966
 10
297.5085085684571
 20
143.4446408898966
 10
267.3685085684566
 20
143.4446408898966
  0
CIRCLE
  5
2B399
102
{ACAD_REACTORS
330
2B3C6
102
}
330
18
100
AcDbEntity
  8
Modules
100
AcDbCircle
 10
279.9485085684572
 20
268.8446408898966
 30
0.0
 40
2.45
  0
LWPOLYLINE
  5
2B39A
102
{ACAD_REACTORS
330
2B3C6
102
}
330
18
100
AcDbEntity
  8
Modules
100
AcDbPolyline
 90
        6
 70
     1
 43
0.0
 10
279.3134232723486
 20
269.9446408898966
 10
278.6783379762401
 20
268.8446408898966
 10
279.3134232723486
 20
267.7446408898966
 10
280.5835938645658
 20
267.7446408898966
 10
281.2186791606744
 20
268.8446408898966
 10
280.5835938645658
 20
269.9446408898966
  0
CIRCLE
  5
2B39B
102
{ACAD_REACTORS
330
2B3C6
330
2B3CA
102
}
330
18
100
AcDbEntity
  8
Modules
100
AcDbCircle
 10
293.6430034826693
 20
255.6441459532844
 30
0.0
 40
2.75
  0
LWPOLYLINE
  5
2B39C
102
{ACAD_REACTORS
330
2B3C6
330
2B3CA
102
}
330
18
100
AcDbEntity
  8
Modules
100
AcDbPolyline
 90
        6
 70
     1
 43
0.0
 10
293.0079181865607
 20
256.7441459532844
 10
292.3728328904521
 20
255.6441459532844
 10
293.0079181865607
 20
254.5441459532844
 10
294.2780887787779
 20
254.5441459532844
 10
294.9131740748864
 20
255.6441459532844
 10
294.2780887787779
 20
256.7441459532844
  0
CIRCLE
  5
2B39D
102
{ACAD_REACTORS
330
2B3C6
330
2B3CA
102
}
330
18
100
AcDbEntity
  8
Modules
100
AcDbCircle
 10
283.7430034925692
 20
245.7441459631844
 30
0.0
 40
8.00002255446822
  0
CIRCLE
  5
2B39E
102
{ACAD_REACTORS
330
2B3C6
330
2B3CA
102
}
330
18
100
AcDbEntity
  8
Modules
100
AcDbCircle
 10
279.7930034965193
 20
245.7251459631844
 30
0.0
 40
1.29999999870013
  0
CIRCLE
  5
2B39F
102
{ACAD_REACTORS
330
2B3C6
330
2B3CA
102
}
330
18
100
AcDbEntity
  8
Modules
100
AcDbCircle
 10
283.7430034925692
 20
249.7751459591345
 30
0.0
 40
1.29999999870013
  0
CIRCLE
  5
2B3A0
102
{ACAD_REACTORS
330
2B3C6
330
2B3CA
102
}
330
18
100
AcDbEntity
  8
Modules
100
AcDbCircle
 10
283.7430034925692
 20
241.6751459672345
 30
0.0
 40
1.29999999870013
  0
CIRCLE
  5
2B3A1
102
{ACAD_REACTORS
330
2B3C6
330
2B3CA
102
}
330
18
100
AcDbEntity
  8
Modules
100
AcDbCircle
 10
273.8435085658571
 20
235.8256510364721
 30
0.0
 40
2.75
  0
LWPOLYLINE
  5
2B3A2
102
{ACAD_REACTORS
330
2B3C6
330
2B3CA
102
}
330
18
100
AcDbEntity
  8
Modules
100
AcDbPolyline
 90
        6
 70
     1
 43
0.0
 10
273.2084232697485
 20
236.9256510364721
 10
272.5733379736399
 20
235.8256510364721
 10
273.2084232697485
 20
234.7256510364721
 10
274.4785938619656
 20
234.7256510364721
 10
275.1136791580742
 20
235.8256510364721
 10
274.4785938619656
 20
236.9256510364721
  0
CIRCLE
  5
2B3A3
102
{ACAD_REACTORS
330
2B3C6
102
}
330
18
100
AcDbEntity
  8
Modules
100
AcDbCircle
 10
279.9485085684571
 20
146.4446408898966
 30
0.0
 40
2.45
  0
LWPOLYLINE
  5
2B3A4
102
{ACAD_REACTORS
330
2B3C6
102
}
330
18
100
AcDbEntity
  8
Modules
100
AcDbPolyline
 90
        6
 70
     1
 43
0.0
 10
279.3134232723485
 20
147.5446408898966
 10
278.6783379762399
 20
146.4446408898966
 10
279.3134232723485
 20
145.3446408898966
 10
280.5835938645657
 20
145.3446408898966
 10
281.2186791606743
 20
146.4446408898966
 10
280.5835938645657
 20
147.5446408898966
  0
CIRCLE
  5
2B3A5
102
{ACAD_REACTORS
330
2B3C6
330
2B3C7
102
}
330
18
100
AcDbEntity
  8
Modules
100
AcDbCircle
 10
271.6685085684574
 20
227.6256408898965
 30
0.0
 40
1.0
  0
CIRCLE
  5
2B3A6
102
{ACAD_REACTORS
330
2B3C6
330
2B3C7
102
}
330
18
100
AcDbEntity
  8
Modules
100
AcDbCircle
 10
283.7430034925692
 20
220.7251459631844
 30
0.0
 40
11.1
  0
CIRCLE
  5
2B3A7
102
{ACAD_REACTORS
330
2B3C6
330
2B3C7
102
}
330
18
100
AcDbEntity
  8
Modules
100
AcDbCircle
 10
283.7430034925692
 20
220.7251459631844
 30
0.0
 40
9.75
  0
CIRCLE
  5
2B3A8
102
{ACAD_REACTORS
330
2B3C6
330
2B3C7
102
}
330
18
100
AcDbEntity
  8
Modules
100
AcDbCircle
 10
293.6430034826693
 20
230.6251459532843
 30
0.0
 40
2.75
  0
LWPOLYLINE
  5
2B3A9
102
{ACAD_REACTORS
330
2B3C6
330
2B3C7
102
}
330
18
100
AcDbEntity
  8
Modules
100
AcDbPolyline
 90
        6
 70
     1
 43
0.0
 10
293.0079181865607
 20
231.7251459532844
 10
292.3728328904521
 20
230.6251459532843
 10
293.0079181865607
 20
229.5251459532843
 10
294.2780887787779
 20
229.5251459532843
 10
294.9131740748864
 20
230.6251459532843
 10
294.2780887787779
 20
231.7251459532844
  0
CIRCLE
  5
2B3AA
102
{ACAD_REACTORS
330
2B3C6
330
2B3C7
102
}
330
18
100
AcDbEntity
  8
Modules
100
AcDbCircle
 10
283.7430034925692
 20
220.7251459631844
 30
0.0
 40
8.00002255446822
  0
CIRCLE
  5
2B3AB
102
{ACAD_REACTORS
330
2B3C6
330
2B3C7
102
}
330
18
100
AcDbEntity
  8
Modules
100
AcDbCircle
 10
279.7930034965193
 20
220.7061459631844
 30
0.0
 40
1.29999999870013
  0
CIRCLE
  5
2B3AC
102
{ACAD_REACTORS
330
2B3C6
330
2B3C7
102
}
330
18
100
AcDbEntity
  8
Modules
100
AcDbCircle
 10
283.7430034925692
 20
224.7561459591345
 30
0.0
 40
1.29999999870013
  0
CIRCLE
  5
2B3AD
102
{ACAD_REACTORS
330
2B3C6
330
2B3C7
102
}
330
18
100
AcDbEntity
  8
Modules
100
AcDbCircle
 10
283.7430034925692
 20
216.6561459672344
 30
0.0
 40
1.29999999870013
  0
CIRCLE
  5
2B3AE
102
{ACAD_REACTORS
330
2B3C6
330
2B3C7
102
}
330
18
100
AcDbEntity
  8
Modules
100
AcDbCircle
 10
273.8435085658571
 20
210.806651036472
 30
0.0
 40
2.75
  0
LWPOLYLINE
  5
2B3AF
102
{ACAD_REACTORS
330
2B3C6
330
2B3C7
102
}
330
18
100
AcDbEntity
  8
Modules
100
AcDbPolyline
 90
        6
 70
     1
 43
0.0
 10
273.2084232697485
 20
211.906651036472
 10
272.5733379736399
 20
210.806651036472
 10
273.2084232697485
 20
209.706651036472
 10
274.4785938619656
 20
209.706651036472
 10
275.1136791580742
 20
210.806651036472
 10
274.4785938619656
 20
211.906651036472
  0
CIRCLE
  5
2B3B0
102
{ACAD_REACTORS
330
2B3C6
330
2B3C8
102
}
330
18
100
AcDbEntity
  8
Modules
100
AcDbCircle
 10
271.6685085684574
 20
202.6256408898966
 30
0.0
 40
1.0
  0
CIRCLE
  5
2B3B1
102
{ACAD_REACTORS
330
2B3C6
330
2B3C8
102
}
330
18
100
AcDbEntity
  8
Modules
100
AcDbCircle
 10
283.7430034925692
 20
195.7251459631844
 30
0.0
 40
11.1
  0
CIRCLE
  5
2B3B2
102
{ACAD_REACTORS
330
2B3C6
330
2B3C8
102
}
330
18
100
AcDbEntity
  8
Modules
100
AcDbCircle
 10
283.7430034925692
 20
195.7251459631844
 30
0.0
 40
9.75
  0
CIRCLE
  5
2B3B3
102
{ACAD_REACTORS
330
2B3C6
330
2B3C8
102
}
330
18
100
AcDbEntity
  8
Modules
100
AcDbCircle
 10
293.6430034826693
 20
205.6251459532844
 30
0.0
 40
2.75
  0
LWPOLYLINE
  5
2B3B4
102
{ACAD_REACTORS
330
2B3C6
330
2B3C8
102
}
330
18
100
AcDbEntity
  8
Modules
100
AcDbPolyline
 90
        6
 70
     1
 43
0.0
 10
293.0079181865607
 20
206.7251459532844
 10
292.3728328904521
 20
205.6251459532844
 10
293.0079181865607
 20
204.5251459532844
 10
294.2780887787779
 20
204.5251459532844
 10
294.9131740748864
 20
205.6251459532844
 10
294.2780887787779
 20
206.7251459532844
  0
CIRCLE
  5
2B3B5
102
{ACAD_REACTORS
330
2B3C6
330
2B3C8
102
}
330
18
100
AcDbEntity
  8
Modules
100
AcDbCircle
 10
283.7430034925692
 20
195.7251459631844
 30
0.0
 40
8.00002255446822
  0
CIRCLE
  5
2B3B6
102
{ACAD_REACTORS
330
2B3C6
330
2B3C8
102
}
330
18
100
AcDbEntity
  8
Modules
100
AcDbCircle
 10
279.7930034965193
 20
195.7061459631844
 30
0.0
 40
1.29999999870013
  0
CIRCLE
  5
2B3B7
102
{ACAD_REACTORS
330
2B3C6
330
2B3C8
102
}
330
18
100
AcDbEntity
  8
Modules
100
AcDbCircle
 10
283.7430034925692
 20
199.7561459591345
 30
0.0
 40
1.29999999870013
  0
CIRCLE
  5
2B3B8
102
{ACAD_REACTORS
330
2B3C6
330
2B3C8
102
}
330
18
100
AcDbEntity
  8
Modules
100
AcDbCircle
 10
283.7430034925692
 20
191.6561459672344
 30
0.0
 40
1.29999999870013
  0
CIRCLE
  5
2B3B9
102
{ACAD_REACTORS
330
2B3C6
330
2B3C8
102
}
330
18
100
AcDbEntity
  8
Modules
100
AcDbCircle
 10
273.8435085658571
 20
185.8066510364721
 30
0.0
 40
2.75
  0
LWPOLYLINE
  5
2B3BA
102
{ACAD_REACTORS
330
2B3C6
330
2B3C8
102
}
330
18
100
AcDbEntity
  8
Modules
100
AcDbPolyline
 90
        6
 70
     1
 43
0.0
 10
273.2084232697485
 20
186.9066510364721
 10
272.5733379736399
 20
185.8066510364721
 10
273.2084232697485
 20
184.7066510364721
 10
274.4785938619656
 20
184.7066510364721
 10
275.1136791580742
 20
185.8066510364721
 10
274.4785938619656
 20
186.9066510364721
  0
CIRCLE
  5
2B3BB
102
{ACAD_REACTORS
330
2B3C6
330
2B3C9
102
}
330
18
100
AcDbEntity
  8
Modules
100
AcDbCircle
 10
271.6685085684574
 20
177.6256408898965
 30
0.0
 40
1.0
  0
CIRCLE
  5
2B3BC
102
{ACAD_REACTORS
330
2B3C6
330
2B3C9
102
}
330
18
100
AcDbEntity
  8
Modules
100
AcDbCircle
 10
283.7430034925692
 20
170.7251459631844
 30
0.0
 40
11.1
  0
CIRCLE
  5
2B3BD
102
{ACAD_REACTORS
330
2B3C6
330
2B3C9
102
}
330
18
100
AcDbEntity
  8
Modules
100
AcDbCircle
 10
283.7430034925692
 20
170.7251459631844
 30
0.0
 40
9.75
  0
CIRCLE
  5
2B3BE
102
{ACAD_REACTORS
330
2B3C6
330
2B3C9
102
}
330
18
100
AcDbEntity
  8
Modules
100
AcDbCircle
 10
293.6430034826693
 20
180.6251459532843
 30
0.0
 40
2.75
  0
LWPOLYLINE
  5
2B3BF
102
{ACAD_REACTORS
330
2B3C6
330
2B3C9
102
}
330
18
100
AcDbEntity
  8
Modules
100
AcDbPolyline
 90
        6
 70
     1
 43
0.0
 10
293.0079181865607
 20
181.7251459532844
 10
292.3728328904521
 20
180.6251459532843
 10
293.0079181865607
 20
179.5251459532843
 10
294.2780887787779
 20
179.5251459532843
 10
294.9131740748864
 20
180.6251459532843
 10
294.2780887787779
 20
181.7251459532844
  0
CIRCLE
  5
2B3C0
102
{ACAD_REACTORS
330
2B3C6
330
2B3C9
102
}
330
18
100
AcDbEntity
  8
Modules
100
AcDbCircle
 10
283.7430034925692
 20
170.7251459631844
 30
0.0
 40
8.00002255446822
  0
CIRCLE
  5
2B3C1
102
{ACAD_REACTORS
330
2B3C6
330
2B3C9
102
}
330
18
100
AcDbEntity
  8
Modules
100
AcDbCircle
 10
279.7930034965193
 20
170.7061459631844
 30
0.0
 40
1.29999999870013
  0
CIRCLE
  5
2B3C2
102
{ACAD_REACTORS
330
2B3C6
330
2B3C9
102
}
330
18
100
AcDbEntity
  8
Modules
100
AcDbCircle
 10
283.7430034925692
 20
174.7561459591344
 30
0.0
 40
1.29999999870013
  0
CIRCLE
  5
2B3C3
102
{ACAD_REACTORS
330
2B3C6
330
2B3C9
102
}
330
18
100
AcDbEntity
  8
Modules
100
AcDbCircle
 10
283.7430034925692
 20
166.6561459672344
 30
0.0
 40
1.29999999870013
  0
CIRCLE
  5
2B3C4
102
{ACAD_REACTORS
330
2B3C6
330
2B3C9
102
}
330
18
100
AcDbEntity
  8
Modules
100
AcDbCircle
 10
273.8435085658571
 20
160.806651036472
 30
0.0
 40
2.75
  0
LWPOLYLINE
  5
2B3C5
102
{ACAD_REACTORS
330
2B3C6
330
2B3C9
102
}
330
18
100
AcDbEntity
  8
Modules
100
AcDbPolyline
 90
        6
 70
     1
 43
0.0
 10
273.2084232697485
 20
161.906651036472
 10
272.5733379736399
 20
160.806651036472
 10
273.2084232697485
 20
159.706651036472
 10
274.4785938619656
 20
159.706651036472
 10
275.1136791580742
 20
160.806651036472
 10
274.4785938619656
 20
161.906651036472
  0
POINT
  5
2B3CB
102
{ACAD_REACTORS
330
2B3FD
102
}
330
18
100
AcDbEntity
  8
Modules
100
AcDbPoint
 10
327.9885085684571
 20
271.8446408898966
 30
0.0
  0
CIRCLE
  5
2B3CC
102
{ACAD_REACTORS
330
2B3FD
330
2B401
102
}
330
18
100
AcDbEntity
  8
Modules
100
AcDbCircle
 10
302.1485085684574
 20
252.6446408898966
 30
0.0
 40
1.0
  0
CIRCLE
  5
2B3CD
102
{ACAD_REACTORS
330
2B3FD
330
2B401
102
}
330
18
100
AcDbEntity
  8
Modules
100
AcDbCircle
 10
314.2230034925693
 20
245.7441459631844
 30
0.0
 40
11.1
  0
CIRCLE
  5
2B3CE
102
{ACAD_REACTORS
330
2B3FD
330
2B401
102
}
330
18
100
AcDbEntity
  8
Modules
100
AcDbCircle
 10
314.2230034925693
 20
245.7441459631844
 30
0.0
 40
9.75
  0
LWPOLYLINE
  5
2B3CF
102
{ACAD_REACTORS
330
2B3FD
102
}
330
18
100
AcDbEntity
  8
Modules
100
AcDbPolyline
 90
        4
 70
     1
 43
0.0
 10
297.8485085684566
 20
271.8446408898966
 10
327.9885085684571
 20
271.8446408898966
 10
327.9885085684571
 20
143.4446408898966
 10
297.8485085684566
 20
143.4446408898966
  0
CIRCLE
  5
2B3D0
102
{ACAD_REACTORS
330
2B3FD
102
}
330
18
100
AcDbEntity
  8
Modules
100
AcDbCircle
 10
310.4285085684572
 20
268.8446408898966
 30
0.0
 40
2.45
  0
LWPOLYLINE
  5
2B3D1
102
{ACAD_REACTORS
330
2B3FD
102
}
330
18
100
AcDbEntity
  8
Modules
100
AcDbPolyline
 90
        6
 70
     1
 43
0.0
 10
309.7934232723487
 20
269.9446408898966
 10
309.1583379762401
 20
268.8446408898966
 10
309.7934232723487
 20
267.7446408898966
 10
311.0635938645658
 20
267.7446408898966
 10
311.6986791606744
 20
268.8446408898966
 10
311.0635938645658
 20
269.9446408898966
  0
CIRCLE
  5
2B3D2
102
{ACAD_REACTORS
330
2B3FD
330
2B401
102
}
330
18
100
AcDbEntity
  8
Modules
100
AcDbCircle
 10
324.1230034826693
 20
255.6441459532844
 30
0.0
 40
2.75
  0
LWPOLYLINE
  5
2B3D3
102
{ACAD_REACTORS
330
2B3FD
330
2B401
102
}
330
18
100
AcDbEntity
  8
Modules
100
AcDbPolyline
 90
        6
 70
     1
 43
0.0
 10
323.4879181865607
 20
256.7441459532844
 10
322.8528328904521
 20
255.6441459532844
 10
323.4879181865607
 20
254.5441459532844
 10
324.7580887787779
 20
254.5441459532844
 10
325.3931740748865
 20
255.6441459532844
 10
324.7580887787779
 20
256.7441459532844
  0
CIRCLE
  5
2B3D4
102
{ACAD_REACTORS
330
2B3FD
330
2B401
102
}
330
18
100
AcDbEntity
  8
Modules
100
AcDbCircle
 10
314.2230034925693
 20
245.7441459631844
 30
0.0
 40
8.00002255446822
  0
CIRCLE
  5
2B3D5
102
{ACAD_REACTORS
330
2B3FD
330
2B401
102
}
330
18
100
AcDbEntity
  8
Modules
100
AcDbCircle
 10
310.2730034965193
 20
245.7251459631844
 30
0.0
 40
1.29999999870013
  0
CIRCLE
  5
2B3D6
102
{ACAD_REACTORS
330
2B3FD
330
2B401
102
}
330
18
100
AcDbEntity
  8
Modules
100
AcDbCircle
 10
314.2230034925693
 20
249.7751459591345
 30
0.0
 40
1.29999999870013
  0
CIRCLE
  5
2B3D7
102
{ACAD_REACTORS
330
2B3FD
330
2B401
102
}
330
18
100
AcDbEntity
  8
Modules
100
AcDbCircle
 10
314.2230034925693
 20
241.6751459672345
 30
0.0
 40
1.29999999870013
  0
CIRCLE
  5
2B3D8
102
{ACAD_REACTORS
330
2B3FD
330
2B401
102
}
330
18
100
AcDbEntity
  8
Modules
100
AcDbCircle
 10
304.3235085658571
 20
235.8256510364721
 30
0.0
 40
2.75
  0
LWPOLYLINE
  5
2B3D9
102
{ACAD_REACTORS
330
2B3FD
330
2B401
102
}
330
18
100
AcDbEntity
  8
Modules
100
AcDbPolyline
 90
        6
 70
     1
 43
0.0
 10
303.6884232697485
 20
236.9256510364721
 10
303.0533379736399
 20
235.8256510364721
 10
303.6884232697485
 20
234.7256510364721
 10
304.9585938619657
 20
234.7256510364721
 10
305.5936791580743
 20
235.8256510364721
 10
304.9585938619657
 20
236.9256510364721
  0
CIRCLE
  5
2B3DA
102
{ACAD_REACTORS
330
2B3FD
102
}
330
18
100
AcDbEntity
  8
Modules
100
AcDbCircle
 10
310.4285085684571
 20
146.4446408898966
 30
0.0
 40
2.45
  0
LWPOLYLINE
  5
2B3DB
102
{ACAD_REACTORS
330
2B3FD
102
}
330
18
100
AcDbEntity
  8
Modules
100
AcDbPolyline
 90
        6
 70
     1
 43
0.0
 10
309.7934232723485
 20
147.5446408898966
 10
309.15833797624
 20
146.4446408898966
 10
309.7934232723485
 20
145.3446408898966
 10
311.0635938645657
 20
145.3446408898966
 10
311.6986791606743
 20
146.4446408898966
 10
311.0635938645657
 20
147.5446408898966
  0
CIRCLE
  5
2B3DC
102
{ACAD_REACTORS
330
2B3FD
330
2B3FE
102
}
330
18
100
AcDbEntity
  8
Modules
100
AcDbCircle
 10
302.1485085684574
 20
227.6256408898965
 30
0.0
 40
1.0
  0
CIRCLE
  5
2B3DD
102
{ACAD_REACTORS
330
2B3FD
330
2B3FE
102
}
330
18
100
AcDbEntity
  8
Modules
100
AcDbCircle
 10
314.2230034925693
 20
220.7251459631844
 30
0.0
 40
11.1
  0
CIRCLE
  5
2B3DE
102
{ACAD_REACTORS
330
2B3FD
330
2B3FE
102
}
330
18
100
AcDbEntity
  8
Modules
100
AcDbCircle
 10
314.2230034925693
 20
220.7251459631844
 30
0.0
 40
9.75
  0
CIRCLE
  5
2B3DF
102
{ACAD_REACTORS
330
2B3FD
330
2B3FE
102
}
330
18
100
AcDbEntity
  8
Modules
100
AcDbCircle
 10
324.1230034826693
 20
230.6251459532843
 30
0.0
 40
2.75
  0
LWPOLYLINE
  5
2B3E0
102
{ACAD_REACTORS
330
2B3FD
330
2B3FE
102
}
330
18
100
AcDbEntity
  8
Modules
100
AcDbPolyline
 90
        6
 70
     1
 43
0.0
 10
323.4879181865607
 20
231.7251459532844
 10
322.8528328904521
 20
230.6251459532843
 10
323.4879181865607
 20
229.5251459532843
 10
324.7580887787779
 20
229.5251459532843
 10
325.3931740748865
 20
230.6251459532843
 10
324.7580887787779
 20
231.7251459532844
  0
CIRCLE
  5
2B3E1
102
{ACAD_REACTORS
330
2B3FD
330
2B3FE
102
}
330
18
100
AcDbEntity
  8
Modules
100
AcDbCircle
 10
314.2230034925693
 20
220.7251459631844
 30
0.0
 40
8.00002255446822
  0
CIRCLE
  5
2B3E2
102
{ACAD_REACTORS
330
2B3FD
330
2B3FE
102
}
330
18
100
AcDbEntity
  8
Modules
100
AcDbCircle
 10
310.2730034965193
 20
220.7061459631844
 30
0.0
 40
1.29999999870013
  0
CIRCLE
  5
2B3E3
102
{ACAD_REACTORS
330
2B3FD
330
2B3FE
102
}
330
18
100
AcDbEntity
  8
Modules
100
AcDbCircle
 10
314.2230034925693
 20
224.7561459591345
 30
0.0
 40
1.29999999870013
  0
CIRCLE
  5
2B3E4
102
{ACAD_REACTORS
330
2B3FD
330
2B3FE
102
}
330
18
100
AcDbEntity
  8
Modules
100
AcDbCircle
 10
314.2230034925693
 20
216.6561459672344
 30
0.0
 40
1.29999999870013
  0
CIRCLE
  5
2B3E5
102
{ACAD_REACTORS
330
2B3FD
330
2B3FE
102
}
330
18
100
AcDbEntity
  8
Modules
100
AcDbCircle
 10
304.3235085658571
 20
210.806651036472
 30
0.0
 40
2.75
  0
LWPOLYLINE
  5
2B3E6
102
{ACAD_REACTORS
330
2B3FD
330
2B3FE
102
}
330
18
100
AcDbEntity
  8
Modules
100
AcDbPolyline
 90
        6
 70
     1
 43
0.0
 10
303.6884232697485
 20
211.906651036472
 10
303.0533379736399
 20
210.806651036472
 10
303.6884232697485
 20
209.706651036472
 10
304.9585938619657
 20
209.706651036472
 10
305.5936791580743
 20
210.806651036472
 10
304.9585938619657
 20
211.906651036472
  0
CIRCLE
  5
2B3E7
102
{ACAD_REACTORS
330
2B3FD
330
2B3FF
102
}
330
18
100
AcDbEntity
  8
Modules
100
AcDbCircle
 10
302.1485085684574
 20
202.6256408898966
 30
0.0
 40
1.0
  0
CIRCLE
  5
2B3E8
102
{ACAD_REACTORS
330
2B3FD
330
2B3FF
102
}
330
18
100
AcDbEntity
  8
Modules
100
AcDbCircle
 10
314.2230034925693
 20
195.7251459631844
 30
0.0
 40
11.1
  0
CIRCLE
  5
2B3E9
102
{ACAD_REACTORS
330
2B3FD
330
2B3FF
102
}
330
18
100
AcDbEntity
  8
Modules
100
AcDbCircle
 10
314.2230034925693
 20
195.7251459631844
 30
0.0
 40
9.75
  0
CIRCLE
  5
2B3EA
102
{ACAD_REACTORS
330
2B3FD
330
2B3FF
102
}
330
18
100
AcDbEntity
  8
Modules
100
AcDbCircle
 10
324.1230034826693
 20
205.6251459532844
 30
0.0
 40
2.75
  0
LWPOLYLINE
  5
2B3EB
102
{ACAD_REACTORS
330
2B3FD
330
2B3FF
102
}
330
18
100
AcDbEntity
  8
Modules
100
AcDbPolyline
 90
        6
 70
     1
 43
0.0
 10
323.4879181865607
 20
206.7251459532844
 10
322.8528328904521
 20
205.6251459532844
 10
323.4879181865607
 20
204.5251459532844
 10
324.7580887787779
 20
204.5251459532844
 10
325.3931740748865
 20
205.6251459532844
 10
324.7580887787779
 20
206.7251459532844
  0
CIRCLE
  5
2B3EC
102
{ACAD_REACTORS
330
2B3FD
330
2B3FF
102
}
330
18
100
AcDbEntity
  8
Modules
100
AcDbCircle
 10
314.2230034925693
 20
195.7251459631844
 30
0.0
 40
8.00002255446822
  0
CIRCLE
  5
2B3ED
102
{ACAD_REACTORS
330
2B3FD
330
2B3FF
102
}
330
18
100
AcDbEntity
  8
Modules
100
AcDbCircle
 10
310.2730034965193
 20
195.7061459631844
 30
0.0
 40
1.29999999870013
  0
CIRCLE
  5
2B3EE
102
{ACAD_REACTORS
330
2B3FD
330
2B3FF
102
}
330
18
100
AcDbEntity
  8
Modules
100
AcDbCircle
 10
314.2230034925693
 20
199.7561459591345
 30
0.0
 40
1.29999999870013
  0
CIRCLE
  5
2B3EF
102
{ACAD_REACTORS
330
2B3FD
330
2B3FF
102
}
330
18
100
AcDbEntity
  8
Modules
100
AcDbCircle
 10
314.2230034925693
 20
191.6561459672344
 30
0.0
 40
1.29999999870013
  0
CIRCLE
  5
2B3F0
102
{ACAD_REACTORS
330
2B3FD
330
2B3FF
102
}
330
18
100
AcDbEntity
  8
Modules
100
AcDbCircle
 10
304.3235085658571
 20
185.8066510364721
 30
0.0
 40
2.75
  0
LWPOLYLINE
  5
2B3F1
102
{ACAD_REACTORS
330
2B3FD
330
2B3FF
102
}
330
18
100
AcDbEntity
  8
Modules
100
AcDbPolyline
 90
        6
 70
     1
 43
0.0
 10
303.6884232697485
 20
186.9066510364721
 10
303.0533379736399
 20
185.8066510364721
 10
303.6884232697485
 20
184.7066510364721
 10
304.9585938619657
 20
184.7066510364721
 10
305.5936791580743
 20
185.8066510364721
 10
304.9585938619657
 20
186.9066510364721
  0
CIRCLE
  5
2B3F2
102
{ACAD_REACTORS
330
2B3FD
330
2B400
102
}
330
18
100
AcDbEntity
  8
Modules
100
AcDbCircle
 10
302.1485085684574
 20
177.6256408898965
 30
0.0
 40
1.0
  0
CIRCLE
  5
2B3F3
102
{ACAD_REACTORS
330
2B3FD
330
2B400
102
}
330
18
100
AcDbEntity
  8
Modules
100
AcDbCircle
 10
314.2230034925693
 20
170.7251459631844
 30
0.0
 40
11.1
  0
CIRCLE
  5
2B3F4
102
{ACAD_REACTORS
330
2B3FD
330
2B400
102
}
330
18
100
AcDbEntity
  8
Modules
100
AcDbCircle
 10
314.2230034925693
 20
170.7251459631844
 30
0.0
 40
9.75
  0
CIRCLE
  5
2B3F5
102
{ACAD_REACTORS
330
2B3FD
330
2B400
102
}
330
18
100
AcDbEntity
  8
Modules
100
AcDbCircle
 10
324.1230034826693
 20
180.6251459532843
 30
0.0
 40
2.75
  0
LWPOLYLINE
  5
2B3F6
102
{ACAD_REACTORS
330
2B3FD
330
2B400
102
}
330
18
100
AcDbEntity
  8
Modules
100
AcDbPolyline
 90
        6
 70
     1
 43
0.0
 10
323.4879181865607
 20
181.7251459532844
 10
322.8528328904521
 20
180.6251459532843
 10
323.4879181865607
 20
179.5251459532843
 10
324.7580887787779
 20
179.5251459532843
 10
325.3931740748865
 20
180.6251459532843
 10
324.7580887787779
 20
181.7251459532844
  0
CIRCLE
  5
2B3F7
102
{ACAD_REACTORS
330
2B3FD
330
2B400
102
}
330
18
100
AcDbEntity
  8
Modules
100
AcDbCircle
 10
314.2230034925693
 20
170.7251459631844
 30
0.0
 40
8.00002255446822
  0
CIRCLE
  5
2B3F8
102
{ACAD_REACTORS
330
2B3FD
330
2B400
102
}
330
18
100
AcDbEntity
  8
Modules
100
AcDbCircle
 10
310.2730034965193
 20
170.7061459631844
 30
0.0
 40
1.29999999870013
  0
CIRCLE
  5
2B3F9
102
{ACAD_REACTORS
330
2B3FD
330
2B400
102
}
330
18
100
AcDbEntity
  8
Modules
100
AcDbCircle
 10
314.2230034925693
 20
174.7561459591344
 30
0.0
 40
1.29999999870013
  0
CIRCLE
  5
2B3FA
102
{ACAD_REACTORS
330
2B3FD
330
2B400
102
}
330
18
100
AcDbEntity
  8
Modules
100
AcDbCircle
 10
314.2230034925693
 20
166.6561459672344
 30
0.0
 40
1.29999999870013
  0
CIRCLE
  5
2B3FB
102
{ACAD_REACTORS
330
2B3FD
330
2B400
102
}
330
18
100
AcDbEntity
  8
Modules
100
AcDbCircle
 10
304.3235085658571
 20
160.806651036472
 30
0.0
 40
2.75
  0
LWPOLYLINE
  5
2B3FC
102
{ACAD_REACTORS
330
2B3FD
330
2B400
102
}
330
18
100
AcDbEntity
  8
Modules
100
AcDbPolyline
 90
        6
 70
     1
 43
0.0
 10
303.6884232697485
 20
161.906651036472
 10
303.0533379736399
 20
160.806651036472
 10
303.6884232697485
 20
159.706651036472
 10
304.9585938619657
 20
159.706651036472
 10
305.5936791580743
 20
160.806651036472
 10
304.9585938619657
 20
161.906651036472
  0
POINT
  5
2B402
102
{ACAD_REACTORS
330
2B461
102
}
330
18
100
AcDbEntity
  8
Modules
100
AcDbPoint
 10
510.8685085684571
 20
271.8446408898966
 30
0.0
  0
CIRCLE
  5
2B403
102
{ACAD_REACTORS
330
2B461
330
2B462
102
}
330
18
100
AcDbEntity
  8
Modules
100
AcDbCircle
 10
485.0285085684574
 20
252.6446408898966
 30
0.0
 40
1.0
  0
CIRCLE
  5
2B404
102
{ACAD_REACTORS
330
2B461
330
2B462
102
}
330
18
100
AcDbEntity
  8
Modules
100
AcDbCircle
 10
497.1030034925693
 20
245.7441459631844
 30
0.0
 40
11.1
  0
CIRCLE
  5
2B405
102
{ACAD_REACTORS
330
2B461
330
2B462
102
}
330
18
100
AcDbEntity
  8
Modules
100
AcDbCircle
 10
497.1030034925693
 20
245.7441459631844
 30
0.0
 40
9.75
  0
LWPOLYLINE
  5
2B406
102
{ACAD_REACTORS
330
2B461
102
}
330
18
100
AcDbEntity
  8
Modules
100
AcDbPolyline
 90
        4
 70
     1
 43
0.0
 10
480.7285085684567
 20
271.8446408898966
 10
510.8685085684571
 20
271.8446408898966
 10
510.8685085684571
 20
143.4446408898966
 10
480.7285085684567
 20
143.4446408898966
  0
CIRCLE
  5
2B407
102
{ACAD_REACTORS
330
2B461
102
}
330
18
100
AcDbEntity
  8
Modules
100
AcDbCircle
 10
493.3085085684573
 20
268.8446408898966
 30
0.0
 40
2.45
  0
LWPOLYLINE
  5
2B408
102
{ACAD_REACTORS
330
2B461
102
}
330
18
100
AcDbEntity
  8
Modules
100
AcDbPolyline
 90
        6
 70
     1
 43
0.0
 10
492.6734232723487
 20
269.9446408898966
 10
492.0383379762401
 20
268.8446408898966
 10
492.6734232723487
 20
267.7446408898966
 10
493.9435938645658
 20
267.7446408898966
 10
494.5786791606744
 20
268.8446408898966
 10
493.9435938645658
 20
269.9446408898966
  0
CIRCLE
  5
2B409
102
{ACAD_REACTORS
330
2B461
330
2B462
102
}
330
18
100
AcDbEntity
  8
Modules
100
AcDbCircle
 10
507.0030034826693
 20
255.6441459532844
 30
0.0
 40
2.75
  0
LWPOLYLINE
  5
2B40A
102
{ACAD_REACTORS
330
2B461
330
2B462
102
}
330
18
100
AcDbEntity
  8
Modules
100
AcDbPolyline
 90
        6
 70
     1
 43
0.0
 10
506.3679181865607
 20
256.7441459532844
 10
505.7328328904522
 20
255.6441459532844
 10
506.3679181865607
 20
254.5441459532844
 10
507.6380887787778
 20
254.5441459532844
 10
508.2731740748864
 20
255.6441459532844
 10
507.6380887787778
 20
256.7441459532844
  0
CIRCLE
  5
2B40B
102
{ACAD_REACTORS
330
2B461
330
2B462
102
}
330
18
100
AcDbEntity
  8
Modules
100
AcDbCircle
 10
497.1030034925693
 20
245.7441459631844
 30
0.0
 40
8.00002255446822
  0
CIRCLE
  5
2B40C
102
{ACAD_REACTORS
330
2B461
330
2B462
102
}
330
18
100
AcDbEntity
  8
Modules
100
AcDbCircle
 10
493.1530034965193
 20
245.7251459631844
 30
0.0
 40
1.29999999870013
  0
CIRCLE
  5
2B40D
102
{ACAD_REACTORS
330
2B461
330
2B462
102
}
330
18
100
AcDbEntity
  8
Modules
100
AcDbCircle
 10
497.1030034925693
 20
249.7751459591345
 30
0.0
 40
1.29999999870013
  0
CIRCLE
  5
2B40E
102
{ACAD_REACTORS
330
2B461
330
2B462
102
}
330
18
100
AcDbEntity
  8
Modules
100
AcDbCircle
 10
497.1030034925693
 20
241.6751459672345
 30
0.0
 40
1.29999999870013
  0
CIRCLE
  5
2B40F
102
{ACAD_REACTORS
330
2B461
102
}
330
18
100
AcDbEntity
  8
Modules
100
AcDbCircle
 10
487.2035085658571
 20
235.8256510364721
 30
0.0
 40
2.75
  0
LWPOLYLINE
  5
2B410
102
{ACAD_REACTORS
330
2B461
330
2B462
102
}
330
18
100
AcDbEntity
  8
Modules
100
AcDbPolyline
 90
        6
 70
     1
 43
0.0
 10
486.5684232697486
 20
236.9256510364721
 10
485.9333379736399
 20
235.8256510364721
 10
486.5684232697486
 20
234.7256510364721
 10
487.8385938619657
 20
234.7256510364721
 10
488.4736791580743
 20
235.8256510364721
 10
487.8385938619657
 20
236.9256510364721
  0
CIRCLE
  5
2B411
102
{ACAD_REACTORS
330
2B461
330
2B463
102
}
330
18
100
AcDbEntity
  8
Modules
100
AcDbCircle
 10
485.0285085684574
 20
227.6256408898965
 30
0.0
 40
1.0
  0
CIRCLE
  5
2B412
102
{ACAD_REACTORS
330
2B461
330
2B463
102
}
330
18
100
AcDbEntity
  8
Modules
100
AcDbCircle
 10
497.1030034925693
 20
220.7251459631844
 30
0.0
 40
11.1
  0
CIRCLE
  5
2B413
102
{ACAD_REACTORS
330
2B461
330
2B463
102
}
330
18
100
AcDbEntity
  8
Modules
100
AcDbCircle
 10
497.1030034925693
 20
220.7251459631844
 30
0.0
 40
9.75
  0
CIRCLE
  5
2B414
102
{ACAD_REACTORS
330
2B461
330
2B463
102
}
330
18
100
AcDbEntity
  8
Modules
100
AcDbCircle
 10
507.0030034826693
 20
230.6251459532843
 30
0.0
 40
2.75
  0
LWPOLYLINE
  5
2B415
102
{ACAD_REACTORS
330
2B461
330
2B463
102
}
330
18
100
AcDbEntity
  8
Modules
100
AcDbPolyline
 90
        6
 70
     1
 43
0.0
 10
506.3679181865607
 20
231.7251459532844
 10
505.7328328904522
 20
230.6251459532843
 10
506.3679181865607
 20
229.5251459532843
 10
507.6380887787778
 20
229.5251459532843
 10
508.2731740748864
 20
230.6251459532843
 10
507.6380887787778
 20
231.7251459532844
  0
CIRCLE
  5
2B416
102
{ACAD_REACTORS
330
2B461
330
2B463
102
}
330
18
100
AcDbEntity
  8
Modules
100
AcDbCircle
 10
493.1530034965193
 20
220.7061459631844
 30
0.0
 40
1.29999999870013
  0
CIRCLE
  5
2B417
102
{ACAD_REACTORS
330
2B461
330
2B463
102
}
330
18
100
AcDbEntity
  8
Modules
100
AcDbCircle
 10
497.1030034925693
 20
224.7561459591345
 30
0.0
 40
1.29999999870013
  0
CIRCLE
  5
2B418
102
{ACAD_REACTORS
330
2B461
330
2B463
102
}
330
18
100
AcDbEntity
  8
Modules
100
AcDbCircle
 10
497.1030034925693
 20
216.6561459672344
 30
0.0
 40
1.29999999870013
  0
CIRCLE
  5
2B419
102
{ACAD_REACTORS
330
2B461
330
2B463
102
}
330
18
100
AcDbEntity
  8
Modules
100
AcDbCircle
 10
487.2035085658571
 20
210.806651036472
 30
0.0
 40
2.75
  0
LWPOLYLINE
  5
2B41A
102
{ACAD_REACTORS
330
2B461
330
2B463
102
}
330
18
100
AcDbEntity
  8
Modules
100
AcDbPolyline
 90
        6
 70
     1
 43
0.0
 10
486.5684232697486
 20
211.906651036472
 10
485.9333379736399
 20
210.806651036472
 10
486.5684232697486
 20
209.706651036472
 10
487.8385938619657
 20
209.706651036472
 10
488.4736791580743
 20
210.806651036472
 10
487.8385938619657
 20
211.906651036472
  0
CIRCLE
  5
2B41B
102
{ACAD_REACTORS
330
2B461
330
2B464
102
}
330
18
100
AcDbEntity
  8
Modules
100
AcDbCircle
 10
485.0285085684574
 20
202.6256408898966
 30
0.0
 40
1.0
  0
CIRCLE
  5
2B41C
102
{ACAD_REACTORS
330
2B461
330
2B464
102
}
330
18
100
AcDbEntity
  8
Modules
100
AcDbCircle
 10
497.1030034925693
 20
195.7251459631844
 30
0.0
 40
11.1
  0
CIRCLE
  5
2B41D
102
{ACAD_REACTORS
330
2B461
330
2B464
102
}
330
18
100
AcDbEntity
  8
Modules
100
AcDbCircle
 10
497.1030034925693
 20
195.7251459631844
 30
0.0
 40
9.75
  0
CIRCLE
  5
2B41E
102
{ACAD_REACTORS
330
2B461
330
2B464
102
}
330
18
100
AcDbEntity
  8
Modules
100
AcDbCircle
 10
507.0030034826693
 20
205.6251459532844
 30
0.0
 40
2.75
  0
LWPOLYLINE
  5
2B41F
102
{ACAD_REACTORS
330
2B461
330
2B464
102
}
330
18
100
AcDbEntity
  8
Modules
100
AcDbPolyline
 90
        6
 70
     1
 43
0.0
 10
506.3679181865607
 20
206.7251459532844
 10
505.7328328904522
 20
205.6251459532844
 10
506.3679181865607
 20
204.5251459532844
 10
507.6380887787778
 20
204.5251459532844
 10
508.2731740748864
 20
205.6251459532844
 10
507.6380887787778
 20
206.7251459532844
  0
CIRCLE
  5
2B420
102
{ACAD_REACTORS
330
2B461
330
2B464
102
}
330
18
100
AcDbEntity
  8
Modules
100
AcDbCircle
 10
497.1030034925693
 20
195.7251459631844
 30
0.0
 40
8.00002255446822
  0
CIRCLE
  5
2B421
102
{ACAD_REACTORS
330
2B461
330
2B464
102
}
330
18
100
AcDbEntity
  8
Modules
100
AcDbCircle
 10
493.1530034965193
 20
195.7061459631844
 30
0.0
 40
1.29999999870013
  0
CIRCLE
  5
2B422
102
{ACAD_REACTORS
330
2B461
330
2B464
102
}
330
18
100
AcDbEntity
  8
Modules
100
AcDbCircle
 10
497.1030034925693
 20
199.7561459591345
 30
0.0
 40
1.29999999870013
  0
CIRCLE
  5
2B423
102
{ACAD_REACTORS
330
2B461
330
2B464
102
}
330
18
100
AcDbEntity
  8
Modules
100
AcDbCircle
 10
497.1030034925693
 20
191.6561459672344
 30
0.0
 40
1.29999999870013
  0
LWPOLYLINE
  5
2B424
102
{ACAD_REACTORS
330
2B461
330
2B464
102
}
330
18
100
AcDbEntity
  8
Modules
100
AcDbPolyline
 90
        6
 70
     1
 43
0.0
 10
486.5684232697486
 20
186.9066510364721
 10
485.9333379736399
 20
185.8066510364721
 10
486.5684232697486
 20
184.7066510364721
 10
487.8385938619657
 20
184.7066510364721
 10
488.4736791580743
 20
185.8066510364721
 10
487.8385938619657
 20
186.9066510364721
  0
CIRCLE
  5
2B425
102
{ACAD_REACTORS
330
2B461
330
2B465
102
}
330
18
100
AcDbEntity
  8
Modules
100
AcDbCircle
 10
485.0285085684574
 20
177.6066408898965
 30
0.0
 40
1.0
  0
CIRCLE
  5
2B426
102
{ACAD_REACTORS
330
2B461
330
2B465
102
}
330
18
100
AcDbEntity
  8
Modules
100
AcDbCircle
 10
497.1030034925693
 20
170.7061459631844
 30
0.0
 40
11.1
  0
CIRCLE
  5
2B427
102
{ACAD_REACTORS
330
2B461
330
2B465
102
}
330
18
100
AcDbEntity
  8
Modules
100
AcDbCircle
 10
497.1030034925693
 20
170.7061459631844
 30
0.0
 40
9.75
  0
CIRCLE
  5
2B428
102
{ACAD_REACTORS
330
2B461
330
2B465
102
}
330
18
100
AcDbEntity
  8
Modules
100
AcDbCircle
 10
507.0030034826693
 20
180.6061459532843
 30
0.0
 40
2.75
  0
LWPOLYLINE
  5
2B429
102
{ACAD_REACTORS
330
2B461
330
2B465
102
}
330
18
100
AcDbEntity
  8
Modules
100
AcDbPolyline
 90
        6
 70
     1
 43
0.0
 10
506.3679181865607
 20
181.7061459532843
 10
505.7328328904522
 20
180.6061459532843
 10
506.3679181865607
 20
179.5061459532843
 10
507.6380887787778
 20
179.5061459532843
 10
508.2731740748864
 20
180.6061459532843
 10
507.6380887787778
 20
181.7061459532843
  0
CIRCLE
  5
2B42A
102
{ACAD_REACTORS
330
2B461
330
2B465
102
}
330
18
100
AcDbEntity
  8
Modules
100
AcDbCircle
 10
493.1530034965193
 20
170.6871459631843
 30
0.0
 40
1.29999999870013
  0
CIRCLE
  5
2B42B
102
{ACAD_REACTORS
330
2B461
330
2B465
102
}
330
18
100
AcDbEntity
  8
Modules
100
AcDbCircle
 10
497.1030034925693
 20
174.7371459591344
 30
0.0
 40
1.29999999870013
  0
CIRCLE
  5
2B42C
102
{ACAD_REACTORS
330
2B461
330
2B465
102
}
330
18
100
AcDbEntity
  8
Modules
100
AcDbCircle
 10
497.1030034925693
 20
166.6371459672344
 30
0.0
 40
1.29999999870013
  0
CIRCLE
  5
2B42D
102
{ACAD_REACTORS
330
2B461
330
2B465
102
}
330
18
100
AcDbEntity
  8
Modules
100
AcDbCircle
 10
487.2035085658571
 20
160.787651036472
 30
0.0
 40
2.75
  0
LWPOLYLINE
  5
2B42E
102
{ACAD_REACTORS
330
2B461
330
2B465
102
}
330
18
100
AcDbEntity
  8
Modules
100
AcDbPolyline
 90
        6
 70
     1
 43
0.0
 10
486.5684232697486
 20
161.887651036472
 10
485.9333379736399
 20
160.787651036472
 10
486.5684232697486
 20
159.687651036472
 10
487.8385938619657
 20
159.687651036472
 10
488.4736791580743
 20
160.787651036472
 10
487.8385938619657
 20
161.887651036472
  0
CIRCLE
  5
2B42F
102
{ACAD_REACTORS
330
2B461
102
}
330
18
100
AcDbEntity
  8
Modules
100
AcDbCircle
 10
493.3085085684571
 20
146.4446408898966
 30
0.0
 40
2.45
  0
LWPOLYLINE
  5
2B430
102
{ACAD_REACTORS
330
2B461
102
}
330
18
100
AcDbEntity
  8
Modules
100
AcDbPolyline
 90
        6
 70
     1
 43
0.0
 10
492.6734232723486
 20
147.5446408898966
 10
492.0383379762399
 20
146.4446408898966
 10
492.6734232723486
 20
145.3446408898966
 10
493.9435938645657
 20
145.3446408898966
 10
494.5786791606743
 20
146.4446408898966
 10
493.9435938645657
 20
147.5446408898966
  0
POINT
  5
2B431
102
{ACAD_REACTORS
330
2B461
102
}
330
18
100
AcDbEntity
  8
Modules
100
AcDbPoint
 10
510.8685085684571
 20
271.8446408898966
 30
0.0
  0
POINT
  5
2B432
102
{ACAD_REACTORS
330
2B466
102
}
330
18
100
AcDbEntity
  8
Modules
100
AcDbPoint
 10
419.4285085684572
 20
271.8446408898966
 30
0.0
  0
LWPOLYLINE
  5
2B433
102
{ACAD_REACTORS
330
2B466
102
}
330
18
100
AcDbEntity
  8
Modules
100
AcDbPolyline
 90
        4
 70
     1
 43
0.0
 10
389.2885085684567
 20
271.8446408898966
 10
419.4285085684572
 20
271.8446408898966
 10
419.4285085684572
 20
143.4446408898966
 10
389.2885085684567
 20
143.4446408898966
  0
CIRCLE
  5
2B434
102
{ACAD_REACTORS
330
2B466
102
}
330
18
100
AcDbEntity
  8
Modules
100
AcDbCircle
 10
401.8685085684572
 20
268.8446408898966
 30
0.0
 40
2.45
  0
LWPOLYLINE
  5
2B435
102
{ACAD_REACTORS
330
2B466
102
}
330
18
100
AcDbEntity
  8
Modules
100
AcDbPolyline
 90
        6
 70
     1
 43
0.0
 10
401.2334232723487
 20
269.9446408898966
 10
400.59833797624
 20
268.8446408898966
 10
401.2334232723487
 20
267.7446408898966
 10
402.5035938645658
 20
267.7446408898966
 10
403.1386791606744
 20
268.8446408898966
 10
402.5035938645658
 20
269.9446408898966
  0
CIRCLE
  5
2B436
102
{ACAD_REACTORS
330
2B466
102
}
330
18
100
AcDbEntity
  8
Modules
100
AcDbCircle
 10
395.7635085658571
 20
235.8256510364721
 30
0.0
 40
2.75
  0
CIRCLE
  5
2B437
102
{ACAD_REACTORS
330
2B466
330
2B467
102
}
330
18
100
AcDbEntity
  8
Modules
100
AcDbCircle
 10
393.5885085684575
 20
227.6256408898965
 30
0.0
 40
1.0
  0
CIRCLE
  5
2B438
102
{ACAD_REACTORS
330
2B466
330
2B467
102
}
330
18
100
AcDbEntity
  8
Modules
100
AcDbCircle
 10
405.6630034925693
 20
220.7251459631844
 30
0.0
 40
11.1
  0
CIRCLE
  5
2B439
102
{ACAD_REACTORS
330
2B466
330
2B467
102
}
330
18
100
AcDbEntity
  8
Modules
100
AcDbCircle
 10
405.6630034925693
 20
220.7251459631844
 30
0.0
 40
9.75
  0
CIRCLE
  5
2B43A
102
{ACAD_REACTORS
330
2B466
330
2B467
102
}
330
18
100
AcDbEntity
  8
Modules
100
AcDbCircle
 10
415.5630034826693
 20
230.6251459532843
 30
0.0
 40
2.75
  0
LWPOLYLINE
  5
2B43B
102
{ACAD_REACTORS
330
2B466
330
2B467
102
}
330
18
100
AcDbEntity
  8
Modules
100
AcDbPolyline
 90
        6
 70
     1
 43
0.0
 10
414.9279181865607
 20
231.7251459532844
 10
414.2928328904521
 20
230.6251459532843
 10
414.9279181865607
 20
229.5251459532843
 10
416.1980887787779
 20
229.5251459532843
 10
416.8331740748865
 20
230.6251459532843
 10
416.1980887787779
 20
231.7251459532844
  0
CIRCLE
  5
2B43C
102
{ACAD_REACTORS
330
2B466
330
2B467
102
}
330
18
100
AcDbEntity
  8
Modules
100
AcDbCircle
 10
401.7130034965194
 20
220.7061459631844
 30
0.0
 40
1.29999999870013
  0
CIRCLE
  5
2B43D
102
{ACAD_REACTORS
330
2B466
330
2B467
102
}
330
18
100
AcDbEntity
  8
Modules
100
AcDbCircle
 10
405.6630034925693
 20
224.7561459591345
 30
0.0
 40
1.29999999870013
  0
CIRCLE
  5
2B43E
102
{ACAD_REACTORS
330
2B466
330
2B467
102
}
330
18
100
AcDbEntity
  8
Modules
100
AcDbCircle
 10
405.6630034925693
 20
216.6561459672344
 30
0.0
 40
1.29999999870013
  0
CIRCLE
  5
2B43F
102
{ACAD_REACTORS
330
2B466
330
2B467
102
}
330
18
100
AcDbEntity
  8
Modules
100
AcDbCircle
 10
395.7635085658571
 20
210.806651036472
 30
0.0
 40
2.75
  0
LWPOLYLINE
  5
2B440
102
{ACAD_REACTORS
330
2B466
330
2B467
102
}
330
18
100
AcDbEntity
  8
Modules
100
AcDbPolyline
 90
        6
 70
     1
 43
0.0
 10
395.1284232697486
 20
211.906651036472
 10
394.4933379736399
 20
210.806651036472
 10
395.1284232697486
 20
209.706651036472
 10
396.3985938619657
 20
209.706651036472
 10
397.0336791580743
 20
210.806651036472
 10
396.3985938619657
 20
211.906651036472
  0
CIRCLE
  5
2B441
102
{ACAD_REACTORS
330
2B466
330
2B468
102
}
330
18
100
AcDbEntity
  8
Modules
100
AcDbCircle
 10
393.5885085684575
 20
177.6066408898965
 30
0.0
 40
1.0
  0
CIRCLE
  5
2B442
102
{ACAD_REACTORS
330
2B466
330
2B468
102
}
330
18
100
AcDbEntity
  8
Modules
100
AcDbCircle
 10
405.6630034925693
 20
170.7061459631844
 30
0.0
 40
11.1
  0
CIRCLE
  5
2B443
102
{ACAD_REACTORS
330
2B466
330
2B468
102
}
330
18
100
AcDbEntity
  8
Modules
100
AcDbCircle
 10
405.6630034925693
 20
170.7061459631844
 30
0.0
 40
9.75
  0
CIRCLE
  5
2B444
102
{ACAD_REACTORS
330
2B466
330
2B468
102
}
330
18
100
AcDbEntity
  8
Modules
100
AcDbCircle
 10
415.5630034826693
 20
180.6061459532843
 30
0.0
 40
2.75
  0
LWPOLYLINE
  5
2B445
102
{ACAD_REACTORS
330
2B466
330
2B468
102
}
330
18
100
AcDbEntity
  8
Modules
100
AcDbPolyline
 90
        6
 70
     1
 43
0.0
 10
414.9279181865607
 20
181.7061459532843
 10
414.2928328904521
 20
180.6061459532843
 10
414.9279181865607
 20
179.5061459532843
 10
416.1980887787779
 20
179.5061459532843
 10
416.8331740748865
 20
180.6061459532843
 10
416.1980887787779
 20
181.7061459532843
  0
CIRCLE
  5
2B446
102
{ACAD_REACTORS
330
2B466
330
2B468
102
}
330
18
100
AcDbEntity
  8
Modules
100
AcDbCircle
 10
401.7130034965194
 20
170.6871459631843
 30
0.0
 40
1.29999999870013
  0
CIRCLE
  5
2B447
102
{ACAD_REACTORS
330
2B466
330
2B468
102
}
330
18
100
AcDbEntity
  8
Modules
100
AcDbCircle
 10
405.6630034925693
 20
174.7371459591344
 30
0.0
 40
1.29999999870013
  0
CIRCLE
  5
2B448
102
{ACAD_REACTORS
330
2B466
330
2B468
102
}
330
18
100
AcDbEntity
  8
Modules
100
AcDbCircle
 10
405.6630034925693
 20
166.6371459672344
 30
0.0
 40
1.29999999870013
  0
CIRCLE
  5
2B449
102
{ACAD_REACTORS
330
2B466
330
2B468
102
}
330
18
100
AcDbEntity
  8
Modules
100
AcDbCircle
 10
395.7635085658571
 20
160.787651036472
 30
0.0
 40
2.75
  0
LWPOLYLINE
  5
2B44A
102
{ACAD_REACTORS
330
2B466
330
2B468
102
}
330
18
100
AcDbEntity
  8
Modules
100
AcDbPolyline
 90
        6
 70
     1
 43
0.0
 10
395.1284232697486
 20
161.887651036472
 10
394.4933379736399
 20
160.787651036472
 10
395.1284232697486
 20
159.687651036472
 10
396.3985938619657
 20
159.687651036472
 10
397.0336791580743
 20
160.787651036472
 10
396.3985938619657
 20
161.887651036472
  0
CIRCLE
  5
2B44B
102
{ACAD_REACTORS
330
2B466
102
}
330
18
100
AcDbEntity
  8
Modules
100
AcDbCircle
 10
401.8685085684571
 20
146.4446408898966
 30
0.0
 40
2.45
  0
LWPOLYLINE
  5
2B44C
102
{ACAD_REACTORS
330
2B466
102
}
330
18
100
AcDbEntity
  8
Modules
100
AcDbPolyline
 90
        6
 70
     1
 43
0.0
 10
401.2334232723485
 20
147.5446408898966
 10
400.5983379762399
 20
146.4446408898966
 10
401.2334232723485
 20
145.3446408898966
 10
402.5035938645657
 20
145.3446408898966
 10
403.1386791606744
 20
146.4446408898966
 10
402.5035938645657
 20
147.5446408898966
  0
CIRCLE
  5
2B44D
102
{ACAD_REACTORS
330
2B466
330
2B469
102
}
330
18
100
AcDbEntity
  8
Modules
100
AcDbCircle
 10
393.5885085684575
 20
252.6446408898966
 30
0.0
 40
1.0
  0
CIRCLE
  5
2B44E
102
{ACAD_REACTORS
330
2B466
330
2B469
102
}
330
18
100
AcDbEntity
  8
Modules
100
AcDbCircle
 10
405.6630034925693
 20
245.7441459631844
 30
0.0
 40
11.1
  0
CIRCLE
  5
2B44F
102
{ACAD_REACTORS
330
2B466
330
2B469
102
}
330
18
100
AcDbEntity
  8
Modules
100
AcDbCircle
 10
405.6630034925693
 20
245.7441459631844
 30
0.0
 40
9.75
  0
CIRCLE
  5
2B450
102
{ACAD_REACTORS
330
2B466
330
2B469
102
}
330
18
100
AcDbEntity
  8
Modules
100
AcDbCircle
 10
415.5630034826693
 20
255.6441459532844
 30
0.0
 40
2.75
  0
LWPOLYLINE
  5
2B451
102
{ACAD_REACTORS
330
2B466
330
2B469
102
}
330
18
100
AcDbEntity
  8
Modules
100
AcDbPolyline
 90
        6
 70
     1
 43
0.0
 10
414.9279181865607
 20
256.7441459532844
 10
414.2928328904521
 20
255.6441459532844
 10
414.9279181865607
 20
254.5441459532844
 10
416.1980887787779
 20
254.5441459532844
 10
416.8331740748865
 20
255.6441459532844
 10
416.1980887787779
 20
256.7441459532844
  0
CIRCLE
  5
2B452
102
{ACAD_REACTORS
330
2B466
330
2B469
102
}
330
18
100
AcDbEntity
  8
Modules
100
AcDbCircle
 10
401.7130034965194
 20
245.7251459631844
 30
0.0
 40
1.29999999870013
  0
CIRCLE
  5
2B453
102
{ACAD_REACTORS
330
2B466
330
2B469
102
}
330
18
100
AcDbEntity
  8
Modules
100
AcDbCircle
 10
405.6630034925693
 20
249.7751459591345
 30
0.0
 40
1.29999999870013
  0
CIRCLE
  5
2B454
102
{ACAD_REACTORS
330
2B466
330
2B469
102
}
330
18
100
AcDbEntity
  8
Modules
100
AcDbCircle
 10
405.6630034925693
 20
241.6751459672345
 30
0.0
 40
1.29999999870013
  0
CIRCLE
  5
2B455
102
{ACAD_REACTORS
330
2B466
330
2B469
102
}
330
18
100
AcDbEntity
  8
Modules
100
AcDbCircle
 10
395.7635085658571
 20
235.8256510364721
 30
0.0
 40
2.75
  0
LWPOLYLINE
  5
2B456
102
{ACAD_REACTORS
330
2B466
330
2B469
102
}
330
18
100
AcDbEntity
  8
Modules
100
AcDbPolyline
 90
        6
 70
     1
 43
0.0
 10
395.1284232697486
 20
236.9256510364721
 10
394.4933379736399
 20
235.8256510364721
 10
395.1284232697486
 20
234.7256510364721
 10
396.3985938619657
 20
234.7256510364721
 10
397.0336791580743
 20
235.8256510364721
 10
396.3985938619657
 20
236.9256510364721
  0
CIRCLE
  5
2B457
102
{ACAD_REACTORS
330
2B466
330
2B46A
102
}
330
18
100
AcDbEntity
  8
Modules
100
AcDbCircle
 10
393.5885085684575
 20
202.6256408898966
 30
0.0
 40
1.0
  0
CIRCLE
  5
2B458
102
{ACAD_REACTORS
330
2B466
330
2B46A
102
}
330
18
100
AcDbEntity
  8
Modules
100
AcDbCircle
 10
405.6630034925693
 20
195.7251459631844
 30
0.0
 40
11.1
  0
CIRCLE
  5
2B459
102
{ACAD_REACTORS
330
2B466
330
2B46A
102
}
330
18
100
AcDbEntity
  8
Modules
100
AcDbCircle
 10
405.6630034925693
 20
195.7251459631844
 30
0.0
 40
9.75
  0
CIRCLE
  5
2B45A
102
{ACAD_REACTORS
330
2B466
330
2B46A
102
}
330
18
100
AcDbEntity
  8
Modules
100
AcDbCircle
 10
415.5630034826693
 20
205.6251459532844
 30
0.0
 40
2.75
  0
LWPOLYLINE
  5
2B45B
102
{ACAD_REACTORS
330
2B466
330
2B46A
102
}
330
18
100
AcDbEntity
  8
Modules
100
AcDbPolyline
 90
        6
 70
     1
 43
0.0
 10
414.9279181865607
 20
206.7251459532844
 10
414.2928328904521
 20
205.6251459532844
 10
414.9279181865607
 20
204.5251459532844
 10
416.1980887787779
 20
204.5251459532844
 10
416.8331740748865
 20
205.6251459532844
 10
416.1980887787779
 20
206.7251459532844
  0
CIRCLE
  5
2B45C
102
{ACAD_REACTORS
330
2B466
330
2B46A
102
}
330
18
100
AcDbEntity
  8
Modules
100
AcDbCircle
 10
401.7130034965194
 20
195.7061459631844
 30
0.0
 40
1.29999999870013
  0
CIRCLE
  5
2B45D
102
{ACAD_REACTORS
330
2B466
330
2B46A
102
}
330
18
100
AcDbEntity
  8
Modules
100
AcDbCircle
 10
405.6630034925693
 20
199.7561459591345
 30
0.0
 40
1.29999999870013
  0
CIRCLE
  5
2B45E
102
{ACAD_REACTORS
330
2B466
330
2B46A
102
}
330
18
100
AcDbEntity
  8
Modules
100
AcDbCircle
 10
405.6630034925693
 20
191.6561459672344
 30
0.0
 40
1.29999999870013
  0
CIRCLE
  5
2B45F
102
{ACAD_REACTORS
330
2B466
330
2B46A
102
}
330
18
100
AcDbEntity
  8
Modules
100
AcDbCircle
 10
395.7635085658571
 20
185.8066510364721
 30
0.0
 40
2.75
  0
LWPOLYLINE
  5
2B460
102
{ACAD_REACTORS
330
2B466
330
2B46A
102
}
330
18
100
AcDbEntity
  8
Modules
100
AcDbPolyline
 90
        6
 70
     1
 43
0.0
 10
395.1284232697486
 20
186.9066510364721
 10
394.4933379736399
 20
185.8066510364721
 10
395.1284232697486
 20
184.7066510364721
 10
396.3985938619657
 20
184.7066510364721
 10
397.0336791580743
 20
185.8066510364721
 10
396.3985938619657
 20
186.9066510364721
  0
POINT
  5
2B46B
102
{ACAD_REACTORS
330
2B49A
102
}
330
18
100
AcDbEntity
  8
Modules
100
AcDbPoint
 10
358.4685085684571
 20
271.8446408898966
 30
0.0
  0
LWPOLYLINE
  5
2B46C
102
{ACAD_REACTORS
330
2B49A
102
}
330
18
100
AcDbEntity
  8
Modules
100
AcDbPolyline
 90
        4
 70
     1
 43
0.0
 10
328.3285085684566
 20
271.8446408898966
 10
358.4685085684571
 20
271.8446408898966
 10
358.4685085684571
 20
143.4446408898966
 10
328.3285085684566
 20
143.4446408898966
  0
CIRCLE
  5
2B46D
102
{ACAD_REACTORS
330
2B49A
102
}
330
18
100
AcDbEntity
  8
Modules
100
AcDbCircle
 10
340.9085085684572
 20
268.8446408898966
 30
0.0
 40
2.45
  0
LWPOLYLINE
  5
2B46E
102
{ACAD_REACTORS
330
2B49A
102
}
330
18
100
AcDbEntity
  8
Modules
100
AcDbPolyline
 90
        6
 70
     1
 43
0.0
 10
340.2734232723487
 20
269.9446408898966
 10
339.6383379762401
 20
268.8446408898966
 10
340.2734232723487
 20
267.7446408898966
 10
341.5435938645658
 20
267.7446408898966
 10
342.1786791606745
 20
268.8446408898966
 10
341.5435938645658
 20
269.9446408898966
  0
CIRCLE
  5
2B46F
102
{ACAD_REACTORS
330
2B49A
102
}
330
18
100
AcDbEntity
  8
Modules
100
AcDbCircle
 10
334.8035085658571
 20
235.8256510364721
 30
0.0
 40
2.75
  0
CIRCLE
  5
2B470
102
{ACAD_REACTORS
330
2B49A
330
2B49B
102
}
330
18
100
AcDbEntity
  8
Modules
100
AcDbCircle
 10
332.6285085684574
 20
227.6256408898965
 30
0.0
 40
1.0
  0
CIRCLE
  5
2B471
102
{ACAD_REACTORS
330
2B49A
330
2B49B
102
}
330
18
100
AcDbEntity
  8
Modules
100
AcDbCircle
 10
344.7030034925693
 20
220.7251459631844
 30
0.0
 40
11.1
  0
CIRCLE
  5
2B472
102
{ACAD_REACTORS
330
2B49A
330
2B49B
102
}
330
18
100
AcDbEntity
  8
Modules
100
AcDbCircle
 10
344.7030034925693
 20
220.7251459631844
 30
0.0
 40
9.75
  0
CIRCLE
  5
2B473
102
{ACAD_REACTORS
330
2B49A
330
2B49B
102
}
330
18
100
AcDbEntity
  8
Modules
100
AcDbCircle
 10
354.6030034826693
 20
230.6251459532843
 30
0.0
 40
2.75
  0
LWPOLYLINE
  5
2B474
102
{ACAD_REACTORS
330
2B49A
330
2B49B
102
}
330
18
100
AcDbEntity
  8
Modules
100
AcDbPolyline
 90
        6
 70
     1
 43
0.0
 10
353.9679181865607
 20
231.7251459532844
 10
353.3328328904521
 20
230.6251459532843
 10
353.9679181865607
 20
229.5251459532843
 10
355.2380887787779
 20
229.5251459532843
 10
355.8731740748864
 20
230.6251459532843
 10
355.2380887787779
 20
231.7251459532844
  0
CIRCLE
  5
2B475
102
{ACAD_REACTORS
330
2B49A
330
2B49B
102
}
330
18
100
AcDbEntity
  8
Modules
100
AcDbCircle
 10
340.7530034965193
 20
220.7061459631844
 30
0.0
 40
1.29999999870013
  0
CIRCLE
  5
2B476
102
{ACAD_REACTORS
330
2B49A
330
2B49B
102
}
330
18
100
AcDbEntity
  8
Modules
100
AcDbCircle
 10
344.7030034925693
 20
224.7561459591345
 30
0.0
 40
1.29999999870013
  0
CIRCLE
  5
2B477
102
{ACAD_REACTORS
330
2B49A
330
2B49B
102
}
330
18
100
AcDbEntity
  8
Modules
100
AcDbCircle
 10
344.7030034925693
 20
216.6561459672344
 30
0.0
 40
1.29999999870013
  0
CIRCLE
  5
2B478
102
{ACAD_REACTORS
330
2B49A
330
2B49B
102
}
330
18
100
AcDbEntity
  8
Modules
100
AcDbCircle
 10
334.8035085658571
 20
210.806651036472
 30
0.0
 40
2.75
  0
LWPOLYLINE
  5
2B479
102
{ACAD_REACTORS
330
2B49A
330
2B49B
102
}
330
18
100
AcDbEntity
  8
Modules
100
AcDbPolyline
 90
        6
 70
     1
 43
0.0
 10
334.1684232697485
 20
211.906651036472
 10
333.5333379736399
 20
210.806651036472
 10
334.1684232697485
 20
209.706651036472
 10
335.4385938619657
 20
209.706651036472
 10
336.0736791580743
 20
210.806651036472
 10
335.4385938619657
 20
211.906651036472
  0
CIRCLE
  5
2B47A
102
{ACAD_REACTORS
330
2B49A
330
2B49C
102
}
330
18
100
AcDbEntity
  8
Modules
100
AcDbCircle
 10
332.6285085684574
 20
177.6066408898965
 30
0.0
 40
1.0
  0
CIRCLE
  5
2B47B
102
{ACAD_REACTORS
330
2B49A
330
2B49C
102
}
330
18
100
AcDbEntity
  8
Modules
100
AcDbCircle
 10
344.7030034925693
 20
170.7061459631844
 30
0.0
 40
11.1
  0
CIRCLE
  5
2B47C
102
{ACAD_REACTORS
330
2B49A
330
2B49C
102
}
330
18
100
AcDbEntity
  8
Modules
100
AcDbCircle
 10
344.7030034925693
 20
170.7061459631844
 30
0.0
 40
9.75
  0
CIRCLE
  5
2B47D
102
{ACAD_REACTORS
330
2B49A
330
2B49C
102
}
330
18
100
AcDbEntity
  8
Modules
100
AcDbCircle
 10
354.6030034826693
 20
180.6061459532843
 30
0.0
 40
2.75
  0
LWPOLYLINE
  5
2B47E
102
{ACAD_REACTORS
330
2B49A
330
2B49C
102
}
330
18
100
AcDbEntity
  8
Modules
100
AcDbPolyline
 90
        6
 70
     1
 43
0.0
 10
353.9679181865607
 20
181.7061459532843
 10
353.3328328904521
 20
180.6061459532843
 10
353.9679181865607
 20
179.5061459532843
 10
355.2380887787779
 20
179.5061459532843
 10
355.8731740748864
 20
180.6061459532843
 10
355.2380887787779
 20
181.7061459532843
  0
CIRCLE
  5
2B47F
102
{ACAD_REACTORS
330
2B49A
330
2B49C
102
}
330
18
100
AcDbEntity
  8
Modules
100
AcDbCircle
 10
340.7530034965193
 20
170.6871459631843
 30
0.0
 40
1.29999999870013
  0
CIRCLE
  5
2B480
102
{ACAD_REACTORS
330
2B49A
330
2B49C
102
}
330
18
100
AcDbEntity
  8
Modules
100
AcDbCircle
 10
344.7030034925693
 20
174.7371459591344
 30
0.0
 40
1.29999999870013
  0
CIRCLE
  5
2B481
102
{ACAD_REACTORS
330
2B49A
330
2B49C
102
}
330
18
100
AcDbEntity
  8
Modules
100
AcDbCircle
 10
344.7030034925693
 20
166.6371459672344
 30
0.0
 40
1.29999999870013
  0
CIRCLE
  5
2B482
102
{ACAD_REACTORS
330
2B49A
330
2B49C
102
}
330
18
100
AcDbEntity
  8
Modules
100
AcDbCircle
 10
334.8035085658571
 20
160.787651036472
 30
0.0
 40
2.75
  0
LWPOLYLINE
  5
2B483
102
{ACAD_REACTORS
330
2B49A
330
2B49C
102
}
330
18
100
AcDbEntity
  8
Modules
100
AcDbPolyline
 90
        6
 70
     1
 43
0.0
 10
334.1684232697485
 20
161.887651036472
 10
333.5333379736399
 20
160.787651036472
 10
334.1684232697485
 20
159.687651036472
 10
335.4385938619657
 20
159.687651036472
 10
336.0736791580743
 20
160.787651036472
 10
335.4385938619657
 20
161.887651036472
  0
CIRCLE
  5
2B484
102
{ACAD_REACTORS
330
2B49A
102
}
330
18
100
AcDbEntity
  8
Modules
100
AcDbCircle
 10
340.9085085684572
 20
146.4446408898966
 30
0.0
 40
2.45
  0
LWPOLYLINE
  5
2B485
102
{ACAD_REACTORS
330
2B49A
102
}
330
18
100
AcDbEntity
  8
Modules
100
AcDbPolyline
 90
        6
 70
     1
 43
0.0
 10
340.2734232723485
 20
147.5446408898966
 10
339.6383379762399
 20
146.4446408898966
 10
340.2734232723485
 20
145.3446408898966
 10
341.5435938645657
 20
145.3446408898966
 10
342.1786791606743
 20
146.4446408898966
 10
341.5435938645657
 20
147.5446408898966
  0
CIRCLE
  5
2B486
102
{ACAD_REACTORS
330
2B49A
330
2B49D
102
}
330
18
100
AcDbEntity
  8
Modules
100
AcDbCircle
 10
332.6285085684574
 20
252.6446408898966
 30
0.0
 40
1.0
  0
CIRCLE
  5
2B487
102
{ACAD_REACTORS
330
2B49A
330
2B49D
102
}
330
18
100
AcDbEntity
  8
Modules
100
AcDbCircle
 10
344.7030034925693
 20
245.7441459631844
 30
0.0
 40
11.1
  0
CIRCLE
  5
2B488
102
{ACAD_REACTORS
330
2B49A
330
2B49D
102
}
330
18
100
AcDbEntity
  8
Modules
100
AcDbCircle
 10
344.7030034925693
 20
245.7441459631844
 30
0.0
 40
9.75
  0
CIRCLE
  5
2B489
102
{ACAD_REACTORS
330
2B49A
330
2B49D
102
}
330
18
100
AcDbEntity
  8
Modules
100
AcDbCircle
 10
354.6030034826693
 20
255.6441459532844
 30
0.0
 40
2.75
  0
LWPOLYLINE
  5
2B48A
102
{ACAD_REACTORS
330
2B49A
330
2B49D
102
}
330
18
100
AcDbEntity
  8
Modules
100
AcDbPolyline
 90
        6
 70
     1
 43
0.0
 10
353.9679181865607
 20
256.7441459532844
 10
353.3328328904521
 20
255.6441459532844
 10
353.9679181865607
 20
254.5441459532844
 10
355.2380887787779
 20
254.5441459532844
 10
355.8731740748864
 20
255.6441459532844
 10
355.2380887787779
 20
256.7441459532844
  0
CIRCLE
  5
2B48B
102
{ACAD_REACTORS
330
2B49A
330
2B49D
102
}
330
18
100
AcDbEntity
  8
Modules
100
AcDbCircle
 10
340.7530034965193
 20
245.7251459631844
 30
0.0
 40
1.29999999870013
  0
CIRCLE
  5
2B48C
102
{ACAD_REACTORS
330
2B49A
330
2B49D
102
}
330
18
100
AcDbEntity
  8
Modules
100
AcDbCircle
 10
344.7030034925693
 20
249.7751459591345
 30
0.0
 40
1.29999999870013
  0
CIRCLE
  5
2B48D
102
{ACAD_REACTORS
330
2B49A
330
2B49D
102
}
330
18
100
AcDbEntity
  8
Modules
100
AcDbCircle
 10
344.7030034925693
 20
241.6751459672345
 30
0.0
 40
1.29999999870013
  0
CIRCLE
  5
2B48E
102
{ACAD_REACTORS
330
2B49A
330
2B49D
102
}
330
18
100
AcDbEntity
  8
Modules
100
AcDbCircle
 10
334.8035085658571
 20
235.8256510364721
 30
0.0
 40
2.75
  0
LWPOLYLINE
  5
2B48F
102
{ACAD_REACTORS
330
2B49A
330
2B49D
102
}
330
18
100
AcDbEntity
  8
Modules
100
AcDbPolyline
 90
        6
 70
     1
 43
0.0
 10
334.1684232697485
 20
236.9256510364721
 10
333.5333379736399
 20
235.8256510364721
 10
334.1684232697485
 20
234.7256510364721
 10
335.4385938619657
 20
234.7256510364721
 10
336.0736791580743
 20
235.8256510364721
 10
335.4385938619657
 20
236.9256510364721
  0
CIRCLE
  5
2B490
102
{ACAD_REACTORS
330
2B49A
330
2B49E
102
}
330
18
100
AcDbEntity
  8
Modules
100
AcDbCircle
 10
332.6285085684574
 20
202.6256408898966
 30
0.0
 40
1.0
  0
CIRCLE
  5
2B491
102
{ACAD_REACTORS
330
2B49A
330
2B49E
102
}
330
18
100
AcDbEntity
  8
Modules
100
AcDbCircle
 10
344.7030034925693
 20
195.7251459631844
 30
0.0
 40
11.1
  0
CIRCLE
  5
2B492
102
{ACAD_REACTORS
330
2B49A
330
2B49E
102
}
330
18
100
AcDbEntity
  8
Modules
100
AcDbCircle
 10
344.7030034925693
 20
195.7251459631844
 30
0.0
 40
9.75
  0
CIRCLE
  5
2B493
102
{ACAD_REACTORS
330
2B49A
330
2B49E
102
}
330
18
100
AcDbEntity
  8
Modules
100
AcDbCircle
 10
354.6030034826693
 20
205.6251459532844
 30
0.0
 40
2.75
  0
LWPOLYLINE
  5
2B494
102
{ACAD_REACTORS
330
2B49A
330
2B49E
102
}
330
18
100
AcDbEntity
  8
Modules
100
AcDbPolyline
 90
        6
 70
     1
 43
0.0
 10
353.9679181865607
 20
206.7251459532844
 10
353.3328328904521
 20
205.6251459532844
 10
353.9679181865607
 20
204.5251459532844
 10
355.2380887787779
 20
204.5251459532844
 10
355.8731740748864
 20
205.6251459532844
 10
355.2380887787779
 20
206.7251459532844
  0
CIRCLE
  5
2B495
102
{ACAD_REACTORS
330
2B49A
330
2B49E
102
}
330
18
100
AcDbEntity
  8
Modules
100
AcDbCircle
 10
340.7530034965193
 20
195.7061459631844
 30
0.0
 40
1.29999999870013
  0
CIRCLE
  5
2B496
102
{ACAD_REACTORS
330
2B49A
330
2B49E
102
}
330
18
100
AcDbEntity
  8
Modules
100
AcDbCircle
 10
344.7030034925693
 20
199.7561459591345
 30
0.0
 40
1.29999999870013
  0
CIRCLE
  5
2B497
102
{ACAD_REACTORS
330
2B49A
330
2B49E
102
}
330
18
100
AcDbEntity
  8
Modules
100
AcDbCircle
 10
344.7030034925693
 20
191.6561459672344
 30
0.0
 40
1.29999999870013
  0
CIRCLE
  5
2B498
102
{ACAD_REACTORS
330
2B49A
330
2B49E
102
}
330
18
100
AcDbEntity
  8
Modules
100
AcDbCircle
 10
334.8035085658571
 20
185.8066510364721
 30
0.0
 40
2.75
  0
LWPOLYLINE
  5
2B499
102
{ACAD_REACTORS
330
2B49A
330
2B49E
102
}
330
18
100
AcDbEntity
  8
Modules
100
AcDbPolyline
 90
        6
 70
     1
 43
0.0
 10
334.1684232697485
 20
186.9066510364721
 10
333.5333379736399
 20
185.8066510364721
 10
334.1684232697485
 20
184.7066510364721
 10
335.4385938619657
 20
184.7066510364721
 10
336.0736791580743
 20
185.8066510364721
 10
335.4385938619657
 20
186.9066510364721
  0
POINT
  5
2B49F
102
{ACAD_REACTORS
330
2B4CE
102
}
330
18
100
AcDbEntity
  8
Modules
100
AcDbPoint
 10
449.9085085684572
 20
271.8446408898966
 30
0.0
  0
LWPOLYLINE
  5
2B4A0
102
{ACAD_REACTORS
330
2B4CE
102
}
330
18
100
AcDbEntity
  8
Modules
100
AcDbPolyline
 90
        4
 70
     1
 43
0.0
 10
419.7685085684566
 20
271.8446408898966
 10
449.9085085684572
 20
271.8446408898966
 10
449.9085085684572
 20
143.4446408898966
 10
419.7685085684566
 20
143.4446408898966
  0
CIRCLE
  5
2B4A1
102
{ACAD_REACTORS
330
2B4CE
102
}
330
18
100
AcDbEntity
  8
Modules
100
AcDbCircle
 10
432.3485085684573
 20
268.8446408898966
 30
0.0
 40
2.45
  0
LWPOLYLINE
  5
2B4A2
102
{ACAD_REACTORS
330
2B4CE
102
}
330
18
100
AcDbEntity
  8
Modules
100
AcDbPolyline
 90
        6
 70
     1
 43
0.0
 10
431.7134232723487
 20
269.9446408898966
 10
431.07833797624
 20
268.8446408898966
 10
431.7134232723487
 20
267.7446408898966
 10
432.9835938645659
 20
267.7446408898966
 10
433.6186791606745
 20
268.8446408898966
 10
432.9835938645659
 20
269.9446408898966
  0
CIRCLE
  5
2B4A3
102
{ACAD_REACTORS
330
2B4CE
102
}
330
18
100
AcDbEntity
  8
Modules
100
AcDbCircle
 10
426.2435085658571
 20
235.8256510364721
 30
0.0
 40
2.75
  0
CIRCLE
  5
2B4A4
102
{ACAD_REACTORS
330
2B4CE
330
2B4CF
102
}
330
18
100
AcDbEntity
  8
Modules
100
AcDbCircle
 10
424.0685085684575
 20
227.6256408898965
 30
0.0
 40
1.0
  0
CIRCLE
  5
2B4A5
102
{ACAD_REACTORS
330
2B4CE
330
2B4CF
102
}
330
18
100
AcDbEntity
  8
Modules
100
AcDbCircle
 10
436.1430034925693
 20
220.7251459631844
 30
0.0
 40
11.1
  0
CIRCLE
  5
2B4A6
102
{ACAD_REACTORS
330
2B4CE
330
2B4CF
102
}
330
18
100
AcDbEntity
  8
Modules
100
AcDbCircle
 10
436.1430034925693
 20
220.7251459631844
 30
0.0
 40
9.75
  0
CIRCLE
  5
2B4A7
102
{ACAD_REACTORS
330
2B4CE
330
2B4CF
102
}
330
18
100
AcDbEntity
  8
Modules
100
AcDbCircle
 10
446.0430034826693
 20
230.6251459532843
 30
0.0
 40
2.75
  0
LWPOLYLINE
  5
2B4A8
102
{ACAD_REACTORS
330
2B4CE
330
2B4CF
102
}
330
18
100
AcDbEntity
  8
Modules
100
AcDbPolyline
 90
        6
 70
     1
 43
0.0
 10
445.4079181865608
 20
231.7251459532844
 10
444.7728328904521
 20
230.6251459532843
 10
445.4079181865608
 20
229.5251459532843
 10
446.6780887787779
 20
229.5251459532843
 10
447.3131740748865
 20
230.6251459532843
 10
446.6780887787779
 20
231.7251459532844
  0
CIRCLE
  5
2B4A9
102
{ACAD_REACTORS
330
2B4CE
330
2B4CF
102
}
330
18
100
AcDbEntity
  8
Modules
100
AcDbCircle
 10
432.1930034965194
 20
220.7061459631844
 30
0.0
 40
1.29999999870013
  0
CIRCLE
  5
2B4AA
102
{ACAD_REACTORS
330
2B4CE
330
2B4CF
102
}
330
18
100
AcDbEntity
  8
Modules
100
AcDbCircle
 10
436.1430034925693
 20
224.7561459591345
 30
0.0
 40
1.29999999870013
  0
CIRCLE
  5
2B4AB
102
{ACAD_REACTORS
330
2B4CE
330
2B4CF
102
}
330
18
100
AcDbEntity
  8
Modules
100
AcDbCircle
 10
436.1430034925693
 20
216.6561459672344
 30
0.0
 40
1.29999999870013
  0
CIRCLE
  5
2B4AC
102
{ACAD_REACTORS
330
2B4CE
330
2B4CF
102
}
330
18
100
AcDbEntity
  8
Modules
100
AcDbCircle
 10
426.2435085658571
 20
210.806651036472
 30
0.0
 40
2.75
  0
LWPOLYLINE
  5
2B4AD
102
{ACAD_REACTORS
330
2B4CE
330
2B4CF
102
}
330
18
100
AcDbEntity
  8
Modules
100
AcDbPolyline
 90
        6
 70
     1
 43
0.0
 10
425.6084232697485
 20
211.906651036472
 10
424.9733379736399
 20
210.806651036472
 10
425.6084232697485
 20
209.706651036472
 10
426.8785938619656
 20
209.706651036472
 10
427.5136791580743
 20
210.806651036472
 10
426.8785938619656
 20
211.906651036472
  0
CIRCLE
  5
2B4AE
102
{ACAD_REACTORS
330
2B4CE
330
2B4D0
102
}
330
18
100
AcDbEntity
  8
Modules
100
AcDbCircle
 10
424.0685085684575
 20
177.6066408898965
 30
0.0
 40
1.0
  0
CIRCLE
  5
2B4AF
102
{ACAD_REACTORS
330
2B4CE
330
2B4D0
102
}
330
18
100
AcDbEntity
  8
Modules
100
AcDbCircle
 10
436.1430034925693
 20
170.7061459631844
 30
0.0
 40
11.1
  0
CIRCLE
  5
2B4B0
102
{ACAD_REACTORS
330
2B4CE
330
2B4D0
102
}
330
18
100
AcDbEntity
  8
Modules
100
AcDbCircle
 10
436.1430034925693
 20
170.7061459631844
 30
0.0
 40
9.75
  0
CIRCLE
  5
2B4B1
102
{ACAD_REACTORS
330
2B4CE
330
2B4D0
102
}
330
18
100
AcDbEntity
  8
Modules
100
AcDbCircle
 10
446.0430034826693
 20
180.6061459532843
 30
0.0
 40
2.75
  0
LWPOLYLINE
  5
2B4B2
102
{ACAD_REACTORS
330
2B4CE
330
2B4D0
102
}
330
18
100
AcDbEntity
  8
Modules
100
AcDbPolyline
 90
        6
 70
     1
 43
0.0
 10
445.4079181865608
 20
181.7061459532843
 10
444.7728328904521
 20
180.6061459532843
 10
445.4079181865608
 20
179.5061459532843
 10
446.6780887787779
 20
179.5061459532843
 10
447.3131740748865
 20
180.6061459532843
 10
446.6780887787779
 20
181.7061459532843
  0
CIRCLE
  5
2B4B3
102
{ACAD_REACTORS
330
2B4CE
330
2B4D0
102
}
330
18
100
AcDbEntity
  8
Modules
100
AcDbCircle
 10
432.1930034965194
 20
170.6871459631843
 30
0.0
 40
1.29999999870013
  0
CIRCLE
  5
2B4B4
102
{ACAD_REACTORS
330
2B4CE
330
2B4D0
102
}
330
18
100
AcDbEntity
  8
Modules
100
AcDbCircle
 10
436.1430034925693
 20
174.7371459591344
 30
0.0
 40
1.29999999870013
  0
CIRCLE
  5
2B4B5
102
{ACAD_REACTORS
330
2B4CE
330
2B4D0
102
}
330
18
100
AcDbEntity
  8
Modules
100
AcDbCircle
 10
436.1430034925693
 20
166.6371459672344
 30
0.0
 40
1.29999999870013
  0
CIRCLE
  5
2B4B6
102
{ACAD_REACTORS
330
2B4CE
330
2B4D0
102
}
330
18
100
AcDbEntity
  8
Modules
100
AcDbCircle
 10
426.2435085658571
 20
160.787651036472
 30
0.0
 40
2.75
  0
LWPOLYLINE
  5
2B4B7
102
{ACAD_REACTORS
330
2B4CE
330
2B4D0
102
}
330
18
100
AcDbEntity
  8
Modules
100
AcDbPolyline
 90
        6
 70
     1
 43
0.0
 10
425.6084232697485
 20
161.887651036472
 10
424.9733379736399
 20
160.787651036472
 10
425.6084232697485
 20
159.687651036472
 10
426.8785938619656
 20
159.687651036472
 10
427.5136791580743
 20
160.787651036472
 10
426.8785938619656
 20
161.887651036472
  0
CIRCLE
  5
2B4B8
102
{ACAD_REACTORS
330
2B4CE
102
}
330
18
100
AcDbEntity
  8
Modules
100
AcDbCircle
 10
432.3485085684572
 20
146.4446408898966
 30
0.0
 40
2.45
  0
LWPOLYLINE
  5
2B4B9
102
{ACAD_REACTORS
330
2B4CE
102
}
330
18
100
AcDbEntity
  8
Modules
100
AcDbPolyline
 90
        6
 70
     1
 43
0.0
 10
431.7134232723486
 20
147.5446408898966
 10
431.07833797624
 20
146.4446408898966
 10
431.7134232723486
 20
145.3446408898966
 10
432.9835938645657
 20
145.3446408898966
 10
433.6186791606744
 20
146.4446408898966
 10
432.9835938645657
 20
147.5446408898966
  0
CIRCLE
  5
2B4BA
102
{ACAD_REACTORS
330
2B4CE
330
2B4D1
102
}
330
18
100
AcDbEntity
  8
Modules
100
AcDbCircle
 10
424.0685085684575
 20
252.6446408898966
 30
0.0
 40
1.0
  0
CIRCLE
  5
2B4BB
102
{ACAD_REACTORS
330
2B4CE
330
2B4D1
102
}
330
18
100
AcDbEntity
  8
Modules
100
AcDbCircle
 10
436.1430034925693
 20
245.7441459631844
 30
0.0
 40
11.1
  0
CIRCLE
  5
2B4BC
102
{ACAD_REACTORS
330
2B4CE
330
2B4D1
102
}
330
18
100
AcDbEntity
  8
Modules
100
AcDbCircle
 10
436.1430034925693
 20
245.7441459631844
 30
0.0
 40
9.75
  0
CIRCLE
  5
2B4BD
102
{ACAD_REACTORS
330
2B4CE
330
2B4D1
102
}
330
18
100
AcDbEntity
  8
Modules
100
AcDbCircle
 10
446.0430034826693
 20
255.6441459532844
 30
0.0
 40
2.75
  0
LWPOLYLINE
  5
2B4BE
102
{ACAD_REACTORS
330
2B4CE
330
2B4D1
102
}
330
18
100
AcDbEntity
  8
Modules
100
AcDbPolyline
 90
        6
 70
     1
 43
0.0
 10
445.4079181865608
 20
256.7441459532844
 10
444.7728328904521
 20
255.6441459532844
 10
445.4079181865608
 20
254.5441459532844
 10
446.6780887787779
 20
254.5441459532844
 10
447.3131740748865
 20
255.6441459532844
 10
446.6780887787779
 20
256.7441459532844
  0
CIRCLE
  5
2B4BF
102
{ACAD_REACTORS
330
2B4CE
330
2B4D1
102
}
330
18
100
AcDbEntity
  8
Modules
100
AcDbCircle
 10
432.1930034965194
 20
245.7251459631844
 30
0.0
 40
1.29999999870013
  0
CIRCLE
  5
2B4C0
102
{ACAD_REACTORS
330
2B4CE
330
2B4D1
102
}
330
18
100
AcDbEntity
  8
Modules
100
AcDbCircle
 10
436.1430034925693
 20
249.7751459591345
 30
0.0
 40
1.29999999870013
  0
CIRCLE
  5
2B4C1
102
{ACAD_REACTORS
330
2B4CE
330
2B4D1
102
}
330
18
100
AcDbEntity
  8
Modules
100
AcDbCircle
 10
436.1430034925693
 20
241.6751459672345
 30
0.0
 40
1.29999999870013
  0
CIRCLE
  5
2B4C2
102
{ACAD_REACTORS
330
2B4CE
330
2B4D1
102
}
330
18
100
AcDbEntity
  8
Modules
100
AcDbCircle
 10
426.2435085658571
 20
235.8256510364721
 30
0.0
 40
2.75
  0
LWPOLYLINE
  5
2B4C3
102
{ACAD_REACTORS
330
2B4CE
330
2B4D1
102
}
330
18
100
AcDbEntity
  8
Modules
100
AcDbPolyline
 90
        6
 70
     1
 43
0.0
 10
425.6084232697485
 20
236.9256510364721
 10
424.9733379736399
 20
235.8256510364721
 10
425.6084232697485
 20
234.7256510364721
 10
426.8785938619656
 20
234.7256510364721
 10
427.5136791580743
 20
235.8256510364721
 10
426.8785938619656
 20
236.9256510364721
  0
CIRCLE
  5
2B4C4
102
{ACAD_REACTORS
330
2B4CE
330
2B4D2
102
}
330
18
100
AcDbEntity
  8
Modules
100
AcDbCircle
 10
424.0685085684575
 20
202.6256408898966
 30
0.0
 40
1.0
  0
CIRCLE
  5
2B4C5
102
{ACAD_REACTORS
330
2B4CE
330
2B4D2
102
}
330
18
100
AcDbEntity
  8
Modules
100
AcDbCircle
 10
436.1430034925693
 20
195.7251459631844
 30
0.0
 40
11.1
  0
CIRCLE
  5
2B4C6
102
{ACAD_REACTORS
330
2B4CE
330
2B4D2
102
}
330
18
100
AcDbEntity
  8
Modules
100
AcDbCircle
 10
436.1430034925693
 20
195.7251459631844
 30
0.0
 40
9.75
  0
CIRCLE
  5
2B4C7
102
{ACAD_REACTORS
330
2B4CE
330
2B4D2
102
}
330
18
100
AcDbEntity
  8
Modules
100
AcDbCircle
 10
446.0430034826693
 20
205.6251459532844
 30
0.0
 40
2.75
  0
LWPOLYLINE
  5
2B4C8
102
{ACAD_REACTORS
330
2B4CE
330
2B4D2
102
}
330
18
100
AcDbEntity
  8
Modules
100
AcDbPolyline
 90
        6
 70
     1
 43
0.0
 10
445.4079181865608
 20
206.7251459532844
 10
444.7728328904521
 20
205.6251459532844
 10
445.4079181865608
 20
204.5251459532844
 10
446.6780887787779
 20
204.5251459532844
 10
447.3131740748865
 20
205.6251459532844
 10
446.6780887787779
 20
206.7251459532844
  0
CIRCLE
  5
2B4C9
102
{ACAD_REACTORS
330
2B4CE
330
2B4D2
102
}
330
18
100
AcDbEntity
  8
Modules
100
AcDbCircle
 10
432.1930034965194
 20
195.7061459631844
 30
0.0
 40
1.29999999870013
  0
CIRCLE
  5
2B4CA
102
{ACAD_REACTORS
330
2B4CE
330
2B4D2
102
}
330
18
100
AcDbEntity
  8
Modules
100
AcDbCircle
 10
436.1430034925693
 20
199.7561459591345
 30
0.0
 40
1.29999999870013
  0
CIRCLE
  5
2B4CB
102
{ACAD_REACTORS
330
2B4CE
330
2B4D2
102
}
330
18
100
AcDbEntity
  8
Modules
100
AcDbCircle
 10
436.1430034925693
 20
191.6561459672344
 30
0.0
 40
1.29999999870013
  0
CIRCLE
  5
2B4CC
102
{ACAD_REACTORS
330
2B4CE
330
2B4D2
102
}
330
18
100
AcDbEntity
  8
Modules
100
AcDbCircle
 10
426.2435085658571
 20
185.8066510364721
 30
0.0
 40
2.75
  0
LWPOLYLINE
  5
2B4CD
102
{ACAD_REACTORS
330
2B4CE
330
2B4D2
102
}
330
18
100
AcDbEntity
  8
Modules
100
AcDbPolyline
 90
        6
 70
     1
 43
0.0
 10
425.6084232697485
 20
186.9066510364721
 10
424.9733379736399
 20
185.8066510364721
 10
425.6084232697485
 20
184.7066510364721
 10
426.8785938619656
 20
184.7066510364721
 10
427.5136791580743
 20
185.8066510364721
 10
426.8785938619656
 20
186.9066510364721
  0
LINE
  5
2B4EB
330
18
100
AcDbEntity
  8
Frame
100
AcDbLine
 10
56.6785085684566
 20
141.1446408898965
 30
0.0
 11
538.6785085684566
 21
141.1446408898965
 31
0.0
  0
LINE
  5
2B4EC
330
18
100
AcDbEntity
  8
Frame
  6
VERDECKT2
 62
     8
100
AcDbLine
 10
77.67850856845661
 20
141.1446408898965
 30
0.0
 11
77.67850856845661
 21
273.6446408898966
 31
0.0
  0
LINE
  5
2B4ED
330
18
100
AcDbEntity
  8
Frame
100
AcDbLine
 10
538.6785085684566
 20
273.6446408898966
 30
0.0
 11
56.6785085684566
 21
273.6446408898966
 31
0.0
  0
LINE
  5
2B4EE
330
18
100
AcDbEntity
  8
Frame
100
AcDbLine
 10
56.6785085684566
 20
273.6446408898966
 30
0.0
 11
56.6785085684566
 21
141.1446408898965
 31
0.0
  0
LINE
  5
2B4F0
330
18
100
AcDbEntity
  8
Frame
  6
VERDECKT2
 62
     8
100
AcDbLine
 10
517.6785085684566
 20
141.1446408898965
 30
0.0
 11
517.6785085684566
 21
273.6446408898966
 31
0.0
  0
LINE
  5
2B4F2
330
18
100
AcDbEntity
  8
Frame
100
AcDbLine
 10
538.6785085684566
 20
273.6446408898966
 30
0.0
 11
538.6785085684566
 21
141.1446408898965
 31
0.0
  0
LINE
  5
2B4F4
330
18
100
AcDbEntity
  8
Frame
100
AcDbLine
 10
84.1785085684566
 20
273.6446408898966
 30
0.0
 11
84.1785085684566
 21
141.1446408898965
 31
0.0
  0
LINE
  5
2B4F5
330
18
100
AcDbEntity
  8
Frame
100
AcDbLine
 10
511.1785085684566
 20
273.6446408898966
 30
0.0
 11
511.1785085684566
 21
141.1446408898965
 31
0.0
  0
LINE
  5
2B529
330
18
100
AcDbEntity
  8
TEXTFELD
100
AcDbLine
 10
589.0
 20
21.80000000000018
 30
0.0
 11
379.905891162972
 21
21.80000000000018
 31
0.0
  0
LINE
  5
2B52A
330
18
100
AcDbEntity
  8
TEXTFELD
100
AcDbLine
 10
469.000000000001
 20
13.40000000000054
 30
0.0
 11
389.0000000000001
 21
13.40000000000054
 31
0.0
  0
LINE
  5
2B52B
330
18
100
AcDbEntity
  8
TEXTFELD
100
AcDbLine
 10
589.0
 20
38.40000000000055
 30
0.0
 11
469.000000000001
 21
38.40000000000055
 31
0.0
  0
LINE
  5
2B52C
330
18
100
AcDbEntity
  8
TEXTFELD
100
AcDbLine
 10
567.9617500899949
 20
5.0
 30
0.0
 11
567.9617500899958
 21
21.80000000000018
 31
0.0
  0
LINE
  5
2B52D
330
18
100
AcDbEntity
  8
TEXTFELD
100
AcDbLine
 10
589.0
 20
13.40000000000054
 30
0.0
 11
567.9617500899949
 21
13.40000000000054
 31
0.0
  0
TEXT
  5
2B52E
330
18
100
AcDbEntity
  8
TEXTFELD
100
AcDbText
 10
570.1557668242243
 20
15.59377413430138
 30
0.0
 40
3.476425511656998
  1
Page:
100
AcDbText
  0
TEXT
  5
2B52F
330
18
100
AcDbEntity
  8
TEXTFELD
100
AcDbText
 10
570.1557668242243
 20
7.256695164528537
 30
0.0
 40
3.476425511656998
  1
1 / 1
100
AcDbText
  0
LINE
  5
2B530
330
18
100
AcDbEntity
  8
TEXTFELD
100
AcDbLine
 10
469.0000000000001
 20
5.000000000000909
 30
0.0
 11
469.0000000000001
 21
55.00000000000091
 31
0.0
  0
TEXT
  5
2B531
330
18
100
AcDbEntity
  8
TEXTFELD
100
AcDbText
 10
421.3100100949848
 20
15.59377413430138
 30
0.0
 40
3.476425511656998
  1
Date:
100
AcDbText
  0
LINE
  5
2B532
330
18
100
AcDbEntity
  8
TEXTFELD
100
AcDbLine
 10
418.3971173822312
 20
21.80000000000018
 30
0.0
 11
418.3971173822303
 21
13.40000000000054
 31
0.0
  0
TEXT
  5
2B533
330
18
100
AcDbEntity
  8
TEXTFELD
100
AcDbText
 10
380.5201699836723
 20
15.59377413430138
 30
0.0
 40
3.476425511656998
  1
Name:
100
AcDbText
  0
TEXT
  5
2B534
330
18
100
AcDbEntity
  8
TEXTFELD
100
AcDbText
 10
380.5201699836723
 20
7.256695164528537
 30
0.0
 40
3.476425511656998
  1
File: 
100
AcDbText
  0
TEXT
  5
2B535
330
18
100
AcDbEntity
  8
TEXTFELD
100
AcDbText
 10
471.9209941166032
 20
44.66562196635959
 30
0.0
 40
3.476425511656998
  1
Scale 1:1 (DIN A2)
100
AcDbText
  0
LINE
  5
2B536
330
18
100
AcDbEntity
  8
TEXTFELD
100
AcDbLine
 10
567.9617500899951
 20
38.40000000000055
 30
0.0
 11
567.961750089996
 21
55.00000000000011
 31
0.0
  0
LINE
  5
2B537
330
18
100
AcDbEntity
  8
TEXTFELD
100
AcDbLine
 10
589.0
 20
5.0
 30
0.0
 11
379.905891162972
 21
5.000000000000966
 31
0.0
  0
LINE
  5
2B538
330
18
100
AcDbEntity
  8
TEXTFELD
100
AcDbLine
 10
379.905891162972
 20
5.000000000000909
 30
0.0
 11
379.905891162972
 21
55.00000000000091
 31
0.0
  0
LINE
  5
2B539
330
18
100
AcDbEntity
  8
TEXTFELD
100
AcDbLine
 10
379.905891162972
 20
55.00000000000096
 30
0.0
 11
589.0
 21
55.0
 31
0.0
  0
LINE
  5
2B53A
330
18
100
AcDbEntity
  8
TEXTFELD
100
AcDbLine
 10
589.0
 20
55.0
 30
0.0
 11
589.0
 21
5.0
 31
0.0
  0
LINE
  5
2B53B
330
18
100
AcDbEntity
  8
TEXTFELD
100
AcDbLine
 10
469.0000000000001
 20
5.000000000000568
 30
0.0
 11
469.0000000000001
 21
55.00000000000056
 31
0.0
  0
TEXT
  5
2B53C
330
18
100
AcDbEntity
  8
TEXTFELD
100
AcDbText
 10
397.5497206017919
 20
15.63053387341154
 30
0.0
 40
3.0
  1
Miethling
100
AcDbText
  0
TEXT
  5
2B53D
330
18
100
AcDbEntity
  8
TEXTFELD
100
AcDbText
 10
381.8294790513039
 20
24.72697290493272
 30
0.0
 40
3.0
  1
Fax:
100
AcDbText
  0
TEXT
  5
2B53E
330
18
100
AcDbEntity
  8
TEXTFELD
100
AcDbText
 10
381.8294790513039
 20
47.10386991868756
 30
0.0
 40
3.0
  1
DHD GmbH
100
AcDbText
  0
TEXT
  5
2B53F
330
18
100
AcDbEntity
  8
TEXTFELD
100
AcDbText
 10
381.8294790513039
 20
41.75480612721446
 30
0.0
 40
3.0
  1
Haferkornstraße 5
100
AcDbText
  0
TEXT
  5
2B540
330
18
100
AcDbEntity
  8
TEXTFELD
100
AcDbText
 10
381.8294790513039
 20
36.29477517264729
 30
0.0
 40
3.0
  1
04129 Leipzig / Germany
100
AcDbText
  0
TEXT
  5
2B541
330
18
100
AcDbEntity
  8
TEXTFELD
100
AcDbText
 10
398.4805527305628
 20
24.53217067856315
 30
0.0
 40
3.0
  1
+ 49  341  5897022
100
AcDbText
  0
LINE
  5
2B545
330
18
100
AcDbEntity
  8
TEXTFELD
100
AcDbLine
 10
469.000000000001
 20
13.4000000000002
 30
0.0
 11
379.9058911629721
 21
13.4000000000002
 31
0.0
  0
TEXT
  5
2B546
330
18
100
AcDbEntity
  8
TEXTFELD
100
AcDbText
 10
381.8294790513039
 20
29.58568776218852
 30
0.0
 40
3.0
  1
Phone: + 49  341  5897020
100
AcDbText
  0
TEXT
  5
2B547
330
18
100
AcDbEntity
  8
TEXTFELD
100
AcDbText
 10
394.8409816184467
 20
7.469098588154338
 30
0.0
 40
3.0
  1
52-5063_frontview.dwg
100
AcDbText
  0
TEXT
  5
2B548
330
18
100
AcDbEntity
  8
TEXTFELD
100
AcDbText
 10
474.7569833410441
 20
27.39033464091245
 30
0.0
 40
4.599999999999999
  1
Frontview MB/CR Frame 3U
100
AcDbText
  0
TEXT
  5
2B549
330
18
100
AcDbEntity
  8
TEXTFELD
100
AcDbText
 10
437.749650981688
 20
15.81476326692919
 30
0.0
 40
3.0
  1
29.01.2007
100
AcDbText
  0
TEXT
  5
2B54B
330
18
100
AcDbEntity
  8
TEXTFELD
100
AcDbText
 10
502.6275544891631
 20
9.994346401232292
 30
0.0
 40
5.259814435336018
  1
52-5063
100
AcDbText
  0
ENDSEC
  0
SECTION
  2
OBJECTS
  0
DICTIONARY
  5
C
330
0
100
AcDbDictionary
281
     1
  3
ACAD_COLOR
350
2A328
  3
ACAD_GROUP
350
D
  3
ACAD_LAYOUT
350
1B1E4
  3
ACAD_MATERIAL
350
2A327
  3
ACAD_MLINESTYLE
350
1B
  3
ACAD_PLOTSETTINGS
350
1B1E5
  3
ACAD_PLOTSTYLENAME
350
1B1E2
  3
ACAD_TABLESTYLE
350
2A329
  3
ACDBHEADERROUNDTRIPXREC
350
2B553
  3
ACDBVARIABLEDICTIONARY
350
9820
  0
DICTIONARY
  5
2AE1D
330
2
100
AcDbDictionary
280
     1
281
     1
  3
ACAD_LAYERFILTERS
360
2AE1F
  3
ACAD_LAYERSTATES
360
2B4FF
  3
ACLYDICTIONARY
360
2AE1E
  0
DICTIONARY
  5
9822
330
18
100
AcDbDictionary
280
     1
281
     1
  3
ACAD_LAYOUTSELFREF
360
28585
  3
ACAD_SORTENTS
360
9823
  0
DICTIONARY
  5
2663A
330
15
100
AcDbDictionary
280
     1
281
     1
  3
ACAD_LAYOUTSELFREF
360
28584
  0
DICTIONARY
  5
2A328
102
{ACAD_REACTORS
330
C
102
}
330
C
100
AcDbDictionary
281
     1
  0
DICTIONARY
  5
D
102
{ACAD_REACTORS
330
C
102
}
330
C
100
AcDbDictionary
281
     1
  3
*A1
350
981F
  3
*A10
350
2B2EA
  3
*A100
350
2A315
  3
*A101
350
A49A
  3
*A102
350
2A316
  3
*A103
350
2A317
  3
*A104
350
1BD8B
  3
*A105
350
1FC8F
  3
*A106
350
2B3FD
  3
*A107
350
21E84
  3
*A108
350
1BD8C
  3
*A109
350
2B1E7
  3
*A11
350
2B2EB
  3
*A110
350
2B1F3
  3
*A111
350
2B1FF
  3
*A112
350
A49B
  3
*A113
350
2B20B
  3
*A114
350
2B219
  3
*A115
350
2B21A
  3
*A116
350
2B22F
  3
*A117
350
2B3FE
  3
*A118
350
2B230
  3
*A119
350
2B264
  3
*A12
350
2B2EC
  3
*A120
350
2B265
  3
*A121
350
2B266
  3
*A122
350
2B267
  3
*A123
350
194F7
  3
*A124
350
2B27C
  3
*A125
350
2B27D
  3
*A126
350
2B27E
  3
*A127
350
2B27F
  3
*A13
350
2B400
  3
*A14
350
2B2ED
  3
*A15
350
2B2EE
  3
*A16
350
2B321
  3
*A17
350
2B322
  3
*A18
350
2B323
  3
*A19
350
2B324
  3
*A2
350
2B3FF
  3
*A20
350
2B325
  3
*A21
350
194F5
  3
*A22
350
2B358
  3
*A23
350
2B359
  3
*A24
350
2B401
  3
*A25
350
2B35A
  3
*A26
350
2B35B
  3
*A27
350
2B35C
  3
*A28
350
2B38F
  3
*A29
350
2B390
  3
*A3
350
2B280
  3
*A30
350
2B391
  3
*A31
350
2B392
  3
*A32
350
2B393
  3
*A33
350
9D4A
  3
*A34
350
2B461
  3
*A35
350
2B462
  3
*A36
350
2B463
  3
*A37
350
2B464
  3
*A38
350
2B465
  3
*A39
350
2B466
  3
*A4
350
2B2B3
  3
*A40
350
A22D
  3
*A41
350
2B467
  3
*A42
350
2B468
  3
*A43
350
2B469
  3
*A44
350
2B46A
  3
*A45
350
194F6
  3
*A46
350
2B49A
  3
*A47
350
2B49B
  3
*A48
350
2B49C
  3
*A49
350
2B49D
  3
*A5
350
2B2B4
  3
*A50
350
2B49E
  3
*A51
350
2B3C6
  3
*A52
350
2B4CE
  3
*A53
350
2B4CF
  3
*A54
350
2B4D0
  3
*A55
350
2B4D1
  3
*A56
350
2B4D2
  3
*A57
350
9FC0
  3
*A58
350
9FC1
  3
*A59
350
1BD84
  3
*A6
350
2B2B5
  3
*A60
350
1BD85
  3
*A61
350
1BD82
  3
*A62
350
2B3C7
  3
*A63
350
9D2A
  3
*A64
350
2601A
  3
*A65
350
1BD83
  3
*A66
350
2601B
  3
*A67
350
1BD87
  3
*A68
350
1BD88
  3
*A69
350
1BD89
  3
*A7
350
2B2B6
  3
*A70
350
265C2
  3
*A71
350
29A05
  3
*A72
350
29A06
  3
*A73
350
2B3C8
  3
*A74
350
29A07
  3
*A75
350
29A08
  3
*A76
350
29A09
  3
*A77
350
A22E
  3
*A78
350
29A0A
  3
*A79
350
29A0B
  3
*A8
350
2B2B7
  3
*A80
350
29A0C
  3
*A81
350
29A0D
  3
*A82
350
1BD86
  3
*A83
350
29A0E
  3
*A84
350
2B3C9
  3
*A85
350
29A0F
  3
*A86
350
29A10
  3
*A87
350
29A11
  3
*A88
350
29A12
  3
*A89
350
1FC80
  3
*A9
350
194F8
  3
*A90
350
29A13
  3
*A91
350
2A30E
  3
*A92
350
2A30F
  3
*A93
350
2A310
  3
*A94
350
2A311
  3
*A95
350
2B3CA
  3
*A96
350
1BD8A
  3
*A97
350
2A312
  3
*A98
350
2A313
  3
*A99
350
2A314
  0
DICTIONARY
  5
1B1E4
102
{ACAD_REACTORS
330
C
102
}
330
C
100
AcDbDictionary
281
     1
  3
Layout1
350
1B1E7
  3
Model
350
1B1E6
  0
DICTIONARY
  5
2A327
102
{ACAD_REACTORS
330
C
102
}
330
C
100
AcDbDictionary
281
     1
  0
DICTIONARY
  5
1B
102
{ACAD_REACTORS
330
C
102
}
330
C
100
AcDbDictionary
281
     1
  3
STANDARD
350
1C
  0
DICTIONARY
  5
1B1E5
102
{ACAD_REACTORS
330
C
102
}
330
C
100
AcDbDictionary
281
     1
  0
ACDBDICTIONARYWDFLT
  5
1B1E2
102
{ACAD_REACTORS
330
C
102
}
330
C
100
AcDbDictionary
281
     1
  3
Normal
350
1B1E3
100
AcDbDictionaryWithDefault
340
1B1E3
1001
ACAD
1000
TREAT_AS_HARD
1070
     0
  0
DICTIONARY
  5
2A329
102
{ACAD_REACTORS
330
C
102
}
330
C
100
AcDbDictionary
281
     1
  3
Standard
350
2A32A
  0
DICTIONARY
  5
2B553
102
{ACAD_REACTORS
330
C
102
}
330
C
100
AcDbDictionary
281
     1
  0
DICTIONARY
  5
9820
102
{ACAD_REACTORS
330
C
102
}
330
C
100
AcDbDictionary
281
     1
  3
CTABLESTYLE
350
2A332
  3
DIMASSOC
350
1FD3B
  3
PROJECTNAME
350
2B4E4
  3
SORTENTS
350
9821
  0
DICTIONARY
  5
2AE1F
102
{ACAD_REACTORS
330
2AE1D
102
}
330
2AE1D
100
AcDbDictionary
281
     1
  0
DICTIONARY
  5
2B4FF
102
{ACAD_REACTORS
330
2AE1D
102
}
330
2AE1D
100
AcDbDictionary
281
     1
  0
DICTIONARY
  5
2AE1E
102
{ACAD_REACTORS
330
2AE1D
102
}
330
2AE1D
100
AcDbDictionary
281
     1
1001
ACAD
1000
<AllUsed
  0
XRECORD
  5
28585
102
{ACAD_REACTORS
330
9822
102
}
330
9822
100
AcDbXrecord
280
     1
340
18
  0
SORTENTSTABLE
  5
9823
102
{ACAD_REACTORS
330
9822
102
}
330
9822
100
AcDbSortentsTable
330
18
331
2B4BA
  5
2B4C4
331
2B441
  5
2B44B
331
2B3ED
  5
2B3F7
331
2B374
  5
2B37E
331
2B2FB
  5
2B305
331
2B282
  5
2B28C
331
2B4A8
  5
2B4B2
331
2B42F
  5
2B439
331
2B228
  5
2B235
331
2B3DB
  5
2B3E5
331
2B362
  5
2B36C
331
2B2E9
  5
2B2F8
331
2B270
  5
2B27A
331
2B2D7
  5
2B2E1
331
2B25E
  5
2B26C
331
2B216
  5
2B223
331
2B4B9
  5
2B4C3
331
2B440
  5
2B44A
331
2B3EC
  5
2B3F6
331
2B373
  5
2B37D
331
2B2FA
  5
2B304
331
2B281
  5
2B28B
331
2B4A7
  5
2B4B1
331
2B42E
  5
2B438
331
2B227
  5
2B234
331
2B3DA
  5
2B3E4
331
2B361
  5
2B36B
331
2B2E8
  5
2B2F7
331
2B26F
  5
2B279
331
2B34F
  5
2B35E
331
2B2D6
  5
2B2E0
331
2B25D
  5
2B26B
331
2B215
  5
2B222
331
2B4B8
  5
2B4C2
331
2B3EB
  5
2B3F5
331
2B372
  5
2B37C
331
2B2F9
  5
2B303
331
2B4A6
  5
2B4B0
331
2B42D
  5
2B437
331
2B226
  5
2B232
331
2B3D9
  5
2B3E3
331
2B360
  5
2B36A
331
2B2E7
  5
2B2F6
331
2B26E
  5
2B278
331
2B34E
  5
2B35D
331
2B2D5
  5
2B2DF
331
2B25C
  5
2B26A
331
2B214
  5
2B221
331
2B3EA
  5
2B3F4
331
2B371
  5
2B37B
331
2B2F8
  5
2B302
331
2B4A5
  5
2B4AF
331
2B42C
  5
2B436
331
2B225
  5
2B231
331
2B3D8
  5
2B3E2
331
2B35F
  5
2B369
331
2B2E6
  5
2B2F5
331
2B26D
  5
2B277
331
2B34D
  5
2B357
331
2B2D4
  5
2B2DE
331
2B25B
  5
2B269
331
2B213
  5
2B220
331
2811F
  5
2AE24
331
2B3E9
  5
2B3F3
331
2B370
  5
2B37A
331
2B4A4
  5
2B4AE
331
2B42B
  5
2B435
331
2B224
  5
2B22E
331
2B3D7
  5
2B3E1
331
2B35E
  5
2B368
331
2B2E5
  5
2B2F4
331
2B26C
  5
2B276
331
2B3C5
  5
2B3D4
331
2B34C
  5
2B356
331
2B2D3
  5
2B2DD
331
2B25A
  5
2B268
331
2811E
  5
2AE22
331
2B3E8
  5
2B3F2
331
2B4A3
  5
2B4AD
331
2B42A
  5
2B434
331
2B223
  5
2B22D
331
2B3D6
  5
2B3E0
331
2B35D
  5
2B367
331
2B2E4
  5
2B2F3
331
2B26B
  5
2B275
331
2B3C4
  5
2B3D3
331
2B34B
  5
2B355
331
2B2D2
  5
2B2DC
331
2B259
  5
2B263
331
2B211
  5
2B21F
331
2811D
  5
2AE21
331
2B4A2
  5
2B4AC
331
2B429
  5
2B433
331
2B222
  5
2B22C
331
2B3D5
  5
2B3DF
331
2B2E3
  5
2B2F2
331
2B26A
  5
2B274
331
2B3C3
  5
2B3D2
331
2B34A
  5
2B354
331
2B2D1
  5
2B2DB
331
2B258
  5
2B262
331
2B210
  5
2B21E
331
2B1FE
  5
2B209
331
2811C
  5
2AB7A
331
2B4A1
  5
2B4AB
331
2B428
  5
2B432
331
2B221
  5
2B22B
331
2B3D4
  5
2B3DE
331
2B2E2
  5
2B2F1
331
2B269
  5
2B273
331
2B497
  5
2B4A6
331
2B20F
  5
2B21D
331
2B3C2
  5
2B3D1
331
2B349
  5
2B353
331
2B2D0
  5
2B2DA
331
2B1FD
  5
2B208
331
2811B
  5
2AB78
331
2B4A0
  5
2B4AA
331
2B427
  5
2B431
331
2B220
  5
2B22A
331
2B3D3
  5
2B3DD
331
2B2E1
  5
2B2F0
331
2B268
  5
2B272
331
2B496
  5
2B4A5
331
2B20E
  5
2B21C
331
2B3C1
  5
2B3D0
331
2B348
  5
2B352
331
2B2CF
  5
2B2D9
331
2B1FC
  5
2B207
331
2811A
  5
2AB76
331
2B49F
  5
2B4A9
331
2B426
  5
2B430
331
2B3D2
  5
2B3DC
331
2B2E0
  5
2B2EF
331
2B495
  5
2B4A4
331
2B20D
  5
2B21B
331
2B3C0
  5
2B3CF
331
2B347
  5
2B351
331
2B2CE
  5
2B2D8
331
2B24D
  5
2B261
331
2B1FB
  5
2B206
331
28119
  5
2A8F9
331
2B425
  5
2B42F
331
2B494
  5
2B4A3
331
2B3D1
  5
2B3DB
331
2B2DF
  5
2B2E9
331
2B3BF
  5
2B3CE
331
2B346
  5
2B350
331
2B2CD
  5
2B2D7
331
2B24C
  5
2B260
331
2B1FA
  5
2B205
331
28118
  5
29C9F
331
2B424
  5
2B42E
331
2B493
  5
2B4A2
331
2B3D0
  5
2B3DA
331
2B357
  5
2B366
331
2B2DE
  5
2B2E8
331
2B3BE
  5
2B3CD
331
2B345
  5
2B34F
331
2B2CC
  5
2B2D6
331
2B24B
  5
2B25F
331
2B1F9
  5
2B204
331
28117
  5
29C9E
331
2B423
  5
2B42D
331
2B3CF
  5
2B3D9
331
2B356
  5
2B365
331
2B2DD
  5
2B2E7
331
2B492
  5
2B4A1
331
2B20A
  5
2B217
331
2A8F9
  5
2AE28
331
2B3BD
  5
2B3CC
331
2B344
  5
2B34E
331
2B2CB
  5
2B2D5
331
2B24A
  5
2B25E
331
2B1F8
  5
2B203
331
28116
  5
28120
331
2B422
  5
2B42C
331
2B3CE
  5
2B3D8
331
2B355
  5
2B364
331
2B2DC
  5
2B2E6
331
2B263
  5
2B271
331
2B491
  5
2B4A0
331
2B209
  5
2B216
331
2B3BC
  5
2B3CB
331
2B343
  5
2B34D
331
2B2CA
  5
2B2D4
331
2B249
  5
2B25D
331
2B47F
  5
2B489
331
2B1F7
  5
2B202
331
28115
  5
2811F
331
2B421
  5
2B42B
331
2B3CD
  5
2B3D7
331
2B354
  5
2B363
331
2B2DB
  5
2B2E5
331
2B262
  5
2B270
331
2B490
  5
2B49F
331
2B208
  5
2B215
331
2B3BB
  5
2B3C5
331
2B342
  5
2B34C
331
2B2C9
  5
2B2D3
331
2B248
  5
2B25C
331
2B47E
  5
2B488
331
2B1F6
  5
2B201
331
28114
  5
2811E
331
2B499
  5
2B4A8
331
2B420
  5
2B42A
331
2B3CC
  5
2B3D6
331
2B353
  5
2B362
331
2B2DA
  5
2B2E4
331
2B261
  5
2B26F
331
2B48F
  5
2B499
331
2B207
  5
2B214
331
2B3BA
  5
2B3C4
331
2B341
  5
2B34B
331
2B2C8
  5
2B2D2
331
2B247
  5
2B25B
331
2B47D
  5
2B487
331
2B1F5
  5
2B200
331
2B498
  5
2B4A7
331
2B3CB
  5
2B3D5
331
2B352
  5
2B361
331
2B2D9
  5
2B2E3
331
2B260
  5
2B26E
331
2B48E
  5
2B498
331
2B206
  5
2B213
331
2B3B9
  5
2B3C3
331
2B340
  5
2B34A
331
2B2C7
  5
2B2D1
331
2B246
  5
2B25A
331
2B47C
  5
2B486
331
2B1F4
  5
2B1FE
331
2B4F5
  5
2811A
331
2B351
  5
2B360
331
2B2D8
  5
2B2E2
331
2B48D
  5
2B497
331
2B205
  5
2B211
331
2B47B
  5
2B485
331
2B3B8
  5
2B3C2
331
2B33F
  5
2B349
331
2B2C6
  5
2B2D0
331
2B245
  5
2B259
331
2B4F4
  5
280B1
331
2B350
  5
2B35F
331
2B48C
  5
2B496
331
2B204
  5
2B210
331
2B3B7
  5
2B3C1
331
2B33E
  5
2B348
331
2B2C5
  5
2B2CF
331
2B244
  5
2B258
331
2B47A
  5
2B484
331
2B1F2
  5
2B1FD
331
29C9F
  5
2AE27
331
2B48B
  5
2B495
331
2B203
  5
2B20F
331
2B3B6
  5
2B3C0
331
2B33D
  5
2B347
331
2B2C4
  5
2B2CE
331
2B479
  5
2B483
331
2B1F1
  5
2B1FC
331
2B1DF
  5
2B1EA
331
29C9E
  5
2AE26
331
2B4F2
  5
28119
331
2B202
  5
2B20E
331
28120
  5
2AE25
331
2B48A
  5
2B494
331
2B3B5
  5
2B3BF
331
2B33C
  5
2B346
331
2B2C3
  5
2B2CD
331
2B242
  5
2B24D
331
2B478
  5
2B482
331
2B1F0
  5
2B1FB
331
2B1DE
  5
2B1E9
331
2B489
  5
2B493
331
2B201
  5
2B20D
331
2B3B4
  5
2B3BE
331
2B33B
  5
2B345
331
2B2C2
  5
2B2CC
331
2B477
  5
2B481
331
2B1EF
  5
2B1FA
331
2B1DD
  5
2B1E8
331
2B4F0
  5
28117
331
2B488
  5
2B492
331
2B200
  5
2B20A
331
2B3B3
  5
2B3BD
331
2B33A
  5
2B344
331
2B2C1
  5
2B2CB
331
2B476
  5
2B480
331
2B1EE
  5
2B1F9
331
2B1DC
  5
2B1E6
331
2B487
  5
2B491
331
2B3B2
  5
2B3BC
331
2B339
  5
2B343
331
2B2C0
  5
2B2CA
331
2B1ED
  5
2B1F8
331
2B475
  5
2B47F
331
2B32F
  5
2B339
331
2B1DB
  5
2B1E5
331
2B4EE
  5
280AC
331
266DB
  5
266DB
331
2B486
  5
2B490
331
2B3B1
  5
2B3BB
331
2B338
  5
2B342
331
2B2BF
  5
2B2C9
331
2B1EC
  5
2B1F7
331
2B474
  5
2B47E
331
2B3A7
  5
2B3B1
331
2B32E
  5
2B338
331
2B1DA
  5
2B1E4
331
2B4ED
  5
280AB
331
266DA
  5
266DA
331
2B485
  5
2B48F
331
2B3B0
  5
2B3BA
331
2B337
  5
2B341
331
2B2BE
  5
2B2C8
331
2B1EB
  5
2B1F6
331
2B473
  5
2B47D
331
2B41F
  5
2B429
331
2B3A6
  5
2B3B0
331
2B32D
  5
2B337
331
2B4EC
  5
280A9
331
266D9
  5
266D9
331
2B484
  5
2B48E
331
2B3AF
  5
2B3B9
331
2B336
  5
2B340
331
2B2BD
  5
2B2C7
331
2B1EA
  5
2B1F5
331
2B472
  5
2B47C
331
2B41E
  5
2B428
331
2B3A5
  5
2B3AF
331
2B32C
  5
2B336
331
2B4EB
  5
280A8
331
266D8
  5
266D8
331
2B483
  5
2B48D
331
2B3AE
  5
2B3B8
331
2B335
  5
2B33F
331
2B2BC
  5
2B2C6
331
2B23B
  5
2B24C
331
2B1E9
  5
2B1F4
331
2B471
  5
2B47B
331
2B45F
  5
2B473
331
2B41D
  5
2B427
331
2B3A4
  5
2B3AE
331
2B32B
  5
2B335
331
2B2B2
  5
2B2C1
331
266D7
  5
266D7
331
2B482
  5
2B48C
331
2B3AD
  5
2B3B7
331
2B334
  5
2B33E
331
2B2BB
  5
2B2C5
331
2B23A
  5
2B24B
331
2B1E8
  5
2B1F2
331
2B470
  5
2B47A
331
2B45E
  5
2B472
331
2B41C
  5
2B426
331
2B3A3
  5
2B3AD
331
2B32A
  5
2B334
331
2B2B1
  5
2B2C0
331
2B29F
  5
2B2A9
331
266D6
  5
266D6
331
2B481
  5
2B48B
331
2B3AC
  5
2B3B6
331
2B333
  5
2B33D
331
2B2BA
  5
2B2C4
331
2B239
  5
2B24A
331
2B46F
  5
2B479
331
2B41B
  5
2B425
331
2B3A2
  5
2B3AC
331
2B329
  5
2B333
331
2B2B0
  5
2B2BF
331
266D5
  5
266D5
331
2B45D
  5
2B471
331
2B317
  5
2B326
331
2B29E
  5
2B2A8
331
2B480
  5
2B48A
331
2B3AB
  5
2B3B5
331
2B332
  5
2B33C
331
2B2B9
  5
2B2C3
331
2B1E6
  5
2B1F1
331
2B46E
  5
2B478
331
2B45C
  5
2B470
331
2B41A
  5
2B424
331
2B3A1
  5
2B3AB
331
2B328
  5
2B332
331
2B2AF
  5
2B2BE
331
2B316
  5
2B320
331
2B29D
  5
2B2A7
331
266D4
  5
266D4
331
2B3AA
  5
2B3B4
331
2B331
  5
2B33B
331
2B2B8
  5
2B2C2
331
2B46D
  5
2B477
331
2B1E5
  5
2B1F0
331
2B45B
  5
2B46F
331
2B419
  5
2B423
331
2B3A0
  5
2B3AA
331
2B327
  5
2B331
331
2B2AE
  5
2B2BD
331
2B407
  5
2B411
331
2B38E
  5
2B39D
331
2B315
  5
2B31F
331
2B29C
  5
2B2A6
331
2B3A9
  5
2B3B3
331
2B330
  5
2B33A
331
2B46C
  5
2B476
331
2B1E4
  5
2B1EF
331
2B45A
  5
2B46E
331
2B418
  5
2B422
331
2B39F
  5
2B3A9
331
2B326
  5
2B330
331
2B2AD
  5
2B2BC
331
2B406
  5
2B410
331
2B38D
  5
2B39C
331
2B314
  5
2B31E
331
2B29B
  5
2B2A5
331
2B3A8
  5
2B3B2
331
2B46B
  5
2B475
331
2B1E3
  5
2B1EE
331
2B417
  5
2B421
331
2B39E
  5
2B3A8
331
2B2AC
  5
2B2BB
331
2B459
  5
2B46D
331
2B405
  5
2B40F
331
2B38C
  5
2B39B
331
2B313
  5
2B31D
331
2B29A
  5
2B2A4
331
2B416
  5
2B420
331
2B39D
  5
2B3A7
331
2B2AB
  5
2B2BA
331
2B1E2
  5
2B1ED
331
2B458
  5
2B46C
331
2AF48
  5
2B1E3
331
2B404
  5
2B40E
331
2B38B
  5
2B39A
331
2B312
  5
2B31C
331
2B299
  5
2B2A3
331
2B415
  5
2B41F
331
2B39C
  5
2B3A6
331
2B2AA
  5
2B2B9
331
2B1E1
  5
2B1EC
331
2B457
  5
2B46B
331
2AF47
  5
2B1E2
331
2B403
  5
2B40D
331
2B38A
  5
2B399
331
2B311
  5
2B31B
331
2B298
  5
2B2A2
331
2B414
  5
2B41E
331
2B39B
  5
2B3A5
331
2B2A9
  5
2B2B8
331
2B1E0
  5
2B1EB
331
2B456
  5
2B460
331
2AF46
  5
2B1E1
331
2B402
  5
2B40C
331
2B389
  5
2B398
331
2B310
  5
2B31A
331
2B297
  5
2B2A1
331
2B413
  5
2B41D
331
2B39A
  5
2B3A4
331
2B2A8
  5
2B2B2
331
2B455
  5
2B45F
331
280B3
  5
2811D
331
2B388
  5
2B397
331
2B30F
  5
2B319
331
2B296
  5
2B2A0
331
2B412
  5
2B41C
331
2B399
  5
2B3A3
331
2B320
  5
2B32F
331
2B2A7
  5
2B2B1
331
2B4CD
  5
2B4F4
331
2B454
  5
2B45E
331
280B2
  5
2811C
331
2B387
  5
2B396
331
2B30E
  5
2B318
331
2B295
  5
2B29F
331
2B411
  5
2B41B
331
2B398
  5
2B3A2
331
2B31F
  5
2B32E
331
2B2A6
  5
2B2B0
331
2B4CC
  5
2B4F2
331
2B453
  5
2B45D
331
280B1
  5
2811B
331
2B386
  5
2B395
331
2B30D
  5
2B317
331
2B294
  5
2B29E
331
2B4CB
  5
2B4F1
331
2B452
  5
2B45C
331
2B410
  5
2B41A
331
2B397
  5
2B3A1
331
2B31E
  5
2B32D
331
2B2A5
  5
2B2AF
331
2B385
  5
2B394
331
2B30C
  5
2B316
331
2B293
  5
2B29D
331
2B4CA
  5
2B4F0
331
2B451
  5
2B45B
331
2B40F
  5
2B419
331
2B396
  5
2B3A0
331
2B31D
  5
2B32C
331
2B2A4
  5
2B2AE
331
2B384
  5
2B38E
331
2B30B
  5
2B315
331
2B292
  5
2B29C
331
2AE27
  5
2B1DB
331
2B43F
  5
2B449
331
2B4C9
  5
2B4EF
331
2B450
  5
2B45A
331
2B40E
  5
2B418
331
2B395
  5
2B39F
331
2B31C
  5
2B32B
331
2B2A3
  5
2B2AD
331
2B3FC
  5
2B40B
331
2B383
  5
2B38D
331
2B30A
  5
2B314
331
2B291
  5
2B29B
331
2B4B7
  5
2B4C1
331
2B43E
  5
2B448
331
2AE26
  5
2B1DA
331
2B40D
  5
2B417
331
2B394
  5
2B39E
331
2B31B
  5
2B32A
331
2B2A2
  5
2B2AC
331
2AE2F
  5
2B1E0
331
2B4C8
  5
2B4EE
331
2B44F
  5
2B459
331
2B3FB
  5
2B40A
331
2B382
  5
2B38C
331
2B309
  5
2B313
331
2B290
  5
2B29A
331
2B4B6
  5
2B4C0
331
2B43D
  5
2B447
331
2AE25
  5
2AF48
331
2B2F7
  5
2B301
331
2B460
  5
2B474
331
2B4C7
  5
2B4ED
331
2B44E
  5
2B458
331
2B40C
  5
2B416
331
2B31A
  5
2B329
331
2B2A1
  5
2B2AB
331
2B3FA
  5
2B409
331
2B381
  5
2B38B
331
2B308
  5
2B312
331
2B28F
  5
2B299
331
2B4B5
  5
2B4BF
331
2B43C
  5
2B446
331
2B235
  5
2B249
331
2AE24
  5
2AF47
331
2B36F
  5
2B379
331
2B2F6
  5
2B300
331
2B40B
  5
2B415
331
2B319
  5
2B328
331
2B2A0
  5
2B2AA
331
2B4C6
  5
2B4EC
331
2B44D
  5
2B457
331
2B3F9
  5
2B408
331
2B380
  5
2B38A
331
2B307
  5
2B311
331
2B28E
  5
2B298
331
280AB
  5
28115
331
2B4B4
  5
2B4BE
331
2B43B
  5
2B445
331
2B234
  5
2B248
331
2B3E7
  5
2B3F1
331
2B36E
  5
2B378
331
2B2F5
  5
2B2FF
331
2B40A
  5
2B414
331
2B318
  5
2B327
331
2B4C5
  5
2B4EB
331
2B44C
  5
2B456
331
2AE2C
  5
2AE2B
331
2B3F8
  5
2B407
331
2B37F
  5
2B389
331
2B306
  5
2B310
331
2B28D
  5
2B297
331
2B4B3
  5
2B4BD
331
2B43A
  5
2B444
331
2AE22
  5
2AF46
331
2B3E6
  5
2B3F0
331
2B36D
  5
2B377
331
2B2F4
  5
2B2FE
331
2B27B
  5
2B28A
331
2B409
  5
2B413
331
2B4C4
  5
2B4D4
331
2B44B
  5
2B455
331
2AE2B
  5
2B1DF
331
2B3F7
  5
2B406
331
2B37E
  5
2B388
331
2B305
  5
2B30F
331
2B28C
  5
2B296
331
280A9
  5
280B3
331
2B4B2
  5
2B4BC
331
2B439
  5
2B443
331
2B232
  5
2B247
331
2AE21
  5
2AE2F
331
2B3E5
  5
2B3EF
331
2B36C
  5
2B376
331
2B2F3
  5
2B2FD
331
2B27A
  5
2B289
331
2B408
  5
2B412
331
2B4C3
  5
2B4CD
331
2B44A
  5
2B454
331
2AE2A
  5
2B1DE
331
2B3F6
  5
2B405
331
2B37D
  5
2B387
331
2B304
  5
2B30E
331
2B28B
  5
2B295
331
280A8
  5
280B2
331
2B4B1
  5
2B4BB
331
2B438
  5
2B442
331
2B231
  5
2B246
331
2AE20
  5
2AE2C
331
2B3E4
  5
2B3EE
331
2B36B
  5
2B375
331
2B2F2
  5
2B2FC
331
2B279
  5
2B288
331
2B21F
  5
2B229
331
2B4C2
  5
2B4CC
331
2B449
  5
2B453
331
2AE29
  5
2B1DD
331
2B4B0
  5
2B4BA
331
2B437
  5
2B441
331
2B3F5
  5
2B404
331
2B37C
  5
2B386
331
2B303
  5
2B30D
331
2B28A
  5
2B294
331
2B3E3
  5
2B3ED
331
2B36A
  5
2B374
331
2B2F1
  5
2B2FB
331
2B278
  5
2B287
331
2B21E
  5
2B228
331
2B4C1
  5
2B4CB
331
2B448
  5
2B452
331
2AE28
  5
2B1DC
331
2B4AF
  5
2B4B9
331
2B436
  5
2B440
331
2B3F4
  5
2B403
331
2B37B
  5
2B385
331
2B302
  5
2B30C
331
2B289
  5
2B293
331
2B3E2
  5
2B3EC
331
2B369
  5
2B373
331
2B2F0
  5
2B2FA
331
2B277
  5
2B286
331
2B21D
  5
2B227
331
2B4C0
  5
2B4CA
331
2B447
  5
2B451
331
2B3F3
  5
2B402
331
2B37A
  5
2B384
331
2B301
  5
2B30B
331
2B288
  5
2B292
331
2B22E
  5
2B245
331
2B4AE
  5
2B4B8
331
2B435
  5
2B43F
331
2B3E1
  5
2B3EB
331
2B368
  5
2B372
331
2B2EF
  5
2B2F9
331
2B276
  5
2B285
331
2B21C
  5
2B226
331
2B4BF
  5
2B4C9
331
2B446
  5
2B450
331
2B3F2
  5
2B3FC
331
2B379
  5
2B383
331
2B300
  5
2B30A
331
2B287
  5
2B291
331
2B4AD
  5
2B4B7
331
2B434
  5
2B43E
331
2B22D
  5
2B244
331
2B3E0
  5
2B3EA
331
2B367
  5
2B371
331
2B275
  5
2B284
331
2B21B
  5
2B225
331
2B4BE
  5
2B4C8
331
2B445
  5
2B44F
331
2B3F1
  5
2B3FB
331
2B378
  5
2B382
331
2B2FF
  5
2B309
331
2B286
  5
2B290
331
2B4AC
  5
2B4B6
331
2B433
  5
2B43D
331
2B22C
  5
2B242
331
2B3DF
  5
2B3E9
331
2B366
  5
2B370
331
2B274
  5
2B283
331
2B4BD
  5
2B4C7
331
2B444
  5
2B44E
331
2B3F0
  5
2B3FA
331
2B377
  5
2B381
331
2B2FE
  5
2B308
331
2B285
  5
2B28F
331
2B4AB
  5
2B4B5
331
2B432
  5
2B43C
331
2B22B
  5
2B23B
331
2B3DE
  5
2B3E8
331
2B365
  5
2B36F
331
2B273
  5
2B282
331
2AB78
  5
2AE2A
331
2B4BC
  5
2B4C6
331
2B443
  5
2B44D
331
2B3EF
  5
2B3F9
331
2B376
  5
2B380
331
2B2FD
  5
2B307
331
2B284
  5
2B28E
331
2B4AA
  5
2B4B4
331
2B431
  5
2B43B
331
2B22A
  5
2B23A
331
2B3DD
  5
2B3E7
331
2B364
  5
2B36E
331
2B272
  5
2B281
331
2B4BB
  5
2B4C5
331
2B442
  5
2B44C
331
2B3EE
  5
2B3F8
331
2B375
  5
2B37F
331
2B2FC
  5
2B306
331
2B283
  5
2B28D
331
2B4A9
  5
2B4B3
331
2B430
  5
2B43A
331
2B229
  5
2B239
331
2B3DC
  5
2B3E6
331
2B363
  5
2B36D
331
2B271
  5
2B27B
331
2B25F
  5
2B26D
331
2B217
  5
2B224
331
2AB76
  5
2AE29
  0
XRECORD
  5
28584
102
{ACAD_REACTORS
330
2663A
102
}
330
2663A
100
AcDbXrecord
280
     1
340
15
  0
GROUP
  5
981F
102
{ACAD_REACTORS
330
D
102
}
330
D
100
AcDbGroup
300

 70
     1
 71
     1
  0
GROUP
  5
2B2EA
102
{ACAD_REACTORS
330
D
102
}
330
D
100
AcDbGroup
300

 70
     1
 71
     1
340
2B2E9
340
2B2E8
340
2B2E7
340
2B2E6
340
2B2E5
340
2B2E4
340
2B2E3
340
2B2E2
340
2B2E1
340
2B2E0
340
2B2DF
340
2B2DE
340
2B2DD
340
2B2DC
340
2B2DB
340
2B2DA
340
2B2D9
340
2B2D8
340
2B2D7
340
2B2D6
340
2B2D5
340
2B2D4
340
2B2D3
340
2B2D2
340
2B2D1
340
2B2D0
340
2B2CF
340
2B2CE
340
2B2CD
340
2B2CC
340
2B2CB
340
2B2CA
340
2B2C9
340
2B2C8
340
2B2C7
340
2B2C6
340
2B2C5
340
2B2C4
340
2B2C3
340
2B2C2
340
2B2C1
340
2B2C0
340
2B2BF
340
2B2BE
340
2B2BD
340
2B2BC
340
2B2BB
340
2B2BA
340
2B2B9
340
2B2B8
  0
GROUP
  5
2A315
102
{ACAD_REACTORS
330
D
102
}
330
D
100
AcDbGroup
300

 70
     1
 71
     1
  0
GROUP
  5
A49A
102
{ACAD_REACTORS
330
D
102
}
330
D
100
AcDbGroup
300

 70
     1
 71
     1
  0
GROUP
  5
2A316
102
{ACAD_REACTORS
330
D
102
}
330
D
100
AcDbGroup
300

 70
     1
 71
     1
  0
GROUP
  5
2A317
102
{ACAD_REACTORS
330
D
102
}
330
D
100
AcDbGroup
300

 70
     1
 71
     1
  0
GROUP
  5
1BD8B
102
{ACAD_REACTORS
330
D
102
}
330
D
100
AcDbGroup
300

 70
     1
 71
     1
  0
GROUP
  5
1FC8F
102
{ACAD_REACTORS
330
D
102
}
330
D
100
AcDbGroup
300

 70
     1
 71
     1
  0
GROUP
  5
2B3FD
102
{ACAD_REACTORS
330
D
102
}
330
D
100
AcDbGroup
300

 70
     1
 71
     1
340
2B3FC
340
2B3FB
340
2B3FA
340
2B3F9
340
2B3F8
340
2B3F7
340
2B3F6
340
2B3F5
340
2B3F4
340
2B3F3
340
2B3F2
340
2B3F1
340
2B3F0
340
2B3EF
340
2B3EE
340
2B3ED
340
2B3EC
340
2B3EB
340
2B3EA
340
2B3E9
340
2B3E8
340
2B3E7
340
2B3E6
340
2B3E5
340
2B3E4
340
2B3E3
340
2B3E2
340
2B3E1
340
2B3E0
340
2B3DF
340
2B3DE
340
2B3DD
340
2B3DC
340
2B3DB
340
2B3DA
340
2B3D9
340
2B3D8
340
2B3D7
340
2B3D6
340
2B3D5
340
2B3D4
340
2B3D3
340
2B3D2
340
2B3D1
340
2B3D0
340
2B3CF
340
2B3CE
340
2B3CD
340
2B3CC
340
2B3CB
  0
GROUP
  5
21E84
102
{ACAD_REACTORS
330
D
102
}
330
D
100
AcDbGroup
300

 70
     1
 71
     1
  0
GROUP
  5
1BD8C
102
{ACAD_REACTORS
330
D
102
}
330
D
100
AcDbGroup
300

 70
     1
 71
     1
  0
GROUP
  5
2B1E7
102
{ACAD_REACTORS
330
D
102
}
330
D
100
AcDbGroup
300

 70
     1
 71
     1
340
2AE2B
340
2AE2A
340
2AE29
340
2AE28
340
2AE27
340
2AE26
340
2AE25
340
2AE24
340
2AE2C
340
2AB78
340
2AB76
  0
GROUP
  5
2B2EB
102
{ACAD_REACTORS
330
D
102
}
330
D
100
AcDbGroup
300

 70
     1
 71
     1
340
2B2D3
340
2B2D2
340
2B2D1
340
2B2D0
340
2B2CF
340
2B2CE
340
2B2CD
340
2B2CC
340
2B2CB
340
2B2CA
340
2B2C9
  0
GROUP
  5
2B1F3
102
{ACAD_REACTORS
330
D
102
}
330
D
100
AcDbGroup
300

 70
     1
 71
     1
340
2B1F2
340
2B1F1
340
2B1F0
340
2B1EF
340
2B1EE
340
2B1ED
340
2B1EC
340
2B1EB
340
2B1EA
340
2B1E9
340
2B1E8
  0
GROUP
  5
2B1FF
102
{ACAD_REACTORS
330
D
102
}
330
D
100
AcDbGroup
300

 70
     1
 71
     1
340
2B1FE
340
2B1FD
340
2B1FC
340
2B1FB
340
2B1FA
340
2B1F9
340
2B1F8
340
2B1F7
340
2B1F6
340
2B1F5
340
2B1F4
  0
GROUP
  5
A49B
102
{ACAD_REACTORS
330
D
102
}
330
D
100
AcDbGroup
300

 70
     1
 71
     1
  0
GROUP
  5
2B20B
102
{ACAD_REACTORS
330
D
102
}
330
D
100
AcDbGroup
300

 70
     1
 71
     1
340
2B20A
340
2B209
340
2B208
340
2B207
340
2B206
340
2B205
340
2B204
340
2B203
340
2B202
340
2B201
340
2B200
  0
GROUP
  5
2B219
102
{ACAD_REACTORS
330
D
102
}
330
D
100
AcDbGroup
300

 70
     1
 71
     1
340
2B1E4
340
2B1E2
340
2B1E1
340
2B1E0
340
2B1DF
340
2B1DE
340
2B1DD
340
2AF48
340
2AF47
340
2AF46
  0
GROUP
  5
2B21A
102
{ACAD_REACTORS
330
D
102
}
330
D
100
AcDbGroup
300

 70
     1
 71
     1
340
2B217
340
2B216
340
2B215
340
2B214
340
2B213
340
2B211
340
2B210
340
2B20F
340
2B20E
340
2B20D
  0
GROUP
  5
2B22F
102
{ACAD_REACTORS
330
D
102
}
330
D
100
AcDbGroup
300

 70
     1
 71
     1
340
2B224
340
2B223
340
2B222
340
2B221
340
2B220
340
2B21F
340
2B21E
340
2B21D
340
2B21C
340
2B21B
  0
GROUP
  5
2B3FE
102
{ACAD_REACTORS
330
D
102
}
330
D
100
AcDbGroup
300

 70
     1
 71
     1
340
2B3E6
340
2B3E5
340
2B3E4
340
2B3E3
340
2B3E2
340
2B3E1
340
2B3E0
340
2B3DF
340
2B3DE
340
2B3DD
340
2B3DC
  0
GROUP
  5
2B230
102
{ACAD_REACTORS
330
D
102
}
330
D
100
AcDbGroup
300

 70
     1
 71
     1
340
2B22E
340
2B22D
340
2B22C
340
2B22B
340
2B22A
340
2B229
340
2B228
340
2B227
340
2B226
340
2B225
  0
GROUP
  5
2B264
102
{ACAD_REACTORS
330
D
102
}
330
D
100
AcDbGroup
300

 70
     1
 71
     1
  0
GROUP
  5
2B2EC
102
{ACAD_REACTORS
330
D
102
}
330
D
100
AcDbGroup
300

 70
     1
 71
     1
340
2B2DE
340
2B2DD
340
2B2DC
340
2B2DB
340
2B2DA
340
2B2D9
340
2B2D8
340
2B2D7
340
2B2D6
340
2B2D5
340
2B2D4
  0
GROUP
  5
2B265
102
{ACAD_REACTORS
330
D
102
}
330
D
100
AcDbGroup
300

 70
     1
 71
     1
340
2B24D
340
2B24C
340
2B24B
340
2B24A
340
2B249
340
2B248
340
2B247
340
2B246
340
2B245
340
2B244
  0
GROUP
  5
2B266
102
{ACAD_REACTORS
330
D
102
}
330
D
100
AcDbGroup
300

 70
     1
 71
     1
  0
GROUP
  5
2B267
102
{ACAD_REACTORS
330
D
102
}
330
D
100
AcDbGroup
300

 70
     1
 71
     1
340
2B261
340
2B260
340
2B25F
340
2B25E
340
2B25D
340
2B25C
340
2B25B
340
2B25A
340
2B259
340
2B258
  0
GROUP
  5
194F7
102
{ACAD_REACTORS
330
D
102
}
330
D
100
AcDbGroup
300

 70
     1
 71
     1
  0
GROUP
  5
2B27C
102
{ACAD_REACTORS
330
D
102
}
330
D
100
AcDbGroup
300

 70
     1
 71
     1
340
2B271
340
2B270
340
2B26F
340
2B26E
340
2B26D
340
2B26C
340
2B26B
340
2B26A
340
2B269
340
2B268
  0
GROUP
  5
2B27D
102
{ACAD_REACTORS
330
D
102
}
330
D
100
AcDbGroup
300

 70
     1
 71
     1
340
2B27B
340
2B27A
340
2B279
340
2B278
340
2B277
340
2B276
340
2B275
340
2B274
340
2B273
340
2B272
  0
GROUP
  5
2B27E
102
{ACAD_REACTORS
330
D
102
}
330
D
100
AcDbGroup
300

 70
     1
 71
     1
340
2B20A
340
2B209
340
2B208
340
2B207
340
2B206
340
2B205
340
2B204
340
2B203
340
2B202
340
2B201
340
2B200
340
2B1FE
340
2B1FD
340
2B1FC
340
2B1FB
340
2B1FA
340
2B1F9
340
2B1F8
340
2B1F7
340
2B1F6
340
2B1F5
340
2B1F4
340
2B1F2
340
2B1F1
340
2B1F0
340
2B1EF
340
2B1EE
340
2B1ED
340
2B1EC
340
2B1EB
340
2B1EA
340
2B1E9
340
2B1E8
340
2B1E6
340
2B1E5
340
2AE2B
340
2AE2A
340
2AE29
340
2AE28
340
2AE27
340
2AE26
340
2AE25
340
2AE24
340
2AE22
340
2AE21
340
2AE20
340
2AE2C
340
2AB78
340
2AB76
340
2A8F9
  0
GROUP
  5
2B27F
102
{ACAD_REACTORS
330
D
102
}
330
D
100
AcDbGroup
300

 70
     1
 71
     1
340
2B234
340
2B232
340
2B231
340
2B22E
340
2B22D
340
2B22C
340
2B22B
340
2B22A
340
2B229
340
2B228
340
2B227
340
2B226
340
2B225
340
2B224
340
2B223
340
2B222
340
2B221
340
2B220
340
2B21F
340
2B21E
340
2B21D
340
2B21C
340
2B21B
340
2B217
340
2B216
340
2B215
340
2B214
340
2B213
340
2B211
340
2B210
340
2B20F
340
2B20E
340
2B20D
340
2B1E4
340
2B1E3
340
2B1E2
340
2B1E1
340
2B1E0
340
2B1DF
340
2B1DE
340
2B1DD
340
2B1DC
340
2B1DB
340
2B1DA
340
2AF48
340
2AF47
340
2AF46
340
2AE2F
  0
GROUP
  5
2B400
102
{ACAD_REACTORS
330
D
102
}
330
D
100
AcDbGroup
300

 70
     1
 71
     1
340
2B3FC
340
2B3FB
340
2B3FA
340
2B3F9
340
2B3F8
340
2B3F7
340
2B3F6
340
2B3F5
340
2B3F4
340
2B3F3
340
2B3F2
  0
GROUP
  5
2B2ED
102
{ACAD_REACTORS
330
D
102
}
330
D
100
AcDbGroup
300

 70
     1
 71
     1
340
2B2E9
340
2B2E8
340
2B2E7
340
2B2E6
340
2B2E5
340
2B2E4
340
2B2E3
340
2B2E2
340
2B2E1
340
2B2E0
340
2B2DF
  0
GROUP
  5
2B2EE
102
{ACAD_REACTORS
330
D
102
}
330
D
100
AcDbGroup
300

 70
     1
 71
     1
340
2B2C6
340
2B2C5
340
2B2C4
340
2B2C3
340
2B2C2
340
2B2C1
340
2B2C0
340
2B2BF
340
2B2BB
340
2B2BA
340
2B2B9
  0
GROUP
  5
2B321
102
{ACAD_REACTORS
330
D
102
}
330
D
100
AcDbGroup
300

 70
     1
 71
     1
340
2B320
340
2B31F
340
2B31E
340
2B31D
340
2B31C
340
2B31B
340
2B31A
340
2B319
340
2B318
340
2B317
340
2B316
340
2B315
340
2B314
340
2B313
340
2B312
340
2B311
340
2B310
340
2B30F
340
2B30E
340
2B30D
340
2B30C
340
2B30B
340
2B30A
340
2B309
340
2B308
340
2B307
340
2B306
340
2B305
340
2B304
340
2B303
340
2B302
340
2B301
340
2B300
340
2B2FF
340
2B2FE
340
2B2FD
340
2B2FC
340
2B2FB
340
2B2FA
340
2B2F9
340
2B2F8
340
2B2F7
340
2B2F6
340
2B2F5
340
2B2F4
340
2B2F3
340
2B2F2
340
2B2F1
340
2B2F0
340
2B2EF
  0
GROUP
  5
2B322
102
{ACAD_REACTORS
330
D
102
}
330
D
100
AcDbGroup
300

 70
     1
 71
     1
340
2B30A
340
2B309
340
2B308
340
2B307
340
2B306
340
2B305
340
2B304
340
2B303
340
2B302
340
2B301
340
2B300
  0
GROUP
  5
2B323
102
{ACAD_REACTORS
330
D
102
}
330
D
100
AcDbGroup
300

 70
     1
 71
     1
340
2B315
340
2B314
340
2B313
340
2B312
340
2B311
340
2B310
340
2B30F
340
2B30E
340
2B30D
340
2B30C
340
2B30B
  0
GROUP
  5
2B324
102
{ACAD_REACTORS
330
D
102
}
330
D
100
AcDbGroup
300

 70
     1
 71
     1
340
2B320
340
2B31F
340
2B31E
340
2B31D
340
2B31C
340
2B31B
340
2B31A
340
2B319
340
2B318
340
2B317
340
2B316
  0
GROUP
  5
2B3FF
102
{ACAD_REACTORS
330
D
102
}
330
D
100
AcDbGroup
300

 70
     1
 71
     1
340
2B3F1
340
2B3F0
340
2B3EF
340
2B3EE
340
2B3ED
340
2B3EC
340
2B3EB
340
2B3EA
340
2B3E9
340
2B3E8
340
2B3E7
  0
GROUP
  5
2B325
102
{ACAD_REACTORS
330
D
102
}
330
D
100
AcDbGroup
300

 70
     1
 71
     1
340
2B2FD
340
2B2FC
340
2B2FB
340
2B2FA
340
2B2F9
340
2B2F8
340
2B2F7
340
2B2F6
340
2B2F2
340
2B2F1
340
2B2F0
  0
GROUP
  5
194F5
102
{ACAD_REACTORS
330
D
102
}
330
D
100
AcDbGroup
300

 70
     1
 71
     1
  0
GROUP
  5
2B358
102
{ACAD_REACTORS
330
D
102
}
330
D
100
AcDbGroup
300

 70
     1
 71
     1
340
2B357
340
2B356
340
2B355
340
2B354
340
2B353
340
2B352
340
2B351
340
2B350
340
2B34F
340
2B34E
340
2B34D
340
2B34C
340
2B34B
340
2B34A
340
2B349
340
2B348
340
2B347
340
2B346
340
2B345
340
2B344
340
2B343
340
2B342
340
2B341
340
2B340
340
2B33F
340
2B33E
340
2B33D
340
2B33C
340
2B33B
340
2B33A
340
2B339
340
2B338
340
2B337
340
2B336
340
2B335
340
2B334
340
2B333
340
2B332
340
2B331
340
2B330
340
2B32F
340
2B32E
340
2B32D
340
2B32C
340
2B32B
340
2B32A
340
2B329
340
2B328
340
2B327
340
2B326
  0
GROUP
  5
2B359
102
{ACAD_REACTORS
330
D
102
}
330
D
100
AcDbGroup
300

 70
     1
 71
     1
340
2B341
340
2B340
340
2B33F
340
2B33E
340
2B33D
340
2B33C
340
2B33B
340
2B33A
340
2B339
340
2B338
340
2B337
  0
GROUP
  5
2B401
102
{ACAD_REACTORS
330
D
102
}
330
D
100
AcDbGroup
300

 70
     1
 71
     1
340
2B3D9
340
2B3D8
340
2B3D7
340
2B3D6
340
2B3D5
340
2B3D4
340
2B3D3
340
2B3D2
340
2B3CE
340
2B3CD
340
2B3CC
  0
GROUP
  5
2B35A
102
{ACAD_REACTORS
330
D
102
}
330
D
100
AcDbGroup
300

 70
     1
 71
     1
340
2B34C
340
2B34B
340
2B34A
340
2B349
340
2B348
340
2B347
340
2B346
340
2B345
340
2B344
340
2B343
340
2B342
  0
GROUP
  5
2B35B
102
{ACAD_REACTORS
330
D
102
}
330
D
100
AcDbGroup
300

 70
     1
 71
     1
340
2B357
340
2B356
340
2B355
340
2B354
340
2B353
340
2B352
340
2B351
340
2B350
340
2B34F
340
2B34E
340
2B34D
  0
GROUP
  5
2B35C
102
{ACAD_REACTORS
330
D
102
}
330
D
100
AcDbGroup
300

 70
     1
 71
     1
340
2B334
340
2B333
340
2B332
340
2B331
340
2B330
340
2B32F
340
2B32E
340
2B32D
340
2B329
340
2B328
340
2B327
  0
GROUP
  5
2B38F
102
{ACAD_REACTORS
330
D
102
}
330
D
100
AcDbGroup
300

 70
     1
 71
     1
340
2B38E
340
2B38D
340
2B38C
340
2B38B
340
2B38A
340
2B389
340
2B388
340
2B387
340
2B386
340
2B385
340
2B384
340
2B383
340
2B382
340
2B381
340
2B380
340
2B37F
340
2B37E
340
2B37D
340
2B37C
340
2B37B
340
2B37A
340
2B379
340
2B378
340
2B377
340
2B376
340
2B375
340
2B374
340
2B373
340
2B372
340
2B371
340
2B370
340
2B36F
340
2B36E
340
2B36D
340
2B36C
340
2B36B
340
2B36A
340
2B369
340
2B368
340
2B367
340
2B366
340
2B365
340
2B364
340
2B363
340
2B362
340
2B361
340
2B360
340
2B35F
340
2B35E
340
2B35D
  0
GROUP
  5
2B390
102
{ACAD_REACTORS
330
D
102
}
330
D
100
AcDbGroup
300

 70
     1
 71
     1
340
2B378
340
2B377
340
2B376
340
2B375
340
2B374
340
2B373
340
2B372
340
2B371
340
2B370
340
2B36F
340
2B36E
  0
GROUP
  5
2B280
102
{ACAD_REACTORS
330
D
102
}
330
D
100
AcDbGroup
300

 70
     1
 71
     1
340
2B27B
340
2B27A
340
2B279
340
2B278
340
2B277
340
2B276
340
2B275
340
2B274
340
2B273
340
2B272
340
2B271
340
2B270
340
2B26F
340
2B26E
340
2B26D
340
2B26C
340
2B26B
340
2B26A
340
2B269
340
2B268
340
2B263
340
2B262
340
2B261
340
2B260
340
2B25F
340
2B25E
340
2B25D
340
2B25C
340
2B25B
340
2B25A
340
2B259
340
2B258
340
2B24D
340
2B24C
340
2B24B
340
2B24A
340
2B249
340
2B248
340
2B247
340
2B246
340
2B245
340
2B244
340
2B242
340
2B23B
340
2B23A
340
2B239
340
2B235
  0
GROUP
  5
2B391
102
{ACAD_REACTORS
330
D
102
}
330
D
100
AcDbGroup
300

 70
     1
 71
     1
340
2B383
340
2B382
340
2B381
340
2B380
340
2B37F
340
2B37E
340
2B37D
340
2B37C
340
2B37B
340
2B37A
340
2B379
  0
GROUP
  5
2B392
102
{ACAD_REACTORS
330
D
102
}
330
D
100
AcDbGroup
300

 70
     1
 71
     1
340
2B38E
340
2B38D
340
2B38C
340
2B38B
340
2B38A
340
2B389
340
2B388
340
2B387
340
2B386
340
2B385
340
2B384
  0
GROUP
  5
2B393
102
{ACAD_REACTORS
330
D
102
}
330
D
100
AcDbGroup
300

 70
     1
 71
     1
340
2B36B
340
2B36A
340
2B369
340
2B368
340
2B367
340
2B366
340
2B365
340
2B364
340
2B360
340
2B35F
340
2B35E
  0
GROUP
  5
9D4A
102
{ACAD_REACTORS
330
D
102
}
330
D
100
AcDbGroup
300

 70
     1
 71
     1
  0
GROUP
  5
2B461
102
{ACAD_REACTORS
330
D
102
}
330
D
100
AcDbGroup
300

 70
     1
 71
     1
340
2B431
340
2B430
340
2B42F
340
2B42E
340
2B42D
340
2B42C
340
2B42B
340
2B42A
340
2B429
340
2B428
340
2B427
340
2B426
340
2B425
340
2B424
340
2B423
340
2B422
340
2B421
340
2B420
340
2B41F
340
2B41E
340
2B41D
340
2B41C
340
2B41B
340
2B41A
340
2B419
340
2B418
340
2B417
340
2B416
340
2B415
340
2B414
340
2B413
340
2B412
340
2B411
340
2B410
340
2B40F
340
2B40E
340
2B40D
340
2B40C
340
2B40B
340
2B40A
340
2B409
340
2B408
340
2B407
340
2B406
340
2B405
340
2B404
340
2B403
340
2B402
  0
GROUP
  5
2B462
102
{ACAD_REACTORS
330
D
102
}
330
D
100
AcDbGroup
300

 70
     1
 71
     1
340
2B410
340
2B40E
340
2B40D
340
2B40C
340
2B40B
340
2B40A
340
2B409
340
2B405
340
2B404
340
2B403
  0
GROUP
  5
2B463
102
{ACAD_REACTORS
330
D
102
}
330
D
100
AcDbGroup
300

 70
     1
 71
     1
340
2B41A
340
2B419
340
2B418
340
2B417
340
2B416
340
2B415
340
2B414
340
2B413
340
2B412
340
2B411
  0
GROUP
  5
2B464
102
{ACAD_REACTORS
330
D
102
}
330
D
100
AcDbGroup
300

 70
     1
 71
     1
340
2B424
340
2B423
340
2B422
340
2B421
340
2B420
340
2B41F
340
2B41E
340
2B41D
340
2B41C
340
2B41B
  0
GROUP
  5
2B465
102
{ACAD_REACTORS
330
D
102
}
330
D
100
AcDbGroup
300

 70
     1
 71
     1
340
2B42E
340
2B42D
340
2B42C
340
2B42B
340
2B42A
340
2B429
340
2B428
340
2B427
340
2B426
340
2B425
  0
GROUP
  5
2B466
102
{ACAD_REACTORS
330
D
102
}
330
D
100
AcDbGroup
300

 70
     1
 71
     1
340
2B460
340
2B45F
340
2B45E
340
2B45D
340
2B45C
340
2B45B
340
2B45A
340
2B459
340
2B458
340
2B457
340
2B456
340
2B455
340
2B454
340
2B453
340
2B452
340
2B451
340
2B450
340
2B44F
340
2B44E
340
2B44D
340
2B44C
340
2B44B
340
2B44A
340
2B449
340
2B448
340
2B447
340
2B446
340
2B445
340
2B444
340
2B443
340
2B442
340
2B441
340
2B440
340
2B43F
340
2B43E
340
2B43D
340
2B43C
340
2B43B
340
2B43A
340
2B439
340
2B438
340
2B437
340
2B436
340
2B435
340
2B434
340
2B433
340
2B432
  0
GROUP
  5
2B2B3
102
{ACAD_REACTORS
330
D
102
}
330
D
100
AcDbGroup
300

 70
     1
 71
     1
340
2B2B2
340
2B2B1
340
2B2B0
340
2B2AF
340
2B2AE
340
2B2AD
340
2B2AC
340
2B2AB
340
2B2AA
340
2B2A9
340
2B2A8
340
2B2A7
340
2B2A6
340
2B2A5
340
2B2A4
340
2B2A3
340
2B2A2
340
2B2A1
340
2B2A0
340
2B29F
340
2B29E
340
2B29D
340
2B29C
340
2B29B
340
2B29A
340
2B299
340
2B298
340
2B297
340
2B296
340
2B295
340
2B294
340
2B293
340
2B292
340
2B291
340
2B290
340
2B28F
340
2B28E
340
2B28D
340
2B28C
340
2B28B
340
2B28A
340
2B289
340
2B288
340
2B287
340
2B286
340
2B285
340
2B284
340
2B283
340
2B282
340
2B281
  0
GROUP
  5
A22D
102
{ACAD_REACTORS
330
D
102
}
330
D
100
AcDbGroup
300

 70
     1
 71
     1
  0
GROUP
  5
2B467
102
{ACAD_REACTORS
330
D
102
}
330
D
100
AcDbGroup
300

 70
     1
 71
     1
340
2B440
340
2B43F
340
2B43E
340
2B43D
340
2B43C
340
2B43B
340
2B43A
340
2B439
340
2B438
340
2B437
  0
GROUP
  5
2B468
102
{ACAD_REACTORS
330
D
102
}
330
D
100
AcDbGroup
300

 70
     1
 71
     1
340
2B44A
340
2B449
340
2B448
340
2B447
340
2B446
340
2B445
340
2B444
340
2B443
340
2B442
340
2B441
  0
GROUP
  5
2B469
102
{ACAD_REACTORS
330
D
102
}
330
D
100
AcDbGroup
300

 70
     1
 71
     1
340
2B456
340
2B455
340
2B454
340
2B453
340
2B452
340
2B451
340
2B450
340
2B44F
340
2B44E
340
2B44D
  0
GROUP
  5
2B46A
102
{ACAD_REACTORS
330
D
102
}
330
D
100
AcDbGroup
300

 70
     1
 71
     1
340
2B460
340
2B45F
340
2B45E
340
2B45D
340
2B45C
340
2B45B
340
2B45A
340
2B459
340
2B458
340
2B457
  0
GROUP
  5
194F6
102
{ACAD_REACTORS
330
D
102
}
330
D
100
AcDbGroup
300

 70
     1
 71
     1
  0
GROUP
  5
2B49A
102
{ACAD_REACTORS
330
D
102
}
330
D
100
AcDbGroup
300

 70
     1
 71
     1
340
2B499
340
2B498
340
2B497
340
2B496
340
2B495
340
2B494
340
2B493
340
2B492
340
2B491
340
2B490
340
2B48F
340
2B48E
340
2B48D
340
2B48C
340
2B48B
340
2B48A
340
2B489
340
2B488
340
2B487
340
2B486
340
2B485
340
2B484
340
2B483
340
2B482
340
2B481
340
2B480
340
2B47F
340
2B47E
340
2B47D
340
2B47C
340
2B47B
340
2B47A
340
2B479
340
2B478
340
2B477
340
2B476
340
2B475
340
2B474
340
2B473
340
2B472
340
2B471
340
2B470
340
2B46F
340
2B46E
340
2B46D
340
2B46C
340
2B46B
  0
GROUP
  5
2B49B
102
{ACAD_REACTORS
330
D
102
}
330
D
100
AcDbGroup
300

 70
     1
 71
     1
340
2B479
340
2B478
340
2B477
340
2B476
340
2B475
340
2B474
340
2B473
340
2B472
340
2B471
340
2B470
  0
GROUP
  5
2B49C
102
{ACAD_REACTORS
330
D
102
}
330
D
100
AcDbGroup
300

 70
     1
 71
     1
340
2B483
340
2B482
340
2B481
340
2B480
340
2B47F
340
2B47E
340
2B47D
340
2B47C
340
2B47B
340
2B47A
  0
GROUP
  5
2B49D
102
{ACAD_REACTORS
330
D
102
}
330
D
100
AcDbGroup
300

 70
     1
 71
     1
340
2B48F
340
2B48E
340
2B48D
340
2B48C
340
2B48B
340
2B48A
340
2B489
340
2B488
340
2B487
340
2B486
  0
GROUP
  5
2B2B4
102
{ACAD_REACTORS
330
D
102
}
330
D
100
AcDbGroup
300

 70
     1
 71
     1
340
2B29C
340
2B29B
340
2B29A
340
2B299
340
2B298
340
2B297
340
2B296
340
2B295
340
2B294
340
2B293
340
2B292
  0
GROUP
  5
2B49E
102
{ACAD_REACTORS
330
D
102
}
330
D
100
AcDbGroup
300

 70
     1
 71
     1
340
2B499
340
2B498
340
2B497
340
2B496
340
2B495
340
2B494
340
2B493
340
2B492
340
2B491
340
2B490
  0
GROUP
  5
2B3C6
102
{ACAD_REACTORS
330
D
102
}
330
D
100
AcDbGroup
300

 70
     1
 71
     1
340
2B3C5
340
2B3C4
340
2B3C3
340
2B3C2
340
2B3C1
340
2B3C0
340
2B3BF
340
2B3BE
340
2B3BD
340
2B3BC
340
2B3BB
340
2B3BA
340
2B3B9
340
2B3B8
340
2B3B7
340
2B3B6
340
2B3B5
340
2B3B4
340
2B3B3
340
2B3B2
340
2B3B1
340
2B3B0
340
2B3AF
340
2B3AE
340
2B3AD
340
2B3AC
340
2B3AB
340
2B3AA
340
2B3A9
340
2B3A8
340
2B3A7
340
2B3A6
340
2B3A5
340
2B3A4
340
2B3A3
340
2B3A2
340
2B3A1
340
2B3A0
340
2B39F
340
2B39E
340
2B39D
340
2B39C
340
2B39B
340
2B39A
340
2B399
340
2B398
340
2B397
340
2B396
340
2B395
340
2B394
  0
GROUP
  5
2B4CE
102
{ACAD_REACTORS
330
D
102
}
330
D
100
AcDbGroup
300

 70
     1
 71
     1
340
2B4CD
340
2B4CC
340
2B4CB
340
2B4CA
340
2B4C9
340
2B4C8
340
2B4C7
340
2B4C6
340
2B4C5
340
2B4C4
340
2B4C3
340
2B4C2
340
2B4C1
340
2B4C0
340
2B4BF
340
2B4BE
340
2B4BD
340
2B4BC
340
2B4BB
340
2B4BA
340
2B4B9
340
2B4B8
340
2B4B7
340
2B4B6
340
2B4B5
340
2B4B4
340
2B4B3
340
2B4B2
340
2B4B1
340
2B4B0
340
2B4AF
340
2B4AE
340
2B4AD
340
2B4AC
340
2B4AB
340
2B4AA
340
2B4A9
340
2B4A8
340
2B4A7
340
2B4A6
340
2B4A5
340
2B4A4
340
2B4A3
340
2B4A2
340
2B4A1
340
2B4A0
340
2B49F
  0
GROUP
  5
2B4CF
102
{ACAD_REACTORS
330
D
102
}
330
D
100
AcDbGroup
300

 70
     1
 71
     1
340
2B4AD
340
2B4AC
340
2B4AB
340
2B4AA
340
2B4A9
340
2B4A8
340
2B4A7
340
2B4A6
340
2B4A5
340
2B4A4
  0
GROUP
  5
2B4D0
102
{ACAD_REACTORS
330
D
102
}
330
D
100
AcDbGroup
300

 70
     1
 71
     1
340
2B4B7
340
2B4B6
340
2B4B5
340
2B4B4
340
2B4B3
340
2B4B2
340
2B4B1
340
2B4B0
340
2B4AF
340
2B4AE
  0
GROUP
  5
2B4D1
102
{ACAD_REACTORS
330
D
102
}
330
D
100
AcDbGroup
300

 70
     1
 71
     1
340
2B4C3
340
2B4C2
340
2B4C1
340
2B4C0
340
2B4BF
340
2B4BE
340
2B4BD
340
2B4BC
340
2B4BB
340
2B4BA
  0
GROUP
  5
2B4D2
102
{ACAD_REACTORS
330
D
102
}
330
D
100
AcDbGroup
300

 70
     1
 71
     1
340
2B4CD
340
2B4CC
340
2B4CB
340
2B4CA
340
2B4C9
340
2B4C8
340
2B4C7
340
2B4C6
340
2B4C5
340
2B4C4
  0
GROUP
  5
9FC0
102
{ACAD_REACTORS
330
D
102
}
330
D
100
AcDbGroup
300

 70
     1
 71
     1
  0
GROUP
  5
9FC1
102
{ACAD_REACTORS
330
D
102
}
330
D
100
AcDbGroup
300

 70
     1
 71
     1
  0
GROUP
  5
1BD84
102
{ACAD_REACTORS
330
D
102
}
330
D
100
AcDbGroup
300

 70
     1
 71
     1
  0
GROUP
  5
2B2B5
102
{ACAD_REACTORS
330
D
102
}
330
D
100
AcDbGroup
300

 70
     1
 71
     1
340
2B2A7
340
2B2A6
340
2B2A5
340
2B2A4
340
2B2A3
340
2B2A2
340
2B2A1
340
2B2A0
340
2B29F
340
2B29E
340
2B29D
  0
GROUP
  5
1BD85
102
{ACAD_REACTORS
330
D
102
}
330
D
100
AcDbGroup
300

 70
     1
 71
     1
  0
GROUP
  5
1BD82
102
{ACAD_REACTORS
330
D
102
}
330
D
100
AcDbGroup
300

 70
     1
 71
     1
  0
GROUP
  5
2B3C7
102
{ACAD_REACTORS
330
D
102
}
330
D
100
AcDbGroup
300

 70
     1
 71
     1
340
2B3AF
340
2B3AE
340
2B3AD
340
2B3AC
340
2B3AB
340
2B3AA
340
2B3A9
340
2B3A8
340
2B3A7
340
2B3A6
340
2B3A5
  0
GROUP
  5
9D2A
102
{ACAD_REACTORS
330
D
102
}
330
D
100
AcDbGroup
300

 70
     1
 71
     1
  0
GROUP
  5
2601A
102
{ACAD_REACTORS
330
D
102
}
330
D
100
AcDbGroup
300

 70
     1
 71
     1
  0
GROUP
  5
1BD83
102
{ACAD_REACTORS
330
D
102
}
330
D
100
AcDbGroup
300

 70
     1
 71
     1
  0
GROUP
  5
2601B
102
{ACAD_REACTORS
330
D
102
}
330
D
100
AcDbGroup
300

 70
     1
 71
     1
  0
GROUP
  5
1BD87
102
{ACAD_REACTORS
330
D
102
}
330
D
100
AcDbGroup
300

 70
     1
 71
     1
  0
GROUP
  5
1BD88
102
{ACAD_REACTORS
330
D
102
}
330
D
100
AcDbGroup
300

 70
     1
 71
     1
  0
GROUP
  5
1BD89
102
{ACAD_REACTORS
330
D
102
}
330
D
100
AcDbGroup
300

 70
     1
 71
     1
  0
GROUP
  5
2B2B6
102
{ACAD_REACTORS
330
D
102
}
330
D
100
AcDbGroup
300

 70
     1
 71
     1
340
2B2B2
340
2B2B1
340
2B2B0
340
2B2AF
340
2B2AE
340
2B2AD
340
2B2AC
340
2B2AB
340
2B2AA
340
2B2A9
340
2B2A8
  0
GROUP
  5
265C2
102
{ACAD_REACTORS
330
D
102
}
330
D
100
AcDbGroup
300

 70
     1
 71
     1
  0
GROUP
  5
29A05
102
{ACAD_REACTORS
330
D
102
}
330
D
100
AcDbGroup
300

 70
     1
 71
     1
  0
GROUP
  5
29A06
102
{ACAD_REACTORS
330
D
102
}
330
D
100
AcDbGroup
300

 70
     3
 71
     1
  0
GROUP
  5
2B3C8
102
{ACAD_REACTORS
330
D
102
}
330
D
100
AcDbGroup
300

 70
     1
 71
     1
340
2B3BA
340
2B3B9
340
2B3B8
340
2B3B7
340
2B3B6
340
2B3B5
340
2B3B4
340
2B3B3
340
2B3B2
340
2B3B1
340
2B3B0
  0
GROUP
  5
29A07
102
{ACAD_REACTORS
330
D
102
}
330
D
100
AcDbGroup
300

 70
     3
 71
     1
  0
GROUP
  5
29A08
102
{ACAD_REACTORS
330
D
102
}
330
D
100
AcDbGroup
300

 70
     3
 71
     1
  0
GROUP
  5
29A09
102
{ACAD_REACTORS
330
D
102
}
330
D
100
AcDbGroup
300

 70
     3
 71
     1
  0
GROUP
  5
A22E
102
{ACAD_REACTORS
330
D
102
}
330
D
100
AcDbGroup
300

 70
     1
 71
     1
  0
GROUP
  5
29A0A
102
{ACAD_REACTORS
330
D
102
}
330
D
100
AcDbGroup
300

 70
     3
 71
     1
  0
GROUP
  5
29A0B
102
{ACAD_REACTORS
330
D
102
}
330
D
100
AcDbGroup
300

 70
     1
 71
     1
  0
GROUP
  5
2B2B7
102
{ACAD_REACTORS
330
D
102
}
330
D
100
AcDbGroup
300

 70
     1
 71
     1
340
2B28F
340
2B28E
340
2B28D
340
2B28C
340
2B28B
340
2B28A
340
2B289
340
2B288
340
2B284
340
2B283
340
2B282
  0
GROUP
  5
29A0C
102
{ACAD_REACTORS
330
D
102
}
330
D
100
AcDbGroup
300

 70
     1
 71
     1
  0
GROUP
  5
29A0D
102
{ACAD_REACTORS
330
D
102
}
330
D
100
AcDbGroup
300

 70
     3
 71
     1
  0
GROUP
  5
1BD86
102
{ACAD_REACTORS
330
D
102
}
330
D
100
AcDbGroup
300

 70
     1
 71
     1
  0
GROUP
  5
29A0E
102
{ACAD_REACTORS
330
D
102
}
330
D
100
AcDbGroup
300

 70
     3
 71
     1
  0
GROUP
  5
2B3C9
102
{ACAD_REACTORS
330
D
102
}
330
D
100
AcDbGroup
300

 70
     1
 71
     1
340
2B3C5
340
2B3C4
340
2B3C3
340
2B3C2
340
2B3C1
340
2B3C0
340
2B3BF
340
2B3BE
340
2B3BD
340
2B3BC
340
2B3BB
  0
GROUP
  5
29A0F
102
{ACAD_REACTORS
330
D
102
}
330
D
100
AcDbGroup
300

 70
     1
 71
     1
  0
GROUP
  5
29A10
102
{ACAD_REACTORS
330
D
102
}
330
D
100
AcDbGroup
300

 70
     1
 71
     1
  0
GROUP
  5
29A11
102
{ACAD_REACTORS
330
D
102
}
330
D
100
AcDbGroup
300

 70
     3
 71
     1
  0
GROUP
  5
29A12
102
{ACAD_REACTORS
330
D
102
}
330
D
100
AcDbGroup
300

 70
     3
 71
     1
  0
GROUP
  5
1FC80
102
{ACAD_REACTORS
330
D
102
}
330
D
100
AcDbGroup
300

 70
     1
 71
     1
  0
GROUP
  5
194F8
102
{ACAD_REACTORS
330
D
102
}
330
D
100
AcDbGroup
300

 70
     1
 71
     1
  0
GROUP
  5
29A13
102
{ACAD_REACTORS
330
D
102
}
330
D
100
AcDbGroup
300

 70
     3
 71
     1
  0
GROUP
  5
2A30E
102
{ACAD_REACTORS
330
D
102
}
330
D
100
AcDbGroup
300

 70
     1
 71
     1
  0
GROUP
  5
2A30F
102
{ACAD_REACTORS
330
D
102
}
330
D
100
AcDbGroup
300

 70
     1
 71
     1
  0
GROUP
  5
2A310
102
{ACAD_REACTORS
330
D
102
}
330
D
100
AcDbGroup
300

 70
     1
 71
     1
  0
GROUP
  5
2A311
102
{ACAD_REACTORS
330
D
102
}
330
D
100
AcDbGroup
300

 70
     1
 71
     1
  0
GROUP
  5
2B3CA
102
{ACAD_REACTORS
330
D
102
}
330
D
100
AcDbGroup
300

 70
     1
 71
     1
340
2B3A2
340
2B3A1
340
2B3A0
340
2B39F
340
2B39E
340
2B39D
340
2B39C
340
2B39B
340
2B397
340
2B396
340
2B395
  0
GROUP
  5
1BD8A
102
{ACAD_REACTORS
330
D
102
}
330
D
100
AcDbGroup
300

 70
     1
 71
     1
  0
GROUP
  5
2A312
102
{ACAD_REACTORS
330
D
102
}
330
D
100
AcDbGroup
300

 70
     1
 71
     1
  0
GROUP
  5
2A313
102
{ACAD_REACTORS
330
D
102
}
330
D
100
AcDbGroup
300

 70
     1
 71
     1
  0
GROUP
  5
2A314
102
{ACAD_REACTORS
330
D
102
}
330
D
100
AcDbGroup
300

 70
     1
 71
     1
  0
LAYOUT
  5
1B1E7
102
{ACAD_XDICTIONARY
360
2B556
102
}
102
{ACAD_REACTORS
330
1B1E4
102
}
330
1B1E4
100
AcDbPlotSettings
  1

  2
\\SERVER1\HP Color LaserJet 4500
  4

  6

 40
0.0
 41
0.0
 42
0.0
 43
0.0
 44
0.0
 45
0.0
 46
0.0
 47
0.0
 48
0.0
 49
0.0
140
0.0
141
0.0
142
1.0
143
1.0
 70
   688
 72
     0
 73
     0
 74
     5
  7

 75
    16
147
1.0
148
0.0
149
0.0
100
AcDbLayout
  1
Layout1
 70
     1
 71
     1
 10
0.0
 20
0.0
 11
420.0
 21
297.0
 12
0.0
 22
0.0
 32
0.0
 14
1.000000000000000E+20
 24
1.000000000000000E+20
 34
1.000000000000000E+20
 15
-1.000000000000000E+20
 25
-1.000000000000000E+20
 35
-1.000000000000000E+20
146
0.0
 13
0.0
 23
0.0
 33
0.0
 16
1.0
 26
0.0
 36
0.0
 17
0.0
 27
1.0
 37
0.0
 76
     0
330
15
  0
LAYOUT
  5
1B1E6
102
{ACAD_XDICTIONARY
360
2B554
102
}
102
{ACAD_REACTORS
330
1B1E4
102
}
330
1B1E4
100
AcDbPlotSettings
  1

  2
\\SERVER1\HP Color LaserJet 4500
  4

  6

 40
0.0
 41
0.0
 42
0.0
 43
0.0
 44
0.0
 45
0.0
 46
0.0
 47
0.0
 48
0.0
 49
0.0
140
0.0
141
0.0
142
1.0
143
1.0
 70
  1712
 72
     0
 73
     0
 74
     0
  7

 75
     0
147
1.0
148
0.0
149
0.0
100
AcDbLayout
  1
Model
 70
     1
 71
     0
 10
0.0
 20
0.0
 11
12.0
 21
9.0
 12
0.0
 22
0.0
 32
0.0
 14
0.0
 24
0.0
 34
0.0
 15
0.0
 25
0.0
 35
0.0
146
0.0
 13
0.0
 23
0.0
 33
0.0
 16
1.0
 26
0.0
 36
0.0
 17
0.0
 27
1.0
 37
0.0
 76
     0
330
18
  0
MLINESTYLE
  5
1C
102
{ACAD_REACTORS
330
1B
102
}
330
1B
100
AcDbMlineStyle
  2
STANDARD
 70
     0
  3

 62
   256
 51
90.0
 52
90.0
 71
     2
 49
0.5
 62
   256
  6
BYLAYER
 49
-0.5
 62
   256
  6
BYLAYER
  0
ACDBPLACEHOLDER
  5
1B1E3
102
{ACAD_REACTORS
330
1B1E2
102
}
330
1B1E2
  0
TABLESTYLE
  5
2A32A
102
{ACAD_REACTORS
330
2A329
102
}
330
2A329
100
AcDbTableStyle
  3
Standard
 70
     0
 71
     0
 40
1.5
 41
1.5
280
     0
281
     0
  7
STANDARD
140
4.5
170
     2
 62
     0
 63
     7
283
     0
274
    -2
284
     1
 64
     0
275
    -2
285
     1
 65
     0
276
    -2
286
     1
 66
     0
277
    -2
287
     1
 67
     0
278
    -2
288
     1
 68
     0
279
    -2
289
     1
 69
     0
  7
STANDARD
140
6.0
170
     5
 62
     0
 63
     7
283
     0
274
    -2
284
     1
 64
     0
275
    -2
285
     1
 65
     0
276
    -2
286
     1
 66
     0
277
    -2
287
     1
 67
     0
278
    -2
288
     1
 68
     0
279
    -2
289
     1
 69
     0
  7
STANDARD
140
4.5
170
     5
 62
     0
 63
     7
283
     0
274
    -2
284
     1
 64
     0
275
    -2
285
     1
 65
     0
276
    -2
286
     1
 66
     0
277
    -2
287
     1
 67
     0
278
    -2
288
     1
 68
     0
279
    -2
289
     1
 69
     0
  0
DICTIONARYVAR
  5
2A332
102
{ACAD_REACTORS
330
9820
102
}
330
9820
100
DictionaryVariables
280
     0
  1
STANDARD
  0
DICTIONARYVAR
  5
1FD3B
102
{ACAD_REACTORS
330
9820
102
}
330
9820
100
DictionaryVariables
280
     0
  1
1
  0
DICTIONARYVAR
  5
2B4E4
102
{ACAD_REACTORS
330
9820
102
}
330
9820
100
DictionaryVariables
280
     0
  1

  0
DICTIONARYVAR
  5
9821
102
{ACAD_REACTORS
330
9820
102
}
330
9820
100
DictionaryVariables
280
     0
  1
127
  0
DICTIONARY
  5
2B556
330
1B1E7
100
AcDbDictionary
280
     1
281
     1
  3
ACAD_XREC_ROUNDTRIP
360
2B557
  0
DICTIONARY
  5
2B554
330
1B1E6
100
AcDbDictionary
280
     1
281
     1
  3
ACAD_XREC_ROUNDTRIP
360
2B555
  0
XRECORD
  5
2B557
102
{ACAD_REACTORS
330
2B556
102
}
330
2B556
100
AcDbXrecord
280
     1
102
SHADEPLOT
 70
     0
102
SHADEPLOTRESLEVEL
 70
     2
102
SHADEPLOTCUSTOMDPI
 70
   300
  0
XRECORD
  5
2B555
102
{ACAD_REACTORS
330
2B554
102
}
330
2B554
100
AcDbXrecord
280
     1
102
SHADEPLOT
 70
     0
102
SHADEPLOTRESLEVEL
 70
     2
102
SHADEPLOTCUSTOMDPI
 70
   300
  0
ENDSEC
  0
EOF
