  0
SECTION
  2
HEADER
  9
$ACADVER
  1
AC1015
  9
$ACADMAINTVER
 70
     6
  9
$DWGCODEPAGE
  3
ANSI_1252
  9
$INSBASE
 10
0.0
 20
0.0
 30
0.0
  9
$EXTMIN
 10
-0.0000000000004547
 20
-0.0000000000000568
 30
0.0
  9
$EXTMAX
 10
419.9999999999995
 20
296.9999999999999
 30
0.0
  9
$LIMMIN
 10
0.0
 20
0.0
  9
$LIMMAX
 10
420.0
 20
297.0
  9
$ORTHOMODE
 70
     0
  9
$REGENMODE
 70
     1
  9
$FILLMODE
 70
     1
  9
$QTEXTMODE
 70
     0
  9
$MIRRTEXT
 70
     1
  9
$LTSCALE
 40
1.0
  9
$ATTMODE
 70
     1
  9
$TEXTSIZE
 40
2.0
  9
$TRACEWID
 40
1.0
  9
$TEXTSTYLE
  7
Standard
  9
$CLAYER
  8
Mitte
  9
$CELTYPE
  6
ByLayer
  9
$CECOLOR
 62
   256
  9
$CELTSCALE
 40
1.0
  9
$DISPSILH
 70
     0
  9
$DIMSCALE
 40
1.0
  9
$DIMASZ
 40
2.5
  9
$DIMEXO
 40
0.625
  9
$DIMDLI
 40
3.75
  9
$DIMRND
 40
0.0
  9
$DIMDLE
 40
0.0
  9
$DIMEXE
 40
1.25
  9
$DIMTP
 40
0.0
  9
$DIMTM
 40
0.0
  9
$DIMTXT
 40
2.5
  9
$DIMCEN
 40
2.5
  9
$DIMTSZ
 40
0.0
  9
$DIMTOL
 70
     0
  9
$DIMLIM
 70
     0
  9
$DIMTIH
 70
     0
  9
$DIMTOH
 70
     0
  9
$DIMSE1
 70
     0
  9
$DIMSE2
 70
     0
  9
$DIMTAD
 70
     1
  9
$DIMZIN
 70
     8
  9
$DIMBLK
  1

  9
$DIMASO
 70
     1
  9
$DIMSHO
 70
     1
  9
$DIMPOST
  1

  9
$DIMAPOST
  1

  9
$DIMALT
 70
     0
  9
$DIMALTD
 70
     3
  9
$DIMALTF
 40
0.03937007874016
  9
$DIMLFAC
 40
1.0
  9
$DIMTOFL
 70
     1
  9
$DIMTVP
 40
0.0
  9
$DIMTIX
 70
     0
  9
$DIMSOXD
 70
     0
  9
$DIMSAH
 70
     0
  9
$DIMBLK1
  1

  9
$DIMBLK2
  1

  9
$DIMSTYLE
  2
ISO-25
  9
$DIMCLRD
 70
     0
  9
$DIMCLRE
 70
     0
  9
$DIMCLRT
 70
     0
  9
$DIMTFAC
 40
1.0
  9
$DIMGAP
 40
0.625
  9
$DIMJUST
 70
     0
  9
$DIMSD1
 70
     0
  9
$DIMSD2
 70
     0
  9
$DIMTOLJ
 70
     0
  9
$DIMTZIN
 70
     8
  9
$DIMALTZ
 70
     0
  9
$DIMALTTZ
 70
     0
  9
$DIMUPT
 70
     1
  9
$DIMDEC
 70
     2
  9
$DIMTDEC
 70
     2
  9
$DIMALTU
 70
     2
  9
$DIMALTTD
 70
     3
  9
$DIMTXSTY
  7
Standard
  9
$DIMAUNIT
 70
     0
  9
$DIMADEC
 70
     1
  9
$DIMALTRND
 40
0.0
  9
$DIMAZIN
 70
     2
  9
$DIMDSEP
 70
    44
  9
$DIMATFIT
 70
     3
  9
$DIMFRAC
 70
     0
  9
$DIMLDRBLK
  1

  9
$DIMLUNIT
 70
     2
  9
$DIMLWD
 70
    -2
  9
$DIMLWE
 70
    -2
  9
$DIMTMOVE
 70
     0
  9
$LUNITS
 70
     2
  9
$LUPREC
 70
     4
  9
$SKETCHINC
 40
1.0
  9
$FILLETRAD
 40
1.0
  9
$AUNITS
 70
     0
  9
$AUPREC
 70
     0
  9
$MENU
  1
.
  9
$ELEVATION
 40
0.0
  9
$PELEVATION
 40
0.0
  9
$THICKNESS
 40
0.0
  9
$LIMCHECK
 70
     0
  9
$CHAMFERA
 40
0.0
  9
$CHAMFERB
 40
0.0
  9
$CHAMFERC
 40
20.0
  9
$CHAMFERD
 40
0.0
  9
$SKPOLY
 70
     0
  9
$TDCREATE
 40
2453192.518091725
  9
$TDUCREATE
 40
2453192.476425058
  9
$TDUPDATE
 40
2457372.445444121
  9
$TDUUPDATE
 40
2457372.403777454
  9
$TDINDWG
 40
4.626336713
  9
$TDUSRTIMER
 40
2457372.400354352
  9
$USRTIMER
 70
     1
  9
$ANGBASE
 50
0.0
  9
$ANGDIR
 70
     0
  9
$PDMODE
 70
     0
  9
$PDSIZE
 40
0.0
  9
$PLINEWID
 40
0.0
  9
$SPLFRAME
 70
     0
  9
$SPLINETYPE
 70
     6
  9
$SPLINESEGS
 70
     8
  9
$HANDSEED
  5
1C5E6
  9
$SURFTAB1
 70
     6
  9
$SURFTAB2
 70
     6
  9
$SURFTYPE
 70
     6
  9
$SURFU
 70
     6
  9
$SURFV
 70
     6
  9
$UCSBASE
  2

  9
$UCSNAME
  2

  9
$UCSORG
 10
0.0
 20
0.0
 30
0.0
  9
$UCSXDIR
 10
1.0
 20
0.0
 30
0.0
  9
$UCSYDIR
 10
0.0
 20
1.0
 30
0.0
  9
$UCSORTHOREF
  2

  9
$UCSORTHOVIEW
 70
     0
  9
$UCSORGTOP
 10
0.0
 20
0.0
 30
0.0
  9
$UCSORGBOTTOM
 10
0.0
 20
0.0
 30
0.0
  9
$UCSORGLEFT
 10
0.0
 20
0.0
 30
0.0
  9
$UCSORGRIGHT
 10
0.0
 20
0.0
 30
0.0
  9
$UCSORGFRONT
 10
0.0
 20
0.0
 30
0.0
  9
$UCSORGBACK
 10
0.0
 20
0.0
 30
0.0
  9
$PUCSBASE
  2

  9
$PUCSNAME
  2

  9
$PUCSORG
 10
0.0
 20
0.0
 30
0.0
  9
$PUCSXDIR
 10
1.0
 20
0.0
 30
0.0
  9
$PUCSYDIR
 10
0.0
 20
1.0
 30
0.0
  9
$PUCSORTHOREF
  2

  9
$PUCSORTHOVIEW
 70
     0
  9
$PUCSORGTOP
 10
0.0
 20
0.0
 30
0.0
  9
$PUCSORGBOTTOM
 10
0.0
 20
0.0
 30
0.0
  9
$PUCSORGLEFT
 10
0.0
 20
0.0
 30
0.0
  9
$PUCSORGRIGHT
 10
0.0
 20
0.0
 30
0.0
  9
$PUCSORGFRONT
 10
0.0
 20
0.0
 30
0.0
  9
$PUCSORGBACK
 10
0.0
 20
0.0
 30
0.0
  9
$USERI1
 70
     0
  9
$USERI2
 70
     0
  9
$USERI3
 70
     0
  9
$USERI4
 70
     0
  9
$USERI5
 70
     0
  9
$USERR1
 40
0.0
  9
$USERR2
 40
0.0
  9
$USERR3
 40
0.0
  9
$USERR4
 40
0.0
  9
$USERR5
 40
0.0
  9
$WORLDVIEW
 70
     1
  9
$SHADEDGE
 70
     3
  9
$SHADEDIF
 70
    70
  9
$TILEMODE
 70
     1
  9
$MAXACTVP
 70
    64
  9
$PINSBASE
 10
0.0
 20
0.0
 30
0.0
  9
$PLIMCHECK
 70
     0
  9
$PEXTMIN
 10
1.000000000000000E+20
 20
1.000000000000000E+20
 30
1.000000000000000E+20
  9
$PEXTMAX
 10
-1.000000000000000E+20
 20
-1.000000000000000E+20
 30
-1.000000000000000E+20
  9
$PLIMMIN
 10
0.0
 20
0.0
  9
$PLIMMAX
 10
0.0
 20
0.0
  9
$UNITMODE
 70
     0
  9
$VISRETAIN
 70
     1
  9
$PLINEGEN
 70
     0
  9
$PSLTSCALE
 70
     1
  9
$TREEDEPTH
 70
  3020
  9
$CMLSTYLE
  2
Standard
  9
$CMLJUST
 70
     0
  9
$CMLSCALE
 40
20.0
  9
$PROXYGRAPHICS
 70
     1
  9
$MEASUREMENT
 70
     1
  9
$CELWEIGHT
370
    -1
  9
$ENDCAPS
280
     0
  9
$JOINSTYLE
280
     0
  9
$LWDISPLAY
290
     0
  9
$INSUNITS
 70
     4
  9
$HYPERLINKBASE
  1

  9
$STYLESHEET
  1
aclt.ctb
  9
$XEDIT
290
     1
  9
$CEPSNTYPE
380
     0
  9
$PSTYLEMODE
290
     1
  9
$FINGERPRINTGUID
  2
{E7863971-80C0-4B57-A145-0A5A41C64145}
  9
$VERSIONGUID
  2
{78B1FC03-3001-4F04-BD6B-B5DE85EA077F}
  9
$EXTNAMES
290
     1
  9
$PSVPSCALE
 40
0.0
  9
$OLESTARTUP
290
     0
  0
ENDSEC
  0
SECTION
  2
CLASSES
  0
CLASS
  1
ACDBDICTIONARYWDFLT
  2
AcDbDictionaryWithDefault
  3
ObjectDBX Classes
 90
        0
280
     0
281
     0
  0
CLASS
  1
ACDBPLACEHOLDER
  2
AcDbPlaceHolder
  3
ObjectDBX Classes
 90
        0
280
     0
281
     0
  0
CLASS
  1
LAYOUT
  2
AcDbLayout
  3
ObjectDBX Classes
 90
        0
280
     0
281
     0
  0
CLASS
  1
DICTIONARYVAR
  2
AcDbDictionaryVar
  3
ObjectDBX Classes
 90
        0
280
     0
281
     0
  0
CLASS
  1
DIMASSOC
  2
AcDbDimAssoc
  3
"AcDbDimAssoc|Product Desc:     AcDim ARX App For Dimension|Company:          Autodesk, Inc.|WEB Address:      www.autodesk.com"
 90
        0
280
     0
281
     0
  0
CLASS
  1
TABLESTYLE
  2
AcDbTableStyle
  3
ObjectDBX Classes
 90
     4095
280
     0
281
     0
  0
CLASS
  1
SORTENTSTABLE
  2
AcDbSortentsTable
  3
ObjectDBX Classes
 90
        0
280
     0
281
     0
  0
CLASS
  1
VISUALSTYLE
  2
AcDbVisualStyle
  3
ObjectDBX Classes
 90
     4095
280
     0
281
     0
  0
CLASS
  1
SCALE
  2
AcDbScale
  3
ObjectDBX Classes
 90
     1153
280
     0
281
     0
  0
CLASS
  1
MATERIAL
  2
AcDbMaterial
  3
ObjectDBX Classes
 90
     1153
280
     0
281
     0
  0
CLASS
  1
SUN
  2
AcDbSun
  3
SCENEOE
 90
     1153
280
     0
281
     0
  0
CLASS
  1
RASTERVARIABLES
  2
AcDbRasterVariables
  3
ISM
 90
        0
280
     0
281
     0
  0
CLASS
  1
CELLSTYLEMAP
  2
AcDbCellStyleMap
  3
ObjectDBX Classes
 90
     1152
280
     0
281
     0
  0
ENDSEC
  0
SECTION
  2
TABLES
  0
TABLE
  2
VPORT
  5
8
330
0
100
AcDbSymbolTable
 70
     7
  0
VPORT
  5
1BCB0
330
8
100
AcDbSymbolTableRecord
100
AcDbViewportTableRecord
  2
*Active
 70
     0
 10
0.0
 20
0.0
 11
1.0
 21
1.0
 12
209.9999999999998
 22
148.5
 13
0.0
 23
0.0
 14
10.0
 24
10.0
 15
10.0
 25
10.0
 16
0.0
 26
0.0
 36
1.0
 17
0.0
 27
0.0
 37
0.0
 40
302.9400000000001
 41
1.760042283298097
 42
50.0
 43
0.0
 44
0.0
 50
0.0
 51
0.0
 71
    16
 72
   100
 73
     1
 74
     3
 75
     0
 76
     0
 77
     0
 78
     0
281
     0
 65
     1
110
0.0
120
0.0
130
0.0
111
1.0
121
0.0
131
0.0
112
0.0
122
1.0
132
0.0
 79
     0
146
0.0
  0
ENDTAB
  0
TABLE
  2
LTYPE
  5
5
330
0
100
AcDbSymbolTable
 70
     6
  0
LTYPE
  5
14
330
5
100
AcDbSymbolTableRecord
100
AcDbLinetypeTableRecord
  2
ByBlock
 70
     0
  3

 72
    65
 73
     0
 40
0.0
  0
LTYPE
  5
15
330
5
100
AcDbSymbolTableRecord
100
AcDbLinetypeTableRecord
  2
ByLayer
 70
     0
  3

 72
    65
 73
     0
 40
0.0
  0
LTYPE
  5
16
330
5
100
AcDbSymbolTableRecord
100
AcDbLinetypeTableRecord
  2
Continuous
 70
     0
  3
Solid line
 72
    65
 73
     0
 40
0.0
  0
LTYPE
  5
1B3CE
330
5
100
AcDbSymbolTableRecord
100
AcDbLinetypeTableRecord
  2
CENTERX2
 70
     0
  3
Center (2x) ________  __  ________  __  _____
 72
    65
 73
     4
 40
20.32
 49
12.7
 74
     0
 49
-2.54
 74
     0
 49
2.54
 74
     0
 49
-2.54
 74
     0
  0
ENDTAB
  0
TABLE
  2
LAYER
  5
2
102
{ACAD_XDICTIONARY
360
1B0C6
102
}
330
0
100
AcDbSymbolTable
 70
    18
  0
LAYER
  5
10
330
2
100
AcDbSymbolTableRecord
100
AcDbLayerTableRecord
  2
0
 70
     0
 62
     7
  6
Continuous
370
    -3
390
F
  0
LAYER
  5
3F
330
2
100
AcDbSymbolTableRecord
100
AcDbLayerTableRecord
  2
Defpoints
 70
     0
 62
     7
  6
Continuous
290
     0
370
    -3
390
F
  0
LAYER
  5
15B54
330
2
100
AcDbSymbolTableRecord
100
AcDbLayerTableRecord
  2
BEMASSUNG
 70
     0
 62
     3
  6
Continuous
370
    -3
390
F
  0
LAYER
  5
1B1DE
330
2
100
AcDbSymbolTableRecord
100
AcDbLayerTableRecord
  2
TEXTFELD
 70
     0
 62
     7
  6
Continuous
370
    -3
390
F
  0
LAYER
  5
1BA25
330
2
100
AcDbSymbolTableRecord
100
AcDbLayerTableRecord
  2
035
 70
     0
 62
     7
  6
Continuous
370
    -3
390
F
  0
LAYER
  5
1BC99
330
2
100
AcDbSymbolTableRecord
100
AcDbLayerTableRecord
  2
Blech
 70
     0
 62
     5
  6
Continuous
370
    -3
390
F
1001
AcAecLayerStandard
1000

1000

  0
LAYER
  5
1BC9B
330
2
100
AcDbSymbolTableRecord
100
AcDbLayerTableRecord
  2
Mitte
 70
     0
 62
     2
  6
CENTERX2
370
    -3
390
F
1001
AcAecLayerStandard
1000

1000

  0
ENDTAB
  0
TABLE
  2
STYLE
  5
3
330
0
100
AcDbSymbolTable
 70
     3
  0
STYLE
  5
11
330
3
100
AcDbSymbolTableRecord
100
AcDbTextStyleTableRecord
  2
Standard
 70
     0
 40
0.0
 41
1.0
 50
0.0
 71
     0
 42
2.0
  3
txt
  4

  0
ENDTAB
  0
TABLE
  2
VIEW
  5
6
330
0
100
AcDbSymbolTable
 70
     0
  0
ENDTAB
  0
TABLE
  2
UCS
  5
7
330
0
100
AcDbSymbolTable
 70
     0
  0
ENDTAB
  0
TABLE
  2
APPID
  5
9
330
0
100
AcDbSymbolTable
 70
    17
  0
APPID
  5
12
330
9
100
AcDbSymbolTableRecord
100
AcDbRegAppTableRecord
  2
ACAD
 70
     0
  0
APPID
  5
1B1DF
330
9
100
AcDbSymbolTableRecord
100
AcDbRegAppTableRecord
  2
ACAD_PSEXT
 70
     0
  0
APPID
  5
1B1E0
330
9
100
AcDbSymbolTableRecord
100
AcDbRegAppTableRecord
  2
ACAD_DSTYLE_DIMEXT_LENGTH
 70
     0
  0
APPID
  5
1B1E1
330
9
100
AcDbSymbolTableRecord
100
AcDbRegAppTableRecord
  2
ACAD_DSTYLE_DIMEXT_ENABLED
 70
     0
  0
APPID
  5
1B1E2
330
9
100
AcDbSymbolTableRecord
100
AcDbRegAppTableRecord
  2
ACAD_DSTYLE_DIMJOGGED_JOGANGLE_SYMBOL
 70
     0
  0
APPID
  5
1B1E3
330
9
100
AcDbSymbolTableRecord
100
AcDbRegAppTableRecord
  2
ACAD_DSTYLE_DIMARC_LENGTH_SYMBOL
 70
     0
  0
APPID
  5
1BA2A
330
9
100
AcDbSymbolTableRecord
100
AcDbRegAppTableRecord
  2
GENIUS_GENTRA_14
 70
     0
  0
APPID
  5
1BA2B
330
9
100
AcDbSymbolTableRecord
100
AcDbRegAppTableRecord
  2
GENIUS_GENODEF_13
 70
     0
  0
APPID
  5
1BA2C
330
9
100
AcDbSymbolTableRecord
100
AcDbRegAppTableRecord
  2
GENIUS_GENOBJ-N-TIT_13
 70
     0
  0
APPID
  5
1BA2D
330
9
100
AcDbSymbolTableRecord
100
AcDbRegAppTableRecord
  2
GENIUS_GENTITLE_13
 70
     0
  0
APPID
  5
1BA2E
330
9
100
AcDbSymbolTableRecord
100
AcDbRegAppTableRecord
  2
GENIUS_GENOENT_13
 70
     0
  0
APPID
  5
1BA2F
330
9
100
AcDbSymbolTableRecord
100
AcDbRegAppTableRecord
  2
GENIUS_GENOREF_13
 70
     0
  0
APPID
  5
1BA30
330
9
100
AcDbSymbolTableRecord
100
AcDbRegAppTableRecord
  2
GENIUS_GENOLIS_13
 70
     0
  0
APPID
  5
1BA31
330
9
100
AcDbSymbolTableRecord
100
AcDbRegAppTableRecord
  2
GENIUS_GENOBJ-N-SDF_13
 70
     0
  0
APPID
  5
1BA32
330
9
100
AcDbSymbolTableRecord
100
AcDbRegAppTableRecord
  2
GENIUS_GENSCREG_13
 70
     0
  0
APPID
  5
1BC9A
330
9
100
AcDbSymbolTableRecord
100
AcDbRegAppTableRecord
  2
AcAecLayerStandard
 70
     0
  0
APPID
  5
1BCA0
330
9
100
AcDbSymbolTableRecord
100
AcDbRegAppTableRecord
  2
ACAD_EXEMPT_FROM_CAD_STANDARDS
 70
     0
  0
ENDTAB
  0
TABLE
  2
DIMSTYLE
  5
A
330
0
100
AcDbSymbolTable
 70
     3
100
AcDbDimStyleTable
  0
DIMSTYLE
105
27
102
{ACAD_REACTORS
330
1C596
330
1C5A5
330
1C5B4
330
1C5C3
330
1C5D2
102
}
330
A
100
AcDbSymbolTableRecord
100
AcDbDimStyleTableRecord
  2
ISO-25
 70
     0
 41
2.5
 42
0.625
 43
3.75
 44
1.25
 73
     0
 74
     0
 77
     1
 78
     8
 79
     2
140
2.5
141
2.5
143
0.03937007874016
147
0.625
171
     3
172
     1
178
     0
179
     1
271
     2
272
     2
274
     3
278
    44
283
     0
284
     8
288
     1
340
11
  0
DIMSTYLE
105
4F9
330
A
100
AcDbSymbolTableRecord
100
AcDbDimStyleTableRecord
  2
STANDARD
 70
     0
 41
3.5
 42
0.0
 43
1.0
 44
2.0
 73
     0
 74
     0
 78
     8
140
3.0
141
1.0
147
1.0
176
   256
177
   256
271
     2
178
   256
271
     2
272
     2
284
     8
288
     1
340
11
  0
ENDTAB
  0
TABLE
  2
BLOCK_RECORD
  5
1
330
0
100
AcDbSymbolTable
 70
    59
  0
BLOCK_RECORD
  5
1F
102
{ACAD_XDICTIONARY
360
1B974
102
}
330
1
100
AcDbSymbolTableRecord
100
AcDbBlockTableRecord
  2
*Model_Space
340
22
  0
BLOCK_RECORD
  5
1B
330
1
100
AcDbSymbolTableRecord
100
AcDbBlockTableRecord
  2
*Paper_Space
340
1E
  0
BLOCK_RECORD
  5
23
330
1
100
AcDbSymbolTableRecord
100
AcDbBlockTableRecord
  2
*Paper_Space0
340
26
  0
BLOCK_RECORD
  5
1C599
330
1
100
AcDbSymbolTableRecord
100
AcDbBlockTableRecord
  2
*D54
340
0
  0
BLOCK_RECORD
  5
1C5A8
330
1
100
AcDbSymbolTableRecord
100
AcDbBlockTableRecord
  2
*D55
340
0
  0
BLOCK_RECORD
  5
1C5B7
330
1
100
AcDbSymbolTableRecord
100
AcDbBlockTableRecord
  2
*D56
340
0
  0
BLOCK_RECORD
  5
1C5C6
330
1
100
AcDbSymbolTableRecord
100
AcDbBlockTableRecord
  2
*D57
340
0
  0
BLOCK_RECORD
  5
1C5D5
330
1
100
AcDbSymbolTableRecord
100
AcDbBlockTableRecord
  2
*D58
340
0
  0
ENDTAB
  0
ENDSEC
  0
SECTION
  2
BLOCKS
  0
BLOCK
  5
20
330
1F
100
AcDbEntity
  8
0
100
AcDbBlockBegin
  2
*Model_Space
 70
     0
 10
0.0
 20
0.0
 30
0.0
  3
*Model_Space
  1
*Model_Space
  0
ENDBLK
  5
21
330
1F
100
AcDbEntity
  8
0
100
AcDbBlockEnd
  0
BLOCK
  5
1C
330
1B
100
AcDbEntity
 67
     1
  8
0
100
AcDbBlockBegin
  2
*Paper_Space
 70
     0
 10
0.0
 20
0.0
 30
0.0
  3
*Paper_Space
  1
*Paper_Space
  0
ENDBLK
  5
1D
330
1B
100
AcDbEntity
 67
     1
  8
0
100
AcDbBlockEnd
  0
BLOCK
  5
24
330
23
100
AcDbEntity
  8
0
100
AcDbBlockBegin
  2
*Paper_Space0
 70
     0
 10
0.0
 20
0.0
 30
0.0
  3
*Paper_Space0
  1
*Paper_Space0
  0
ENDBLK
  5
25
330
23
100
AcDbEntity
  8
0
100
AcDbBlockEnd
  0
BLOCK
  5
1C59A
330
1C599
100
AcDbEntity
  8
0
100
AcDbBlockBegin
  2
*D54
 70
     1
 10
0.0
 20
0.0
 30
0.0
  3
*D54
  1
*D54
  0
LINE
  5
1C59C
330
1C599
100
AcDbEntity
  8
BEMASSUNG
 62
     0
370
    -2
100
AcDbLine
 10
40.91251712833125
 20
76.53459054675403
 30
0.0
 11
31.97700211827699
 21
76.53459054675403
 31
0.0
  0
LINE
  5
1C59D
330
1C599
100
AcDbEntity
  8
BEMASSUNG
 62
     0
370
    -2
100
AcDbLine
 10
40.91251712833125
 20
269.8345844193965
 30
0.0
 11
31.97700211827701
 21
269.8345844193965
 31
0.0
  0
LINE
  5
1C59E
330
1C599
100
AcDbEntity
  8
BEMASSUNG
 62
     0
370
    -2
100
AcDbLine
 10
33.22700211827699
 20
79.03459054675403
 30
0.0
 11
33.22700211827701
 21
267.3345844193965
 31
0.0
  0
SOLID
  5
1C59F
330
1C599
100
AcDbEntity
  8
BEMASSUNG
 62
     0
100
AcDbTrace
 10
32.81033545161033
 20
79.03459054675403
 30
0.0
 11
33.64366878494366
 21
79.03459054675403
 31
0.0
 12
33.22700211827699
 22
76.53459054675403
 32
0.0
 13
33.22700211827699
 23
76.53459054675403
 33
0.0
  0
SOLID
  5
1C5A0
330
1C599
100
AcDbEntity
  8
BEMASSUNG
 62
     0
100
AcDbTrace
 10
33.64366878494367
 20
267.3345844193965
 30
0.0
 11
32.81033545161034
 21
267.3345844193965
 31
0.0
 12
33.22700211827701
 22
269.8345844193965
 32
0.0
 13
33.22700211827701
 23
269.8345844193965
 33
0.0
  0
MTEXT
  5
1C5A1
330
1C599
100
AcDbEntity
  8
BEMASSUNG
 62
     0
100
AcDbMText
 10
31.14366878494366
 20
176.1570177888989
 30
0.0
 40
2.5
 41
0.0
 71
     5
 72
     1
  1
193,3
 11
7.351709863252741E-17
 21
1.0
 31
0.0
 73
     1
 44
1.0
  0
POINT
  5
1C5A2
330
1C599
100
AcDbEntity
  8
Defpoints
 62
     0
100
AcDbPoint
 10
41.53751712833125
 20
76.53459054675403
 30
0.0
  0
POINT
  5
1C5A3
330
1C599
100
AcDbEntity
  8
Defpoints
 62
     0
100
AcDbPoint
 10
41.53751712833125
 20
269.8345844193965
 30
0.0
  0
POINT
  5
1C5A4
330
1C599
100
AcDbEntity
  8
Defpoints
 62
     0
100
AcDbPoint
 10
33.227002118277
 20
269.8345844193965
 30
0.0
  0
ENDBLK
  5
1C59B
330
1C599
100
AcDbEntity
  8
0
100
AcDbBlockEnd
  0
BLOCK
  5
1C5A9
330
1C5A8
100
AcDbEntity
  8
0
100
AcDbBlockBegin
  2
*D55
 70
     1
 10
0.0
 20
0.0
 30
0.0
  3
*D55
  1
*D55
  0
LINE
  5
1C5AB
330
1C5A8
100
AcDbEntity
  8
BEMASSUNG
 62
     0
370
    -2
100
AcDbLine
 10
60.56251567397791
 20
104.8345853134662
 30
0.0
 11
69.20453814781895
 21
104.8345853134662
 31
0.0
  0
LINE
  5
1C5AC
330
1C5A8
100
AcDbEntity
  8
BEMASSUNG
 62
     0
370
    -2
100
AcDbLine
 10
60.56251567397791
 20
241.5345896526844
 30
0.0
 11
69.20453814781897
 21
241.5345896526844
 31
0.0
  0
LINE
  5
1C5AD
330
1C5A8
100
AcDbEntity
  8
BEMASSUNG
 62
     0
370
    -2
100
AcDbLine
 10
67.95453814781895
 20
107.3345853134662
 30
0.0
 11
67.95453814781897
 21
239.0345896526844
 31
0.0
  0
SOLID
  5
1C5AE
330
1C5A8
100
AcDbEntity
  8
BEMASSUNG
 62
     0
100
AcDbTrace
 10
67.53787148115228
 20
107.3345853134662
 30
0.0
 11
68.37120481448562
 21
107.3345853134662
 31
0.0
 12
67.95453814781895
 22
104.8345853134662
 32
0.0
 13
67.95453814781895
 23
104.8345853134662
 33
0.0
  0
SOLID
  5
1C5AF
330
1C5A8
100
AcDbEntity
  8
BEMASSUNG
 62
     0
100
AcDbTrace
 10
68.37120481448564
 20
239.0345896526844
 30
0.0
 11
67.5378714811523
 21
239.0345896526844
 31
0.0
 12
67.95453814781897
 22
241.5345896526844
 32
0.0
 13
67.95453814781897
 23
241.5345896526844
 33
0.0
  0
MTEXT
  5
1C5B0
330
1C5A8
100
AcDbEntity
  8
BEMASSUNG
 62
     0
100
AcDbMText
 10
65.87120481448562
 20
178.4721868575351
 30
0.0
 40
2.5
 41
0.0
 71
     5
 72
     1
  1
136,7
 11
1.039565052239360E-16
 21
1.0
 31
0.0
 73
     1
 44
1.0
  0
POINT
  5
1C5B1
330
1C5A8
100
AcDbEntity
  8
Defpoints
 62
     0
100
AcDbPoint
 10
59.93751567397791
 20
104.8345853134662
 30
0.0
  0
POINT
  5
1C5B2
330
1C5A8
100
AcDbEntity
  8
Defpoints
 62
     0
100
AcDbPoint
 10
59.93751567397791
 20
241.5345896526844
 30
0.0
  0
POINT
  5
1C5B3
330
1C5A8
100
AcDbEntity
  8
Defpoints
 62
     0
100
AcDbPoint
 10
67.95453814781897
 20
241.5345896526844
 30
0.0
  0
ENDBLK
  5
1C5AA
330
1C5A8
100
AcDbEntity
  8
0
100
AcDbBlockEnd
  0
BLOCK
  5
1C5B8
330
1C5B7
100
AcDbEntity
  8
0
100
AcDbBlockBegin
  2
*D56
 70
     1
 10
0.0
 20
0.0
 30
0.0
  3
*D56
  1
*D56
  0
LINE
  5
1C5BA
330
1C5B7
100
AcDbEntity
  8
BEMASSUNG
 62
     0
370
    -2
100
AcDbLine
 10
59.93751567397791
 20
105.4595853134662
 30
0.0
 11
59.93751567397791
 21
116.6338297372005
 31
0.0
  0
LINE
  5
1C5BB
330
1C5B7
100
AcDbEntity
  8
BEMASSUNG
 62
     0
370
    -2
100
AcDbLine
 10
277.9375104287691
 20
105.4595853134662
 30
0.0
 11
277.9375104287691
 21
116.6338297372005
 31
0.0
  0
LINE
  5
1C5BC
330
1C5B7
100
AcDbEntity
  8
BEMASSUNG
 62
     0
370
    -2
100
AcDbLine
 10
62.43751567397791
 20
115.3838297372005
 30
0.0
 11
275.4375104287691
 21
115.3838297372005
 31
0.0
  0
SOLID
  5
1C5BD
330
1C5B7
100
AcDbEntity
  8
BEMASSUNG
 62
     0
100
AcDbTrace
 10
62.43751567397791
 20
115.8004964038672
 30
0.0
 11
62.43751567397791
 21
114.9671630705339
 31
0.0
 12
59.93751567397791
 22
115.3838297372005
 32
0.0
 13
59.93751567397791
 23
115.3838297372005
 33
0.0
  0
SOLID
  5
1C5BE
330
1C5B7
100
AcDbEntity
  8
BEMASSUNG
 62
     0
100
AcDbTrace
 10
275.4375104287691
 20
114.9671630705339
 30
0.0
 11
275.4375104287691
 21
115.8004964038672
 31
0.0
 12
277.9375104287691
 22
115.3838297372005
 32
0.0
 13
277.9375104287691
 23
115.3838297372005
 33
0.0
  0
MTEXT
  5
1C5BF
330
1C5B7
100
AcDbEntity
  8
BEMASSUNG
 62
     0
100
AcDbMText
 10
161.1400931604232
 20
117.2588297372005
 30
0.0
 40
2.5
 41
0.0
 71
     5
 72
     1
  1
218
 73
     1
 44
1.0
  0
POINT
  5
1C5C0
330
1C5B7
100
AcDbEntity
  8
Defpoints
 62
     0
100
AcDbPoint
 10
59.93751567397791
 20
104.8345853134662
 30
0.0
  0
POINT
  5
1C5C1
330
1C5B7
100
AcDbEntity
  8
Defpoints
 62
     0
100
AcDbPoint
 10
277.9375104287691
 20
104.8345853134662
 30
0.0
  0
POINT
  5
1C5C2
330
1C5B7
100
AcDbEntity
  8
Defpoints
 62
     0
100
AcDbPoint
 10
277.9375104287691
 20
115.3838297372005
 30
0.0
  0
ENDBLK
  5
1C5B9
330
1C5B7
100
AcDbEntity
  8
0
100
AcDbBlockEnd
  0
BLOCK
  5
1C5C7
330
1C5C6
100
AcDbEntity
  8
0
100
AcDbBlockBegin
  2
*D57
 70
     1
 10
0.0
 20
0.0
 30
0.0
  3
*D57
  1
*D57
  0
LINE
  5
1C5C9
330
1C5C6
100
AcDbEntity
  8
BEMASSUNG
 62
     0
370
    -2
100
AcDbLine
 10
41.53751712833125
 20
75.90959054675403
 30
0.0
 11
41.53751712833125
 21
65.51527929584182
 31
0.0
  0
LINE
  5
1C5CA
330
1C5C6
100
AcDbEntity
  8
BEMASSUNG
 62
     0
370
    -2
100
AcDbLine
 10
296.3375089744158
 20
75.90959054675403
 30
0.0
 11
296.3375089744158
 21
65.51527929584182
 31
0.0
  0
LINE
  5
1C5CB
330
1C5C6
100
AcDbEntity
  8
BEMASSUNG
 62
     0
370
    -2
100
AcDbLine
 10
44.03751712833125
 20
66.76527929584182
 30
0.0
 11
293.8375089744158
 21
66.76527929584182
 31
0.0
  0
SOLID
  5
1C5CC
330
1C5C6
100
AcDbEntity
  8
BEMASSUNG
 62
     0
100
AcDbTrace
 10
44.03751712833125
 20
67.1819459625085
 30
0.0
 11
44.03751712833125
 21
66.34861262917515
 31
0.0
 12
41.53751712833125
 22
66.76527929584182
 32
0.0
 13
41.53751712833125
 23
66.76527929584182
 33
0.0
  0
SOLID
  5
1C5CD
330
1C5C6
100
AcDbEntity
  8
BEMASSUNG
 62
     0
100
AcDbTrace
 10
293.8375089744158
 20
66.34861262917515
 30
0.0
 11
293.8375089744158
 21
67.1819459625085
 31
0.0
 12
296.3375089744158
 22
66.76527929584182
 32
0.0
 13
296.3375089744158
 23
66.76527929584182
 33
0.0
  0
MTEXT
  5
1C5CE
330
1C5C6
100
AcDbEntity
  8
BEMASSUNG
 62
     0
100
AcDbMText
 10
169.2431849006496
 20
68.84861262917515
 30
0.0
 40
2.5
 41
0.0
 71
     5
 72
     1
  1
254,8
 73
     1
 44
1.0
  0
POINT
  5
1C5CF
330
1C5C6
100
AcDbEntity
  8
Defpoints
 62
     0
100
AcDbPoint
 10
41.53751712833125
 20
76.53459054675403
 30
0.0
  0
POINT
  5
1C5D0
330
1C5C6
100
AcDbEntity
  8
Defpoints
 62
     0
100
AcDbPoint
 10
296.3375089744158
 20
76.53459054675403
 30
0.0
  0
POINT
  5
1C5D1
330
1C5C6
100
AcDbEntity
  8
Defpoints
 62
     0
100
AcDbPoint
 10
296.3375089744158
 20
66.76527929584182
 30
0.0
  0
ENDBLK
  5
1C5C8
330
1C5C6
100
AcDbEntity
  8
0
100
AcDbBlockEnd
  0
BLOCK
  5
1C5D6
330
1C5D5
100
AcDbEntity
  8
0
100
AcDbBlockBegin
  2
*D58
 70
     1
 10
0.0
 20
0.0
 30
0.0
  3
*D58
  1
*D58
  0
LINE
  5
1C5D8
330
1C5D5
100
AcDbEntity
  8
BEMASSUNG
 62
     0
370
    -2
100
AcDbLine
 10
379.209234388926
 20
75.90959054675403
 30
0.0
 11
379.209234388926
 21
67.25165609731897
 31
0.0
  0
LINE
  5
1C5D9
330
1C5D5
100
AcDbEntity
  8
BEMASSUNG
 62
     0
370
    -2
100
AcDbLine
 10
354.6092338025653
 20
176.2095875691295
 30
0.0
 11
354.6092338025653
 21
67.25165609731897
 31
0.0
  0
LINE
  5
1C5DA
330
1C5D5
100
AcDbEntity
  8
BEMASSUNG
 62
     0
370
    -2
100
AcDbLine
 10
376.709234388926
 20
68.50165609731897
 30
0.0
 11
357.1092338025653
 21
68.50165609731897
 31
0.0
  0
SOLID
  5
1C5DB
330
1C5D5
100
AcDbEntity
  8
BEMASSUNG
 62
     0
100
AcDbTrace
 10
376.709234388926
 20
68.0849894306523
 30
0.0
 11
376.709234388926
 21
68.91832276398564
 31
0.0
 12
379.209234388926
 22
68.50165609731897
 32
0.0
 13
379.209234388926
 23
68.50165609731897
 33
0.0
  0
SOLID
  5
1C5DC
330
1C5D5
100
AcDbEntity
  8
BEMASSUNG
 62
     0
100
AcDbTrace
 10
357.1092338025653
 20
68.91832276398564
 30
0.0
 11
357.1092338025653
 21
68.0849894306523
 31
0.0
 12
354.6092338025653
 22
68.50165609731897
 32
0.0
 13
354.6092338025653
 23
68.50165609731897
 33
0.0
  0
MTEXT
  5
1C5DD
330
1C5D5
100
AcDbEntity
  8
BEMASSUNG
 62
     0
100
AcDbMText
 10
367.7689325361976
 20
70.5849894306523
 30
0.0
 40
2.5
 41
0.0
 71
     5
 72
     1
  1
24,6
 73
     1
 44
1.0
  0
POINT
  5
1C5DE
330
1C5D5
100
AcDbEntity
  8
Defpoints
 62
     0
100
AcDbPoint
 10
379.209234388926
 20
76.53459054675403
 30
0.0
  0
POINT
  5
1C5DF
330
1C5D5
100
AcDbEntity
  8
Defpoints
 62
     0
100
AcDbPoint
 10
354.6092338025653
 20
176.8345875691295
 30
0.0
  0
POINT
  5
1C5E0
330
1C5D5
100
AcDbEntity
  8
Defpoints
 62
     0
100
AcDbPoint
 10
354.6092338025653
 20
68.50165609731897
 30
0.0
  0
ENDBLK
  5
1C5D7
330
1C5D5
100
AcDbEntity
  8
0
100
AcDbBlockEnd
  0
ENDSEC
  0
SECTION
  2
ENTITIES
  0
POINT
  5
1BAB9
330
1F
100
AcDbEntity
  8
0
 60
     1
100
AcDbPoint
 10
-74.53732271998568
 20
418.5421051474217
 30
0.0
1001
GENIUS_GENOBJ-N-TIT_13
1002
{
1000
OWNER
1000
GEN
1002
}
1001
GENIUS_GENOENT_13
1002
{
1000
MYREF
1005
1BAB9
1002
}
1002
{
1000
GRP
1005
0
1002
}
1001
GENIUS_GENOLIS_13
1002
{
1000
ENT
1005
0
1005
0
1002
}
1001
GENIUS_GENTITLE_13
1002
{
1000
SCALE
1000
1:1
1002
}
1002
{
1000
BORDER
1000
GEN_A3
1002
}
1002
{
1000
TITLE
1000
GENTITLE
1002
}
1002
{
1000
UNCHG
1002
{
1000
GEN-TITLE-SCA
1000
GEN-TITLE-SIZ
1002
}
1002
}
1002
{
1000
HRA
1005
0
1002
}
1002
{
1000
HTIT
1005
0
1002
}
1002
{
1000
GENIUSID
1005
1BAB9
1002
}
1001
GENIUS_GENODEF_13
1002
{
1000
HIER
1070
     1
1002
}
1002
{
1000
MANEDIT
1070
     0
1002
}
1002
{
1000
NOSEL
1070
     0
1002
}
1002
{
1000
BEHIND
1070
     0
1002
}
1002
{
1000
REACTOR
1002
}
  0
TEXT
  5
1BABC
330
1F
100
AcDbEntity
  8
0
 60
     1
100
AcDbText
 10
419.9999999999995
 20
797.0
 30
0.0
 40
2.0
  1
!GENTITLE-MAX
100
AcDbText
  0
TEXT
  5
1BABD
330
1F
100
AcDbEntity
  8
0
 60
     1
100
AcDbText
 10
409.9999999999995
 20
787.0
 30
0.0
 40
2.0
  1
!GENTITLE-RU
100
AcDbText
  0
TEXT
  5
1BABE
330
1F
100
AcDbEntity
  8
0
 60
     1
100
AcDbText
 10
409.9999999999995
 20
505.0
 30
0.0
 40
2.0
  1
!GENTITLE-INSERT
100
AcDbText
  0
TEXT
  5
1BABF
330
1F
100
AcDbEntity
  8
0
 60
     1
100
AcDbText
 10
9.999999999999558
 20
510.0000000000001
 30
0.0
 40
2.0
  1
!GENTITLE-LL
100
AcDbText
  0
LWPOLYLINE
  5
1BAC1
102
{ACAD_REACTORS
330
1BB54
102
}
330
1F
100
AcDbEntity
  8
035
100
AcDbPolyline
 90
        4
 70
     1
 43
0.0
 10
17.99999999999957
 20
286.9999999999999
 10
409.9999999999995
 20
286.9999999999999
 10
409.9999999999995
 20
9.999999999999943
 10
17.99999999999957
 20
9.999999999999943
  0
LWPOLYLINE
  5
1BAC2
102
{ACAD_REACTORS
330
1BB54
102
}
330
1F
100
AcDbEntity
  8
035
100
AcDbPolyline
 90
        4
 70
     1
 43
0.0
 10
-0.0000000000004423
 20
296.9999999999999
 10
419.9999999999995
 20
296.9999999999999
 10
419.9999999999995
 20
-0.0000000000000568
 10
-0.0000000000004423
 20
-0.0000000000000568
  0
LINE
  5
1BB32
330
1F
100
AcDbEntity
  8
TEXTFELD
100
AcDbLine
 10
409.9999999999995
 20
24.99399999999929
 30
0.0
 11
222.7999999999998
 21
24.99399999999929
 31
0.0
  0
LINE
  5
1BB33
330
1F
100
AcDbEntity
  8
TEXTFELD
100
AcDbLine
 10
302.3164921370483
 20
17.49699999999956
 30
0.0
 11
230.9164921370474
 21
17.49699999999956
 31
0.0
  0
LINE
  5
1BB34
330
1F
100
AcDbEntity
  8
TEXTFELD
100
AcDbLine
 10
409.9999999999995
 20
39.80949999999956
 30
0.0
 11
302.3164921370483
 21
39.80949999999956
 31
0.0
  0
LINE
  5
1BB35
330
1F
100
AcDbEntity
  8
TEXTFELD
100
AcDbLine
 10
390.6398540923679
 20
9.99999999999909
 30
0.0
 11
390.6398540923687
 21
24.99399999999929
 31
0.0
  0
LINE
  5
1BB36
330
1F
100
AcDbEntity
  8
TEXTFELD
100
AcDbLine
 10
409.9999999999995
 20
17.49699999999956
 30
0.0
 11
390.6398540923679
 21
17.49699999999956
 31
0.0
  0
TEXT
  5
1BB37
330
1F
100
AcDbEntity
  8
TEXTFELD
100
AcDbText
 10
392.5980140276674
 20
19.45494341486307
 30
0.0
 40
3.102709769153871
  1
Page:
100
AcDbText
  0
TEXT
  5
1BB38
330
1F
100
AcDbEntity
  8
TEXTFELD
100
AcDbText
 10
392.5980140276674
 20
12.01410043434083
 30
0.0
 40
3.102709769153871
  1
1 / 1
100
AcDbText
  0
LINE
  5
1BB39
330
1F
100
AcDbEntity
  8
TEXTFELD
100
AcDbLine
 10
302.3164921370474
 20
9.999999999999943
 30
0.0
 11
302.3164921370474
 21
54.62499999999994
 31
0.0
  0
LINE
  5
1BB3A
330
1F
100
AcDbEntity
  8
TEXTFELD
100
AcDbLine
 10
261.2500645780165
 20
24.99399999999929
 30
0.0
 11
261.2500645780157
 21
17.49699999999956
 31
0.0
  0
TEXT
  5
1BB3B
330
1F
100
AcDbEntity
  8
TEXTFELD
100
AcDbText
 10
223.3482438474749
 20
19.45494341486307
 30
0.0
 40
3.102709769153871
  1
Name:
100
AcDbText
  0
TEXT
  5
1BB3C
330
1F
100
AcDbEntity
  8
TEXTFELD
100
AcDbText
 10
223.3482438474749
 20
12.01410043434083
 30
0.0
 40
3.102709769153871
  1
File: 
100
AcDbText
  0
TEXT
  5
1BB3D
330
1F
100
AcDbEntity
  8
TEXTFELD
100
AcDbText
 10
303.7976788594279
 20
45.40156760497501
 30
0.0
 40
3.102709769153871
  1
Scale 1:1 (DIN A3)
100
AcDbText
  0
LINE
  5
1BB3E
330
1F
100
AcDbEntity
  8
TEXTFELD
100
AcDbLine
 10
390.6398540923679
 20
39.80949999999956
 30
0.0
 11
390.6398540923687
 21
54.62499999999926
 31
0.0
  0
LINE
  5
1BB3F
330
1F
100
AcDbEntity
  8
TEXTFELD
100
AcDbLine
 10
222.7999999999998
 20
9.999999999999943
 30
0.0
 11
222.7999999999998
 21
54.62499999999994
 31
0.0
  0
LINE
  5
1BB40
330
1F
100
AcDbEntity
  8
TEXTFELD
100
AcDbLine
 10
222.7999999999998
 20
54.62499999999994
 30
0.0
 11
409.9999999999995
 21
54.62499999999903
 31
0.0
  0
LINE
  5
1BB41
330
1F
100
AcDbEntity
  8
TEXTFELD
100
AcDbLine
 10
302.3164921370474
 20
9.999999999999602
 30
0.0
 11
302.3164921370474
 21
54.6249999999996
 31
0.0
  0
TEXT
  5
1BB42
330
1F
100
AcDbEntity
  8
TEXTFELD
100
AcDbText
 10
238.5471177741466
 20
19.48775148201895
 30
0.0
 40
2.5
  1
Miethling
100
AcDbText
  0
TEXT
  5
1BB43
330
1F
100
AcDbEntity
  8
TEXTFELD
100
AcDbText
 10
224.516802190336
 20
27.60632331765152
 30
0.0
 40
3.102709769153871
  1
Fax:
100
AcDbText
  0
TEXT
  5
1BB44
330
1F
100
AcDbEntity
  8
TEXTFELD
100
AcDbText
 10
224.516802190336
 20
47.5777039024278
 30
0.0
 40
3.102709769153871
  1
DHD GmbH
100
AcDbText
  0
TEXT
  5
1BB45
330
1F
100
AcDbEntity
  8
TEXTFELD
100
AcDbText
 10
224.516802190336
 20
42.80366446853799
 30
0.0
 40
3.102709769153871
  1
Haferkornstraße 5
100
AcDbText
  0
TEXT
  5
1BB46
330
1F
100
AcDbEntity
  8
TEXTFELD
100
AcDbText
 10
224.516802190336
 20
37.93058684158683
 30
0.0
 40
3.102709769153871
  1
04129 Leipzig / Germany
100
AcDbText
  0
TEXT
  5
1BB47
330
1F
100
AcDbEntity
  8
TEXTFELD
100
AcDbText
 10
239.3778854490745
 20
27.43246233061672
 30
0.0
 40
3.102709769153871
  1
+ 49  341  5897022
100
AcDbText
  0
TEXT
  5
1BB48
330
1F
100
AcDbEntity
  8
TEXTFELD
100
AcDbText
 10
262.9394558107002
 20
19.45494341486273
 30
0.0
 40
3.102709769153871
  1
Date:
100
AcDbText
  0
TEXT
  5
1BB49
330
1F
100
AcDbEntity
  8
TEXTFELD
100
AcDbText
 10
223.3482438474749
 20
19.45494341486273
 30
0.0
 40
3.102709769153871
  1
Name:
100
AcDbText
  0
TEXT
  5
1BB4A
330
1F
100
AcDbEntity
  8
TEXTFELD
100
AcDbText
 10
223.3482438474749
 20
12.01410043434049
 30
0.0
 40
3.102709769153871
  1
File: 
100
AcDbText
  0
LINE
  5
1BB4B
330
1F
100
AcDbEntity
  8
TEXTFELD
100
AcDbLine
 10
302.3164921370483
 20
17.49699999999933
 30
0.0
 11
222.7999999999998
 21
17.49699999999933
 31
0.0
  0
TEXT
  5
1BB4C
330
1F
100
AcDbEntity
  8
TEXTFELD
100
AcDbText
 10
224.516802190336
 20
31.94272632775238
 30
0.0
 40
3.102709769153871
  1
Phone: + 49  341  5897020
100
AcDbText
  0
TEXT
  5
1BB4D
330
1F
100
AcDbEntity
  8
TEXTFELD
100
AcDbText
 10
233.9138604581089
 20
12.12627032560198
 30
0.0
 40
2.4
  1
dimension_52-4510.dwg
100
AcDbText
  0
TEXT
  5
1BB4E
330
1F
100
AcDbEntity
  8
TEXTFELD
100
AcDbText
 10
337.1815215770528
 20
33.21778548606852
 30
0.0
 40
4.0
  1
52-4510 
100
AcDbText
  0
TEXT
  5
1BB4F
330
1F
100
AcDbEntity
  8
TEXTFELD
100
AcDbText
 10
277.2702777558421
 20
19.57477605140861
 30
0.0
 40
2.5
  1
15.12.2015
100
AcDbText
  0
TEXT
  5
1BB50
330
1F
100
AcDbEntity
  8
TEXTFELD
100
AcDbText
 10
303.4312035713548
 20
27.43016162910675
 30
0.0
 40
3.0
  1
Dimension TFT Display, touch sensitive
100
AcDbText
  0
TEXT
  5
1BB51
330
1F
100
AcDbEntity
  8
TEXTFELD
100
AcDbText
 10
315.7232484625545
 20
15.25065587842386
 30
0.0
 40
4.0
  1
52-4510 front view 
100
AcDbText
  0
ARC
  5
1C190
102
{ACAD_REACTORS
330
1C593
102
}
330
1F
100
AcDbEntity
  8
Blech
370
    15
100
AcDbCircle
 10
275.348893868866
 20
266.0607983069485
 30
0.0
 40
0.5999999999999951
100
AcDbArc
 50
208.5761677176266
 51
318.047388352102
  0
LINE
  5
1C191
102
{ACAD_REACTORS
330
1C593
102
}
330
1F
100
AcDbEntity
  8
Blech
370
    15
100
AcDbLine
 10
274.712630925519
 20
265.7866243764431
 30
0.0
 11
274.82198309694
 21
265.7738019272358
 31
0.0
  0
LINE
  5
1C192
102
{ACAD_REACTORS
330
1C593
102
}
330
1F
100
AcDbEntity
  8
Blech
370
    15
100
AcDbLine
 10
274.6468497494287
 20
265.6983349963695
 30
0.0
 11
274.712630925519
 21
265.7866243764431
 31
0.0
  0
LINE
  5
1C193
102
{ACAD_REACTORS
330
1C593
102
}
330
1F
100
AcDbEntity
  8
Blech
370
    15
100
AcDbLine
 10
273.9956764558382
 20
264.8243446394474
 30
0.0
 11
274.0614576319284
 21
264.9126414701015
 31
0.0
  0
LINE
  5
1C194
102
{ACAD_REACTORS
330
1C593
102
}
330
1F
100
AcDbEntity
  8
Blech
370
    15
100
AcDbLine
 10
274.039247451169
 20
264.7232328101665
 30
0.0
 11
273.9956764558382
 21
264.8243446394474
 31
0.0
  0
ARC
  5
1C195
102
{ACAD_REACTORS
330
1C593
102
}
330
1F
100
AcDbEntity
  8
Blech
370
    15
100
AcDbCircle
 10
275.0261322338811
 20
263.3083766592022
 30
0.0
 40
0.5999999999999679
100
AcDbArc
 50
28.57616771761709
 51
138.0473883521101
  0
LINE
  5
1C196
102
{ACAD_REACTORS
330
1C593
102
}
330
1F
100
AcDbEntity
  8
Blech
370
    15
100
AcDbLine
 10
276.3357771614618
 20
264.645940487054
 30
0.0
 11
276.3793481567926
 21
264.5448286577732
 31
0.0
  0
ARC
  5
1C197
102
{ACAD_REACTORS
330
1C593
102
}
330
1F
100
AcDbEntity
  8
Blech
370
    15
100
AcDbCircle
 10
276.460036994557
 20
265.2329330073799
 30
0.0
 40
0.6000000000000698
100
AcDbArc
 50
148.576167717627
 51
258.0473883521125
  0
LINE
  5
1C198
102
{ACAD_REACTORS
330
1C593
102
}
330
1F
100
AcDbEntity
  8
Blech
370
    15
100
AcDbLine
 10
275.7951108792848
 20
265.6596888348133
 30
0.0
 11
275.9044630507059
 21
265.646866385606
 31
0.0
  0
CIRCLE
  5
1C199
102
{ACAD_REACTORS
330
1C593
102
}
330
1F
100
AcDbEntity
  8
Blech
370
    15
100
AcDbCircle
 10
275.1875130513736
 20
264.6845874830753
 30
0.0
 40
2.349999999999938
  0
LINE
  5
1C19A
102
{ACAD_REACTORS
330
1C593
102
}
330
1F
100
AcDbEntity
  8
Blech
370
    15
100
AcDbLine
 10
274.4705615619249
 20
263.7223069116146
 30
0.0
 11
274.4269905665941
 21
263.823426191476
 31
0.0
  0
LINE
  5
1C19B
102
{ACAD_REACTORS
330
1C593
102
}
330
1F
100
AcDbEntity
  8
Blech
370
    15
100
AcDbLine
 10
274.579913733346
 20
263.7094844624073
 30
0.0
 11
274.4705615619249
 21
263.7223069116146
 31
0.0
  0
ARC
  5
1C19C
102
{ACAD_REACTORS
330
1C593
102
}
330
1F
100
AcDbEntity
  8
Blech
370
    15
100
AcDbCircle
 10
274.0763699256825
 20
265.5124527826437
 30
0.0
 40
0.6000000000000838
100
AcDbArc
 50
268.5761677176309
 51
18.04738835211623
  0
ARC
  5
1C19D
102
{ACAD_REACTORS
330
1C593
102
}
330
1F
100
AcDbEntity
  8
Blech
370
    15
100
AcDbCircle
 10
273.9149891081901
 20
264.1362419587708
 30
0.0
 40
0.6000000000000321
100
AcDbArc
 50
328.5761677176121
 51
78.04738835211248
  0
LINE
  5
1C19E
102
{ACAD_REACTORS
330
1C593
102
}
330
1F
100
AcDbEntity
  8
Blech
370
    15
100
AcDbLine
 10
275.6623936871118
 20
263.5825489207775
 30
0.0
 11
275.5530415156908
 21
263.5953713699848
 31
0.0
  0
ARC
  5
1C19F
102
{ACAD_REACTORS
330
1C593
102
}
330
1F
100
AcDbEntity
  8
Blech
370
    15
100
AcDbCircle
 10
276.2986561770646
 20
263.8567221835069
 30
0.0
 40
0.5999999999999852
100
AcDbArc
 50
88.57616771763065
 51
198.0473883521196
  0
LINE
  5
1C1A0
102
{ACAD_REACTORS
330
1C593
102
}
330
1F
100
AcDbEntity
  8
Blech
370
    15
100
AcDbLine
 10
276.3793481567926
 20
264.5448286577732
 30
0.0
 11
276.3135669807024
 21
264.4565392776996
 31
0.0
  0
LINE
  5
1C1A1
102
{ACAD_REACTORS
330
1C593
102
}
330
1F
100
AcDbEntity
  8
Blech
370
    15
100
AcDbLine
 10
275.9044630507059
 20
265.646866385606
 30
0.0
 11
275.9480340460367
 21
265.5457545563251
 31
0.0
  0
LINE
  5
1C1A2
102
{ACAD_REACTORS
330
1C593
102
}
330
1F
100
AcDbEntity
  8
Blech
370
    15
100
AcDbLine
 10
275.7281748632021
 20
263.670838300851
 30
0.0
 11
275.6623936871118
 21
263.5825489207775
 31
0.0
  0
ARC
  5
1C1A3
102
{ACAD_REACTORS
330
1C593
102
}
330
1F
100
AcDbEntity
  8
Blech
370
    15
100
AcDbCircle
 10
275.0261322338811
 20
263.3083766592022
 30
0.0
 40
1.099999999999965
100
AcDbArc
 50
74.27370559897764
 51
92.34985047075128
  0
LWPOLYLINE
  5
1C1A4
102
{ACAD_REACTORS
330
1C593
102
}
330
1F
100
AcDbEntity
  8
Blech
370
    15
100
AcDbPolyline
 90
        3
 70
   128
 43
0.0
 10
275.3242788890428
 20
264.3671993657619
 10
275.5417166331835
 20
263.8626013442546
 10
275.6153507212229
 20
263.6917148276836
  0
LINE
  5
1C1A5
102
{ACAD_REACTORS
330
1C593
102
}
330
1F
100
AcDbEntity
  8
Blech
370
    15
100
AcDbLine
 10
275.6153507212229
 20
263.6917148276836
 30
0.0
 11
275.5530415156908
 21
263.5953713699848
 31
0.0
  0
LINE
  5
1C1A6
102
{ACAD_REACTORS
330
1C593
102
}
330
1F
100
AcDbEntity
  8
Blech
370
    15
100
AcDbLine
 10
274.5415804961748
 20
263.8176296397716
 30
0.0
 11
274.579913733346
 21
263.7094844624073
 31
0.0
  0
LWPOLYLINE
  5
1C1A7
102
{ACAD_REACTORS
330
1C593
102
}
330
1F
100
AcDbEntity
  8
Blech
370
    15
100
AcDbPolyline
 90
        3
 70
   128
 43
0.0
 10
274.9810306409425
 20
264.4074548527271
 10
274.6527506092615
 20
263.9668424173862
 10
274.5415804961748
 20
263.8176296397716
  0
LINE
  5
1C1A8
102
{ACAD_REACTORS
330
1C593
102
}
330
1F
100
AcDbEntity
  8
Blech
370
    15
100
AcDbLine
 10
275.6153507212229
 20
263.6917148276836
 30
0.0
 11
275.6623936871118
 21
263.5825489207775
 31
0.0
  0
LINE
  5
1C1A9
102
{ACAD_REACTORS
330
1C593
102
}
330
1F
100
AcDbEntity
  8
Blech
370
    15
100
AcDbLine
 10
275.6153507212229
 20
263.6917148276836
 30
0.0
 11
275.7281748632021
 21
263.670838300851
 31
0.0
  0
ARC
  5
1C1AA
102
{ACAD_REACTORS
330
1C593
102
}
330
1F
100
AcDbEntity
  8
Blech
370
    15
100
AcDbCircle
 10
274.0763699256825
 20
265.5124527826437
 30
0.0
 40
1.100000000000041
100
AcDbArc
 50
314.2737055989849
 51
332.3498504707578
  0
LWPOLYLINE
  5
1C1AB
102
{ACAD_REACTORS
330
1C593
102
}
330
1F
100
AcDbEntity
  8
Blech
370
    15
100
AcDbPolyline
 90
        3
 70
   128
 43
0.0
 10
274.8442677835054
 20
264.7248346849948
 10
274.2985500076837
 20
264.7888351723224
 10
274.113738355977
 20
264.8105014606983
  0
LINE
  5
1C1AC
102
{ACAD_REACTORS
330
1C593
102
}
330
1F
100
AcDbEntity
  8
Blech
370
    15
100
AcDbLine
 10
274.113738355977
 20
264.8105014606983
 30
0.0
 11
274.0614576319284
 21
264.9126414701015
 31
0.0
  0
LINE
  5
1C1AD
102
{ACAD_REACTORS
330
1C593
102
}
330
1F
100
AcDbEntity
  8
Blech
370
    15
100
AcDbLine
 10
274.7596738914079
 20
265.6774584695369
 30
0.0
 11
274.6468497494287
 21
265.6983349963695
 31
0.0
  0
LWPOLYLINE
  5
1C1AE
102
{ACAD_REACTORS
330
1C593
102
}
330
1F
100
AcDbEntity
  8
Blech
370
    15
100
AcDbPolyline
 90
        3
 70
   128
 43
0.0
 10
275.050745723588
 20
265.0019739314586
 10
274.8333079794473
 20
265.5065794035465
 10
274.7596738914079
 20
265.6774584695369
  0
LINE
  5
1C1AF
102
{ACAD_REACTORS
330
1C593
102
}
330
1F
100
AcDbEntity
  8
Blech
370
    15
100
AcDbLine
 10
274.113738355977
 20
264.8105014606983
 30
0.0
 11
273.9956764558382
 21
264.8243446394474
 31
0.0
  0
LINE
  5
1C1B0
102
{ACAD_REACTORS
330
1C593
102
}
330
1F
100
AcDbEntity
  8
Blech
370
    15
100
AcDbLine
 10
274.113738355977
 20
264.8105014606983
 30
0.0
 11
274.039247451169
 21
264.7232328101665
 31
0.0
  0
LINE
  5
1C1B1
102
{ACAD_REACTORS
330
1C593
102
}
330
1F
100
AcDbEntity
  8
Blech
370
    15
100
AcDbLine
 10
274.5415804961748
 20
263.8176296397716
 30
0.0
 11
274.4705615619249
 21
263.7223069116146
 31
0.0
  0
ARC
  5
1C1B2
102
{ACAD_REACTORS
330
1C593
102
}
330
1F
100
AcDbEntity
  8
Blech
370
    15
100
AcDbCircle
 10
276.2986561770646
 20
263.8567221835069
 30
0.0
 40
1.100000000000041
100
AcDbArc
 50
134.2737055989848
 51
152.3498504707538
  0
LWPOLYLINE
  5
1C1B3
102
{ACAD_REACTORS
330
1C593
102
}
330
1F
100
AcDbEntity
  8
Blech
370
    15
100
AcDbPolyline
 90
        3
 70
   128
 43
0.0
 10
275.530764279706
 20
264.6443386122257
 10
276.0764820555277
 20
264.5803455754787
 10
276.2612862566538
 20
264.5586718365223
  0
LINE
  5
1C1B4
102
{ACAD_REACTORS
330
1C593
102
}
330
1F
100
AcDbEntity
  8
Blech
370
    15
100
AcDbLine
 10
276.2612862566538
 20
264.5586718365223
 30
0.0
 11
276.3135669807024
 21
264.4565392776996
 31
0.0
  0
LINE
  5
1C1B5
102
{ACAD_REACTORS
330
1C593
102
}
330
1F
100
AcDbEntity
  8
Blech
370
    15
100
AcDbLine
 10
274.5415804961748
 20
263.8176296397716
 30
0.0
 11
274.4269905665941
 21
263.823426191476
 31
0.0
  0
ARC
  5
1C1B6
102
{ACAD_REACTORS
330
1C593
102
}
330
1F
100
AcDbEntity
  8
Blech
370
    15
100
AcDbCircle
 10
273.9149891081901
 20
264.1362419587708
 30
0.0
 40
1.100000000000022
100
AcDbArc
 50
14.27370559897639
 51
32.34985047074568
  0
LINE
  5
1C1B7
102
{ACAD_REACTORS
330
1C593
102
}
330
1F
100
AcDbEntity
  8
Blech
370
    15
100
AcDbLine
 10
274.7596738914079
 20
265.6774584695369
 30
0.0
 11
274.712630925519
 21
265.7866243764431
 31
0.0
  0
LINE
  5
1C1B8
102
{ACAD_REACTORS
330
1C593
102
}
330
1F
100
AcDbEntity
  8
Blech
370
    15
100
AcDbLine
 10
274.7596738914079
 20
265.6774584695369
 30
0.0
 11
274.82198309694
 21
265.7738019272358
 31
0.0
  0
LINE
  5
1C1B9
102
{ACAD_REACTORS
330
1C593
102
}
330
1F
100
AcDbEntity
  8
Blech
370
    15
100
AcDbLine
 10
275.833444116456
 20
265.5515436574489
 30
0.0
 11
275.7951108792848
 21
265.6596888348133
 31
0.0
  0
LWPOLYLINE
  5
1C1BA
102
{ACAD_REACTORS
330
1C593
102
}
330
1F
100
AcDbEntity
  8
Blech
370
    15
100
AcDbPolyline
 90
        3
 70
   128
 43
0.0
 10
275.3939939716882
 20
264.961725895074
 10
275.7222740033693
 20
265.4023308798343
 10
275.833444116456
 20
265.5515436574489
  0
ARC
  5
1C1BB
102
{ACAD_REACTORS
330
1C593
102
}
330
1F
100
AcDbEntity
  8
Blech
370
    15
100
AcDbCircle
 10
275.348893868866
 20
266.0607983069485
 30
0.0
 40
1.100000000000046
100
AcDbArc
 50
254.2737055989793
 51
272.3498504707512
  0
LINE
  5
1C1BC
102
{ACAD_REACTORS
330
1C593
102
}
330
1F
100
AcDbEntity
  8
Blech
370
    15
100
AcDbLine
 10
275.833444116456
 20
265.5515436574489
 30
0.0
 11
275.9044630507059
 21
265.646866385606
 31
0.0
  0
LINE
  5
1C1BD
102
{ACAD_REACTORS
330
1C593
102
}
330
1F
100
AcDbEntity
  8
Blech
370
    15
100
AcDbLine
 10
275.833444116456
 20
265.5515436574489
 30
0.0
 11
275.9480340460367
 21
265.5457545563251
 31
0.0
  0
LINE
  5
1C1BE
102
{ACAD_REACTORS
330
1C593
102
}
330
1F
100
AcDbEntity
  8
Blech
370
    15
100
AcDbLine
 10
276.2612862566538
 20
264.5586718365223
 30
0.0
 11
276.3793481567926
 21
264.5448286577732
 31
0.0
  0
LINE
  5
1C1BF
102
{ACAD_REACTORS
330
1C593
102
}
330
1F
100
AcDbEntity
  8
Blech
370
    15
100
AcDbLine
 10
276.2612862566538
 20
264.5586718365223
 30
0.0
 11
276.3357771614618
 21
264.645940487054
 31
0.0
  0
ARC
  5
1C1C0
102
{ACAD_REACTORS
330
1C593
102
}
330
1F
100
AcDbEntity
  8
Blech
370
    15
100
AcDbCircle
 10
276.460036994557
 20
265.2329330073799
 30
0.0
 40
1.100000000000082
100
AcDbArc
 50
194.2737055989814
 51
212.3498504707507
  0
LINE
  5
1C1C1
102
{ACAD_REACTORS
330
1C593
102
}
330
1F
100
AcDbEntity
  8
Blech
370
    15
100
AcDbLine
 10
61.57457959447581
 20
264.9698619290859
 30
0.0
 11
61.55382972751337
 21
265.077992205289
 31
0.0
  0
LINE
  5
1C1C2
102
{ACAD_REACTORS
330
1C593
102
}
330
1F
100
AcDbEntity
  8
Blech
370
    15
100
AcDbLine
 10
61.7799772003718
 20
263.89948916879
 30
0.0
 11
61.75922733340937
 21
264.0076194449932
 31
0.0
  0
LINE
  5
1C1C3
102
{ACAD_REACTORS
330
1C593
102
}
330
1F
100
AcDbEntity
  8
Blech
370
    15
100
AcDbLine
 10
61.88399475608546
 20
263.8633985563785
 30
0.0
 11
61.7799772003718
 21
263.89948916879
 31
0.0
  0
ARC
  5
1C1C4
102
{ACAD_REACTORS
330
1C593
102
}
330
1F
100
AcDbEntity
  8
Blech
370
    15
100
AcDbCircle
 10
62.23325263456624
 20
263.3755238964906
 30
0.0
 40
0.6000000000000328
100
AcDbArc
 50
16.12701577243556
 51
125.5982364069406
  0
LINE
  5
1C1C5
102
{ACAD_REACTORS
330
1C593
102
}
330
1F
100
AcDbEntity
  8
Blech
370
    15
100
AcDbLine
 10
62.91365754399973
 20
263.5060910626918
 30
0.0
 11
62.80963998828608
 21
263.5421816751033
 31
0.0
  0
LINE
  5
1C1C6
102
{ACAD_REACTORS
330
1C593
102
}
330
1F
100
AcDbEntity
  8
Blech
370
    15
100
AcDbLine
 10
62.99692523275095
 20
263.5781232759029
 30
0.0
 11
62.91365754399973
 21
263.5060910626918
 31
0.0
  0
ARC
  5
1C1C7
102
{ACAD_REACTORS
330
1C593
102
}
330
1F
100
AcDbEntity
  8
Blech
370
    15
100
AcDbCircle
 10
63.59406516412147
 20
263.6366546288942
 30
0.0
 40
0.6000000000000453
100
AcDbArc
 50
76.12701577245625
 51
185.598236406944
  0
LINE
  5
1C1C8
102
{ACAD_REACTORS
330
1C593
102
}
330
1F
100
AcDbEntity
  8
Blech
370
    15
100
AcDbLine
 10
63.82119786534983
 20
264.2911885425121
 30
0.0
 11
63.73793017659861
 21
264.2191488787204
 31
0.0
  0
LINE
  5
1C1C9
102
{ACAD_REACTORS
330
1C593
102
}
330
1F
100
AcDbEntity
  8
Blech
370
    15
100
AcDbLine
 10
63.5950503924914
 20
265.4696841284305
 30
0.0
 11
63.61580025945383
 21
265.3615538522274
 31
0.0
  0
CIRCLE
  5
1C1CA
102
{ACAD_REACTORS
330
1C593
102
}
330
1F
100
AcDbEntity
  8
Blech
370
    15
100
AcDbCircle
 10
62.68751305137354
 20
264.6845874830753
 30
0.0
 40
2.349999999999956
  0
LINE
  5
1C1CB
102
{ACAD_REACTORS
330
1C593
102
}
330
1F
100
AcDbEntity
  8
Blech
370
    15
100
AcDbLine
 10
63.8004479983874
 20
264.3993188187152
 30
0.0
 11
63.82119786534983
 21
264.2911885425121
 31
0.0
  0
ARC
  5
1C1CC
102
{ACAD_REACTORS
330
1C593
102
}
330
1F
100
AcDbEntity
  8
Blech
370
    15
100
AcDbCircle
 10
63.1417734681809
 20
265.9936510696601
 30
0.0
 40
0.6000000000000459
100
AcDbArc
 50
196.1270157724464
 51
305.5982364069308
  0
LINE
  5
1C1CD
102
{ACAD_REACTORS
330
1C593
102
}
330
1F
100
AcDbEntity
  8
Blech
370
    15
100
AcDbLine
 10
62.46137004886347
 20
265.8630822345287
 30
0.0
 11
62.56538760457713
 21
265.8269916221172
 31
0.0
  0
LINE
  5
1C1CE
102
{ACAD_REACTORS
330
1C593
102
}
330
1F
100
AcDbEntity
  8
Blech
370
    15
100
AcDbLine
 10
62.37810236011225
 20
265.7910500213176
 30
0.0
 11
62.46137004886347
 21
265.8630822345287
 31
0.0
  0
ARC
  5
1C1CF
102
{ACAD_REACTORS
330
1C593
102
}
330
1F
100
AcDbEntity
  8
Blech
370
    15
100
AcDbCircle
 10
61.78096093862573
 20
265.7325203372565
 30
0.0
 40
0.5999999999999843
100
AcDbArc
 50
256.1270157724444
 51
5.598236406933725
  0
LINE
  5
1C1D0
102
{ACAD_REACTORS
330
1C593
102
}
330
1F
100
AcDbEntity
  8
Blech
370
    15
100
AcDbLine
 10
61.55382972751337
 20
265.077992205289
 30
0.0
 11
61.6370974162646
 21
265.1500244185001
 31
0.0
  0
ARC
  5
1C1D1
102
{ACAD_REACTORS
330
1C593
102
}
330
1F
100
AcDbEntity
  8
Blech
370
    15
100
AcDbCircle
 10
61.32670052181837
 20
264.4234567506718
 30
0.0
 40
0.5999999999999837
100
AcDbArc
 50
316.1270157724342
 51
65.59823640693938
  0
ARC
  5
1C1D2
102
{ACAD_REACTORS
330
1C593
102
}
330
1F
100
AcDbEntity
  8
Blech
370
    15
100
AcDbCircle
 10
64.04832558092872
 20
264.9457182154788
 30
0.0
 40
0.600000000000015
100
AcDbArc
 50
136.1270157724504
 51
245.5982364069428
  0
LINE
  5
1C1D3
102
{ACAD_REACTORS
330
1C593
102
}
330
1F
100
AcDbEntity
  8
Blech
370
    15
100
AcDbLine
 10
63.49103283677775
 20
265.5057821914226
 30
0.0
 11
63.5950503924914
 21
265.4696841284305
 31
0.0
  0
LWPOLYLINE
  5
1C1D4
102
{ACAD_REACTORS
330
1C593
102
}
330
1F
100
AcDbEntity
  8
Blech
370
    15
100
AcDbPolyline
 90
        3
 70
   128
 43
0.0
 10
62.94888388906199
 20
264.9106968685657
 10
63.36442512069422
 20
265.2701799317867
 10
63.50515168700892
 20
265.3919149681598
  0
LINE
  5
1C1D5
102
{ACAD_REACTORS
330
1C593
102
}
330
1F
100
AcDbEntity
  8
Blech
370
    15
100
AcDbLine
 10
63.50515168700892
 20
265.3919149681598
 30
0.0
 11
63.61580025945383
 21
265.3615538522274
 31
0.0
  0
LINE
  5
1C1D6
102
{ACAD_REACTORS
330
1C593
102
}
330
1F
100
AcDbEntity
  8
Blech
370
    15
100
AcDbLine
 10
63.7088952640124
 20
264.330155079034
 30
0.0
 11
63.8004479983874
 21
264.3993188187152
 31
0.0
  0
LWPOLYLINE
  5
1C1D7
102
{ACAD_REACTORS
330
1C593
102
}
330
1F
100
AcDbEntity
  8
Blech
370
    15
100
AcDbPolyline
 90
        3
 70
   128
 43
0.0
 10
63.0140168646403
 20
264.5712856694728
 10
63.53310626540858
 20
264.3911604329616
 10
63.7088952640124
 20
264.330155079034
  0
ARC
  5
1C1D8
102
{ACAD_REACTORS
330
1C593
102
}
330
1F
100
AcDbEntity
  8
Blech
370
    15
100
AcDbCircle
 10
64.04832558092872
 20
264.9457182154788
 30
0.0
 40
1.100000000000012
100
AcDbArc
 50
181.8245536538066
 51
199.9006985255833
  0
LINE
  5
1C1D9
102
{ACAD_REACTORS
330
1C593
102
}
330
1F
100
AcDbEntity
  8
Blech
370
    15
100
AcDbLine
 10
62.89126109872538
 20
263.6228267594844
 30
0.0
 11
62.91365754399973
 21
263.5060910626918
 31
0.0
  0
LINE
  5
1C1DA
102
{ACAD_REACTORS
330
1C593
102
}
330
1F
100
AcDbEntity
  8
Blech
370
    15
100
AcDbLine
 10
62.89126109872538
 20
263.6228267594844
 30
0.0
 11
62.99692523275095
 21
263.5781232759029
 31
0.0
  0
LINE
  5
1C1DB
102
{ACAD_REACTORS
330
1C593
102
}
330
1F
100
AcDbEntity
  8
Blech
370
    15
100
AcDbLine
 10
62.89126109872538
 20
263.6228267594844
 30
0.0
 11
62.80963998828608
 21
263.5421816751033
 31
0.0
  0
ARC
  5
1C1DC
102
{ACAD_REACTORS
330
1C593
102
}
330
1F
100
AcDbEntity
  8
Blech
370
    15
100
AcDbCircle
 10
62.23325263456624
 20
263.3755238964906
 30
0.0
 40
1.100000000000006
100
AcDbArc
 50
61.82455365380291
 51
79.90069852557421
  0
LWPOLYLINE
  5
1C1DD
102
{ACAD_REACTORS
330
1C593
102
}
330
1F
100
AcDbEntity
  8
Blech
370
    15
100
AcDbPolyline
 90
        3
 70
   128
 43
0.0
 10
62.75264304671961
 20
264.345182900098
 10
62.85619121585566
 20
263.8055671497852
 10
62.89126109872538
 20
263.6228267594844
  0
LINE
  5
1C1DE
102
{ACAD_REACTORS
330
1C593
102
}
330
1F
100
AcDbEntity
  8
Blech
370
    15
100
AcDbLine
 10
61.86987590585429
 20
263.9772583290607
 30
0.0
 11
61.88399475608546
 21
263.8633985563785
 31
0.0
  0
LWPOLYLINE
  5
1C1DF
102
{ACAD_REACTORS
330
1C593
102
}
330
1F
100
AcDbEntity
  8
Blech
370
    15
100
AcDbPolyline
 90
        3
 70
   128
 43
0.0
 10
62.42614370380122
 20
264.4584764286548
 10
62.01059502158839
 20
264.0990008160144
 10
61.86987590585429
 20
263.9772583290607
  0
LINE
  5
1C1E0
102
{ACAD_REACTORS
330
1C593
102
}
330
1F
100
AcDbEntity
  8
Blech
370
    15
100
AcDbLine
 10
61.86987590585429
 20
263.9772583290607
 30
0.0
 11
61.75922733340937
 21
264.0076194449932
 31
0.0
  0
LINE
  5
1C1E1
102
{ACAD_REACTORS
330
1C593
102
}
330
1F
100
AcDbEntity
  8
Blech
370
    15
100
AcDbLine
 10
61.86987590585429
 20
263.9772583290607
 30
0.0
 11
61.7799772003718
 21
263.89948916879
 31
0.0
  0
ARC
  5
1C1E2
102
{ACAD_REACTORS
330
1C593
102
}
330
1F
100
AcDbEntity
  8
Blech
370
    15
100
AcDbCircle
 10
61.32670052181837
 20
264.4234567506718
 30
0.0
 40
1.100000000000042
100
AcDbArc
 50
1.824553653800682
 51
19.9006985255704
  0
LINE
  5
1C1E3
102
{ACAD_REACTORS
330
1C593
102
}
330
1F
100
AcDbEntity
  8
Blech
370
    15
100
AcDbLine
 10
61.66613232885081
 20
265.0390182181865
 30
0.0
 11
61.57457959447581
 21
264.9698619290859
 31
0.0
  0
LWPOLYLINE
  5
1C1E4
102
{ACAD_REACTORS
330
1C593
102
}
330
1F
100
AcDbEntity
  8
Blech
370
    15
100
AcDbPolyline
 90
        3
 70
   128
 43
0.0
 10
62.36101072822291
 20
264.7978876277477
 10
61.84192132745463
 20
264.9780203148395
 10
61.66613232885081
 20
265.0390182181865
  0
LINE
  5
1C1E5
102
{ACAD_REACTORS
330
1C593
102
}
330
1F
100
AcDbEntity
  8
Blech
370
    15
100
AcDbLine
 10
62.48376649413783
 20
265.7463465377361
 30
0.0
 11
62.56538760457713
 21
265.8269916221172
 31
0.0
  0
LINE
  5
1C1E6
102
{ACAD_REACTORS
330
1C593
102
}
330
1F
100
AcDbEntity
  8
Blech
370
    15
100
AcDbLine
 10
62.48376649413783
 20
265.7463465377361
 30
0.0
 11
62.46137004886347
 21
265.8630822345287
 31
0.0
  0
LINE
  5
1C1E7
102
{ACAD_REACTORS
330
1C593
102
}
330
1F
100
AcDbEntity
  8
Blech
370
    15
100
AcDbLine
 10
63.7088952640124
 20
264.330155079034
 30
0.0
 11
63.82119786534983
 21
264.2911885425121
 31
0.0
  0
ARC
  5
1C1E8
102
{ACAD_REACTORS
330
1C593
102
}
330
1F
100
AcDbEntity
  8
Blech
370
    15
100
AcDbCircle
 10
63.59406516412147
 20
263.6366546288942
 30
0.0
 40
1.099999999999965
100
AcDbArc
 50
121.8245536538113
 51
139.9006985255797
  0
LINE
  5
1C1E9
102
{ACAD_REACTORS
330
1C593
102
}
330
1F
100
AcDbEntity
  8
Blech
370
    15
100
AcDbLine
 10
63.7088952640124
 20
264.330155079034
 30
0.0
 11
63.73793017659861
 21
264.2191488787204
 31
0.0
  0
LINE
  5
1C1EA
102
{ACAD_REACTORS
330
1C593
102
}
330
1F
100
AcDbEntity
  8
Blech
370
    15
100
AcDbLine
 10
61.66613232885081
 20
265.0390182181865
 30
0.0
 11
61.55382972751337
 21
265.077992205289
 31
0.0
  0
ARC
  5
1C1EB
102
{ACAD_REACTORS
330
1C593
102
}
330
1F
100
AcDbEntity
  8
Blech
370
    15
100
AcDbCircle
 10
61.78096093862573
 20
265.7325203372565
 30
0.0
 40
1.099999999999982
100
AcDbArc
 50
301.8245536538012
 51
319.9006985255732
  0
LINE
  5
1C1EC
102
{ACAD_REACTORS
330
1C593
102
}
330
1F
100
AcDbEntity
  8
Blech
370
    15
100
AcDbLine
 10
61.66613232885081
 20
265.0390182181865
 30
0.0
 11
61.6370974162646
 21
265.1500244185001
 31
0.0
  0
LINE
  5
1C1ED
102
{ACAD_REACTORS
330
1C593
102
}
330
1F
100
AcDbEntity
  8
Blech
370
    15
100
AcDbLine
 10
62.48376649413783
 20
265.7463465377361
 30
0.0
 11
62.37810236011225
 21
265.7910500213176
 31
0.0
  0
LWPOLYLINE
  5
1C1EE
102
{ACAD_REACTORS
330
1C593
102
}
330
1F
100
AcDbEntity
  8
Blech
370
    15
100
AcDbPolyline
 90
        3
 70
   128
 43
0.0
 10
62.62238454614359
 20
265.0239978477031
 10
62.51883637700755
 20
265.5636061474353
 10
62.48376649413783
 20
265.7463465377361
  0
LINE
  5
1C1EF
102
{ACAD_REACTORS
330
1C593
102
}
330
1F
100
AcDbEntity
  8
Blech
370
    15
100
AcDbLine
 10
63.50515168700892
 20
265.3919149681598
 30
0.0
 11
63.5950503924914
 21
265.4696841284305
 31
0.0
  0
LINE
  5
1C1F0
102
{ACAD_REACTORS
330
1C593
102
}
330
1F
100
AcDbEntity
  8
Blech
370
    15
100
AcDbLine
 10
63.50515168700892
 20
265.3919149681598
 30
0.0
 11
63.49103283677775
 21
265.5057821914226
 31
0.0
  0
ARC
  5
1C1F1
102
{ACAD_REACTORS
330
1C593
102
}
330
1F
100
AcDbEntity
  8
Blech
370
    15
100
AcDbCircle
 10
63.1417734681809
 20
265.9936510696601
 30
0.0
 40
1.100000000000065
100
AcDbArc
 50
241.824553653805
 51
259.9006985255754
  0
ARC
  5
1C1F2
102
{ACAD_REACTORS
330
1C593
102
}
330
1F
100
AcDbEntity
  8
Blech
370
    15
100
AcDbCircle
 10
273.9132567929515
 20
82.22889528925879
 30
0.0
 40
0.6000000000000095
100
AcDbArc
 50
282.1342873285965
 51
31.60550796309457
  0
LINE
  5
1C1F3
102
{ACAD_REACTORS
330
1C593
102
}
330
1F
100
AcDbEntity
  8
Blech
370
    15
100
AcDbLine
 10
273.9961309412546
 20
81.54105288234058
 30
0.0
 11
274.0393815616197
 21
81.64229882207218
 31
0.0
  0
ARC
  5
1C1F4
102
{ACAD_REACTORS
330
1C593
102
}
330
1F
100
AcDbEntity
  8
Blech
370
    15
100
AcDbCircle
 10
275.3532567929515
 20
80.30889528925883
 30
0.0
 40
0.5999999999999782
100
AcDbArc
 50
42.13428732860016
 51
151.605507963092
  0
LINE
  5
1C1F5
102
{ACAD_REACTORS
330
1C593
102
}
330
1F
100
AcDbEntity
  8
Blech
370
    15
100
AcDbLine
 10
275.5495844462938
 20
82.77495843615833
 30
0.0
 11
275.6588993648119
 21
82.7881236120731
 31
0.0
  0
ARC
  5
1C1F6
102
{ACAD_REACTORS
330
1C593
102
}
330
1F
100
AcDbEntity
  8
Blech
370
    15
100
AcDbCircle
 10
275.0217693097956
 20
83.06027967689187
 30
0.0
 40
0.6000000000000623
100
AcDbArc
 50
222.1342873286046
 51
331.6055079630898
  0
LINE
  5
1C1F7
102
{ACAD_REACTORS
330
1C593
102
}
330
1F
100
AcDbEntity
  8
Blech
370
    15
100
AcDbLine
 10
274.4675142744608
 20
82.64458817687336
 30
0.0
 11
274.5768217423982
 21
82.65776080336872
 31
0.0
  0
LINE
  5
1C1F8
102
{ACAD_REACTORS
330
1C593
102
}
330
1F
100
AcDbEntity
  8
Blech
370
    15
100
AcDbLine
 10
274.4242636540956
 20
82.54333478656116
 30
0.0
 11
274.4675142744608
 21
82.64458817687336
 31
0.0
  0
LINE
  5
1C1F9
102
{ACAD_REACTORS
330
1C593
102
}
330
1F
100
AcDbEntity
  8
Blech
370
    15
100
AcDbLine
 10
274.0621877888269
 20
81.45296466794315
 30
0.0
 11
273.9961309412546
 21
81.54105288234058
 31
0.0
  0
ARC
  5
1C1FA
102
{ACAD_REACTORS
330
1C593
102
}
330
1F
100
AcDbEntity
  8
Blech
370
    15
100
AcDbCircle
 10
274.0790005345294
 20
80.85320309544221
 30
0.0
 40
0.5999999999999835
100
AcDbArc
 50
342.1342873285985
 51
91.60550796308722
  0
LINE
  5
1C1FB
102
{ACAD_REACTORS
330
1C593
102
}
330
1F
100
AcDbEntity
  8
Blech
370
    15
100
AcDbLine
 10
274.7161252478189
 20
80.58104557242694
 30
0.0
 11
274.6500684002466
 21
80.66913378682437
 31
0.0
  0
LINE
  5
1C1FC
102
{ACAD_REACTORS
330
1C593
102
}
330
1F
100
AcDbEntity
  8
Blech
370
    15
100
AcDbLine
 10
274.825440166337
 20
80.5942181989223
 30
0.0
 11
274.7161252478189
 21
80.58104557242694
 31
0.0
  0
LINE
  5
1C1FD
102
{ACAD_REACTORS
330
1C593
102
}
330
1F
100
AcDbEntity
  8
Blech
370
    15
100
AcDbLine
 10
275.90751033817
 20
80.72458845820728
 30
0.0
 11
275.7982028702326
 21
80.71141583171192
 31
0.0
  0
CIRCLE
  5
1C1FE
102
{ACAD_REACTORS
330
1C593
102
}
330
1F
100
AcDbEntity
  8
Blech
370
    15
100
AcDbCircle
 10
275.1875130513736
 20
81.68458748307529
 30
0.0
 40
2.35
  0
ARC
  5
1C1FF
102
{ACAD_REACTORS
330
1C593
102
}
330
1F
100
AcDbEntity
  8
Blech
370
    15
100
AcDbCircle
 10
276.2960255682176
 20
82.51597187070837
 30
0.0
 40
0.5999999999999835
100
AcDbArc
 50
162.1342873285969
 51
271.6055079630872
  0
LINE
  5
1C200
102
{ACAD_REACTORS
330
1C593
102
}
330
1F
100
AcDbEntity
  8
Blech
370
    15
100
AcDbLine
 10
276.3789011219568
 20
81.82812375274005
 30
0.0
 11
276.3356505015917
 21
81.72687781300846
 31
0.0
  0
LINE
  5
1C201
102
{ACAD_REACTORS
330
1C593
102
}
330
1F
100
AcDbEntity
  8
Blech
370
    15
100
AcDbLine
 10
276.3128368238039
 20
81.91620451655689
 30
0.0
 11
276.3789011219568
 21
81.82812375274005
 31
0.0
  0
ARC
  5
1C202
102
{ACAD_REACTORS
330
1C593
102
}
330
1F
100
AcDbEntity
  8
Blech
370
    15
100
AcDbCircle
 10
276.4617693097955
 20
81.14027967689185
 30
0.0
 40
0.5999999999999918
100
AcDbArc
 50
102.1342873286071
 51
211.6055079630946
  0
LINE
  5
1C203
102
{ACAD_REACTORS
330
1C593
102
}
330
1F
100
AcDbEntity
  8
Blech
370
    15
100
AcDbLine
 10
275.6588993648119
 20
82.7881236120731
 30
0.0
 11
275.7249562123842
 21
82.70004284825626
 31
0.0
  0
LINE
  5
1C204
102
{ACAD_REACTORS
330
1C593
102
}
330
1F
100
AcDbEntity
  8
Blech
370
    15
100
AcDbLine
 10
275.9507609585352
 20
80.82584184851947
 30
0.0
 11
275.90751033817
 21
80.72458845820728
 31
0.0
  0
LINE
  5
1C205
102
{ACAD_REACTORS
330
1C593
102
}
330
1F
100
AcDbEntity
  8
Blech
370
    15
100
AcDbLine
 10
275.612206576211
 20
82.67880869355503
 30
0.0
 11
275.6588993648119
 21
82.7881236120731
 31
0.0
  0
LINE
  5
1C206
102
{ACAD_REACTORS
330
1C593
102
}
330
1F
100
AcDbEntity
  8
Blech
370
    15
100
AcDbLine
 10
275.612206576211
 20
82.67880869355503
 30
0.0
 11
275.5495844462938
 21
82.77495843615833
 31
0.0
  0
LINE
  5
1C207
102
{ACAD_REACTORS
330
1C593
102
}
330
1F
100
AcDbEntity
  8
Blech
370
    15
100
AcDbLine
 10
276.2608839253015
 20
81.81390804496112
 30
0.0
 11
276.3789011219568
 21
81.82812375274005
 31
0.0
  0
LINE
  5
1C208
102
{ACAD_REACTORS
330
1C593
102
}
330
1F
100
AcDbEntity
  8
Blech
370
    15
100
AcDbLine
 10
276.2608839253015
 20
81.81390804496112
 30
0.0
 11
276.3128368238039
 21
81.91620451655689
 31
0.0
  0
ARC
  5
1C209
102
{ACAD_REACTORS
330
1C593
102
}
330
1F
100
AcDbEntity
  8
Blech
370
    15
100
AcDbCircle
 10
273.9132567929515
 20
82.22889528925879
 30
0.0
 40
1.099999999999981
100
AcDbArc
 50
327.8318252099573
 51
345.9079700817306
  0
LWPOLYLINE
  5
1C20A
102
{ACAD_REACTORS
330
1C593
102
}
330
1F
100
AcDbEntity
  8
Blech
370
    15
100
AcDbPolyline
 90
        3
 70
   128
 43
0.0
 10
274.8443944433756
 20
81.64324504580799
 10
274.29887783323
 20
81.57752347436252
 10
274.1141406873293
 20
81.55526859011951
  0
LINE
  5
1C20B
102
{ACAD_REACTORS
330
1C593
102
}
330
1F
100
AcDbEntity
  8
Blech
370
    15
100
AcDbLine
 10
274.1141406873293
 20
81.55526859011951
 30
0.0
 11
274.0393815616197
 21
81.64229882207218
 31
0.0
  0
LINE
  5
1C20C
102
{ACAD_REACTORS
330
1C593
102
}
330
1F
100
AcDbEntity
  8
Blech
370
    15
100
AcDbLine
 10
274.5388312319345
 20
82.54948896613422
 30
0.0
 11
274.4242636540956
 21
82.54333478656116
 31
0.0
  0
LWPOLYLINE
  5
1C20D
102
{ACAD_REACTORS
330
1C593
102
}
330
1F
100
AcDbEntity
  8
Blech
370
    15
100
AcDbPolyline
 90
        3
 70
   128
 43
0.0
 10
274.9801514724321
 20
81.96106446233097
 10
274.6504781821794
 20
82.40063381638828
 10
274.5388312319345
 20
82.54948896613422
  0
LINE
  5
1C20E
102
{ACAD_REACTORS
330
1C593
102
}
330
1F
100
AcDbEntity
  8
Blech
370
    15
100
AcDbLine
 10
275.612206576211
 20
82.67880869355503
 30
0.0
 11
275.7249562123842
 21
82.70004284825626
 31
0.0
  0
LINE
  5
1C20F
102
{ACAD_REACTORS
330
1C593
102
}
330
1F
100
AcDbEntity
  8
Blech
370
    15
100
AcDbLine
 10
274.1141406873293
 20
81.55526859011951
 30
0.0
 11
273.9961309412546
 21
81.54105288234058
 31
0.0
  0
LWPOLYLINE
  5
1C210
102
{ACAD_REACTORS
330
1C593
102
}
330
1F
100
AcDbEntity
  8
Blech
370
    15
100
AcDbPolyline
 90
        3
 70
   128
 43
0.0
 10
275.3232730606622
 20
82.0024077340633
 10
275.5391089299745
 20
82.50769865956607
 10
275.612206576211
 20
82.67880869355503
  0
LWPOLYLINE
  5
1C211
102
{ACAD_REACTORS
330
1C593
102
}
330
1F
100
AcDbEntity
  8
Blech
370
    15
100
AcDbPolyline
 90
        3
 70
   128
 43
0.0
 10
275.5306301692552
 20
81.72592413869205
 10
276.0761467794008
 20
81.79165316071811
 10
276.2608839253015
 20
81.81390804496112
  0
ARC
  5
1C212
102
{ACAD_REACTORS
330
1C593
102
}
330
1F
100
AcDbEntity
  8
Blech
370
    15
100
AcDbCircle
 10
276.2960255682176
 20
82.51597187070837
 30
0.0
 40
1.100000000000041
100
AcDbArc
 50
207.8318252099609
 51
225.9079700817304
  0
LINE
  5
1C213
102
{ACAD_REACTORS
330
1C593
102
}
330
1F
100
AcDbEntity
  8
Blech
370
    15
100
AcDbLine
 10
274.7628254870004
 20
80.69036049094501
 30
0.0
 11
274.7161252478189
 21
80.58104557242694
 31
0.0
  0
LINE
  5
1C214
102
{ACAD_REACTORS
330
1C593
102
}
330
1F
100
AcDbEntity
  8
Blech
370
    15
100
AcDbLine
 10
274.7628254870004
 20
80.69036049094501
 30
0.0
 11
274.825440166337
 21
80.5942181989223
 31
0.0
  0
ARC
  5
1C215
102
{ACAD_REACTORS
330
1C593
102
}
330
1F
100
AcDbEntity
  8
Blech
370
    15
100
AcDbCircle
 10
274.0790005345294
 20
80.85320309544221
 30
0.0
 40
1.100000000000021
100
AcDbArc
 50
27.8318252099609
 51
45.9079700817284
  0
LWPOLYLINE
  5
1C216
102
{ACAD_REACTORS
330
1C593
102
}
330
1F
100
AcDbEntity
  8
Blech
370
    15
100
AcDbPolyline
 90
        3
 70
   128
 43
0.0
 10
275.0517515519686
 20
81.36676890101734
 10
274.8359156826563
 20
80.86147797551456
 10
274.7628254870004
 20
80.69036049094501
  0
LINE
  5
1C217
102
{ACAD_REACTORS
330
1C593
102
}
330
1F
100
AcDbEntity
  8
Blech
370
    15
100
AcDbLine
 10
274.7628254870004
 20
80.69036049094501
 30
0.0
 11
274.6500684002466
 21
80.66913378682437
 31
0.0
  0
LINE
  5
1C218
102
{ACAD_REACTORS
330
1C593
102
}
330
1F
100
AcDbEntity
  8
Blech
370
    15
100
AcDbLine
 10
274.1141406873293
 20
81.55526859011951
 30
0.0
 11
274.0621877888269
 21
81.45296466794315
 31
0.0
  0
LINE
  5
1C219
102
{ACAD_REACTORS
330
1C593
102
}
330
1F
100
AcDbEntity
  8
Blech
370
    15
100
AcDbLine
 10
274.5388312319345
 20
82.54948896613422
 30
0.0
 11
274.5768217423982
 21
82.65776080336872
 31
0.0
  0
ARC
  5
1C21A
102
{ACAD_REACTORS
330
1C593
102
}
330
1F
100
AcDbEntity
  8
Blech
370
    15
100
AcDbCircle
 10
275.0217693097956
 20
83.06027967689187
 30
0.0
 40
1.100000000000063
100
AcDbArc
 50
267.8318252099569
 51
285.9079700817299
  0
LINE
  5
1C21B
102
{ACAD_REACTORS
330
1C593
102
}
330
1F
100
AcDbEntity
  8
Blech
370
    15
100
AcDbLine
 10
275.8361933806963
 20
80.81968021836582
 30
0.0
 11
275.7982028702326
 21
80.71141583171192
 31
0.0
  0
LINE
  5
1C21C
102
{ACAD_REACTORS
330
1C593
102
}
330
1F
100
AcDbEntity
  8
Blech
370
    15
100
AcDbLine
 10
275.8361933806963
 20
80.81968021836582
 30
0.0
 11
275.90751033817
 21
80.72458845820728
 31
0.0
  0
ARC
  5
1C21D
102
{ACAD_REACTORS
330
1C593
102
}
330
1F
100
AcDbEntity
  8
Blech
370
    15
100
AcDbCircle
 10
275.3532567929515
 20
80.30889528925883
 30
0.0
 40
1.100000000000007
100
AcDbArc
 50
87.83182520995686
 51
105.9079700817307
  0
LWPOLYLINE
  5
1C21E
102
{ACAD_REACTORS
330
1C593
102
}
330
1F
100
AcDbEntity
  8
Blech
370
    15
100
AcDbPolyline
 90
        3
 70
   128
 43
0.0
 10
275.3948731401987
 20
81.40810472216907
 10
275.7245464304514
 20
80.96854281869236
 10
275.8361933806963
 20
80.81968021836582
  0
LINE
  5
1C21F
102
{ACAD_REACTORS
330
1C593
102
}
330
1F
100
AcDbEntity
  8
Blech
370
    15
100
AcDbLine
 10
274.5388312319345
 20
82.54948896613422
 30
0.0
 11
274.4675142744608
 21
82.64458817687336
 31
0.0
  0
LINE
  5
1C220
102
{ACAD_REACTORS
330
1C593
102
}
330
1F
100
AcDbEntity
  8
Blech
370
    15
100
AcDbLine
 10
276.2608839253015
 20
81.81390804496112
 30
0.0
 11
276.3356505015917
 21
81.72687781300846
 31
0.0
  0
LINE
  5
1C221
102
{ACAD_REACTORS
330
1C593
102
}
330
1F
100
AcDbEntity
  8
Blech
370
    15
100
AcDbLine
 10
275.8361933806963
 20
80.81968021836582
 30
0.0
 11
275.9507609585352
 21
80.82584184851947
 31
0.0
  0
ARC
  5
1C222
102
{ACAD_REACTORS
330
1C593
102
}
330
1F
100
AcDbEntity
  8
Blech
370
    15
100
AcDbCircle
 10
276.4617693097955
 20
81.14027967689185
 30
0.0
 40
1.099999999999966
100
AcDbArc
 50
147.8318252099598
 51
165.9079700817271
  0
ARC
  5
1C223
102
{ACAD_REACTORS
330
1C593
102
}
330
1F
100
AcDbEntity
  8
Blech
370
    15
100
AcDbCircle
 10
62.63634068828415
 20
83.06928289696822
 30
0.0
 40
0.6000000000000583
100
AcDbArc
 50
217.380831138389
 51
326.8520517728634
  0
LINE
  5
1C224
102
{ACAD_REACTORS
330
1C593
102
}
330
1F
100
AcDbEntity
  8
Blech
370
    15
100
AcDbLine
 10
61.99804824386317
 20
82.60363233533207
 30
0.0
 11
62.0495466569491
 21
82.70095181908908
 31
0.0
  0
ARC
  5
1C225
102
{ACAD_REACTORS
330
1C593
102
}
330
1F
100
AcDbEntity
  8
Blech
370
    15
100
AcDbCircle
 10
61.46274546489386
 20
82.33261862361456
 30
0.0
 40
0.6000000000000109
100
AcDbArc
 50
277.3808311383838
 51
26.85205177287773
  0
LINE
  5
1C226
102
{ACAD_REACTORS
330
1C593
102
}
330
1F
100
AcDbEntity
  8
Blech
370
    15
100
AcDbLine
 10
61.48833167348582
 20
81.64027226414981
 30
0.0
 11
61.53982263599116
 21
81.73759174790683
 31
0.0
  0
LINE
  5
1C227
102
{ACAD_REACTORS
330
1C593
102
}
330
1F
100
AcDbEntity
  8
Blech
370
    15
100
AcDbLine
 10
61.54686343465525
 20
81.54702079739872
 30
0.0
 11
61.48833167348582
 21
81.64027226414981
 31
0.0
  0
ARC
  5
1C228
102
{ACAD_REACTORS
330
1C593
102
}
330
1F
100
AcDbEntity
  8
Blech
370
    15
100
AcDbCircle
 10
61.51391782798331
 20
80.94792320972175
 30
0.0
 40
0.5999999999999683
100
AcDbArc
 50
337.380831138379
 51
86.85205177287695
  0
LINE
  5
1C229
102
{ACAD_REACTORS
330
1C593
102
}
330
1F
100
AcDbEntity
  8
Blech
370
    15
100
AcDbLine
 10
62.12630253825861
 20
80.62390876260105
 30
0.0
 11
62.06776332650858
 21
80.71716022935215
 31
0.0
  0
LINE
  5
1C22A
102
{ACAD_REACTORS
330
1C593
102
}
330
1F
100
AcDbEntity
  8
Blech
370
    15
100
AcDbLine
 10
62.23632526193339
 20
80.62797677960697
 30
0.0
 11
62.12630253825861
 21
80.62390876260105
 31
0.0
  0
ARC
  5
1C22B
102
{ACAD_REACTORS
330
1C593
102
}
330
1F
100
AcDbEntity
  8
Blech
370
    15
100
AcDbCircle
 10
62.73868541446299
 20
80.29989206918248
 30
0.0
 40
0.5999999999999892
100
AcDbArc
 50
37.38083113838039
 51
146.8520517728718
  0
LINE
  5
1C22C
102
{ACAD_REACTORS
330
1C593
102
}
330
1F
100
AcDbEntity
  8
Blech
370
    15
100
AcDbLine
 10
63.37697189841944
 20
80.76554429974857
 30
0.0
 11
63.3254809359141
 21
80.66822481599155
 31
0.0
  0
LINE
  5
1C22D
102
{ACAD_REACTORS
330
1C593
102
}
330
1F
100
AcDbEntity
  8
Blech
370
    15
100
AcDbLine
 10
63.88669591937739
 20
81.72890437093082
 30
0.0
 11
63.83520495687205
 21
81.6315848871738
 31
0.0
  0
CIRCLE
  5
1C22E
102
{ACAD_REACTORS
330
1C593
102
}
330
1F
100
AcDbEntity
  8
Blech
370
    15
100
AcDbCircle
 10
62.68751305137354
 20
81.68458748307529
 30
0.0
 40
2.350000000000003
  0
LINE
  5
1C22F
102
{ACAD_REACTORS
330
1C593
102
}
330
1F
100
AcDbEntity
  8
Blech
370
    15
100
AcDbLine
 10
63.3254809359141
 20
80.66822481599155
 30
0.0
 11
63.21545821223933
 21
80.66415679898563
 31
0.0
  0
ARC
  5
1C230
102
{ACAD_REACTORS
330
1C593
102
}
330
1F
100
AcDbEntity
  8
Blech
370
    15
100
AcDbCircle
 10
63.91228063785329
 20
81.03655634253602
 30
0.0
 40
0.5999999999999859
100
AcDbArc
 50
97.38083113838911
 51
206.8520517728729
  0
LINE
  5
1C231
102
{ACAD_REACTORS
330
1C593
102
}
330
1F
100
AcDbEntity
  8
Blech
370
    15
100
AcDbLine
 10
63.82815670762736
 20
81.82215583768192
 30
0.0
 11
63.88669591937739
 21
81.72890437093082
 31
0.0
  0
ARC
  5
1C232
102
{ACAD_REACTORS
330
1C593
102
}
330
1F
100
AcDbEntity
  8
Blech
370
    15
100
AcDbCircle
 10
63.86110827476384
 20
82.42125175642883
 30
0.0
 40
0.6000000000000081
100
AcDbArc
 50
157.3808311383806
 51
266.8520517728715
  0
LINE
  5
1C233
102
{ACAD_REACTORS
330
1C593
102
}
330
1F
100
AcDbEntity
  8
Blech
370
    15
100
AcDbLine
 10
63.24872505460459
 20
82.74526787247959
 30
0.0
 11
63.30725681577402
 21
82.65201640572849
 31
0.0
  0
LINE
  5
1C234
102
{ACAD_REACTORS
330
1C593
102
}
330
1F
100
AcDbEntity
  8
Blech
370
    15
100
AcDbLine
 10
62.0495466569491
 20
82.70095181908908
 30
0.0
 11
62.15956938062388
 21
82.705019836095
 31
0.0
  0
LINE
  5
1C235
102
{ACAD_REACTORS
330
1C593
102
}
330
1F
100
AcDbEntity
  8
Blech
370
    15
100
AcDbLine
 10
63.13869488034922
 20
82.74119985547367
 30
0.0
 11
63.24872505460459
 21
82.74526787247959
 31
0.0
  0
LINE
  5
1C236
102
{ACAD_REACTORS
330
1C593
102
}
330
1F
100
AcDbEntity
  8
Blech
370
    15
100
AcDbLine
 10
63.26228511129099
 20
80.76890451159778
 30
0.0
 11
63.3254809359141
 21
80.66822481599155
 31
0.0
  0
LINE
  5
1C237
102
{ACAD_REACTORS
330
1C593
102
}
330
1F
100
AcDbEntity
  8
Blech
370
    15
100
AcDbLine
 10
63.26228511129099
 20
80.76890451159778
 30
0.0
 11
63.37697189841944
 21
80.76554429974857
 31
0.0
  0
LINE
  5
1C238
102
{ACAD_REACTORS
330
1C593
102
}
330
1F
100
AcDbEntity
  8
Blech
370
    15
100
AcDbLine
 10
61.60711627994257
 20
81.6446606561214
 30
0.0
 11
61.48833167348582
 21
81.64027226414981
 31
0.0
  0
LINE
  5
1C239
102
{ACAD_REACTORS
330
1C593
102
}
330
1F
100
AcDbEntity
  8
Blech
370
    15
100
AcDbLine
 10
61.60711627994257
 20
81.6446606561214
 30
0.0
 11
61.54686343465525
 21
81.54702079739872
 31
0.0
  0
LWPOLYLINE
  5
1C23A
102
{ACAD_REACTORS
330
1C593
102
}
330
1F
100
AcDbEntity
  8
Blech
370
    15
100
AcDbPolyline
 90
        3
 70
   128
 43
0.0
 10
62.50377875362116
 20
81.97729927745166
 10
62.21166384015757
 20
82.44267744269672
 10
62.11274248157221
 20
82.60027212348285
  0
LINE
  5
1C23B
102
{ACAD_REACTORS
330
1C593
102
}
330
1F
100
AcDbEntity
  8
Blech
370
    15
100
AcDbLine
 10
62.11274248157221
 20
82.60027212348285
 30
0.0
 11
62.15956938062388
 21
82.705019836095
 31
0.0
  0
LINE
  5
1C23C
102
{ACAD_REACTORS
330
1C593
102
}
330
1F
100
AcDbEntity
  8
Blech
370
    15
100
AcDbLine
 10
63.19312882219035
 20
82.64019978490177
 30
0.0
 11
63.13869488034922
 21
82.74119985547367
 31
0.0
  0
LWPOLYLINE
  5
1C23D
102
{ACAD_REACTORS
330
1C593
102
}
330
1F
100
AcDbEntity
  8
Blech
370
    15
100
AcDbPolyline
 90
        3
 70
   128
 43
0.0
 10
62.84914296661097
 20
81.9900621220142
 10
63.10611349139887
 20
82.47572821822467
 10
63.19312882219035
 20
82.64019978490177
  0
ARC
  5
1C23E
102
{ACAD_REACTORS
330
1C593
102
}
330
1F
100
AcDbEntity
  8
Blech
370
    15
100
AcDbCircle
 10
62.63634068828415
 20
83.06928289696822
 30
0.0
 40
1.100000000000031
100
AcDbArc
 50
263.0783690197405
 51
281.1545138915088
  0
LINE
  5
1C23F
102
{ACAD_REACTORS
330
1C593
102
}
330
1F
100
AcDbEntity
  8
Blech
370
    15
100
AcDbLine
 10
63.19312882219035
 20
82.64019978490177
 30
0.0
 11
63.30725681577402
 21
82.65201640572849
 31
0.0
  0
LINE
  5
1C240
102
{ACAD_REACTORS
330
1C593
102
}
330
1F
100
AcDbEntity
  8
Blech
370
    15
100
AcDbLine
 10
63.19312882219035
 20
82.64019978490177
 30
0.0
 11
63.24872505460459
 21
82.74526787247959
 31
0.0
  0
ARC
  5
1C241
102
{ACAD_REACTORS
330
1C593
102
}
330
1F
100
AcDbEntity
  8
Blech
370
    15
100
AcDbCircle
 10
63.91228063785329
 20
81.03655634253602
 30
0.0
 40
1.099999999999969
100
AcDbArc
 50
143.0783690197411
 51
161.1545138915126
  0
LWPOLYLINE
  5
1C242
102
{ACAD_REACTORS
330
1C593
102
}
330
1F
100
AcDbEntity
  8
Blech
370
    15
100
AcDbPolyline
 90
        3
 70
   128
 43
0.0
 10
63.03287428413111
 20
81.69735116210285
 10
63.58195972238261
 20
81.71763909306827
 10
63.76790386234003
 20
81.72451597895923
  0
LINE
  5
1C243
102
{ACAD_REACTORS
330
1C593
102
}
330
1F
100
AcDbEntity
  8
Blech
370
    15
100
AcDbLine
 10
63.76790386234003
 20
81.72451597895923
 30
0.0
 11
63.83520495687205
 21
81.6315848871738
 31
0.0
  0
LWPOLYLINE
  5
1C244
102
{ACAD_REACTORS
330
1C593
102
}
330
1F
100
AcDbEntity
  8
Blech
370
    15
100
AcDbPolyline
 90
        3
 70
   128
 43
0.0
 10
62.87124883924204
 20
81.39187735762897
 10
63.16336375270564
 20
80.92649919238391
 10
63.26228511129099
 20
80.76890451159778
  0
LINE
  5
1C245
102
{ACAD_REACTORS
330
1C593
102
}
330
1F
100
AcDbEntity
  8
Blech
370
    15
100
AcDbLine
 10
62.11274248157221
 20
82.60027212348285
 30
0.0
 11
62.0495466569491
 21
82.70095181908908
 31
0.0
  0
LINE
  5
1C246
102
{ACAD_REACTORS
330
1C593
102
}
330
1F
100
AcDbEntity
  8
Blech
370
    15
100
AcDbLine
 10
63.76790386234003
 20
81.72451597895923
 30
0.0
 11
63.82815670762736
 21
81.82215583768192
 31
0.0
  0
ARC
  5
1C247
102
{ACAD_REACTORS
330
1C593
102
}
330
1F
100
AcDbEntity
  8
Blech
370
    15
100
AcDbCircle
 10
63.86110827476384
 20
82.42125175642883
 30
0.0
 40
1.100000000000015
100
AcDbArc
 50
203.078369019737
 51
221.154513891517
  0
LINE
  5
1C248
102
{ACAD_REACTORS
330
1C593
102
}
330
1F
100
AcDbEntity
  8
Blech
370
    15
100
AcDbLine
 10
63.76790386234003
 20
81.72451597895923
 30
0.0
 11
63.88669591937739
 21
81.72890437093082
 31
0.0
  0
ARC
  5
1C249
102
{ACAD_REACTORS
330
1C593
102
}
330
1F
100
AcDbEntity
  8
Blech
370
    15
100
AcDbCircle
 10
61.51391782798331
 20
80.94792320972175
 30
0.0
 40
1.099999999999989
100
AcDbArc
 50
23.07836901974093
 51
41.15451389151014
  0
LWPOLYLINE
  5
1C24A
102
{ACAD_REACTORS
330
1C593
102
}
330
1F
100
AcDbEntity
  8
Blech
370
    15
100
AcDbPolyline
 90
        3
 70
   128
 43
0.0
 10
62.52588462625224
 20
81.37911451306644
 10
62.26891410146433
 20
80.89344841685596
 10
62.18189132009226
 20
80.72897685017887
  0
LINE
  5
1C24B
102
{ACAD_REACTORS
330
1C593
102
}
330
1F
100
AcDbEntity
  8
Blech
370
    15
100
AcDbLine
 10
62.18189132009226
 20
80.72897685017887
 30
0.0
 11
62.06776332650858
 21
80.71716022935215
 31
0.0
  0
LWPOLYLINE
  5
1C24C
102
{ACAD_REACTORS
330
1C593
102
}
330
1F
100
AcDbEntity
  8
Blech
370
    15
100
AcDbPolyline
 90
        3
 70
   128
 43
0.0
 10
62.3421458581515
 20
81.67182547297779
 10
61.7930678704806
 20
81.65153009143177
 10
61.60711627994257
 20
81.6446606561214
  0
LINE
  5
1C24D
102
{ACAD_REACTORS
330
1C593
102
}
330
1F
100
AcDbEntity
  8
Blech
370
    15
100
AcDbLine
 10
61.60711627994257
 20
81.6446606561214
 30
0.0
 11
61.53982263599116
 21
81.73759174790683
 31
0.0
  0
ARC
  5
1C24E
102
{ACAD_REACTORS
330
1C593
102
}
330
1F
100
AcDbEntity
  8
Blech
370
    15
100
AcDbCircle
 10
61.46274546489386
 20
82.33261862361456
 30
0.0
 40
1.10000000000002
100
AcDbArc
 50
323.0783690197396
 51
341.1545138915133
  0
LINE
  5
1C24F
102
{ACAD_REACTORS
330
1C593
102
}
330
1F
100
AcDbEntity
  8
Blech
370
    15
100
AcDbLine
 10
62.11274248157221
 20
82.60027212348285
 30
0.0
 11
61.99804824386317
 21
82.60363233533207
 31
0.0
  0
LINE
  5
1C250
102
{ACAD_REACTORS
330
1C593
102
}
330
1F
100
AcDbEntity
  8
Blech
370
    15
100
AcDbLine
 10
63.26228511129099
 20
80.76890451159778
 30
0.0
 11
63.21545821223933
 21
80.66415679898563
 31
0.0
  0
LINE
  5
1C251
102
{ACAD_REACTORS
330
1C593
102
}
330
1F
100
AcDbEntity
  8
Blech
370
    15
100
AcDbLine
 10
62.18189132009226
 20
80.72897685017887
 30
0.0
 11
62.12630253825861
 21
80.62390876260105
 31
0.0
  0
LINE
  5
1C252
102
{ACAD_REACTORS
330
1C593
102
}
330
1F
100
AcDbEntity
  8
Blech
370
    15
100
AcDbLine
 10
62.18189132009226
 20
80.72897685017887
 30
0.0
 11
62.23632526193339
 21
80.62797677960697
 31
0.0
  0
ARC
  5
1C253
102
{ACAD_REACTORS
330
1C593
102
}
330
1F
100
AcDbEntity
  8
Blech
370
    15
100
AcDbCircle
 10
62.73868541446299
 20
80.29989206918248
 30
0.0
 40
1.099999999999982
100
AcDbArc
 50
83.07836901973724
 51
101.1545138915123
  0
LINE
  5
1C254
102
{ACAD_REACTORS
330
1C593
102
}
330
1F
100
AcDbEntity
  8
Blech
370
    15
100
AcDbLine
 10
277.9375104287691
 20
104.8345853134662
 30
0.0
 11
277.9375104287691
 21
241.5345896526844
 31
0.0
  0
LINE
  5
1C255
102
{ACAD_REACTORS
330
1C593
102
}
330
1F
100
AcDbEntity
  8
Blech
370
    15
100
AcDbLine
 10
277.9375104287691
 20
241.5345896526844
 30
0.0
 11
59.93751567397791
 21
241.5345896526844
 31
0.0
  0
LINE
  5
1C256
102
{ACAD_REACTORS
330
1C593
102
}
330
1F
100
AcDbEntity
  8
Blech
370
    15
100
AcDbLine
 10
59.93751567397791
 20
241.5345896526844
 30
0.0
 11
59.93751567397791
 21
104.8345853134662
 31
0.0
  0
LINE
  5
1C257
102
{ACAD_REACTORS
330
1C593
102
}
330
1F
100
AcDbEntity
  8
Blech
370
    15
100
AcDbLine
 10
59.93751567397791
 20
104.8345853134662
 30
0.0
 11
277.9375104287691
 21
104.8345853134662
 31
0.0
  0
LINE
  5
1C258
102
{ACAD_REACTORS
330
1C593
102
}
330
1F
100
AcDbEntity
  8
Blech
370
    15
100
AcDbLine
 10
43.5375062802859
 20
250.6845880791217
 30
0.0
 11
43.5375062802859
 21
95.68458688702884
 31
0.0
  0
LINE
  5
1C259
102
{ACAD_REACTORS
330
1C593
102
}
330
1F
100
AcDbEntity
  8
Blech
370
    15
100
AcDbLine
 10
294.3375198224611
 20
95.68458688702884
 30
0.0
 11
294.3375198224611
 21
250.6845880791217
 31
0.0
  0
ARC
  5
1C25A
102
{ACAD_REACTORS
330
1C593
102
}
330
1F
100
AcDbEntity
  8
Blech
370
    15
100
AcDbCircle
 10
292.3375130513735
 20
95.68458748307529
 30
0.0
 40
2.0
100
AcDbArc
 50
270.0
 51
0.0
  0
LINE
  5
1C25B
102
{ACAD_REACTORS
330
1C593
102
}
330
1F
100
AcDbEntity
  8
Blech
370
    15
100
AcDbLine
 10
45.53751033340174
 20
93.6845902844936
 30
0.0
 11
292.3375157693453
 21
93.6845902844936
 31
0.0
  0
ARC
  5
1C25C
102
{ACAD_REACTORS
330
1C593
102
}
330
1F
100
AcDbEntity
  8
Blech
370
    15
100
AcDbCircle
 10
45.53751305137351
 20
95.68458748307529
 30
0.0
 40
2.0
100
AcDbArc
 50
180.0
 51
270.0
  0
ARC
  5
1C25D
102
{ACAD_REACTORS
330
1C593
102
}
330
1F
100
AcDbEntity
  8
Blech
370
    15
100
AcDbCircle
 10
45.53751305137351
 20
250.6845874830753
 30
0.0
 40
2.0
100
AcDbArc
 50
90.0
 51
180.0
  0
LINE
  5
1C25E
102
{ACAD_REACTORS
330
1C593
102
}
330
1F
100
AcDbEntity
  8
Blech
370
    15
100
AcDbLine
 10
292.3375157693453
 20
252.684584681657
 30
0.0
 11
45.53751033340174
 21
252.684584681657
 31
0.0
  0
ARC
  5
1C25F
102
{ACAD_REACTORS
330
1C593
102
}
330
1F
100
AcDbEntity
  8
Blech
370
    15
100
AcDbCircle
 10
292.3375130513735
 20
250.6845874830753
 30
0.0
 40
2.0
100
AcDbArc
 50
0.0
 51
90.0
  0
CIRCLE
  5
1C260
102
{ACAD_REACTORS
330
1C593
102
}
330
1F
100
AcDbEntity
  8
Blech
370
    15
100
AcDbCircle
 10
275.1875130513736
 20
81.68458748307529
 30
0.0
 40
2.799999999999983
  0
LINE
  5
1C261
102
{ACAD_REACTORS
330
1C593
102
}
330
1F
100
AcDbEntity
  8
Blech
370
    15
100
AcDbLine
 10
296.3375089744158
 20
269.8345844193965
 30
0.0
 11
41.53751712833125
 21
269.8345844193965
 31
0.0
  0
LINE
  5
1C262
102
{ACAD_REACTORS
330
1C593
102
}
330
1F
100
AcDbEntity
  8
Blech
370
    15
100
AcDbLine
 10
296.3375089744158
 20
76.53459054675403
 30
0.0
 11
296.3375089744158
 21
269.8345844193965
 31
0.0
  0
LINE
  5
1C263
102
{ACAD_REACTORS
330
1C593
102
}
330
1F
100
AcDbEntity
  8
Blech
370
    15
100
AcDbLine
 10
41.53751712833125
 20
76.53459054675403
 30
0.0
 11
296.3375089744158
 21
76.53459054675403
 31
0.0
  0
LINE
  5
1C264
102
{ACAD_REACTORS
330
1C593
102
}
330
1F
100
AcDbEntity
  8
Blech
370
    15
100
AcDbLine
 10
41.53751712833125
 20
269.8345844193965
 30
0.0
 11
41.53751712833125
 21
76.53459054675403
 31
0.0
  0
CIRCLE
  5
1C267
102
{ACAD_REACTORS
330
1C593
102
}
330
1F
100
AcDbEntity
  8
Blech
370
    15
100
AcDbCircle
 10
62.68751305137354
 20
81.68458748307529
 30
0.0
 40
2.799999999999983
  0
CIRCLE
  5
1C268
102
{ACAD_REACTORS
330
1C593
102
}
330
1F
100
AcDbEntity
  8
Blech
370
    15
100
AcDbCircle
 10
275.1875130513736
 20
264.6845874830753
 30
0.0
 40
2.800000000000011
  0
CIRCLE
  5
1C269
102
{ACAD_REACTORS
330
1C593
102
}
330
1F
100
AcDbEntity
  8
Blech
370
    15
100
AcDbCircle
 10
62.68751305137354
 20
264.6845874830753
 30
0.0
 40
2.799999999999955
  0
LINE
  5
1C270
102
{ACAD_REACTORS
330
1C594
102
}
330
1F
100
AcDbEntity
  8
Blech
370
    15
100
AcDbLine
 10
370.2092343106949
 20
171.0345874100596
 30
0.0
 11
369.9885238990271
 21
171.0345874100596
 31
0.0
  0
LINE
  5
1C271
102
{ACAD_REACTORS
330
1C594
102
}
330
1F
100
AcDbEntity
  8
Blech
370
    15
100
AcDbLine
 10
369.9885238990271
 20
168.6345872960657
 30
0.0
 11
370.2092343106949
 21
168.6345872960657
 31
0.0
  0
LINE
  5
1C272
102
{ACAD_REACTORS
330
1C594
102
}
330
1F
100
AcDbEntity
  8
Blech
370
    15
100
AcDbLine
 10
369.9885238990271
 20
171.0345874100596
 30
0.0
 11
369.7885237731123
 21
170.8345875169754
 31
0.0
  0
LINE
  5
1C273
102
{ACAD_REACTORS
330
1C594
102
}
330
1F
100
AcDbEntity
  8
Blech
370
    15
100
AcDbLine
 10
369.7885237731123
 20
168.8345874219805
 30
0.0
 11
369.9885238990271
 21
168.6345872960657
 31
0.0
  0
LINE
  5
1C274
102
{ACAD_REACTORS
330
1C594
102
}
330
1F
100
AcDbEntity
  8
Blech
370
    15
100
AcDbLine
 10
369.9885238990271
 20
250.5345855399639
 30
0.0
 11
369.7885237731123
 21
250.3345896050006
 31
0.0
  0
LINE
  5
1C275
102
{ACAD_REACTORS
330
1C594
102
}
330
1F
100
AcDbEntity
  8
Blech
370
    15
100
AcDbLine
 10
369.7885237731123
 20
248.3345855518848
 30
0.0
 11
369.9885238990271
 21
248.1345896169216
 31
0.0
  0
LINE
  5
1C276
102
{ACAD_REACTORS
330
1C594
102
}
330
1F
100
AcDbEntity
  8
Blech
370
    15
100
AcDbLine
 10
370.2092343106949
 20
250.5345855399639
 30
0.0
 11
369.9885238990271
 21
250.5345855399639
 31
0.0
  0
LINE
  5
1C277
102
{ACAD_REACTORS
330
1C594
102
}
330
1F
100
AcDbEntity
  8
Blech
370
    15
100
AcDbLine
 10
369.9885238990271
 20
248.1345896169216
 30
0.0
 11
370.2092343106949
 21
248.1345896169216
 31
0.0
  0
LINE
  5
1C278
102
{ACAD_REACTORS
330
1C594
102
}
330
1F
100
AcDbEntity
  8
Blech
370
    15
100
AcDbLine
 10
376.2092343628491
 20
265.8845846101314
 30
0.0
 11
371.3385234683835
 21
265.8845846101314
 31
0.0
  0
LINE
  5
1C279
102
{ACAD_REACTORS
330
1C594
102
}
330
1F
100
AcDbEntity
  8
Blech
370
    15
100
AcDbLine
 10
371.3385234683835
 20
263.4845886870891
 30
0.0
 11
376.2092343628491
 21
263.4845886870891
 31
0.0
  0
LINE
  5
1C27A
102
{ACAD_REACTORS
330
1C594
102
}
330
1F
100
AcDbEntity
  8
Blech
370
    15
100
AcDbLine
 10
371.3385234683835
 20
265.8845846101314
 30
0.0
 11
371.13852380813
 21
265.6845886751682
 31
0.0
  0
LINE
  5
1C27B
102
{ACAD_REACTORS
330
1C594
102
}
330
1F
100
AcDbEntity
  8
Blech
370
    15
100
AcDbLine
 10
371.13852380813
 20
263.6845846220523
 30
0.0
 11
371.3385234683835
 21
263.4845886870891
 31
0.0
  0
LINE
  5
1C27C
102
{ACAD_REACTORS
330
1C594
102
}
330
1F
100
AcDbEntity
  8
Blech
370
    15
100
AcDbLine
 10
376.2092343628491
 20
82.88458627906147
 30
0.0
 11
371.3385234683835
 21
82.88458627906147
 31
0.0
  0
LINE
  5
1C27D
102
{ACAD_REACTORS
330
1C594
102
}
330
1F
100
AcDbEntity
  8
Blech
370
    15
100
AcDbLine
 10
371.3385234683835
 20
80.48459035601917
 30
0.0
 11
376.2092343628491
 21
80.48459035601917
 31
0.0
  0
LINE
  5
1C27E
102
{ACAD_REACTORS
330
1C594
102
}
330
1F
100
AcDbEntity
  8
Blech
370
    15
100
AcDbLine
 10
371.3385234683835
 20
82.88458627906147
 30
0.0
 11
371.13852380813
 21
82.68459034409824
 31
0.0
  0
LINE
  5
1C27F
102
{ACAD_REACTORS
330
1C594
102
}
330
1F
100
AcDbEntity
  8
Blech
370
    15
100
AcDbLine
 10
371.13852380813
 20
80.6845862909824
 30
0.0
 11
371.3385234683835
 21
80.48459035601917
 31
0.0
  0
LINE
  5
1C280
102
{ACAD_REACTORS
330
1C594
102
}
330
1F
100
AcDbEntity
  8
Blech
370
    15
100
AcDbLine
 10
366.1066652372563
 20
158.4595878168613
 30
0.0
 11
366.1092347562396
 21
158.4872285395533
 31
0.0
  0
LINE
  5
1C281
102
{ACAD_REACTORS
330
1C594
102
}
330
1F
100
AcDbEntity
  8
Blech
370
    15
100
AcDbLine
 10
365.1092345923269
 20
163.3171326040894
 30
0.0
 11
364.7387581974351
 21
163.3106655001313
 31
0.0
  0
LINE
  5
1C282
102
{ACAD_REACTORS
330
1C594
102
}
330
1F
100
AcDbEntity
  8
Blech
370
    15
100
AcDbLine
 10
364.7387581974351
 20
158.3585095151931
 30
0.0
 11
365.1092345923269
 21
158.352042411235
 31
0.0
  0
ARC
  5
1C283
102
{ACAD_REACTORS
330
1C594
102
}
330
1F
100
AcDbEntity
  8
Blech
370
    15
100
AcDbCircle
 10
364.7413762040145
 20
163.1606885808937
 30
0.0
 40
0.1500000000000691
100
AcDbArc
 50
90.99999999997526
 51
142.8299904070194
  0
ARC
  5
1C284
102
{ACAD_REACTORS
330
1C594
102
}
330
1F
100
AcDbEntity
  8
Blech
370
    15
100
AcDbCircle
 10
364.7413762040145
 20
158.508486385257
 30
0.0
 40
0.1500000000000122
100
AcDbArc
 50
217.1700095929633
 51
269.0000000000244
  0
ARC
  5
1C285
102
{ACAD_REACTORS
330
1C594
102
}
330
1F
100
AcDbEntity
  8
Blech
370
    15
100
AcDbCircle
 10
367.809234362849
 20
160.8345874830753
 30
0.0
 40
4.00000000000007
100
AcDbArc
 50
197.5208713995507
 51
217.1700095929627
  0
ARC
  5
1C286
102
{ACAD_REACTORS
330
1C594
102
}
330
1F
100
AcDbEntity
  8
Blech
370
    15
100
AcDbCircle
 10
367.809234362849
 20
160.8345874830753
 30
0.0
 40
4.000000000000053
100
AcDbArc
 50
142.8299904070384
 51
162.4791286004493
  0
ARC
  5
1C287
102
{ACAD_REACTORS
330
1C594
102
}
330
1F
100
AcDbEntity
  8
Blech
370
    15
100
AcDbCircle
 10
363.3592343628488
 20
227.8830363741296
 30
0.0
 40
0.1499999999999773
100
AcDbArc
 50
0.0
 51
91.00000000001944
  0
LINE
  5
1C288
102
{ACAD_REACTORS
330
1C594
102
}
330
1F
100
AcDbEntity
  8
Blech
370
    15
100
AcDbLine
 10
363.3566168233835
 20
228.0330125733882
 30
0.0
 11
362.1387579575264
 21
228.0117560669452
 31
0.0
  0
ARC
  5
1C289
102
{ACAD_REACTORS
330
1C594
102
}
330
1F
100
AcDbEntity
  8
Blech
370
    15
100
AcDbCircle
 10
362.1413762040144
 20
227.8617785808937
 30
0.0
 40
0.1500000000000663
100
AcDbArc
 50
90.99999999997526
 51
142.8299904070629
  0
ARC
  5
1C28A
102
{ACAD_REACTORS
330
1C594
102
}
330
1F
100
AcDbEntity
  8
Blech
370
    15
100
AcDbCircle
 10
362.1413762040145
 20
223.209576385257
 30
0.0
 40
0.1500000000001568
100
AcDbArc
 50
217.1700095928763
 51
257.6267721872805
  0
ARC
  5
1C28B
102
{ACAD_REACTORS
330
1C594
102
}
330
1F
100
AcDbEntity
  8
Blech
370
    15
100
AcDbCircle
 10
365.2092343628489
 20
225.5356774830754
 30
0.0
 40
4.000000000000065
100
AcDbArc
 50
197.5208713995507
 51
217.1700095929611
  0
ARC
  5
1C28C
102
{ACAD_REACTORS
330
1C594
102
}
330
1F
100
AcDbEntity
  8
Blech
370
    15
100
AcDbCircle
 10
365.2092343628489
 20
225.5356774830754
 30
0.0
 40
4.00000000000007
100
AcDbArc
 50
142.8299904070407
 51
162.4791286004493
  0
ARC
  5
1C28D
102
{ACAD_REACTORS
330
1C594
102
}
330
1F
100
AcDbEntity
  8
Blech
370
    15
100
AcDbCircle
 10
365.959234362849
 20
228.1819463741295
 30
0.0
 40
0.1500000000000122
100
AcDbArc
 50
0.0
 51
90.99999999997564
  0
LINE
  5
1C28E
102
{ACAD_REACTORS
330
1C594
102
}
330
1F
100
AcDbEntity
  8
Blech
370
    15
100
AcDbLine
 10
365.9566161319697
 20
228.3319224163562
 30
0.0
 11
364.7387581974351
 21
228.3106659099132
 31
0.0
  0
LINE
  5
1C28F
102
{ACAD_REACTORS
330
1C594
102
}
330
1F
100
AcDbEntity
  8
Blech
370
    15
100
AcDbLine
 10
364.7387581974351
 20
223.3585108562976
 30
0.0
 11
365.1092345923269
 21
223.3520437523395
 31
0.0
  0
ARC
  5
1C290
102
{ACAD_REACTORS
330
1C594
102
}
330
1F
100
AcDbEntity
  8
Blech
370
    15
100
AcDbCircle
 10
364.7413762040146
 20
228.1606885808937
 30
0.0
 40
0.1500000000000663
100
AcDbArc
 50
90.99999999997526
 51
142.8299904070629
  0
ARC
  5
1C291
102
{ACAD_REACTORS
330
1C594
102
}
330
1F
100
AcDbEntity
  8
Blech
370
    15
100
AcDbCircle
 10
364.7413762040146
 20
223.508486385257
 30
0.0
 40
0.1500000000000663
100
AcDbArc
 50
217.1700095929371
 51
269.0000000000247
  0
ARC
  5
1C292
102
{ACAD_REACTORS
330
1C594
102
}
330
1F
100
AcDbEntity
  8
Blech
370
    15
100
AcDbCircle
 10
367.809234362849
 20
225.8345874830754
 30
0.0
 40
4.000000000000036
100
AcDbArc
 50
142.8299904070402
 51
162.4791286004509
  0
ARC
  5
1C293
102
{ACAD_REACTORS
330
1C594
102
}
330
1F
100
AcDbEntity
  8
Blech
370
    15
100
AcDbCircle
 10
367.809234362849
 20
225.8345874830754
 30
0.0
 40
4.00000000000007
100
AcDbArc
 50
197.5208713995525
 51
217.1700095929633
  0
LINE
  5
1C294
102
{ACAD_REACTORS
330
1C594
102
}
330
1F
100
AcDbEntity
  8
Blech
370
    15
100
AcDbLine
 10
355.994577994951
 20
163.8350178047687
 30
0.0
 11
356.0092351496303
 21
163.8345875337392
 31
0.0
  0
LINE
  5
1C295
102
{ACAD_REACTORS
330
1C594
102
}
330
1F
100
AcDbEntity
  8
Blech
370
    15
100
AcDbLine
 10
356.0092351496303
 20
163.8345875337392
 30
0.0
 11
361.5092341885054
 21
163.8345875337392
 31
0.0
  0
LINE
  5
1C296
102
{ACAD_REACTORS
330
1C594
102
}
330
1F
100
AcDbEntity
  8
Blech
370
    15
100
AcDbLine
 10
356.0092351496303
 20
203.6343466981918
 30
0.0
 11
356.0092351496303
 21
201.6343482330114
 31
0.0
  0
LINE
  5
1C297
102
{ACAD_REACTORS
330
1C594
102
}
330
1F
100
AcDbEntity
  8
Blech
370
    15
100
AcDbLine
 10
366.1092347562396
 20
144.9645877375871
 30
0.0
 11
366.0092339947903
 21
144.9645877375871
 31
0.0
  0
LINE
  5
1C298
102
{ACAD_REACTORS
330
1C594
102
}
330
1F
100
AcDbEntity
  8
Blech
370
    15
100
AcDbLine
 10
366.0092339947903
 20
141.7045880600483
 30
0.0
 11
366.1092347562396
 21
141.7045880600483
 31
0.0
  0
LINE
  5
1C299
102
{ACAD_REACTORS
330
1C594
102
}
330
1F
100
AcDbEntity
  8
Blech
370
    15
100
AcDbLine
 10
366.1092347562396
 20
251.4645893618137
 30
0.0
 11
366.0092339947903
 21
251.4645893618137
 31
0.0
  0
LINE
  5
1C29A
102
{ACAD_REACTORS
330
1C594
102
}
330
1F
100
AcDbEntity
  8
Blech
370
    15
100
AcDbLine
 10
366.0092339947903
 20
248.2045878216297
 30
0.0
 11
366.1092347562396
 21
248.2045878216297
 31
0.0
  0
LINE
  5
1C29B
102
{ACAD_REACTORS
330
1C594
102
}
330
1F
100
AcDbEntity
  8
Blech
370
    15
100
AcDbLine
 10
371.7092345565641
 20
167.7395876988441
 30
0.0
 11
376.209234362849
 21
167.7395876988441
 31
0.0
  0
LINE
  5
1C29C
102
{ACAD_REACTORS
330
1C594
102
}
330
1F
100
AcDbEntity
  8
Blech
370
    15
100
AcDbLine
 10
376.209234362849
 20
171.9295874729425
 30
0.0
 11
371.7092345565641
 21
171.9295874729425
 31
0.0
  0
LINE
  5
1C29D
102
{ACAD_REACTORS
330
1C594
102
}
330
1F
100
AcDbEntity
  8
Blech
370
    15
100
AcDbLine
 10
371.7092345565641
 20
247.2395886227161
 30
0.0
 11
376.209234362849
 21
247.2395886227161
 31
0.0
  0
LINE
  5
1C29E
102
{ACAD_REACTORS
330
1C594
102
}
330
1F
100
AcDbEntity
  8
Blech
370
    15
100
AcDbLine
 10
376.209234362849
 20
251.4295865341693
 30
0.0
 11
371.7092345565641
 21
251.4295865341693
 31
0.0
  0
LINE
  5
1C29F
102
{ACAD_REACTORS
330
1C594
102
}
330
1F
100
AcDbEntity
  8
Blech
370
    15
100
AcDbLine
 10
370.2092343106949
 20
227.9295873388321
 30
0.0
 11
367.709233900913
 21
227.9295873388321
 31
0.0
  0
LINE
  5
1C2A0
102
{ACAD_REACTORS
330
1C594
102
}
330
1F
100
AcDbEntity
  8
Blech
370
    15
100
AcDbLine
 10
367.709233900913
 20
223.7395857020885
 30
0.0
 11
370.2092343106949
 21
223.7395857020885
 31
0.0
  0
LINE
  5
1C2A1
102
{ACAD_REACTORS
330
1C594
102
}
330
1F
100
AcDbEntity
  8
Blech
370
    15
100
AcDbLine
 10
370.2092343106949
 20
162.9295878603727
 30
0.0
 11
367.709233900913
 21
162.9295878603727
 31
0.0
  0
LINE
  5
1C2A2
102
{ACAD_REACTORS
330
1C594
102
}
330
1F
100
AcDbEntity
  8
Blech
370
    15
100
AcDbLine
 10
367.709233900913
 20
158.7395871549517
 30
0.0
 11
370.2092343106949
 21
158.7395871549517
 31
0.0
  0
LINE
  5
1C2A3
102
{ACAD_REACTORS
330
1C594
102
}
330
1F
100
AcDbEntity
  8
Blech
370
    15
100
AcDbLine
 10
369.9885238990271
 20
168.6602117053837
 30
0.0
 11
369.9885238990271
 21
168.6345872960657
 31
0.0
  0
LINE
  5
1C2A4
102
{ACAD_REACTORS
330
1C594
102
}
330
1F
100
AcDbEntity
  8
Blech
370
    15
100
AcDbLine
 10
369.9885238990271
 20
171.0345874100596
 30
0.0
 11
369.9885238990271
 21
168.6602117053837
 31
0.0
  0
LINE
  5
1C2A5
102
{ACAD_REACTORS
330
1C594
102
}
330
1F
100
AcDbEntity
  8
Blech
370
    15
100
AcDbLine
 10
369.7885237731123
 20
168.8345874219805
 30
0.0
 11
369.7885237731123
 21
170.8345875169754
 31
0.0
  0
LINE
  5
1C2A6
102
{ACAD_REACTORS
330
1C594
102
}
330
1F
100
AcDbEntity
  8
Blech
370
    15
100
AcDbLine
 10
369.9885238990271
 20
248.2277367755443
 30
0.0
 11
369.9885238990271
 21
248.1345896169216
 31
0.0
  0
LINE
  5
1C2A7
102
{ACAD_REACTORS
330
1C594
102
}
330
1F
100
AcDbEntity
  8
Blech
370
    15
100
AcDbLine
 10
369.9885238990271
 20
250.5345855399639
 30
0.0
 11
369.9885238990271
 21
248.2277367755443
 31
0.0
  0
LINE
  5
1C2A8
102
{ACAD_REACTORS
330
1C594
102
}
330
1F
100
AcDbEntity
  8
Blech
370
    15
100
AcDbLine
 10
369.7885237731123
 20
248.4122131511241
 30
0.0
 11
369.7885237731123
 21
250.3345896050006
 31
0.0
  0
LINE
  5
1C2A9
102
{ACAD_REACTORS
330
1C594
102
}
330
1F
100
AcDbEntity
  8
Blech
370
    15
100
AcDbLine
 10
369.7885237731123
 20
248.3345855518848
 30
0.0
 11
369.7885237731123
 21
248.4122131511241
 31
0.0
  0
LINE
  5
1C2AA
102
{ACAD_REACTORS
330
1C594
102
}
330
1F
100
AcDbEntity
  8
Blech
370
    15
100
AcDbLine
 10
371.3385234683835
 20
265.8845846101314
 30
0.0
 11
371.3385234683835
 21
263.4845886870891
 31
0.0
  0
LINE
  5
1C2AB
102
{ACAD_REACTORS
330
1C594
102
}
330
1F
100
AcDbEntity
  8
Blech
370
    15
100
AcDbLine
 10
371.13852380813
 20
265.6666700288326
 30
0.0
 11
371.13852380813
 21
265.6845886751682
 31
0.0
  0
LINE
  5
1C2AC
102
{ACAD_REACTORS
330
1C594
102
}
330
1F
100
AcDbEntity
  8
Blech
370
    15
100
AcDbLine
 10
371.13852380813
 20
263.6845846220523
 30
0.0
 11
371.13852380813
 21
265.6666700288326
 31
0.0
  0
LINE
  5
1C2AD
102
{ACAD_REACTORS
330
1C594
102
}
330
1F
100
AcDbEntity
  8
Blech
370
    15
100
AcDbLine
 10
371.3385234683835
 20
82.70095181908908
 30
0.0
 11
371.3385234683835
 21
80.48459035601917
 31
0.0
  0
LINE
  5
1C2AE
102
{ACAD_REACTORS
330
1C594
102
}
330
1F
100
AcDbEntity
  8
Blech
370
    15
100
AcDbLine
 10
371.3385234683835
 20
82.88458627906147
 30
0.0
 11
371.3385234683835
 21
82.70095181908908
 31
0.0
  0
LINE
  5
1C2AF
102
{ACAD_REACTORS
330
1C594
102
}
330
1F
100
AcDbEntity
  8
Blech
370
    15
100
AcDbLine
 10
371.13852380813
 20
82.53155541863742
 30
0.0
 11
371.13852380813
 21
82.68459034409824
 31
0.0
  0
LINE
  5
1C2B0
102
{ACAD_REACTORS
330
1C594
102
}
330
1F
100
AcDbEntity
  8
Blech
370
    15
100
AcDbLine
 10
371.13852380813
 20
80.6845862909824
 30
0.0
 11
371.13852380813
 21
82.53155541863742
 31
0.0
  0
LINE
  5
1C2B1
102
{ACAD_REACTORS
330
1C594
102
}
330
1F
100
AcDbEntity
  8
Blech
370
    15
100
AcDbLine
 10
363.9948046863162
 20
160.7197279601962
 30
0.0
 11
363.9948046863162
 21
162.0388001694948
 31
0.0
  0
LINE
  5
1C2B2
102
{ACAD_REACTORS
330
1C594
102
}
330
1F
100
AcDbEntity
  8
Blech
370
    15
100
AcDbLine
 10
363.9948046863162
 20
159.6303748458296
 30
0.0
 11
363.9948046863162
 21
160.7197279601962
 31
0.0
  0
LINE
  5
1C2B3
102
{ACAD_REACTORS
330
1C594
102
}
330
1F
100
AcDbEntity
  8
Blech
370
    15
100
AcDbLine
 10
361.3948053777301
 20
224.3314635499984
 30
0.0
 11
361.3948053777301
 21
226.7398898049861
 31
0.0
  0
LINE
  5
1C2B4
102
{ACAD_REACTORS
330
1C594
102
}
330
1F
100
AcDbEntity
  8
Blech
370
    15
100
AcDbLine
 10
363.9948046863162
 20
224.6303733929664
 30
0.0
 11
363.9948046863162
 21
227.0387996479541
 31
0.0
  0
LWPOLYLINE
  5
1C2B5
102
{ACAD_REACTORS
330
1C594
102
}
330
1F
100
AcDbEntity
  8
Blech
370
    15
100
AcDbPolyline
 90
        9
 70
   128
 43
0.0
 10
364.0136276468718
 20
225.1858588799507
 10
364.0062944129193
 20
225.1879189654857
 10
363.9994892388665
 20
225.2026189610035
 10
363.9965071439826
 20
225.226129268077
 10
363.9971665203655
 20
225.2549965425998
 10
364.0011292979204
 20
225.2863299593002
 10
364.0080993160689
 20
225.3176223978073
 10
364.017749680587
 20
225.3462065502674
 10
364.0259387999856
 20
225.3631603464157
  0
LWPOLYLINE
  5
1C2B6
102
{ACAD_REACTORS
330
1C594
102
}
330
1F
100
AcDbEntity
  8
Blech
370
    15
100
AcDbPolyline
 90
        9
 70
   128
 43
0.0
 10
364.0259387999856
 20
226.3060164197952
 10
364.0177198782646
 20
226.3230409964592
 10
364.0072723016226
 20
226.3546202823192
 10
364.0000536203468
 20
226.3894070431263
 10
363.9966524303043
 20
226.422267828849
 10
363.9969253078186
 20
226.4498796805412
 10
364.0005388394081
 20
226.4702942713768
 10
364.007190345236
 20
226.4821220680744
 10
364.0135941192591
 20
226.48344082084
  0
LINE
  5
1C2B7
102
{ACAD_REACTORS
330
1C594
102
}
330
1F
100
AcDbEntity
  8
Blech
370
    15
100
AcDbLine
 10
364.1592343434775
 20
141.5845890089542
 30
0.0
 11
364.1903153717601
 21
141.5845890089542
 31
0.0
  0
LINE
  5
1C2B8
102
{ACAD_REACTORS
330
1C594
102
}
330
1F
100
AcDbEntity
  8
Blech
370
    15
100
AcDbLine
 10
364.1592343434775
 20
142.5845873102218
 30
0.0
 11
364.1592343434775
 21
141.5845890089542
 31
0.0
  0
LINE
  5
1C2B9
102
{ACAD_REACTORS
330
1C594
102
}
330
1F
100
AcDbEntity
  8
Blech
370
    15
100
AcDbLine
 10
364.181234045335
 20
142.5845873102218
 30
0.0
 11
364.1592343434775
 21
142.5845873102218
 31
0.0
  0
LINE
  5
1C2BA
102
{ACAD_REACTORS
330
1C594
102
}
330
1F
100
AcDbEntity
  8
Blech
370
    15
100
AcDbLine
 10
364.1092344284141
 20
142.5845873102218
 30
0.0
 11
364.1092344284141
 21
143.6503071829349
 31
0.0
  0
LINE
  5
1C2BB
102
{ACAD_REACTORS
330
1C594
102
}
330
1F
100
AcDbEntity
  8
Blech
370
    15
100
AcDbLine
 10
364.1592343434775
 20
142.5845873102218
 30
0.0
 11
364.1092344284141
 21
142.5845873102218
 31
0.0
  0
LINE
  5
1C2BC
102
{ACAD_REACTORS
330
1C594
102
}
330
1F
100
AcDbEntity
  8
Blech
370
    15
100
AcDbLine
 10
357.6177279561841
 20
248.2345838591129
 30
0.0
 11
360.609234786042
 21
248.2345838591129
 31
0.0
  0
LINE
  5
1C2BD
102
{ACAD_REACTORS
330
1C594
102
}
330
1F
100
AcDbEntity
  8
Blech
370
    15
100
AcDbLine
 10
357.6177279561841
 20
244.3345848962337
 30
0.0
 11
360.609234786042
 21
244.3345848962337
 31
0.0
  0
LINE
  5
1C2BE
102
{ACAD_REACTORS
330
1C594
102
}
330
1F
100
AcDbEntity
  8
Blech
370
    15
100
AcDbLine
 10
360.609234786042
 20
249.3345875784427
 30
0.0
 11
357.6177279561841
 21
249.3345875784427
 31
0.0
  0
LINE
  5
1C2BF
102
{ACAD_REACTORS
330
1C594
102
}
330
1F
100
AcDbEntity
  8
Blech
370
    15
100
AcDbLine
 10
360.609234786042
 20
245.4345886155635
 30
0.0
 11
357.6177279561841
 21
245.4345886155635
 31
0.0
  0
LINE
  5
1C2C0
102
{ACAD_REACTORS
330
1C594
102
}
330
1F
100
AcDbEntity
  8
Blech
370
    15
100
AcDbLine
 10
357.6177279561841
 20
248.2345838591129
 30
0.0
 11
357.6177279561841
 21
249.3345875784427
 31
0.0
  0
LINE
  5
1C2C1
102
{ACAD_REACTORS
330
1C594
102
}
330
1F
100
AcDbEntity
  8
Blech
370
    15
100
AcDbLine
 10
357.6177279561841
 20
244.3345848962337
 30
0.0
 11
357.6177279561841
 21
245.4345886155635
 31
0.0
  0
LINE
  5
1C2C2
102
{ACAD_REACTORS
330
1C594
102
}
330
1F
100
AcDbEntity
  8
Blech
370
    15
100
AcDbLine
 10
360.367727941283
 20
246.2811086818248
 30
0.0
 11
360.367727941283
 21
247.3880712434322
 31
0.0
  0
LINE
  5
1C2C3
102
{ACAD_REACTORS
330
1C594
102
}
330
1F
100
AcDbEntity
  8
Blech
370
    15
100
AcDbLine
 10
360.367727941283
 20
246.2811086818248
 30
0.0
 11
360.609234786042
 21
246.3107619926006
 31
0.0
  0
LINE
  5
1C2C4
102
{ACAD_REACTORS
330
1C594
102
}
330
1F
100
AcDbEntity
  8
Blech
370
    15
100
AcDbLine
 10
360.609234786042
 20
247.3584179326564
 30
0.0
 11
360.367727941283
 21
247.3880712434322
 31
0.0
  0
LINE
  5
1C2C5
102
{ACAD_REACTORS
330
1C594
102
}
330
1F
100
AcDbEntity
  8
Blech
370
    15
100
AcDbLine
 10
359.654016336807
 20
247.6345886036426
 30
0.0
 11
359.7177281141364
 21
247.6345886036426
 31
0.0
  0
LINE
  5
1C2C6
102
{ACAD_REACTORS
330
1C594
102
}
330
1F
100
AcDbEntity
  8
Blech
370
    15
100
AcDbLine
 10
359.654016336807
 20
247.6345886036426
 30
0.0
 11
359.654016336807
 21
248.1345896169216
 31
0.0
  0
LINE
  5
1C2C7
102
{ACAD_REACTORS
330
1C594
102
}
330
1F
100
AcDbEntity
  8
Blech
370
    15
100
AcDbLine
 10
359.654016336807
 20
248.1345896169216
 30
0.0
 11
359.7177281141364
 21
248.1345896169216
 31
0.0
  0
LINE
  5
1C2C8
102
{ACAD_REACTORS
330
1C594
102
}
330
1F
100
AcDbEntity
  8
Blech
370
    15
100
AcDbLine
 10
359.7177281141364
 20
248.1345896169216
 30
0.0
 11
359.7177281141364
 21
247.6345886036426
 31
0.0
  0
LINE
  5
1C2C9
102
{ACAD_REACTORS
330
1C594
102
}
330
1F
100
AcDbEntity
  8
Blech
370
    15
100
AcDbLine
 10
359.7177281141364
 20
245.5345903083355
 30
0.0
 11
359.654016336807
 21
245.5345903083355
 31
0.0
  0
LINE
  5
1C2CA
102
{ACAD_REACTORS
330
1C594
102
}
330
1F
100
AcDbEntity
  8
Blech
370
    15
100
AcDbLine
 10
359.654016336807
 20
246.0345838710338
 30
0.0
 11
359.654016336807
 21
245.5345903083355
 31
0.0
  0
LINE
  5
1C2CB
102
{ACAD_REACTORS
330
1C594
102
}
330
1F
100
AcDbEntity
  8
Blech
370
    15
100
AcDbLine
 10
359.7177281141364
 20
246.0345838710338
 30
0.0
 11
359.7177281141364
 21
245.5345903083355
 31
0.0
  0
LINE
  5
1C2CC
102
{ACAD_REACTORS
330
1C594
102
}
330
1F
100
AcDbEntity
  8
Blech
370
    15
100
AcDbLine
 10
359.7177281141364
 20
246.0345838710338
 30
0.0
 11
359.654016336807
 21
246.0345838710338
 31
0.0
  0
LINE
  5
1C2CD
102
{ACAD_REACTORS
330
1C594
102
}
330
1F
100
AcDbEntity
  8
Blech
370
    15
100
AcDbLine
 10
359.654016336807
 20
245.5345903083355
 30
0.0
 11
359.1177272707307
 21
245.5345903083355
 31
0.0
  0
LINE
  5
1C2CE
102
{ACAD_REACTORS
330
1C594
102
}
330
1F
100
AcDbEntity
  8
Blech
370
    15
100
AcDbLine
 10
359.1177272707307
 20
246.0345838710338
 30
0.0
 11
359.1177272707307
 21
245.5345903083355
 31
0.0
  0
LINE
  5
1C2CF
102
{ACAD_REACTORS
330
1C594
102
}
330
1F
100
AcDbEntity
  8
Blech
370
    15
100
AcDbLine
 10
359.654016336807
 20
246.0345838710338
 30
0.0
 11
359.1177272707307
 21
246.0345838710338
 31
0.0
  0
LINE
  5
1C2D0
102
{ACAD_REACTORS
330
1C594
102
}
330
1F
100
AcDbEntity
  8
Blech
370
    15
100
AcDbLine
 10
359.1177272707307
 20
247.6345886036426
 30
0.0
 11
359.1177272707307
 21
248.1345896169216
 31
0.0
  0
LINE
  5
1C2D1
102
{ACAD_REACTORS
330
1C594
102
}
330
1F
100
AcDbEntity
  8
Blech
370
    15
100
AcDbLine
 10
359.1177272707307
 20
247.6345886036426
 30
0.0
 11
359.654016336807
 21
247.6345886036426
 31
0.0
  0
LINE
  5
1C2D2
102
{ACAD_REACTORS
330
1C594
102
}
330
1F
100
AcDbEntity
  8
Blech
370
    15
100
AcDbLine
 10
359.1177272707307
 20
248.1345896169216
 30
0.0
 11
359.654016336807
 21
248.1345896169216
 31
0.0
  0
LINE
  5
1C2D3
102
{ACAD_REACTORS
330
1C594
102
}
330
1F
100
AcDbEntity
  8
Blech
370
    15
100
AcDbLine
 10
359.5677274376237
 20
247.509590212968
 30
0.0
 11
359.417726761111
 21
247.509590212968
 31
0.0
  0
LINE
  5
1C2D4
102
{ACAD_REACTORS
330
1C594
102
}
330
1F
100
AcDbEntity
  8
Blech
370
    15
100
AcDbLine
 10
359.417726761111
 20
247.6345886036426
 30
0.0
 11
359.417726761111
 21
247.509590212968
 31
0.0
  0
LINE
  5
1C2D5
102
{ACAD_REACTORS
330
1C594
102
}
330
1F
100
AcDbEntity
  8
Blech
370
    15
100
AcDbLine
 10
359.417726761111
 20
248.2345838591129
 30
0.0
 11
359.417726761111
 21
248.1345896169216
 31
0.0
  0
LINE
  5
1C2D6
102
{ACAD_REACTORS
330
1C594
102
}
330
1F
100
AcDbEntity
  8
Blech
370
    15
100
AcDbLine
 10
359.417726761111
 20
245.5345903083355
 30
0.0
 11
359.417726761111
 21
245.4345886155635
 31
0.0
  0
LINE
  5
1C2D7
102
{ACAD_REACTORS
330
1C594
102
}
330
1F
100
AcDbEntity
  8
Blech
370
    15
100
AcDbLine
 10
359.417726761111
 20
246.159589712289
 30
0.0
 11
359.417726761111
 21
246.0345838710338
 31
0.0
  0
LINE
  5
1C2D8
102
{ACAD_REACTORS
330
1C594
102
}
330
1F
100
AcDbEntity
  8
Blech
370
    15
100
AcDbLine
 10
359.417726761111
 20
246.159589712289
 30
0.0
 11
359.5677274376237
 21
246.159589712289
 31
0.0
  0
LINE
  5
1C2D9
102
{ACAD_REACTORS
330
1C594
102
}
330
1F
100
AcDbEntity
  8
Blech
370
    15
100
AcDbLine
 10
359.5677274376237
 20
246.159589712289
 30
0.0
 11
359.5677274376237
 21
247.509590212968
 31
0.0
  0
LINE
  5
1C2DA
102
{ACAD_REACTORS
330
1C594
102
}
330
1F
100
AcDbEntity
  8
Blech
370
    15
100
AcDbLine
 10
359.1177272707307
 20
248.1345896169216
 30
0.0
 11
359.1177272707307
 21
248.2345838591129
 31
0.0
  0
LINE
  5
1C2DB
102
{ACAD_REACTORS
330
1C594
102
}
330
1F
100
AcDbEntity
  8
Blech
370
    15
100
AcDbLine
 10
359.1177272707307
 20
245.4345886155635
 30
0.0
 11
359.1177272707307
 21
245.5345903083355
 31
0.0
  0
LINE
  5
1C2DC
102
{ACAD_REACTORS
330
1C594
102
}
330
1F
100
AcDbEntity
  8
Blech
370
    15
100
AcDbLine
 10
359.1177272707307
 20
246.159589712289
 30
0.0
 11
359.417726761111
 21
246.159589712289
 31
0.0
  0
LINE
  5
1C2DD
102
{ACAD_REACTORS
330
1C594
102
}
330
1F
100
AcDbEntity
  8
Blech
370
    15
100
AcDbLine
 10
359.1177272707307
 20
246.0345838710338
 30
0.0
 11
359.1177272707307
 21
246.159589712289
 31
0.0
  0
LINE
  5
1C2DE
102
{ACAD_REACTORS
330
1C594
102
}
330
1F
100
AcDbEntity
  8
Blech
370
    15
100
AcDbLine
 10
359.417726761111
 20
247.509590212968
 30
0.0
 11
359.1177272707307
 21
247.509590212968
 31
0.0
  0
LINE
  5
1C2DF
102
{ACAD_REACTORS
330
1C594
102
}
330
1F
100
AcDbEntity
  8
Blech
370
    15
100
AcDbLine
 10
359.1177272707307
 20
247.509590212968
 30
0.0
 11
359.1177272707307
 21
247.6345886036426
 31
0.0
  0
LINE
  5
1C2E0
102
{ACAD_REACTORS
330
1C594
102
}
330
1F
100
AcDbEntity
  8
Blech
370
    15
100
AcDbLine
 10
359.3177269309842
 20
247.4095885201961
 30
0.0
 11
358.8677267640912
 21
247.4095885201961
 31
0.0
  0
LINE
  5
1C2E1
102
{ACAD_REACTORS
330
1C594
102
}
330
1F
100
AcDbEntity
  8
Blech
370
    15
100
AcDbLine
 10
359.3177269309842
 20
246.2595839544803
 30
0.0
 11
359.3177269309842
 21
247.4095885201961
 31
0.0
  0
LINE
  5
1C2E2
102
{ACAD_REACTORS
330
1C594
102
}
330
1F
100
AcDbEntity
  8
Blech
370
    15
100
AcDbLine
 10
358.8677267640912
 20
246.2595839544803
 30
0.0
 11
359.3177269309842
 21
246.2595839544803
 31
0.0
  0
LINE
  5
1C2E3
102
{ACAD_REACTORS
330
1C594
102
}
330
1F
100
AcDbEntity
  8
Blech
370
    15
100
AcDbLine
 10
358.8677267640912
 20
246.2595839544803
 30
0.0
 11
358.8677267640912
 21
245.4345886155635
 31
0.0
  0
LINE
  5
1C2E4
102
{ACAD_REACTORS
330
1C594
102
}
330
1F
100
AcDbEntity
  8
Blech
370
    15
100
AcDbLine
 10
358.8677267640912
 20
248.2345838591129
 30
0.0
 11
358.8677267640912
 21
247.4095885201961
 31
0.0
  0
LINE
  5
1C2E5
102
{ACAD_REACTORS
330
1C594
102
}
330
1F
100
AcDbEntity
  8
Blech
370
    15
100
AcDbLine
 10
357.6177279561841
 20
245.4345886155635
 30
0.0
 11
357.6177279561841
 21
248.2345838591129
 31
0.0
  0
LINE
  5
1C2E6
102
{ACAD_REACTORS
330
1C594
102
}
330
1F
100
AcDbEntity
  8
Blech
370
    15
100
AcDbLine
 10
359.5677274376237
 20
246.2845881029636
 30
0.0
 11
359.3177269309842
 21
246.2845881029636
 31
0.0
  0
LINE
  5
1C2E7
102
{ACAD_REACTORS
330
1C594
102
}
330
1F
100
AcDbEntity
  8
Blech
370
    15
100
AcDbLine
 10
359.1177272707307
 20
245.8845887824565
 30
0.0
 11
358.8677267640912
 21
245.8845887824565
 31
0.0
  0
LINE
  5
1C2E8
102
{ACAD_REACTORS
330
1C594
102
}
330
1F
100
AcDbEntity
  8
Blech
370
    15
100
AcDbLine
 10
359.1177272707307
 20
247.7845911428005
 30
0.0
 11
358.8677267640912
 21
247.7845911428005
 31
0.0
  0
LINE
  5
1C2E9
102
{ACAD_REACTORS
330
1C594
102
}
330
1F
100
AcDbEntity
  8
Blech
370
    15
100
AcDbLine
 10
359.5677274376237
 20
247.3845843717128
 30
0.0
 11
359.3177269309842
 21
247.3845843717128
 31
0.0
  0
LINE
  5
1C2EA
102
{ACAD_REACTORS
330
1C594
102
}
330
1F
100
AcDbEntity
  8
Blech
370
    15
100
AcDbLine
 10
360.8177271768534
 20
248.7595890208751
 30
0.0
 11
362.7177276745522
 21
248.8345865651638
 31
0.0
  0
LINE
  5
1C2EB
102
{ACAD_REACTORS
330
1C594
102
}
330
1F
100
AcDbEntity
  8
Blech
370
    15
100
AcDbLine
 10
362.7177276745522
 20
248.8345865651638
 30
0.0
 11
362.7177276745522
 21
249.3345875784427
 31
0.0
  0
LINE
  5
1C2EC
102
{ACAD_REACTORS
330
1C594
102
}
330
1F
100
AcDbEntity
  8
Blech
370
    15
100
AcDbLine
 10
362.7177276745522
 20
249.3345875784427
 30
0.0
 11
364.1092344284141
 21
249.3345875784427
 31
0.0
  0
LINE
  5
1C2ED
102
{ACAD_REACTORS
330
1C594
102
}
330
1F
100
AcDbEntity
  8
Blech
370
    15
100
AcDbLine
 10
364.8177278325045
 20
246.734580819276
 30
0.0
 11
364.8177278325045
 21
246.4345906421215
 31
0.0
  0
LINE
  5
1C2EE
102
{ACAD_REACTORS
330
1C594
102
}
330
1F
100
AcDbEntity
  8
Blech
370
    15
100
AcDbLine
 10
364.1092344284141
 20
244.3345848962337
 30
0.0
 11
362.7177276745522
 21
244.3345848962337
 31
0.0
  0
LINE
  5
1C2EF
102
{ACAD_REACTORS
330
1C594
102
}
330
1F
100
AcDbEntity
  8
Blech
370
    15
100
AcDbLine
 10
362.7177276745522
 20
244.3345848962337
 30
0.0
 11
362.7177276745522
 21
244.8345859095127
 31
0.0
  0
LINE
  5
1C2F0
102
{ACAD_REACTORS
330
1C594
102
}
330
1F
100
AcDbEntity
  8
Blech
370
    15
100
AcDbLine
 10
362.7177276745522
 20
244.8345859095127
 30
0.0
 11
360.8177271768534
 21
244.9095909043819
 31
0.0
  0
LINE
  5
1C2F1
102
{ACAD_REACTORS
330
1C594
102
}
330
1F
100
AcDbEntity
  8
Blech
370
    15
100
AcDbLine
 10
360.8177271768534
 20
244.9095909043819
 30
0.0
 11
360.8177271768534
 21
248.7595890208751
 31
0.0
  0
LINE
  5
1C2F2
102
{ACAD_REACTORS
330
1C594
102
}
330
1F
100
AcDbEntity
  8
Blech
370
    15
100
AcDbLine
 10
361.6092340186322
 20
175.8295873671443
 30
0.0
 11
361.6092340186322
 21
176.8345875691295
 31
0.0
  0
ARC
  5
1C2F3
102
{ACAD_REACTORS
330
1C594
102
}
330
1F
100
AcDbEntity
  8
Blech
370
    15
100
AcDbCircle
 10
362.109234362849
 20
175.8295874830532
 30
0.0
 40
0.4999999999998863
100
AcDbArc
 50
180.0
 51
270.0
  0
LINE
  5
1C2F4
102
{ACAD_REACTORS
330
1C594
102
}
330
1F
100
AcDbEntity
  8
Blech
370
    15
100
AcDbLine
 10
357.61736474038
 20
234.8345879956752
 30
0.0
 11
360.609234786042
 21
234.8345879956752
 31
0.0
  0
LINE
  5
1C2F5
102
{ACAD_REACTORS
330
1C594
102
}
330
1F
100
AcDbEntity
  8
Blech
370
    15
100
AcDbLine
 10
357.61736474038
 20
234.8345879956752
 30
0.0
 11
357.61736474038
 21
235.9345842644245
 31
0.0
  0
LINE
  5
1C2F6
102
{ACAD_REACTORS
330
1C594
102
}
330
1F
100
AcDbEntity
  8
Blech
370
    15
100
AcDbLine
 10
360.609234786042
 20
235.9345842644245
 30
0.0
 11
357.61736474038
 21
235.9345842644245
 31
0.0
  0
LINE
  5
1C2F7
102
{ACAD_REACTORS
330
1C594
102
}
330
1F
100
AcDbEntity
  8
Blech
370
    15
100
AcDbLine
 10
357.61736474038
 20
238.7345869585544
 30
0.0
 11
360.609234786042
 21
238.7345869585544
 31
0.0
  0
LINE
  5
1C2F8
102
{ACAD_REACTORS
330
1C594
102
}
330
1F
100
AcDbEntity
  8
Blech
370
    15
100
AcDbLine
 10
357.61736474038
 20
238.7345869585544
 30
0.0
 11
357.61736474038
 21
239.8345906778843
 31
0.0
  0
LINE
  5
1C2F9
102
{ACAD_REACTORS
330
1C594
102
}
330
1F
100
AcDbEntity
  8
Blech
370
    15
100
AcDbLine
 10
360.609234786042
 20
239.8345906778843
 30
0.0
 11
357.61736474038
 21
239.8345906778843
 31
0.0
  0
LINE
  5
1C2FA
102
{ACAD_REACTORS
330
1C594
102
}
330
1F
100
AcDbEntity
  8
Blech
370
    15
100
AcDbLine
 10
360.3673647254789
 20
236.7811043306858
 30
0.0
 11
360.3673647254789
 21
237.8880668922931
 31
0.0
  0
LINE
  5
1C2FB
102
{ACAD_REACTORS
330
1C594
102
}
330
1F
100
AcDbEntity
  8
Blech
370
    15
100
AcDbLine
 10
360.609234786042
 20
237.8583688780338
 30
0.0
 11
360.3673647254789
 21
237.8880668922931
 31
0.0
  0
LINE
  5
1C2FC
102
{ACAD_REACTORS
330
1C594
102
}
330
1F
100
AcDbEntity
  8
Blech
370
    15
100
AcDbLine
 10
360.3673647254789
 20
236.7811043306858
 30
0.0
 11
360.609234786042
 21
236.8108023449451
 31
0.0
  0
LINE
  5
1C2FD
102
{ACAD_REACTORS
330
1C594
102
}
330
1F
100
AcDbEntity
  8
Blech
370
    15
100
AcDbLine
 10
359.6536531210029
 20
238.1345842525035
 30
0.0
 11
359.6536531210029
 21
238.6345852657825
 31
0.0
  0
LINE
  5
1C2FE
102
{ACAD_REACTORS
330
1C594
102
}
330
1F
100
AcDbEntity
  8
Blech
370
    15
100
AcDbLine
 10
359.7173648983323
 20
238.6345852657825
 30
0.0
 11
359.7173648983323
 21
238.1345842525035
 31
0.0
  0
LINE
  5
1C2FF
102
{ACAD_REACTORS
330
1C594
102
}
330
1F
100
AcDbEntity
  8
Blech
370
    15
100
AcDbLine
 10
359.6536531210029
 20
238.1345842525035
 30
0.0
 11
359.7173648983323
 21
238.1345842525035
 31
0.0
  0
LINE
  5
1C300
102
{ACAD_REACTORS
330
1C594
102
}
330
1F
100
AcDbEntity
  8
Blech
370
    15
100
AcDbLine
 10
359.6536531210029
 20
238.6345852657825
 30
0.0
 11
359.7173648983323
 21
238.6345852657825
 31
0.0
  0
LINE
  5
1C301
102
{ACAD_REACTORS
330
1C594
102
}
330
1F
100
AcDbEntity
  8
Blech
370
    15
100
AcDbLine
 10
359.1173640549266
 20
238.1345842525035
 30
0.0
 11
359.1173640549266
 21
238.6345852657825
 31
0.0
  0
LINE
  5
1C302
102
{ACAD_REACTORS
330
1C594
102
}
330
1F
100
AcDbEntity
  8
Blech
370
    15
100
AcDbLine
 10
359.1173640549266
 20
238.1345842525035
 30
0.0
 11
359.6536531210029
 21
238.1345842525035
 31
0.0
  0
LINE
  5
1C303
102
{ACAD_REACTORS
330
1C594
102
}
330
1F
100
AcDbEntity
  8
Blech
370
    15
100
AcDbLine
 10
359.1173640549266
 20
238.6345852657825
 30
0.0
 11
359.6536531210029
 21
238.6345852657825
 31
0.0
  0
LINE
  5
1C304
102
{ACAD_REACTORS
330
1C594
102
}
330
1F
100
AcDbEntity
  8
Blech
370
    15
100
AcDbLine
 10
359.7173648983323
 20
236.5345869704753
 30
0.0
 11
359.6536531210029
 21
236.5345869704753
 31
0.0
  0
LINE
  5
1C305
102
{ACAD_REACTORS
330
1C594
102
}
330
1F
100
AcDbEntity
  8
Blech
370
    15
100
AcDbLine
 10
359.7173648983323
 20
236.5345869704753
 30
0.0
 11
359.7173648983323
 21
236.0345859571964
 31
0.0
  0
LINE
  5
1C306
102
{ACAD_REACTORS
330
1C594
102
}
330
1F
100
AcDbEntity
  8
Blech
370
    15
100
AcDbLine
 10
359.7173648983323
 20
236.0345859571964
 30
0.0
 11
359.6536531210029
 21
236.0345859571964
 31
0.0
  0
LINE
  5
1C307
102
{ACAD_REACTORS
330
1C594
102
}
330
1F
100
AcDbEntity
  8
Blech
370
    15
100
AcDbLine
 10
359.6536531210029
 20
236.5345869704753
 30
0.0
 11
359.6536531210029
 21
236.0345859571964
 31
0.0
  0
LINE
  5
1C308
102
{ACAD_REACTORS
330
1C594
102
}
330
1F
100
AcDbEntity
  8
Blech
370
    15
100
AcDbLine
 10
359.6536531210029
 20
236.0345859571964
 30
0.0
 11
359.1173640549266
 21
236.0345859571964
 31
0.0
  0
LINE
  5
1C309
102
{ACAD_REACTORS
330
1C594
102
}
330
1F
100
AcDbEntity
  8
Blech
370
    15
100
AcDbLine
 10
359.1173640549266
 20
236.5345869704753
 30
0.0
 11
359.1173640549266
 21
236.0345859571964
 31
0.0
  0
LINE
  5
1C30A
102
{ACAD_REACTORS
330
1C594
102
}
330
1F
100
AcDbEntity
  8
Blech
370
    15
100
AcDbLine
 10
359.6536531210029
 20
236.5345869704753
 30
0.0
 11
359.1173640549266
 21
236.5345869704753
 31
0.0
  0
LINE
  5
1C30B
102
{ACAD_REACTORS
330
1C594
102
}
330
1F
100
AcDbEntity
  8
Blech
370
    15
100
AcDbLine
 10
359.417365407952
 20
238.1345842525035
 30
0.0
 11
359.417365407952
 21
238.009585861829
 31
0.0
  0
LINE
  5
1C30C
102
{ACAD_REACTORS
330
1C594
102
}
330
1F
100
AcDbEntity
  8
Blech
370
    15
100
AcDbLine
 10
359.1173640549266
 20
238.009585861829
 30
0.0
 11
359.1173640549266
 21
238.1345842525035
 31
0.0
  0
LINE
  5
1C30D
102
{ACAD_REACTORS
330
1C594
102
}
330
1F
100
AcDbEntity
  8
Blech
370
    15
100
AcDbLine
 10
359.417365407952
 20
238.009585861829
 30
0.0
 11
359.1173640549266
 21
238.009585861829
 31
0.0
  0
LINE
  5
1C30E
102
{ACAD_REACTORS
330
1C594
102
}
330
1F
100
AcDbEntity
  8
Blech
370
    15
100
AcDbLine
 10
359.417365407952
 20
236.6595853611499
 30
0.0
 11
359.417365407952
 21
236.5345869704753
 31
0.0
  0
LINE
  5
1C30F
102
{ACAD_REACTORS
330
1C594
102
}
330
1F
100
AcDbEntity
  8
Blech
370
    15
100
AcDbLine
 10
359.417365407952
 20
236.6595853611499
 30
0.0
 11
359.5673642218196
 21
236.6595853611499
 31
0.0
  0
LINE
  5
1C310
102
{ACAD_REACTORS
330
1C594
102
}
330
1F
100
AcDbEntity
  8
Blech
370
    15
100
AcDbLine
 10
359.417365407952
 20
238.7345869585544
 30
0.0
 11
359.417365407952
 21
238.6345852657825
 31
0.0
  0
LINE
  5
1C311
102
{ACAD_REACTORS
330
1C594
102
}
330
1F
100
AcDbEntity
  8
Blech
370
    15
100
AcDbLine
 10
359.417365407952
 20
236.0345859571964
 30
0.0
 11
359.417365407952
 21
235.9345842644245
 31
0.0
  0
LINE
  5
1C312
102
{ACAD_REACTORS
330
1C594
102
}
330
1F
100
AcDbEntity
  8
Blech
370
    15
100
AcDbLine
 10
359.5673642218196
 20
238.009585861829
 30
0.0
 11
359.417365407952
 21
238.009585861829
 31
0.0
  0
LINE
  5
1C313
102
{ACAD_REACTORS
330
1C594
102
}
330
1F
100
AcDbEntity
  8
Blech
370
    15
100
AcDbLine
 10
359.5673642218196
 20
236.6595853611499
 30
0.0
 11
359.5673642218196
 21
238.009585861829
 31
0.0
  0
LINE
  5
1C314
102
{ACAD_REACTORS
330
1C594
102
}
330
1F
100
AcDbEntity
  8
Blech
370
    15
100
AcDbLine
 10
359.1173640549266
 20
238.6345852657825
 30
0.0
 11
359.1173640549266
 21
238.7345869585544
 31
0.0
  0
LINE
  5
1C315
102
{ACAD_REACTORS
330
1C594
102
}
330
1F
100
AcDbEntity
  8
Blech
370
    15
100
AcDbLine
 10
359.1173640549266
 20
235.9345842644245
 30
0.0
 11
359.1173640549266
 21
236.0345859571964
 31
0.0
  0
LINE
  5
1C316
102
{ACAD_REACTORS
330
1C594
102
}
330
1F
100
AcDbEntity
  8
Blech
370
    15
100
AcDbLine
 10
359.1173640549266
 20
236.6595853611499
 30
0.0
 11
359.417365407952
 21
236.6595853611499
 31
0.0
  0
LINE
  5
1C317
102
{ACAD_REACTORS
330
1C594
102
}
330
1F
100
AcDbEntity
  8
Blech
370
    15
100
AcDbLine
 10
359.1173640549266
 20
236.5345869704753
 30
0.0
 11
359.1173640549266
 21
236.6595853611499
 31
0.0
  0
LINE
  5
1C318
102
{ACAD_REACTORS
330
1C594
102
}
330
1F
100
AcDbEntity
  8
Blech
370
    15
100
AcDbLine
 10
359.3173637151801
 20
237.909584169057
 30
0.0
 11
358.8673654109323
 21
237.909584169057
 31
0.0
  0
LINE
  5
1C319
102
{ACAD_REACTORS
330
1C594
102
}
330
1F
100
AcDbEntity
  8
Blech
370
    15
100
AcDbLine
 10
359.3173637151801
 20
236.7595870539218
 30
0.0
 11
359.3173637151801
 21
237.909584169057
 31
0.0
  0
LINE
  5
1C31A
102
{ACAD_REACTORS
330
1C594
102
}
330
1F
100
AcDbEntity
  8
Blech
370
    15
100
AcDbLine
 10
358.8673654109323
 20
236.7595870539218
 30
0.0
 11
359.3173637151801
 21
236.7595870539218
 31
0.0
  0
LINE
  5
1C31B
102
{ACAD_REACTORS
330
1C594
102
}
330
1F
100
AcDbEntity
  8
Blech
370
    15
100
AcDbLine
 10
358.8673654109323
 20
236.7595870539218
 30
0.0
 11
358.8673654109323
 21
235.9345842644245
 31
0.0
  0
LINE
  5
1C31C
102
{ACAD_REACTORS
330
1C594
102
}
330
1F
100
AcDbEntity
  8
Blech
370
    15
100
AcDbLine
 10
358.8673654109323
 20
238.7345869585544
 30
0.0
 11
358.8673654109323
 21
237.909584169057
 31
0.0
  0
LINE
  5
1C31D
102
{ACAD_REACTORS
330
1C594
102
}
330
1F
100
AcDbEntity
  8
Blech
370
    15
100
AcDbLine
 10
357.61736474038
 20
235.9345842644245
 30
0.0
 11
357.61736474038
 21
238.7345869585544
 31
0.0
  0
LINE
  5
1C31E
102
{ACAD_REACTORS
330
1C594
102
}
330
1F
100
AcDbEntity
  8
Blech
370
    15
100
AcDbLine
 10
359.5673642218196
 20
236.7845912024051
 30
0.0
 11
359.3173637151801
 21
236.7845912024051
 31
0.0
  0
LINE
  5
1C31F
102
{ACAD_REACTORS
330
1C594
102
}
330
1F
100
AcDbEntity
  8
Blech
370
    15
100
AcDbLine
 10
359.1173640549266
 20
236.3845844313175
 30
0.0
 11
358.8673654109323
 21
236.3845844313175
 31
0.0
  0
LINE
  5
1C320
102
{ACAD_REACTORS
330
1C594
102
}
330
1F
100
AcDbEntity
  8
Blech
370
    15
100
AcDbLine
 10
359.5673642218196
 20
237.8845874711544
 30
0.0
 11
359.3173637151801
 21
237.8845874711544
 31
0.0
  0
LINE
  5
1C321
102
{ACAD_REACTORS
330
1C594
102
}
330
1F
100
AcDbEntity
  8
Blech
370
    15
100
AcDbLine
 10
359.1173640549266
 20
238.2845867916614
 30
0.0
 11
358.8673654109323
 21
238.2845867916614
 31
0.0
  0
LINE
  5
1C322
102
{ACAD_REACTORS
330
1C594
102
}
330
1F
100
AcDbEntity
  8
Blech
370
    15
100
AcDbLine
 10
357.61736474038
 20
151.8345874294311
 30
0.0
 11
360.609234786042
 21
151.8345874294311
 31
0.0
  0
LINE
  5
1C323
102
{ACAD_REACTORS
330
1C594
102
}
330
1F
100
AcDbEntity
  8
Blech
370
    15
100
AcDbLine
 10
360.609234786042
 20
152.9345874234706
 30
0.0
 11
357.61736474038
 21
152.9345874234706
 31
0.0
  0
LINE
  5
1C324
102
{ACAD_REACTORS
330
1C594
102
}
330
1F
100
AcDbEntity
  8
Blech
370
    15
100
AcDbLine
 10
357.61736474038
 20
155.7345882549554
 30
0.0
 11
360.609234786042
 21
155.7345882549554
 31
0.0
  0
LINE
  5
1C325
102
{ACAD_REACTORS
330
1C594
102
}
330
1F
100
AcDbEntity
  8
Blech
370
    15
100
AcDbLine
 10
357.61736474038
 20
155.7345882549554
 30
0.0
 11
357.61736474038
 21
156.834588248995
 31
0.0
  0
LINE
  5
1C326
102
{ACAD_REACTORS
330
1C594
102
}
330
1F
100
AcDbEntity
  8
Blech
370
    15
100
AcDbLine
 10
357.61736474038
 20
151.8345874294311
 30
0.0
 11
357.61736474038
 21
152.9345874234706
 31
0.0
  0
LINE
  5
1C327
102
{ACAD_REACTORS
330
1C594
102
}
330
1F
100
AcDbEntity
  8
Blech
370
    15
100
AcDbLine
 10
360.609234786042
 20
156.834588248995
 30
0.0
 11
357.61736474038
 21
156.834588248995
 31
0.0
  0
LINE
  5
1C328
102
{ACAD_REACTORS
330
1C594
102
}
330
1F
100
AcDbEntity
  8
Blech
370
    15
100
AcDbLine
 10
360.3673647254789
 20
153.7811074897319
 30
0.0
 11
360.3673647254789
 21
154.8880681886941
 31
0.0
  0
LINE
  5
1C329
102
{ACAD_REACTORS
330
1C594
102
}
330
1F
100
AcDbEntity
  8
Blech
370
    15
100
AcDbLine
 10
360.609234786042
 20
154.8583701744348
 30
0.0
 11
360.3673647254789
 21
154.8880681886941
 31
0.0
  0
LINE
  5
1C32A
102
{ACAD_REACTORS
330
1C594
102
}
330
1F
100
AcDbEntity
  8
Blech
370
    15
100
AcDbLine
 10
360.3673647254789
 20
153.7811074897319
 30
0.0
 11
360.609234786042
 21
153.8108055039913
 31
0.0
  0
LINE
  5
1C32B
102
{ACAD_REACTORS
330
1C594
102
}
330
1F
100
AcDbEntity
  8
Blech
370
    15
100
AcDbLine
 10
359.6536531210029
 20
155.1345874115497
 30
0.0
 11
359.6536531210029
 21
155.6345865621835
 31
0.0
  0
LINE
  5
1C32C
102
{ACAD_REACTORS
330
1C594
102
}
330
1F
100
AcDbEntity
  8
Blech
370
    15
100
AcDbLine
 10
359.6536531210029
 20
155.6345865621835
 30
0.0
 11
359.7173648983323
 21
155.6345865621835
 31
0.0
  0
LINE
  5
1C32D
102
{ACAD_REACTORS
330
1C594
102
}
330
1F
100
AcDbEntity
  8
Blech
370
    15
100
AcDbLine
 10
359.7173648983323
 20
155.6345865621835
 30
0.0
 11
359.7173648983323
 21
155.1345874115497
 31
0.0
  0
LINE
  5
1C32E
102
{ACAD_REACTORS
330
1C594
102
}
330
1F
100
AcDbEntity
  8
Blech
370
    15
100
AcDbLine
 10
359.6536531210029
 20
155.1345874115497
 30
0.0
 11
359.7173648983323
 21
155.1345874115497
 31
0.0
  0
LINE
  5
1C32F
102
{ACAD_REACTORS
330
1C594
102
}
330
1F
100
AcDbEntity
  8
Blech
370
    15
100
AcDbLine
 10
359.6536531210029
 20
153.5345882668764
 30
0.0
 11
359.6536531210029
 21
153.0345872535974
 31
0.0
  0
LINE
  5
1C330
102
{ACAD_REACTORS
330
1C594
102
}
330
1F
100
AcDbEntity
  8
Blech
370
    15
100
AcDbLine
 10
359.6536531210029
 20
153.0345872535974
 30
0.0
 11
359.1173640549266
 21
153.0345872535974
 31
0.0
  0
LINE
  5
1C331
102
{ACAD_REACTORS
330
1C594
102
}
330
1F
100
AcDbEntity
  8
Blech
370
    15
100
AcDbLine
 10
359.1173640549266
 20
153.5345882668764
 30
0.0
 11
359.1173640549266
 21
153.0345872535974
 31
0.0
  0
LINE
  5
1C332
102
{ACAD_REACTORS
330
1C594
102
}
330
1F
100
AcDbEntity
  8
Blech
370
    15
100
AcDbLine
 10
359.6536531210029
 20
153.5345882668764
 30
0.0
 11
359.1173640549266
 21
153.5345882668764
 31
0.0
  0
LINE
  5
1C333
102
{ACAD_REACTORS
330
1C594
102
}
330
1F
100
AcDbEntity
  8
Blech
370
    15
100
AcDbLine
 10
359.1173640549266
 20
155.1345874115497
 30
0.0
 11
359.1173640549266
 21
155.6345865621835
 31
0.0
  0
LINE
  5
1C334
102
{ACAD_REACTORS
330
1C594
102
}
330
1F
100
AcDbEntity
  8
Blech
370
    15
100
AcDbLine
 10
359.1173640549266
 20
155.6345865621835
 30
0.0
 11
359.6536531210029
 21
155.6345865621835
 31
0.0
  0
LINE
  5
1C335
102
{ACAD_REACTORS
330
1C594
102
}
330
1F
100
AcDbEntity
  8
Blech
370
    15
100
AcDbLine
 10
359.1173640549266
 20
155.1345874115497
 30
0.0
 11
359.6536531210029
 21
155.1345874115497
 31
0.0
  0
LINE
  5
1C336
102
{ACAD_REACTORS
330
1C594
102
}
330
1F
100
AcDbEntity
  8
Blech
370
    15
100
AcDbLine
 10
359.7173648983323
 20
153.5345882668764
 30
0.0
 11
359.6536531210029
 21
153.5345882668764
 31
0.0
  0
LINE
  5
1C337
102
{ACAD_REACTORS
330
1C594
102
}
330
1F
100
AcDbEntity
  8
Blech
370
    15
100
AcDbLine
 10
359.7173648983323
 20
153.5345882668764
 30
0.0
 11
359.7173648983323
 21
153.0345872535974
 31
0.0
  0
LINE
  5
1C338
102
{ACAD_REACTORS
330
1C594
102
}
330
1F
100
AcDbEntity
  8
Blech
370
    15
100
AcDbLine
 10
359.7173648983323
 20
153.0345872535974
 30
0.0
 11
359.6536531210029
 21
153.0345872535974
 31
0.0
  0
LINE
  5
1C339
102
{ACAD_REACTORS
330
1C594
102
}
330
1F
100
AcDbEntity
  8
Blech
370
    15
100
AcDbLine
 10
359.417365407952
 20
153.659586657551
 30
0.0
 11
359.417365407952
 21
153.5345882668764
 31
0.0
  0
LINE
  5
1C33A
102
{ACAD_REACTORS
330
1C594
102
}
330
1F
100
AcDbEntity
  8
Blech
370
    15
100
AcDbLine
 10
359.417365407952
 20
153.659586657551
 30
0.0
 11
359.5673642218196
 21
153.659586657551
 31
0.0
  0
LINE
  5
1C33B
102
{ACAD_REACTORS
330
1C594
102
}
330
1F
100
AcDbEntity
  8
Blech
370
    15
100
AcDbLine
 10
359.5673642218196
 20
153.659586657551
 30
0.0
 11
359.5673642218196
 21
155.00958715823
 31
0.0
  0
LINE
  5
1C33C
102
{ACAD_REACTORS
330
1C594
102
}
330
1F
100
AcDbEntity
  8
Blech
370
    15
100
AcDbLine
 10
359.5673642218196
 20
155.00958715823
 30
0.0
 11
359.417365407952
 21
155.00958715823
 31
0.0
  0
LINE
  5
1C33D
102
{ACAD_REACTORS
330
1C594
102
}
330
1F
100
AcDbEntity
  8
Blech
370
    15
100
AcDbLine
 10
359.417365407952
 20
155.1345874115497
 30
0.0
 11
359.417365407952
 21
155.00958715823
 31
0.0
  0
LINE
  5
1C33E
102
{ACAD_REACTORS
330
1C594
102
}
330
1F
100
AcDbEntity
  8
Blech
370
    15
100
AcDbLine
 10
359.417365407952
 20
155.7345882549554
 30
0.0
 11
359.417365407952
 21
155.6345865621835
 31
0.0
  0
LINE
  5
1C33F
102
{ACAD_REACTORS
330
1C594
102
}
330
1F
100
AcDbEntity
  8
Blech
370
    15
100
AcDbLine
 10
359.417365407952
 20
153.0345872535974
 30
0.0
 11
359.417365407952
 21
152.9345874234706
 31
0.0
  0
LINE
  5
1C340
102
{ACAD_REACTORS
330
1C594
102
}
330
1F
100
AcDbEntity
  8
Blech
370
    15
100
AcDbLine
 10
359.1173640549266
 20
155.6345865621835
 30
0.0
 11
359.1173640549266
 21
155.7345882549554
 31
0.0
  0
LINE
  5
1C341
102
{ACAD_REACTORS
330
1C594
102
}
330
1F
100
AcDbEntity
  8
Blech
370
    15
100
AcDbLine
 10
359.1173640549266
 20
155.00958715823
 30
0.0
 11
359.1173640549266
 21
155.1345874115497
 31
0.0
  0
LINE
  5
1C342
102
{ACAD_REACTORS
330
1C594
102
}
330
1F
100
AcDbEntity
  8
Blech
370
    15
100
AcDbLine
 10
359.417365407952
 20
155.00958715823
 30
0.0
 11
359.1173640549266
 21
155.00958715823
 31
0.0
  0
LINE
  5
1C343
102
{ACAD_REACTORS
330
1C594
102
}
330
1F
100
AcDbEntity
  8
Blech
370
    15
100
AcDbLine
 10
359.1173640549266
 20
153.5345882668764
 30
0.0
 11
359.1173640549266
 21
153.659586657551
 31
0.0
  0
LINE
  5
1C344
102
{ACAD_REACTORS
330
1C594
102
}
330
1F
100
AcDbEntity
  8
Blech
370
    15
100
AcDbLine
 10
359.1173640549266
 20
153.659586657551
 30
0.0
 11
359.417365407952
 21
153.659586657551
 31
0.0
  0
LINE
  5
1C345
102
{ACAD_REACTORS
330
1C594
102
}
330
1F
100
AcDbEntity
  8
Blech
370
    15
100
AcDbLine
 10
359.1173640549266
 20
152.9345874234706
 30
0.0
 11
359.1173640549266
 21
153.0345872535974
 31
0.0
  0
LINE
  5
1C346
102
{ACAD_REACTORS
330
1C594
102
}
330
1F
100
AcDbEntity
  8
Blech
370
    15
100
AcDbLine
 10
359.3173637151801
 20
154.9095873281032
 30
0.0
 11
358.8673654109323
 21
154.9095873281032
 31
0.0
  0
LINE
  5
1C347
102
{ACAD_REACTORS
330
1C594
102
}
330
1F
100
AcDbEntity
  8
Blech
370
    15
100
AcDbLine
 10
359.3173637151801
 20
153.7595883503229
 30
0.0
 11
359.3173637151801
 21
154.9095873281032
 31
0.0
  0
LINE
  5
1C348
102
{ACAD_REACTORS
330
1C594
102
}
330
1F
100
AcDbEntity
  8
Blech
370
    15
100
AcDbLine
 10
358.8673654109323
 20
153.7595883503229
 30
0.0
 11
359.3173637151801
 21
153.7595883503229
 31
0.0
  0
LINE
  5
1C349
102
{ACAD_REACTORS
330
1C594
102
}
330
1F
100
AcDbEntity
  8
Blech
370
    15
100
AcDbLine
 10
358.8673654109323
 20
153.7595883503229
 30
0.0
 11
358.8673654109323
 21
152.9345874234706
 31
0.0
  0
LINE
  5
1C34A
102
{ACAD_REACTORS
330
1C594
102
}
330
1F
100
AcDbEntity
  8
Blech
370
    15
100
AcDbLine
 10
358.8673654109323
 20
155.7345882549554
 30
0.0
 11
358.8673654109323
 21
154.9095873281032
 31
0.0
  0
LINE
  5
1C34B
102
{ACAD_REACTORS
330
1C594
102
}
330
1F
100
AcDbEntity
  8
Blech
370
    15
100
AcDbLine
 10
357.61736474038
 20
152.9345874234706
 30
0.0
 11
357.61736474038
 21
155.7345882549554
 31
0.0
  0
LINE
  5
1C34C
102
{ACAD_REACTORS
330
1C594
102
}
330
1F
100
AcDbEntity
  8
Blech
370
    15
100
AcDbLine
 10
359.5673642218196
 20
153.7845869108707
 30
0.0
 11
359.3173637151801
 21
153.7845869108707
 31
0.0
  0
LINE
  5
1C34D
102
{ACAD_REACTORS
330
1C594
102
}
330
1F
100
AcDbEntity
  8
Blech
370
    15
100
AcDbLine
 10
359.1173640549266
 20
153.3845875903637
 30
0.0
 11
358.8673654109323
 21
153.3845875903637
 31
0.0
  0
LINE
  5
1C34E
102
{ACAD_REACTORS
330
1C594
102
}
330
1F
100
AcDbEntity
  8
Blech
370
    15
100
AcDbLine
 10
359.1173640549266
 20
155.2845880880624
 30
0.0
 11
358.8673654109323
 21
155.2845880880624
 31
0.0
  0
LINE
  5
1C34F
102
{ACAD_REACTORS
330
1C594
102
}
330
1F
100
AcDbEntity
  8
Blech
370
    15
100
AcDbLine
 10
359.5673642218196
 20
154.8845869049102
 30
0.0
 11
359.3173637151801
 21
154.8845869049102
 31
0.0
  0
LINE
  5
1C350
102
{ACAD_REACTORS
330
1C594
102
}
330
1F
100
AcDbEntity
  8
Blech
370
    15
100
AcDbLine
 10
365.022364547857
 20
239.8745853945285
 30
0.0
 11
365.1373642593705
 21
239.9895851060421
 31
0.0
  0
LINE
  5
1C351
102
{ACAD_REACTORS
330
1C594
102
}
330
1F
100
AcDbEntity
  8
Blech
370
    15
100
AcDbLine
 10
365.1373642593705
 20
239.9895851060421
 30
0.0
 11
365.6173641890371
 21
239.9895851060421
 31
0.0
  0
LINE
  5
1C352
102
{ACAD_REACTORS
330
1C594
102
}
330
1F
100
AcDbEntity
  8
Blech
370
    15
100
AcDbLine
 10
365.6173641890371
 20
239.9895851060421
 30
0.0
 11
365.6173641890371
 21
239.8745853945285
 31
0.0
  0
LINE
  5
1C353
102
{ACAD_REACTORS
330
1C594
102
}
330
1F
100
AcDbEntity
  8
Blech
370
    15
100
AcDbLine
 10
366.0696824178183
 20
234.7945858284504
 30
0.0
 11
366.1092347562396
 21
234.0273101374179
 31
0.0
  0
LINE
  5
1C354
102
{ACAD_REACTORS
330
1C594
102
}
330
1F
100
AcDbEntity
  8
Blech
370
    15
100
AcDbLine
 10
365.9594333827579
 20
233.8695887967617
 30
0.0
 11
365.5088362380945
 21
233.8695887967617
 31
0.0
  0
ARC
  5
1C355
102
{ACAD_REACTORS
330
1C594
102
}
330
1F
100
AcDbEntity
  8
Blech
370
    15
100
AcDbCircle
 10
365.5088357819247
 20
234.0195874830754
 30
0.0
 40
0.1499999999999773
100
AcDbArc
 50
182.9508777720561
 51
270.0
  0
LINE
  5
1C356
102
{ACAD_REACTORS
330
1C594
102
}
330
1F
100
AcDbEntity
  8
Blech
370
    15
100
AcDbLine
 10
365.3590348646128
 20
234.0118650838405
 30
0.0
 11
365.335034681865
 21
234.4774518653423
 31
0.0
  0
ARC
  5
1C357
102
{ACAD_REACTORS
330
1C594
102
}
330
1F
100
AcDbEntity
  8
Blech
370
    15
100
AcDbCircle
 10
365.1852334816373
 20
234.4697296840705
 30
0.0
 40
0.1500000000000412
100
AcDbArc
 50
2.950877772054981
 51
92.49504069593962
  0
LINE
  5
1C358
102
{ACAD_REACTORS
330
1C594
102
}
330
1F
100
AcDbEntity
  8
Blech
370
    15
100
AcDbLine
 10
365.1787038058126
 20
234.6195865913898
 30
0.0
 11
365.1696830153548
 21
234.7945858284504
 31
0.0
  0
ARC
  5
1C359
102
{ACAD_REACTORS
330
1C594
102
}
330
1F
100
AcDbEntity
  8
Blech
370
    15
100
AcDbCircle
 10
365.9594332571966
 20
234.0195874830754
 30
0.0
 40
0.1500000000000313
100
AcDbArc
 50
270.0
 51
357.0491222297276
  0
LINE
  5
1C35A
102
{ACAD_REACTORS
330
1C594
102
}
330
1F
100
AcDbEntity
  8
Blech
370
    15
100
AcDbLine
 10
365.1771959945643
 20
239.9895851060421
 30
0.0
 11
365.1783992633307
 21
240.0127489611179
 31
0.0
  0
ARC
  5
1C35B
102
{ACAD_REACTORS
330
1C594
102
}
330
1F
100
AcDbEntity
  8
Blech
370
    15
100
AcDbCircle
 10
365.1833203383834
 20
240.1626700210783
 30
0.0
 40
0.1500000000001261
100
AcDbArc
 50
268.1199744488774
 51
357.0259437250883
  0
LINE
  5
1C35C
102
{ACAD_REACTORS
330
1C594
102
}
330
1F
100
AcDbEntity
  8
Blech
370
    15
100
AcDbLine
 10
365.3331180200064
 20
240.154891137746
 30
0.0
 11
365.357839046427
 21
240.6307075664074
 31
0.0
  0
ARC
  5
1C35D
102
{ACAD_REACTORS
330
1C594
102
}
330
1F
100
AcDbEntity
  8
Blech
370
    15
100
AcDbCircle
 10
365.5076369169503
 20
240.622925073822
 30
0.0
 40
0.1500000000000802
100
AcDbArc
 50
92.02594372505706
 51
177.0259437250872
  0
LINE
  5
1C35E
102
{ACAD_REACTORS
330
1C594
102
}
330
1F
100
AcDbEntity
  8
Blech
370
    15
100
AcDbLine
 10
365.5023337438786
 20
240.7728348418743
 30
0.0
 11
365.9537709415042
 21
240.7888014360935
 31
0.0
  0
ARC
  5
1C35F
102
{ACAD_REACTORS
330
1C594
102
}
330
1F
100
AcDbEntity
  8
Blech
370
    15
100
AcDbCircle
 10
365.9590734842615
 20
240.6388942506748
 30
0.0
 40
0.1500000000003114
100
AcDbArc
 50
357.0259437250916
 51
92.02594372509739
  0
LINE
  5
1C360
102
{ACAD_REACTORS
330
1C594
102
}
330
1F
100
AcDbEntity
  8
Blech
370
    15
100
AcDbLine
 10
366.1088715404355
 20
240.6311098977596
 30
0.0
 11
366.069566933819
 21
239.8745853945285
 31
0.0
  0
LINE
  5
1C361
102
{ACAD_REACTORS
330
1C594
102
}
330
1F
100
AcDbEntity
  8
Blech
370
    15
100
AcDbLine
 10
365.1758688598954
 20
234.6745867773563
 30
0.0
 11
365.1344715714538
 21
234.6745867773563
 31
0.0
  0
LINE
  5
1C362
102
{ACAD_REACTORS
330
1C594
102
}
330
1F
100
AcDbEntity
  8
Blech
370
    15
100
AcDbLine
 10
365.1344715714538
 20
234.6745867773563
 30
0.0
 11
365.0144715890372
 21
234.7945858284504
 31
0.0
  0
LINE
  5
1C363
102
{ACAD_REACTORS
330
1C594
102
}
330
1F
100
AcDbEntity
  8
Blech
370
    15
100
AcDbLine
 10
357.3092348039233
 20
165.1845871030957
 30
0.0
 11
356.109234979757
 21
165.1845871030957
 31
0.0
  0
LINE
  5
1C364
102
{ACAD_REACTORS
330
1C594
102
}
330
1F
100
AcDbEntity
  8
Blech
370
    15
100
AcDbLine
 10
356.109234979757
 20
173.4845874973245
 30
0.0
 11
356.109234979757
 21
165.1845871030957
 31
0.0
  0
LINE
  5
1C365
102
{ACAD_REACTORS
330
1C594
102
}
330
1F
100
AcDbEntity
  8
Blech
370
    15
100
AcDbLine
 10
356.109234979757
 20
173.4845874973245
 30
0.0
 11
357.3092348039233
 21
173.4845874973245
 31
0.0
  0
LINE
  5
1C366
102
{ACAD_REACTORS
330
1C594
102
}
330
1F
100
AcDbEntity
  8
Blech
370
    15
100
AcDbLine
 10
357.3092348039233
 20
173.4845874973245
 30
0.0
 11
357.3092348039233
 21
165.1845871030957
 31
0.0
  0
LINE
  5
1C367
102
{ACAD_REACTORS
330
1C594
102
}
330
1F
100
AcDbEntity
  8
Blech
370
    15
100
AcDbLine
 10
357.7092341244304
 20
173.4845874973245
 30
0.0
 11
357.7092341244304
 21
165.1845871030957
 31
0.0
  0
LINE
  5
1C368
102
{ACAD_REACTORS
330
1C594
102
}
330
1F
100
AcDbEntity
  8
Blech
370
    15
100
AcDbLine
 10
357.7092341244304
 20
165.1845871030957
 30
0.0
 11
357.3092348039233
 21
165.1845871030957
 31
0.0
  0
LINE
  5
1C369
102
{ACAD_REACTORS
330
1C594
102
}
330
1F
100
AcDbEntity
  8
Blech
370
    15
100
AcDbLine
 10
357.3092348039233
 20
173.4845874973245
 30
0.0
 11
357.7092341244304
 21
173.4845874973245
 31
0.0
  0
LINE
  5
1C36A
102
{ACAD_REACTORS
330
1C594
102
}
330
1F
100
AcDbEntity
  8
Blech
370
    15
100
AcDbLine
 10
362.0092342704618
 20
165.1845871030957
 30
0.0
 11
357.7092341244304
 21
165.1845871030957
 31
0.0
  0
LINE
  5
1C36B
102
{ACAD_REACTORS
330
1C594
102
}
330
1F
100
AcDbEntity
  8
Blech
370
    15
100
AcDbLine
 10
357.7092341244304
 20
173.4845874973245
 30
0.0
 11
360.109233772763
 21
173.4845874973245
 31
0.0
  0
LINE
  5
1C36C
102
{ACAD_REACTORS
330
1C594
102
}
330
1F
100
AcDbEntity
  8
Blech
370
    15
100
AcDbLine
 10
363.1092342645013
 20
150.9396944686443
 30
0.0
 11
362.6842345208013
 21
151.1850681647331
 31
0.0
  0
ARC
  5
1C36D
102
{ACAD_REACTORS
330
1C594
102
}
330
1F
100
AcDbEntity
  8
Blech
370
    15
100
AcDbCircle
 10
363.059234362849
 20
151.8345874830753
 30
0.0
 40
0.75
100
AcDbArc
 50
180.0
 51
240.0000000000005
  0
LINE
  5
1C36E
102
{ACAD_REACTORS
330
1C594
102
}
330
1F
100
AcDbEntity
  8
Blech
370
    15
100
AcDbLine
 10
362.3092346921646
 20
151.8345874294311
 30
0.0
 11
362.3092346921646
 21
159.4345875575811
 31
0.0
  0
ARC
  5
1C36F
102
{ACAD_REACTORS
330
1C594
102
}
330
1F
100
AcDbEntity
  8
Blech
370
    15
100
AcDbCircle
 10
364.109234362849
 20
159.4345874830753
 30
0.0
 40
1.799999999999988
100
AcDbArc
 50
93.6448585341292
 51
180.0
  0
LINE
  5
1C370
102
{ACAD_REACTORS
330
1C594
102
}
330
1F
100
AcDbEntity
  8
Blech
370
    15
100
AcDbLine
 10
365.9592340797269
 20
153.7195880457431
 30
0.0
 11
365.9592340797269
 21
153.2195870324642
 31
0.0
  0
LINE
  5
1C371
102
{ACAD_REACTORS
330
1C594
102
}
330
1F
100
AcDbEntity
  8
Blech
370
    15
100
AcDbLine
 10
366.1092347562396
 20
153.7195880457431
 30
0.0
 11
365.9592340797269
 21
153.7195880457431
 31
0.0
  0
LINE
  5
1C372
102
{ACAD_REACTORS
330
1C594
102
}
330
1F
100
AcDbEntity
  8
Blech
370
    15
100
AcDbLine
 10
365.9592340797269
 20
153.7195880457431
 30
0.0
 11
365.4274861425245
 21
153.7195880457431
 31
0.0
  0
LINE
  5
1C373
102
{ACAD_REACTORS
330
1C594
102
}
330
1F
100
AcDbEntity
  8
Blech
370
    15
100
AcDbLine
 10
365.3592341676438
 20
153.7195880457431
 30
0.0
 11
365.3592341676438
 21
153.2195870324642
 31
0.0
  0
LINE
  5
1C374
102
{ACAD_REACTORS
330
1C594
102
}
330
1F
100
AcDbEntity
  8
Blech
370
    15
100
AcDbLine
 10
365.4274861425245
 20
153.7195880457431
 30
0.0
 11
365.3592341676438
 21
153.7195880457431
 31
0.0
  0
LINE
  5
1C375
102
{ACAD_REACTORS
330
1C594
102
}
330
1F
100
AcDbEntity
  8
Blech
370
    15
100
AcDbLine
 10
364.0092345982873
 20
155.9455868348152
 30
0.0
 11
363.8092340067112
 21
155.9455868348152
 31
0.0
  0
LINE
  5
1C376
102
{ACAD_REACTORS
330
1C594
102
}
330
1F
100
AcDbEntity
  8
Blech
370
    15
100
AcDbLine
 10
364.1582341030323
 20
149.7235883518726
 30
0.0
 11
364.181234045335
 21
149.7235883518726
 31
0.0
  0
LINE
  5
1C377
102
{ACAD_REACTORS
330
1C594
102
}
330
1F
100
AcDbEntity
  8
Blech
370
    15
100
AcDbLine
 10
364.3192346304738
 20
149.7235883518726
 30
0.0
 11
365.1092345923269
 21
149.7235883518726
 31
0.0
  0
LINE
  5
1C378
102
{ACAD_REACTORS
330
1C594
102
}
330
1F
100
AcDbEntity
  8
Blech
370
    15
100
AcDbLine
 10
364.1582341030323
 20
150.5738802745611
 30
0.0
 11
364.1582341030323
 21
149.7245867296726
 31
0.0
  0
LINE
  5
1C379
102
{ACAD_REACTORS
330
1C594
102
}
330
1F
100
AcDbEntity
  8
Blech
370
    15
100
AcDbLine
 10
363.8082346975887
 20
150.5741727098495
 30
0.0
 11
364.1582341030323
 21
150.5741727098495
 31
0.0
  0
LINE
  5
1C37A
102
{ACAD_REACTORS
330
1C594
102
}
330
1F
100
AcDbEntity
  8
Blech
370
    15
100
AcDbLine
 10
363.8082346975887
 20
150.5741727098495
 30
0.0
 11
363.8082346975887
 21
155.9455868348152
 31
0.0
  0
LINE
  5
1C37B
102
{ACAD_REACTORS
330
1C594
102
}
330
1F
100
AcDbEntity
  8
Blech
370
    15
100
AcDbLine
 10
365.5092339128339
 20
154.1345872476369
 30
0.0
 11
365.5092339128339
 21
153.7195880457431
 31
0.0
  0
LINE
  5
1C37C
102
{ACAD_REACTORS
330
1C594
102
}
330
1F
100
AcDbEntity
  8
Blech
370
    15
100
AcDbLine
 10
363.8082346975887
 20
149.723880787161
 30
0.0
 11
363.8082346975887
 21
149.8395883038312
 31
0.0
  0
LINE
  5
1C37D
102
{ACAD_REACTORS
330
1C594
102
}
330
1F
100
AcDbEntity
  8
Blech
370
    15
100
AcDbLine
 10
363.8082346975887
 20
150.5131729438573
 30
0.0
 11
363.8082346975887
 21
150.5741727098495
 31
0.0
  0
LINE
  5
1C37E
102
{ACAD_REACTORS
330
1C594
102
}
330
1F
100
AcDbEntity
  8
Blech
370
    15
100
AcDbLine
 10
363.8092340067112
 20
149.7235883518726
 30
0.0
 11
363.8082346975887
 21
149.7235883518726
 31
0.0
  0
LINE
  5
1C37F
102
{ACAD_REACTORS
330
1C594
102
}
330
1F
100
AcDbEntity
  8
Blech
370
    15
100
AcDbLine
 10
364.1582341030323
 20
149.7235883518726
 30
0.0
 11
363.8092340067112
 21
149.7235883518726
 31
0.0
  0
LINE
  5
1C380
102
{ACAD_REACTORS
330
1C594
102
}
330
1F
100
AcDbEntity
  8
Blech
370
    15
100
AcDbLine
 10
358.0592344611966
 20
175.1095874726445
 30
0.0
 11
358.0592344611966
 21
176.8345875691295
 31
0.0
  0
LINE
  5
1C381
102
{ACAD_REACTORS
330
1C594
102
}
330
1F
100
AcDbEntity
  8
Blech
370
    15
100
AcDbLine
 10
357.8592348009431
 20
175.5595874067068
 30
0.0
 11
357.4592336177909
 21
175.5595874067068
 31
0.0
  0
LINE
  5
1C382
102
{ACAD_REACTORS
330
1C594
102
}
330
1F
100
AcDbEntity
  8
Blech
370
    15
100
AcDbLine
 10
357.4592336177909
 20
176.8345875691295
 30
0.0
 11
357.4592336177909
 21
175.5595874067068
 31
0.0
  0
LINE
  5
1C383
102
{ACAD_REACTORS
330
1C594
102
}
330
1F
100
AcDbEntity
  8
Blech
370
    15
100
AcDbLine
 10
357.8592348009431
 20
175.1095874726445
 30
0.0
 11
357.8592348009431
 21
175.5595874067068
 31
0.0
  0
LINE
  5
1C384
102
{ACAD_REACTORS
330
1C594
102
}
330
1F
100
AcDbEntity
  8
Blech
370
    15
100
AcDbLine
 10
358.0592344611966
 20
175.1095874726445
 30
0.0
 11
357.8592348009431
 21
175.1095874726445
 31
0.0
  0
LINE
  5
1C385
102
{ACAD_REACTORS
330
1C594
102
}
330
1F
100
AcDbEntity
  8
Blech
370
    15
100
AcDbLine
 10
358.6342348814094
 20
175.1095874726445
 30
0.0
 11
358.6342348814094
 21
176.8345875691295
 31
0.0
  0
LINE
  5
1C386
102
{ACAD_REACTORS
330
1C594
102
}
330
1F
100
AcDbEntity
  8
Blech
370
    15
100
AcDbLine
 10
358.6342348814094
 20
175.1095874726445
 30
0.0
 11
358.0592344611966
 21
175.1095874726445
 31
0.0
  0
LINE
  5
1C387
102
{ACAD_REACTORS
330
1C594
102
}
330
1F
100
AcDbEntity
  8
Blech
370
    15
100
AcDbLine
 10
358.6342348814094
 20
175.1095874726445
 30
0.0
 11
359.5092347920024
 21
175.1095874726445
 31
0.0
  0
LINE
  5
1C388
102
{ACAD_REACTORS
330
1C594
102
}
330
1F
100
AcDbEntity
  8
Blech
370
    15
100
AcDbLine
 10
359.5092347920024
 20
174.6095875071034
 30
0.0
 11
357.8592348009431
 21
174.6095875071034
 31
0.0
  0
LINE
  5
1C389
102
{ACAD_REACTORS
330
1C594
102
}
330
1F
100
AcDbEntity
  8
Blech
370
    15
100
AcDbLine
 10
357.8592348009431
 20
174.6095875071034
 30
0.0
 11
357.8592348009431
 21
175.1095874726445
 31
0.0
  0
LINE
  5
1C38A
102
{ACAD_REACTORS
330
1C594
102
}
330
1F
100
AcDbEntity
  8
Blech
370
    15
100
AcDbLine
 10
358.0592344611966
 20
249.5595876618892
 30
0.0
 11
358.0592344611966
 21
249.3345875784427
 31
0.0
  0
LINE
  5
1C38B
102
{ACAD_REACTORS
330
1C594
102
}
330
1F
100
AcDbEntity
  8
Blech
370
    15
100
AcDbLine
 10
358.6342348814094
 20
249.5595876618892
 30
0.0
 11
358.0592344611966
 21
249.5595876618892
 31
0.0
  0
LINE
  5
1C38C
102
{ACAD_REACTORS
330
1C594
102
}
330
1F
100
AcDbEntity
  8
Blech
370
    15
100
AcDbLine
 10
358.6342348814094
 20
249.3345875784427
 30
0.0
 11
358.6342348814094
 21
249.5595876618892
 31
0.0
  0
LINE
  5
1C38D
102
{ACAD_REACTORS
330
1C594
102
}
330
1F
100
AcDbEntity
  8
Blech
370
    15
100
AcDbLine
 10
357.4592336177909
 20
246.9095875069171
 30
0.0
 11
357.6177279561841
 21
246.9095875069171
 31
0.0
  0
LINE
  5
1C38E
102
{ACAD_REACTORS
330
1C594
102
}
330
1F
100
AcDbEntity
  8
Blech
370
    15
100
AcDbLine
 10
358.0592344611966
 20
249.5595876618892
 30
0.0
 11
357.8592348009431
 21
249.5595876618892
 31
0.0
  0
LINE
  5
1C38F
102
{ACAD_REACTORS
330
1C594
102
}
330
1F
100
AcDbEntity
  8
Blech
370
    15
100
AcDbLine
 10
357.6177279561841
 20
249.1095874949962
 30
0.0
 11
357.4592336177909
 21
249.1095874949962
 31
0.0
  0
LINE
  5
1C390
102
{ACAD_REACTORS
330
1C594
102
}
330
1F
100
AcDbEntity
  8
Blech
370
    15
100
AcDbLine
 10
357.4592336177909
 20
249.1095874949962
 30
0.0
 11
357.4592336177909
 21
246.9095875069171
 31
0.0
  0
LINE
  5
1C391
102
{ACAD_REACTORS
330
1C594
102
}
330
1F
100
AcDbEntity
  8
Blech
370
    15
100
AcDbLine
 10
357.8592348009431
 20
249.5595876618892
 30
0.0
 11
357.8592348009431
 21
249.3345875784427
 31
0.0
  0
LINE
  5
1C392
102
{ACAD_REACTORS
330
1C594
102
}
330
1F
100
AcDbEntity
  8
Blech
370
    15
100
AcDbLine
 10
359.5092347920024
 20
246.9095875069171
 30
0.0
 11
359.3177269309842
 21
246.9095875069171
 31
0.0
  0
LINE
  5
1C393
102
{ACAD_REACTORS
330
1C594
102
}
330
1F
100
AcDbEntity
  8
Blech
370
    15
100
AcDbLine
 10
358.6342348814094
 20
249.5595876618892
 30
0.0
 11
359.5092347920024
 21
249.5595876618892
 31
0.0
  0
LINE
  5
1C394
102
{ACAD_REACTORS
330
1C594
102
}
330
1F
100
AcDbEntity
  8
Blech
370
    15
100
AcDbLine
 10
357.8592348009431
 20
250.0595886751682
 30
0.0
 11
359.5092347920024
 21
250.0595886751682
 31
0.0
  0
LINE
  5
1C395
102
{ACAD_REACTORS
330
1C594
102
}
330
1F
100
AcDbEntity
  8
Blech
370
    15
100
AcDbLine
 10
357.8592348009431
 20
249.5595876618892
 30
0.0
 11
357.8592348009431
 21
250.0595886751682
 31
0.0
  0
LINE
  5
1C396
102
{ACAD_REACTORS
330
1C594
102
}
330
1F
100
AcDbEntity
  8
Blech
370
    15
100
AcDbLine
 10
358.0592344611966
 20
229.2795878395111
 30
0.0
 11
358.6342348814094
 21
229.2795878395111
 31
0.0
  0
LINE
  5
1C397
102
{ACAD_REACTORS
330
1C594
102
}
330
1F
100
AcDbEntity
  8
Blech
370
    15
100
AcDbLine
 10
358.0592344611966
 20
231.9295879944831
 30
0.0
 11
358.0592344611966
 21
229.2795878395111
 31
0.0
  0
LINE
  5
1C398
102
{ACAD_REACTORS
330
1C594
102
}
330
1F
100
AcDbEntity
  8
Blech
370
    15
100
AcDbLine
 10
358.6342348814094
 20
231.9295879944831
 30
0.0
 11
358.0592344611966
 21
231.9295879944831
 31
0.0
  0
LINE
  5
1C399
102
{ACAD_REACTORS
330
1C594
102
}
330
1F
100
AcDbEntity
  8
Blech
370
    15
100
AcDbLine
 10
358.6342348814094
 20
229.2795878395111
 30
0.0
 11
358.6342348814094
 21
231.9295879944831
 31
0.0
  0
LINE
  5
1C39A
102
{ACAD_REACTORS
330
1C594
102
}
330
1F
100
AcDbEntity
  8
Blech
370
    15
100
AcDbLine
 10
357.8592348009431
 20
231.9295879944831
 30
0.0
 11
357.8592348009431
 21
231.4795878275901
 31
0.0
  0
LINE
  5
1C39B
102
{ACAD_REACTORS
330
1C594
102
}
330
1F
100
AcDbEntity
  8
Blech
370
    15
100
AcDbLine
 10
358.0592344611966
 20
231.9295879944831
 30
0.0
 11
357.8592348009431
 21
231.9295879944831
 31
0.0
  0
LINE
  5
1C39C
102
{ACAD_REACTORS
330
1C594
102
}
330
1F
100
AcDbEntity
  8
Blech
370
    15
100
AcDbLine
 10
357.4592336177909
 20
229.2795878395111
 30
0.0
 11
358.0592344611966
 21
229.2795878395111
 31
0.0
  0
LINE
  5
1C39D
102
{ACAD_REACTORS
330
1C594
102
}
330
1F
100
AcDbEntity
  8
Blech
370
    15
100
AcDbLine
 10
357.4592336177909
 20
231.4795878275901
 30
0.0
 11
357.4592336177909
 21
229.2795878395111
 31
0.0
  0
LINE
  5
1C39E
102
{ACAD_REACTORS
330
1C594
102
}
330
1F
100
AcDbEntity
  8
Blech
370
    15
100
AcDbLine
 10
357.8592348009431
 20
231.4795878275901
 30
0.0
 11
357.4592336177909
 21
231.4795878275901
 31
0.0
  0
LINE
  5
1C39F
102
{ACAD_REACTORS
330
1C594
102
}
330
1F
100
AcDbEntity
  8
Blech
370
    15
100
AcDbLine
 10
358.017812958368
 20
228.1444620832473
 30
0.0
 11
358.5928133785808
 21
228.3796880885631
 31
0.0
  0
LINE
  5
1C3A0
102
{ACAD_REACTORS
330
1C594
102
}
330
1F
100
AcDbEntity
  8
Blech
370
    15
100
AcDbLine
 10
358.017812958368
 20
229.2795878395111
 30
0.0
 11
358.017812958368
 21
228.1444620832473
 31
0.0
  0
LINE
  5
1C3A1
102
{ACAD_REACTORS
330
1C594
102
}
330
1F
100
AcDbEntity
  8
Blech
370
    15
100
AcDbLine
 10
358.5928133785808
 20
229.2795878395111
 30
0.0
 11
358.5928133785808
 21
228.3796880885631
 31
0.0
  0
LINE
  5
1C3A2
102
{ACAD_REACTORS
330
1C594
102
}
330
1F
100
AcDbEntity
  8
Blech
370
    15
100
AcDbLine
 10
357.8592348009431
 20
228.0795861526996
 30
0.0
 11
358.017812958368
 21
228.1444620832473
 31
0.0
  0
LINE
  5
1C3A3
102
{ACAD_REACTORS
330
1C594
102
}
330
1F
100
AcDbEntity
  8
Blech
370
    15
100
AcDbLine
 10
357.8592348009431
 20
229.2795878395111
 30
0.0
 11
357.8592348009431
 21
228.0795861526996
 31
0.0
  0
LINE
  5
1C3A4
102
{ACAD_REACTORS
330
1C594
102
}
330
1F
100
AcDbEntity
  8
Blech
370
    15
100
AcDbLine
 10
359.5092347920024
 20
229.2795878395111
 30
0.0
 11
358.6342348814094
 21
229.2795878395111
 31
0.0
  0
LINE
  5
1C3A5
102
{ACAD_REACTORS
330
1C594
102
}
330
1F
100
AcDbEntity
  8
Blech
370
    15
100
AcDbLine
 10
358.6342348814094
 20
231.9295879944831
 30
0.0
 11
359.5092347920024
 21
231.9295879944831
 31
0.0
  0
LINE
  5
1C3A6
102
{ACAD_REACTORS
330
1C594
102
}
330
1F
100
AcDbEntity
  8
Blech
370
    15
100
AcDbLine
 10
358.9592347949826
 20
228.5295863195926
 30
0.0
 11
359.5092347920024
 21
228.5295863195926
 31
0.0
  0
LINE
  5
1C3A7
102
{ACAD_REACTORS
330
1C594
102
}
330
1F
100
AcDbEntity
  8
Blech
370
    15
100
AcDbLine
 10
358.5928133785808
 20
228.3796880885631
 30
0.0
 11
358.9592347949826
 21
228.5295863195926
 31
0.0
  0
LINE
  5
1C3A8
102
{ACAD_REACTORS
330
1C594
102
}
330
1F
100
AcDbEntity
  8
Blech
370
    15
100
AcDbLine
 10
357.8592348009431
 20
232.4295890077621
 30
0.0
 11
359.5092347920024
 21
232.4295890077621
 31
0.0
  0
LINE
  5
1C3A9
102
{ACAD_REACTORS
330
1C594
102
}
330
1F
100
AcDbEntity
  8
Blech
370
    15
100
AcDbLine
 10
357.8592348009431
 20
231.9295879944831
 30
0.0
 11
357.8592348009431
 21
232.4295890077621
 31
0.0
  0
LINE
  5
1C3AA
102
{ACAD_REACTORS
330
1C594
102
}
330
1F
100
AcDbEntity
  8
Blech
370
    15
100
AcDbLine
 10
359.5092347920024
 20
232.7045862123043
 30
0.0
 11
359.5092347920024
 21
232.6721761867076
 31
0.0
  0
LINE
  5
1C3AB
102
{ACAD_REACTORS
330
1C594
102
}
330
1F
100
AcDbEntity
  8
Blech
370
    15
100
AcDbLine
 10
359.5092347920024
 20
232.7045862123043
 30
0.0
 11
361.0292342588389
 21
232.7045862123043
 31
0.0
  0
LINE
  5
1C3AC
102
{ACAD_REACTORS
330
1C594
102
}
330
1F
100
AcDbEntity
  8
Blech
370
    15
100
AcDbLine
 10
359.5092347920024
 20
246.2845881029636
 30
0.0
 11
359.5092347920024
 21
246.7345882698566
 31
0.0
  0
LINE
  5
1C3AD
102
{ACAD_REACTORS
330
1C594
102
}
330
1F
100
AcDbEntity
  8
Blech
370
    15
100
AcDbLine
 10
359.5677274376237
 20
246.7345882698566
 30
0.0
 11
359.5092347920024
 21
246.7345882698566
 31
0.0
  0
LINE
  5
1C3AE
102
{ACAD_REACTORS
330
1C594
102
}
330
1F
100
AcDbEntity
  8
Blech
370
    15
100
AcDbLine
 10
359.5092347920024
 20
250.3345896050006
 30
0.0
 11
359.5092347920024
 21
249.3345875784427
 31
0.0
  0
LINE
  5
1C3AF
102
{ACAD_REACTORS
330
1C594
102
}
330
1F
100
AcDbEntity
  8
Blech
370
    15
100
AcDbLine
 10
359.5092347920024
 20
250.3345896050006
 30
0.0
 11
364.1092344284141
 21
250.3345896050006
 31
0.0
  0
LINE
  5
1C3B0
102
{ACAD_REACTORS
330
1C594
102
}
330
1F
100
AcDbEntity
  8
Blech
370
    15
100
AcDbLine
 10
359.5092347920024
 20
174.3345875085935
 30
0.0
 11
359.5092347920024
 21
175.73458757509
 31
0.0
  0
LINE
  5
1C3B1
102
{ACAD_REACTORS
330
1C594
102
}
330
1F
100
AcDbEntity
  8
Blech
370
    15
100
AcDbLine
 10
362.1092341005885
 20
174.3345875085935
 30
0.0
 11
359.5092347920024
 21
174.3345875085935
 31
0.0
  0
LINE
  5
1C3B2
102
{ACAD_REACTORS
330
1C594
102
}
330
1F
100
AcDbEntity
  8
Blech
370
    15
100
AcDbLine
 10
359.5092347920024
 20
175.73458757509
 30
0.0
 11
361.6183423534119
 21
175.73458757509
 31
0.0
  0
ARC
  5
1C3B3
102
{ACAD_REACTORS
330
1C594
102
}
330
1F
100
AcDbEntity
  8
Blech
370
    15
100
AcDbCircle
 10
365.3792343628489
 20
163.4345874830753
 30
0.0
 40
0.7000000000000148
100
AcDbArc
 50
18.74934084701988
 51
171.735512392291
  0
ARC
  5
1C3B4
102
{ACAD_REACTORS
330
1C594
102
}
330
1F
100
AcDbEntity
  8
Blech
370
    15
100
AcDbCircle
 10
365.319234362849
 20
163.5345874830753
 30
0.0
 40
0.1600000000000058
100
AcDbArc
 50
51.37516712694445
 51
128.6248328730556
  0
LINE
  5
1C3B5
102
{ACAD_REACTORS
330
1C594
102
}
330
1F
100
AcDbEntity
  8
Blech
370
    15
100
AcDbLine
 10
365.70923450441
 20
232.6895881935627
 30
0.0
 11
366.1092347562396
 21
232.6895881935627
 31
0.0
  0
LINE
  5
1C3B6
102
{ACAD_REACTORS
330
1C594
102
}
330
1F
100
AcDbEntity
  8
Blech
370
    15
100
AcDbLine
 10
365.70923450441
 20
233.0895875140697
 30
0.0
 11
366.1092347562396
 21
233.0895875140697
 31
0.0
  0
LINE
  5
1C3B7
102
{ACAD_REACTORS
330
1C594
102
}
330
1F
100
AcDbEntity
  8
Blech
370
    15
100
AcDbLine
 10
365.70923450441
 20
232.6895881935627
 30
0.0
 11
365.70923450441
 21
233.0895875140697
 31
0.0
  0
LINE
  5
1C3B8
102
{ACAD_REACTORS
330
1C594
102
}
330
1F
100
AcDbEntity
  8
Blech
370
    15
100
AcDbLine
 10
365.70923450441
 20
241.5795911594898
 30
0.0
 11
365.70923450441
 21
241.9795904799968
 31
0.0
  0
LINE
  5
1C3B9
102
{ACAD_REACTORS
330
1C594
102
}
330
1F
100
AcDbEntity
  8
Blech
370
    15
100
AcDbLine
 10
365.70923450441
 20
241.5795911594898
 30
0.0
 11
366.1092347562396
 21
241.5795911594898
 31
0.0
  0
LINE
  5
1C3BA
102
{ACAD_REACTORS
330
1C594
102
}
330
1F
100
AcDbEntity
  8
Blech
370
    15
100
AcDbLine
 10
365.70923450441
 20
241.9795904799968
 30
0.0
 11
366.1092347562396
 21
241.9795904799968
 31
0.0
  0
LINE
  5
1C3BB
102
{ACAD_REACTORS
330
1C594
102
}
330
1F
100
AcDbEntity
  8
Blech
370
    15
100
AcDbLine
 10
366.0969105646097
 20
233.9595880850822
 30
0.0
 11
366.1092347562396
 21
233.9595880850822
 31
0.0
  0
LINE
  5
1C3BC
102
{ACAD_REACTORS
330
1C594
102
}
330
1F
100
AcDbEntity
  8
Blech
370
    15
100
AcDbLine
 10
366.0921058714473
 20
234.3595874055893
 30
0.0
 11
366.1092347562396
 21
234.3595874055893
 31
0.0
  0
LINE
  5
1C3BD
102
{ACAD_REACTORS
330
1C594
102
}
330
1F
100
AcDbEntity
  8
Blech
370
    15
100
AcDbLine
 10
366.0921673387372
 20
240.3095875426799
 30
0.0
 11
366.1092347562396
 21
240.3095875426799
 31
0.0
  0
LINE
  5
1C3BE
102
{ACAD_REACTORS
330
1C594
102
}
330
1F
100
AcDbEntity
  8
Blech
370
    15
100
AcDbLine
 10
366.0913701266134
 20
240.709586863187
 30
0.0
 11
366.1092347562396
 21
240.709586863187
 31
0.0
  0
LINE
  5
1C3BF
102
{ACAD_REACTORS
330
1C594
102
}
330
1F
100
AcDbEntity
  8
Blech
370
    15
100
AcDbLine
 10
364.1092344284141
 20
233.9595880850822
 30
0.0
 11
364.1092344284141
 21
234.3595874055893
 31
0.0
  0
LINE
  5
1C3C0
102
{ACAD_REACTORS
330
1C594
102
}
330
1F
100
AcDbEntity
  8
Blech
370
    15
100
AcDbLine
 10
364.1092344284141
 20
233.9595880850822
 30
0.0
 11
365.3713581249201
 21
233.9595880850822
 31
0.0
  0
LINE
  5
1C3C1
102
{ACAD_REACTORS
330
1C594
102
}
330
1F
100
AcDbEntity
  8
Blech
370
    15
100
AcDbLine
 10
364.1092344284141
 20
234.3595874055893
 30
0.0
 11
365.3411106303417
 21
234.3595874055893
 31
0.0
  0
LINE
  5
1C3C2
102
{ACAD_REACTORS
330
1C594
102
}
330
1F
100
AcDbEntity
  8
Blech
370
    15
100
AcDbLine
 10
364.1092344284141
 20
240.3095875426799
 30
0.0
 11
364.1092344284141
 21
240.709586863187
 31
0.0
  0
LINE
  5
1C3C3
102
{ACAD_REACTORS
330
1C594
102
}
330
1F
100
AcDbEntity
  8
Blech
370
    15
100
AcDbLine
 10
364.1092344284141
 20
240.3095875426799
 30
0.0
 11
365.3411553338253
 21
240.3095875426799
 31
0.0
  0
LINE
  5
1C3C4
102
{ACAD_REACTORS
330
1C594
102
}
330
1F
100
AcDbEntity
  8
Blech
370
    15
100
AcDbLine
 10
364.1092344284141
 20
240.709586863187
 30
0.0
 11
365.3852050289595
 21
240.709586863187
 31
0.0
  0
LINE
  5
1C3C5
102
{ACAD_REACTORS
330
1C594
102
}
330
1F
100
AcDbEntity
  8
Blech
370
    15
100
AcDbLine
 10
364.1092344284141
 20
241.5795911594898
 30
0.0
 11
364.1092344284141
 21
241.9795904799968
 31
0.0
  0
LINE
  5
1C3C6
102
{ACAD_REACTORS
330
1C594
102
}
330
1F
100
AcDbEntity
  8
Blech
370
    15
100
AcDbLine
 10
364.1092344284141
 20
241.5795911594898
 30
0.0
 11
365.70923450441
 21
241.5795911594898
 31
0.0
  0
LINE
  5
1C3C7
102
{ACAD_REACTORS
330
1C594
102
}
330
1F
100
AcDbEntity
  8
Blech
370
    15
100
AcDbLine
 10
364.1092344284141
 20
241.9795904799968
 30
0.0
 11
365.70923450441
 21
241.9795904799968
 31
0.0
  0
LINE
  5
1C3C8
102
{ACAD_REACTORS
330
1C594
102
}
330
1F
100
AcDbEntity
  8
Blech
370
    15
100
AcDbLine
 10
364.1092344284141
 20
232.6895881935627
 30
0.0
 11
364.1092344284141
 21
233.0895875140697
 31
0.0
  0
LINE
  5
1C3C9
102
{ACAD_REACTORS
330
1C594
102
}
330
1F
100
AcDbEntity
  8
Blech
370
    15
100
AcDbLine
 10
364.1092344284141
 20
232.6895881935627
 30
0.0
 11
365.70923450441
 21
232.6895881935627
 31
0.0
  0
LINE
  5
1C3CA
102
{ACAD_REACTORS
330
1C594
102
}
330
1F
100
AcDbEntity
  8
Blech
370
    15
100
AcDbLine
 10
364.1092344284141
 20
233.0895875140697
 30
0.0
 11
365.70923450441
 21
233.0895875140697
 31
0.0
  0
LINE
  5
1C3CB
102
{ACAD_REACTORS
330
1C594
102
}
330
1F
100
AcDbEntity
  8
Blech
370
    15
100
AcDbLine
 10
361.0292342588389
 20
230.9395324930221
 30
0.0
 11
361.0292342588389
 21
234.7945858284504
 31
0.0
  0
LINE
  5
1C3CC
102
{ACAD_REACTORS
330
1C594
102
}
330
1F
100
AcDbEntity
  8
Blech
370
    15
100
AcDbLine
 10
361.0292342588389
 20
239.8745853945285
 30
0.0
 11
361.0292342588389
 21
243.7296424552471
 31
0.0
  0
LINE
  5
1C3CD
102
{ACAD_REACTORS
330
1C594
102
}
330
1F
100
AcDbEntity
  8
Blech
370
    15
100
AcDbLine
 10
365.6092346742832
 20
243.6845887943775
 30
0.0
 11
365.6092346742832
 21
243.8095871850521
 31
0.0
  0
LINE
  5
1C3CE
102
{ACAD_REACTORS
330
1C594
102
}
330
1F
100
AcDbEntity
  8
Blech
370
    15
100
AcDbLine
 10
361.0292342588389
 20
230.9395324930221
 30
0.0
 11
365.1092345923269
 21
230.8683161183864
 31
0.0
  0
LINE
  5
1C3CF
102
{ACAD_REACTORS
330
1C594
102
}
330
1F
100
AcDbEntity
  8
Blech
370
    15
100
AcDbLine
 10
361.0292342588389
 20
243.7296424552471
 30
0.0
 11
365.6092346742832
 21
243.8095871850521
 31
0.0
  0
LINE
  5
1C3D0
102
{ACAD_REACTORS
330
1C594
102
}
330
1F
100
AcDbEntity
  8
Blech
370
    15
100
AcDbLine
 10
366.1092347562396
 20
202.8745867803365
 30
0.0
 11
365.1092345923269
 21
202.8745867803365
 31
0.0
  0
LINE
  5
1C3D1
102
{ACAD_REACTORS
330
1C594
102
}
330
1F
100
AcDbEntity
  8
Blech
370
    15
100
AcDbLine
 10
365.1092345923269
 20
202.8745867803365
 30
0.0
 11
365.1092345923269
 21
199.8345878466636
 31
0.0
  0
LINE
  5
1C3D2
102
{ACAD_REACTORS
330
1C594
102
}
330
1F
100
AcDbEntity
  8
Blech
370
    15
100
AcDbLine
 10
365.1092345923269
 20
176.8345875691295
 30
0.0
 11
365.1092345923269
 21
173.7945874713034
 31
0.0
  0
LINE
  5
1C3D3
102
{ACAD_REACTORS
330
1C594
102
}
330
1F
100
AcDbEntity
  8
Blech
370
    15
100
AcDbLine
 10
366.1092347562396
 20
173.7945874713034
 30
0.0
 11
365.1092345923269
 21
173.7945874713034
 31
0.0
  0
LINE
  5
1C3D4
102
{ACAD_REACTORS
330
1C594
102
}
330
1F
100
AcDbEntity
  8
Blech
370
    15
100
AcDbLine
 10
361.4867343664253
 20
204.034347881344
 30
0.0
 11
361.4867343664253
 21
204.6343487247497
 31
0.0
  0
LINE
  5
1C3D5
102
{ACAD_REACTORS
330
1C594
102
}
330
1F
100
AcDbEntity
  8
Blech
370
    15
100
AcDbLine
 10
356.7592348069036
 20
201.6343482330114
 30
0.0
 11
356.7592348069036
 21
203.6343466981918
 31
0.0
  0
LINE
  5
1C3D6
102
{ACAD_REACTORS
330
1C594
102
}
330
1F
100
AcDbEntity
  8
Blech
370
    15
100
AcDbLine
 10
356.7592348069036
 20
201.6343482330114
 30
0.0
 11
356.0092351496303
 21
201.6343482330114
 31
0.0
  0
LINE
  5
1C3D7
102
{ACAD_REACTORS
330
1C594
102
}
330
1F
100
AcDbEntity
  8
Blech
370
    15
100
AcDbLine
 10
356.7592348069036
 20
203.6343466981918
 30
0.0
 11
356.0092351496303
 21
203.6343466981918
 31
0.0
  0
LINE
  5
1C3D8
102
{ACAD_REACTORS
330
1C594
102
}
330
1F
100
AcDbEntity
  8
Blech
370
    15
100
AcDbLine
 10
360.4092351257884
 20
201.6343482330114
 30
0.0
 11
360.4092351257884
 21
199.8345878466636
 31
0.0
  0
LINE
  5
1C3D9
102
{ACAD_REACTORS
330
1C594
102
}
330
1F
100
AcDbEntity
  8
Blech
370
    15
100
AcDbLine
 10
360.4092351257884
 20
201.6343482330114
 30
0.0
 11
356.7592348069036
 21
201.6343482330114
 31
0.0
  0
LINE
  5
1C3DA
102
{ACAD_REACTORS
330
1C594
102
}
330
1F
100
AcDbEntity
  8
Blech
370
    15
100
AcDbLine
 10
360.5092349559152
 20
203.6343466981918
 30
0.0
 11
356.7592348069036
 21
203.6343466981918
 31
0.0
  0
LINE
  5
1C3DB
102
{ACAD_REACTORS
330
1C594
102
}
330
1F
100
AcDbEntity
  8
Blech
370
    15
100
AcDbLine
 10
360.5092349559152
 20
204.6343487247497
 30
0.0
 11
363.5092345163309
 21
204.6343487247497
 31
0.0
  0
LINE
  5
1C3DC
102
{ACAD_REACTORS
330
1C594
102
}
330
1F
100
AcDbEntity
  8
Blech
370
    15
100
AcDbLine
 10
360.5092349559152
 20
204.6343487247497
 30
0.0
 11
360.5092349559152
 21
209.6343476816684
 31
0.0
  0
LINE
  5
1C3DD
102
{ACAD_REACTORS
330
1C594
102
}
330
1F
100
AcDbEntity
  8
Blech
370
    15
100
AcDbLine
 10
360.5092349559152
 20
209.6343476816684
 30
0.0
 11
362.1092341005885
 21
209.6343476816684
 31
0.0
  0
LINE
  5
1C3DE
102
{ACAD_REACTORS
330
1C594
102
}
330
1F
100
AcDbEntity
  8
Blech
370
    15
100
AcDbLine
 10
360.5092349559152
 20
210.5343480154544
 30
0.0
 11
362.1092341005885
 21
210.5343480154544
 31
0.0
  0
LINE
  5
1C3DF
102
{ACAD_REACTORS
330
1C594
102
}
330
1F
100
AcDbEntity
  8
Blech
370
    15
100
AcDbLine
 10
360.5092349559152
 20
215.5343469723732
 30
0.0
 11
362.1092341005885
 21
215.5343469723732
 31
0.0
  0
LINE
  5
1C3E0
102
{ACAD_REACTORS
330
1C594
102
}
330
1F
100
AcDbEntity
  8
Blech
370
    15
100
AcDbLine
 10
360.5092349559152
 20
210.5343480154544
 30
0.0
 11
360.5092349559152
 21
215.5343469723732
 31
0.0
  0
LINE
  5
1C3E1
102
{ACAD_REACTORS
330
1C594
102
}
330
1F
100
AcDbEntity
  8
Blech
370
    15
100
AcDbLine
 10
364.9592339158141
 20
202.7593467875988
 30
0.0
 11
364.5092346802437
 21
202.7593467875988
 31
0.0
  0
LINE
  5
1C3E2
102
{ACAD_REACTORS
330
1C594
102
}
330
1F
100
AcDbEntity
  8
Blech
370
    15
100
AcDbLine
 10
365.0092347622001
 20
201.8093474700719
 30
0.0
 11
365.0092347622001
 21
202.0845868184835
 31
0.0
  0
LINE
  5
1C3E3
102
{ACAD_REACTORS
330
1C594
102
}
330
1F
100
AcDbEntity
  8
Blech
370
    15
100
AcDbLine
 10
365.0092347622001
 20
201.8093474700719
 30
0.0
 11
364.5092346802437
 21
201.8093474700719
 31
0.0
  0
LINE
  5
1C3E4
102
{ACAD_REACTORS
330
1C594
102
}
330
1F
100
AcDbEntity
  8
Blech
370
    15
100
AcDbLine
 10
360.5092349559152
 20
199.8345878466636
 30
0.0
 11
360.5092349559152
 21
204.034347881344
 31
0.0
  0
LINE
  5
1C3E5
102
{ACAD_REACTORS
330
1C594
102
}
330
1F
100
AcDbEntity
  8
Blech
370
    15
100
AcDbLine
 10
360.5092349559152
 20
204.034347881344
 30
0.0
 11
363.5092345163309
 21
204.034347881344
 31
0.0
  0
LINE
  5
1C3E6
102
{ACAD_REACTORS
330
1C594
102
}
330
1F
100
AcDbEntity
  8
Blech
370
    15
100
AcDbLine
 10
365.0092347622001
 20
213.6345867558986
 30
0.0
 11
365.0092347622001
 21
213.7343463048011
 31
0.0
  0
LINE
  5
1C3E7
102
{ACAD_REACTORS
330
1C594
102
}
330
1F
100
AcDbEntity
  8
Blech
370
    15
100
AcDbLine
 10
365.5092339128339
 20
212.0337959870369
 30
0.0
 11
365.5092339128339
 21
212.0345857485801
 31
0.0
  0
LINE
  5
1C3E8
102
{ACAD_REACTORS
330
1C594
102
}
330
1F
100
AcDbEntity
  8
Blech
370
    15
100
AcDbLine
 10
365.1092345923269
 20
213.7343463048011
 30
0.0
 11
364.5092346802437
 21
213.7343463048011
 31
0.0
  0
LINE
  5
1C3E9
102
{ACAD_REACTORS
330
1C594
102
}
330
1F
100
AcDbEntity
  8
Blech
370
    15
100
AcDbLine
 10
362.5092343524182
 20
200.7093474760324
 30
0.0
 11
362.5092343524182
 21
201.9593481465847
 31
0.0
  0
LINE
  5
1C3EA
102
{ACAD_REACTORS
330
1C594
102
}
330
1F
100
AcDbEntity
  8
Blech
370
    15
100
AcDbLine
 10
362.5092343524182
 20
201.9593481465847
 30
0.0
 11
363.5092345163309
 21
201.9593481465847
 31
0.0
  0
LINE
  5
1C3EB
102
{ACAD_REACTORS
330
1C594
102
}
330
1F
100
AcDbEntity
  8
Blech
370
    15
100
AcDbLine
 10
362.5092343524182
 20
200.7093474760324
 30
0.0
 11
363.5092345163309
 21
200.7093474760324
 31
0.0
  0
LINE
  5
1C3EC
102
{ACAD_REACTORS
330
1C594
102
}
330
1F
100
AcDbEntity
  8
Blech
370
    15
100
AcDbLine
 10
362.5092343524182
 20
204.4093467786581
 30
0.0
 11
362.5092343524182
 21
204.6343487247497
 31
0.0
  0
LINE
  5
1C3ED
102
{ACAD_REACTORS
330
1C594
102
}
330
1F
100
AcDbEntity
  8
Blech
370
    15
100
AcDbLine
 10
362.5092343524182
 20
204.4093467786581
 30
0.0
 11
363.5092345163309
 21
204.4093467786581
 31
0.0
  0
LINE
  5
1C3EE
102
{ACAD_REACTORS
330
1C594
102
}
330
1F
100
AcDbEntity
  8
Blech
370
    15
100
AcDbLine
 10
363.0092344343745
 20
204.1693468138248
 30
0.0
 11
363.5092345163309
 21
204.1693468138248
 31
0.0
  0
LINE
  5
1C3EF
102
{ACAD_REACTORS
330
1C594
102
}
330
1F
100
AcDbEntity
  8
Blech
370
    15
100
AcDbLine
 10
363.0092344343745
 20
204.1693468138248
 30
0.0
 11
363.0092344343745
 21
204.4093467786581
 31
0.0
  0
LINE
  5
1C3F0
102
{ACAD_REACTORS
330
1C594
102
}
330
1F
100
AcDbEntity
  8
Blech
370
    15
100
AcDbLine
 10
365.0092347622001
 20
204.009347458151
 30
0.0
 11
364.5092346802437
 21
204.009347458151
 31
0.0
  0
LINE
  5
1C3F1
102
{ACAD_REACTORS
330
1C594
102
}
330
1F
100
AcDbEntity
  8
Blech
370
    15
100
AcDbLine
 10
365.0092347622001
 20
203.5845879956752
 30
0.0
 11
365.0092347622001
 21
204.009347458151
 31
0.0
  0
LINE
  5
1C3F2
102
{ACAD_REACTORS
330
1C594
102
}
330
1F
100
AcDbEntity
  8
Blech
370
    15
100
AcDbLine
 10
364.9592339158141
 20
203.0593481406242
 30
0.0
 11
364.8392339333975
 21
203.0593481406242
 31
0.0
  0
LINE
  5
1C3F3
102
{ACAD_REACTORS
330
1C594
102
}
330
1F
100
AcDbEntity
  8
Blech
370
    15
100
AcDbLine
 10
364.8392339333975
 20
202.9843468710453
 30
0.0
 11
364.8392339333975
 21
203.2843482240707
 31
0.0
  0
LINE
  5
1C3F4
102
{ACAD_REACTORS
330
1C594
102
}
330
1F
100
AcDbEntity
  8
Blech
370
    15
100
AcDbLine
 10
364.8392339333975
 20
203.2843482240707
 30
0.0
 11
364.5092346802437
 21
203.2843482240707
 31
0.0
  0
LINE
  5
1C3F5
102
{ACAD_REACTORS
330
1C594
102
}
330
1F
100
AcDbEntity
  8
Blech
370
    15
100
AcDbLine
 10
364.8392339333975
 20
202.9843468710453
 30
0.0
 11
364.5092346802437
 21
202.9843468710453
 31
0.0
  0
LINE
  5
1C3F6
102
{ACAD_REACTORS
330
1C594
102
}
330
1F
100
AcDbEntity
  8
Blech
370
    15
100
AcDbLine
 10
359.5092347920024
 20
216.234127853778
 30
0.0
 11
362.1092341005885
 21
216.234127853778
 31
0.0
  0
LINE
  5
1C3F7
102
{ACAD_REACTORS
330
1C594
102
}
330
1F
100
AcDbEntity
  8
Blech
370
    15
100
AcDbLine
 10
359.5092347920024
 20
211.2345684811145
 30
0.0
 11
360.5092349559152
 21
211.2345684811145
 31
0.0
  0
LINE
  5
1C3F8
102
{ACAD_REACTORS
330
1C594
102
}
330
1F
100
AcDbEntity
  8
Blech
370
    15
100
AcDbLine
 10
359.5092347920024
 20
211.2345684811145
 30
0.0
 11
359.5092347920024
 21
216.234127853778
 31
0.0
  0
LINE
  5
1C3F9
102
{ACAD_REACTORS
330
1C594
102
}
330
1F
100
AcDbEntity
  8
Blech
370
    15
100
AcDbLine
 10
365.6092346742832
 20
212.0337959870369
 30
0.0
 11
365.6092346742832
 21
212.0345857485801
 31
0.0
  0
LINE
  5
1C3FA
102
{ACAD_REACTORS
330
1C594
102
}
330
1F
100
AcDbEntity
  8
Blech
370
    15
100
AcDbLine
 10
360.5092349559152
 20
219.6343493207962
 30
0.0
 11
362.1092341005885
 21
219.6343493207962
 31
0.0
  0
LINE
  5
1C3FB
102
{ACAD_REACTORS
330
1C594
102
}
330
1F
100
AcDbEntity
  8
Blech
370
    15
100
AcDbLine
 10
360.5092349559152
 20
219.6343493207962
 30
0.0
 11
360.5092349559152
 21
224.6343482777149
 31
0.0
  0
LINE
  5
1C3FC
102
{ACAD_REACTORS
330
1C594
102
}
330
1F
100
AcDbEntity
  8
Blech
370
    15
100
AcDbLine
 10
360.5092349559152
 20
224.6343482777149
 30
0.0
 11
361.3948053777301
 21
224.6343482777149
 31
0.0
  0
LINE
  5
1C3FD
102
{ACAD_REACTORS
330
1C594
102
}
330
1F
100
AcDbEntity
  8
Blech
370
    15
100
AcDbLine
 10
362.5092343524182
 20
202.4093483134777
 30
0.0
 11
363.5092345163309
 21
202.4093483134777
 31
0.0
  0
LINE
  5
1C3FE
102
{ACAD_REACTORS
330
1C594
102
}
330
1F
100
AcDbEntity
  8
Blech
370
    15
100
AcDbLine
 10
362.5092343524182
 20
202.4093483134777
 30
0.0
 11
362.5092343524182
 21
203.6593471213848
 31
0.0
  0
LINE
  5
1C3FF
102
{ACAD_REACTORS
330
1C594
102
}
330
1F
100
AcDbEntity
  8
Blech
370
    15
100
AcDbLine
 10
362.5092343524182
 20
203.6593471213848
 30
0.0
 11
363.5092345163309
 21
203.6593471213848
 31
0.0
  0
LINE
  5
1C400
102
{ACAD_REACTORS
330
1C594
102
}
330
1F
100
AcDbEntity
  8
Blech
370
    15
100
AcDbLine
 10
363.5092345163309
 20
229.0345866724521
 30
0.0
 11
364.1092344284141
 21
229.0345866724521
 31
0.0
  0
LINE
  5
1C401
102
{ACAD_REACTORS
330
1C594
102
}
330
1F
100
AcDbEntity
  8
Blech
370
    15
100
AcDbLine
 10
363.5092345163309
 20
199.8345878466636
 30
0.0
 11
363.5092345163309
 21
205.4855589314968
 31
0.0
  0
LINE
  5
1C402
102
{ACAD_REACTORS
330
1C594
102
}
330
1F
100
AcDbEntity
  8
Blech
370
    15
100
AcDbLine
 10
363.5092345163309
 20
211.1895893260509
 30
0.0
 11
363.5092345163309
 21
214.0345860764057
 31
0.0
  0
LINE
  5
1C403
102
{ACAD_REACTORS
330
1C594
102
}
330
1F
100
AcDbEntity
  8
Blech
370
    15
100
AcDbLine
 10
363.5092345163309
 20
219.7345857068569
 30
0.0
 11
363.5092345163309
 21
220.5895882591278
 31
0.0
  0
LINE
  5
1C404
102
{ACAD_REACTORS
330
1C594
102
}
330
1F
100
AcDbEntity
  8
Blech
370
    15
100
AcDbLine
 10
363.5092345163309
 20
224.0850691243679
 30
0.0
 11
363.5092345163309
 21
229.0345866724521
 31
0.0
  0
LINE
  5
1C405
102
{ACAD_REACTORS
330
1C594
102
}
330
1F
100
AcDbEntity
  8
Blech
370
    15
100
AcDbLine
 10
364.5092346802437
 20
199.8345878466636
 30
0.0
 11
364.5092346802437
 21
205.4855589314968
 31
0.0
  0
LINE
  5
1C406
102
{ACAD_REACTORS
330
1C594
102
}
330
1F
100
AcDbEntity
  8
Blech
370
    15
100
AcDbLine
 10
364.5092346802437
 20
212.0337959870369
 30
0.0
 11
364.5092346802437
 21
212.0345857485801
 31
0.0
  0
LINE
  5
1C407
102
{ACAD_REACTORS
330
1C594
102
}
330
1F
100
AcDbEntity
  8
Blech
370
    15
100
AcDbLine
 10
364.5092346802437
 20
213.6345867558986
 30
0.0
 11
364.5092346802437
 21
214.0345860764057
 31
0.0
  0
LINE
  5
1C408
102
{ACAD_REACTORS
330
1C594
102
}
330
1F
100
AcDbEntity
  8
Blech
370
    15
100
AcDbLine
 10
364.5092346802437
 20
220.4366986199886
 30
0.0
 11
364.5092346802437
 21
220.5895882591278
 31
0.0
  0
LINE
  5
1C409
102
{ACAD_REACTORS
330
1C594
102
}
330
1F
100
AcDbEntity
  8
Blech
370
    15
100
AcDbLine
 10
362.6942341312849
 20
176.8345875691295
 30
0.0
 11
362.6942341312849
 21
175.9845873832375
 31
0.0
  0
LINE
  5
1C40A
102
{ACAD_REACTORS
330
1C594
102
}
330
1F
100
AcDbEntity
  8
Blech
370
    15
100
AcDbLine
 10
362.6942341312849
 20
175.9845873832375
 30
0.0
 11
362.6942341312849
 21
175.3557113490671
 31
0.0
  0
LINE
  5
1C40B
102
{ACAD_REACTORS
330
1C594
102
}
330
1F
100
AcDbEntity
  8
Blech
370
    15
100
AcDbLine
 10
362.6942341312849
 20
175.3557113490671
 30
0.0
 11
362.6942341312849
 21
174.1343674741358
 31
0.0
  0
LINE
  5
1C40C
102
{ACAD_REACTORS
330
1C594
102
}
330
1F
100
AcDbEntity
  8
Blech
370
    15
100
AcDbLine
 10
362.6592340976083
 20
164.2345877855689
 30
0.0
 11
362.6592340976083
 21
165.8348076536924
 31
0.0
  0
LINE
  5
1C40D
102
{ACAD_REACTORS
330
1C594
102
}
330
1F
100
AcDbEntity
  8
Blech
370
    15
100
AcDbLine
 10
362.1092341005885
 20
164.2345877855689
 30
0.0
 11
362.1092341005885
 21
165.8348076536924
 31
0.0
  0
LINE
  5
1C40E
102
{ACAD_REACTORS
330
1C594
102
}
330
1F
100
AcDbEntity
  8
Blech
370
    15
100
AcDbLine
 10
362.6592340976083
 20
164.2345877855689
 30
0.0
 11
362.1092341005885
 21
164.2345877855689
 31
0.0
  0
LINE
  5
1C40F
102
{ACAD_REACTORS
330
1C594
102
}
330
1F
100
AcDbEntity
  8
Blech
370
    15
100
AcDbLine
 10
364.1092344284141
 20
164.2345877855689
 30
0.0
 11
362.6592340976083
 21
164.2345877855689
 31
0.0
  0
LINE
  5
1C410
102
{ACAD_REACTORS
330
1C594
102
}
330
1F
100
AcDbEntity
  8
Blech
370
    15
100
AcDbLine
 10
364.8442342043006
 20
200.1845881834299
 30
0.0
 11
365.1092345923269
 21
200.1845881834299
 31
0.0
  0
ARC
  5
1C411
102
{ACAD_REACTORS
330
1C594
102
}
330
1F
100
AcDbEntity
  8
Blech
370
    15
100
AcDbCircle
 10
364.8442343628491
 20
200.3845874830751
 30
0.0
 40
0.2000000000001178
100
AcDbArc
 50
198.0000000001934
 51
270.0
  0
LINE
  5
1C412
102
{ACAD_REACTORS
330
1C594
102
}
330
1F
100
AcDbEntity
  8
Blech
370
    15
100
AcDbLine
 10
364.5092346802437
 20
200.7683970525533
 30
0.0
 11
364.6540227443063
 21
200.3227834149868
 31
0.0
  0
LINE
  5
1C413
102
{ACAD_REACTORS
330
1C594
102
}
330
1F
100
AcDbEntity
  8
Blech
370
    15
100
AcDbLine
 10
362.6942341312849
 20
204.4093467786581
 30
0.0
 11
362.6942341312849
 21
204.034347881344
 31
0.0
  0
LINE
  5
1C414
102
{ACAD_REACTORS
330
1C594
102
}
330
1F
100
AcDbEntity
  8
Blech
370
    15
100
AcDbLine
 10
362.0092342704618
 20
216.234127853778
 30
0.0
 11
362.0092342704618
 21
219.6343493207962
 31
0.0
  0
LINE
  5
1C415
102
{ACAD_REACTORS
330
1C594
102
}
330
1F
100
AcDbEntity
  8
Blech
370
    15
100
AcDbLine
 10
362.0092342704618
 20
165.0345873579055
 30
0.0
 11
362.0092342704618
 21
171.3845875139952
 31
0.0
  0
LINE
  5
1C416
102
{ACAD_REACTORS
330
1C594
102
}
330
1F
100
AcDbEntity
  8
Blech
370
    15
100
AcDbLine
 10
362.0092342704618
 20
171.3845875139952
 30
0.0
 11
362.1092341005885
 21
171.3845875139952
 31
0.0
  0
LINE
  5
1C417
102
{ACAD_REACTORS
330
1C594
102
}
330
1F
100
AcDbEntity
  8
Blech
370
    15
100
AcDbLine
 10
362.6592340976083
 20
165.0345873579055
 30
0.0
 11
362.6592340976083
 21
165.8348076536924
 31
0.0
  0
LINE
  5
1C418
102
{ACAD_REACTORS
330
1C594
102
}
330
1F
100
AcDbEntity
  8
Blech
370
    15
100
AcDbLine
 10
362.6592340976083
 20
165.0345873579055
 30
0.0
 11
362.0092342704618
 21
165.0345873579055
 31
0.0
  0
LINE
  5
1C419
102
{ACAD_REACTORS
330
1C594
102
}
330
1F
100
AcDbEntity
  8
Blech
370
    15
100
AcDbLine
 10
362.6942341312849
 20
176.4345875501305
 30
0.0
 11
362.5942343011582
 21
176.4345875501305
 31
0.0
  0
LINE
  5
1C41A
102
{ACAD_REACTORS
330
1C594
102
}
330
1F
100
AcDbEntity
  8
Blech
370
    15
100
AcDbLine
 10
362.1092341005885
 20
171.534587492016
 30
0.0
 11
362.0092342704618
 21
171.534587492016
 31
0.0
  0
LINE
  5
1C41B
102
{ACAD_REACTORS
330
1C594
102
}
330
1F
100
AcDbEntity
  8
Blech
370
    15
100
AcDbLine
 10
362.0092342704618
 20
171.3845875139952
 30
0.0
 11
362.0092342704618
 21
171.534587492016
 31
0.0
  0
LINE
  5
1C41C
102
{ACAD_REACTORS
330
1C594
102
}
330
1F
100
AcDbEntity
  8
Blech
370
    15
100
AcDbLine
 10
366.1092347562396
 20
140.3345864757568
 30
0.0
 11
367.5952344298446
 21
140.3345864757568
 31
0.0
  0
LINE
  5
1C41D
102
{ACAD_REACTORS
330
1C594
102
}
330
1F
100
AcDbEntity
  8
Blech
370
    15
100
AcDbLine
 10
367.5952344298446
 20
140.3345864757568
 30
0.0
 11
367.5952344298446
 21
252.3345862075359
 31
0.0
  0
LINE
  5
1C41E
102
{ACAD_REACTORS
330
1C594
102
}
330
1F
100
AcDbEntity
  8
Blech
370
    15
100
AcDbLine
 10
366.1092347562396
 20
140.3345864757568
 30
0.0
 11
366.1092347562396
 21
252.3345862075359
 31
0.0
  0
LINE
  5
1C41F
102
{ACAD_REACTORS
330
1C594
102
}
330
1F
100
AcDbEntity
  8
Blech
370
    15
100
AcDbLine
 10
366.1092347562396
 20
252.3345862075359
 30
0.0
 11
367.5952344298446
 21
252.3345862075359
 31
0.0
  0
LINE
  5
1C420
102
{ACAD_REACTORS
330
1C594
102
}
330
1F
100
AcDbEntity
  8
Blech
370
    15
100
AcDbLine
 10
364.0092345982873
 20
155.3345870718032
 30
0.0
 11
364.9592339158141
 21
155.3345870718032
 31
0.0
  0
LINE
  5
1C421
102
{ACAD_REACTORS
330
1C594
102
}
330
1F
100
AcDbEntity
  8
Blech
370
    15
100
AcDbLine
 10
364.0092345982873
 20
155.3345870718032
 30
0.0
 11
364.0092345982873
 21
156.6345867260963
 31
0.0
  0
LINE
  5
1C422
102
{ACAD_REACTORS
330
1C594
102
}
330
1F
100
AcDbEntity
  8
Blech
370
    15
100
AcDbLine
 10
364.0092345982873
 20
156.6345867260963
 30
0.0
 11
366.1092347562396
 21
156.6345867260963
 31
0.0
  0
LINE
  5
1C423
102
{ACAD_REACTORS
330
1C594
102
}
330
1F
100
AcDbEntity
  8
Blech
370
    15
100
AcDbLine
 10
364.0092345982873
 20
156.6345867260963
 30
0.0
 11
364.0092345982873
 21
159.5855875432164
 31
0.0
  0
LINE
  5
1C424
102
{ACAD_REACTORS
330
1C594
102
}
330
1F
100
AcDbEntity
  8
Blech
370
    15
100
AcDbLine
 10
364.9592339158141
 20
202.0845868184835
 30
0.0
 11
365.1092345923269
 21
202.0845868184835
 31
0.0
  0
LINE
  5
1C425
102
{ACAD_REACTORS
330
1C594
102
}
330
1F
100
AcDbEntity
  8
Blech
370
    15
100
AcDbLine
 10
364.9592339158141
 20
203.5845879956752
 30
0.0
 11
366.1092347562396
 21
203.5845879956752
 31
0.0
  0
LINE
  5
1C426
102
{ACAD_REACTORS
330
1C594
102
}
330
1F
100
AcDbEntity
  8
Blech
370
    15
100
AcDbLine
 10
364.9592339158141
 20
202.0845868184835
 30
0.0
 11
364.9592339158141
 21
203.5845879956752
 31
0.0
  0
LINE
  5
1C427
102
{ACAD_REACTORS
330
1C594
102
}
330
1F
100
AcDbEntity
  8
Blech
370
    15
100
AcDbLine
 10
365.5592347592199
 20
142.3645865663559
 30
0.0
 11
366.0092339947903
 21
142.3645865663559
 31
0.0
  0
LINE
  5
1C428
102
{ACAD_REACTORS
330
1C594
102
}
330
1F
100
AcDbEntity
  8
Blech
370
    15
100
AcDbLine
 10
365.5592347592199
 20
142.3645865663559
 30
0.0
 11
365.5592347592199
 21
142.5040167316467
 31
0.0
  0
LINE
  5
1C429
102
{ACAD_REACTORS
330
1C594
102
}
330
1F
100
AcDbEntity
  8
Blech
370
    15
100
AcDbLine
 10
364.1092344284141
 20
246.734580819276
 30
0.0
 11
365.1092345923269
 21
246.734580819276
 31
0.0
  0
LINE
  5
1C42A
102
{ACAD_REACTORS
330
1C594
102
}
330
1F
100
AcDbEntity
  8
Blech
370
    15
100
AcDbLine
 10
364.1092344284141
 20
246.734580819276
 30
0.0
 11
364.1092344284141
 21
247.2345892831356
 31
0.0
  0
LINE
  5
1C42B
102
{ACAD_REACTORS
330
1C594
102
}
330
1F
100
AcDbEntity
  8
Blech
370
    15
100
AcDbLine
 10
364.1092344284141
 20
248.8345865651638
 30
0.0
 11
364.1092344284141
 21
249.5345909639865
 31
0.0
  0
LINE
  5
1C42C
102
{ACAD_REACTORS
330
1C594
102
}
330
1F
100
AcDbEntity
  8
Blech
370
    15
100
AcDbLine
 10
365.1092345923269
 20
222.2095866247684
 30
0.0
 11
366.1092347562396
 21
222.2095866247684
 31
0.0
  0
LINE
  5
1C42D
102
{ACAD_REACTORS
330
1C594
102
}
330
1F
100
AcDbEntity
  8
Blech
370
    15
100
AcDbLine
 10
365.1092345923269
 20
222.2095866247684
 30
0.0
 11
365.1092345923269
 21
222.7095876380474
 31
0.0
  0
LINE
  5
1C42E
102
{ACAD_REACTORS
330
1C594
102
}
330
1F
100
AcDbEntity
  8
Blech
370
    15
100
AcDbLine
 10
360.109233772763
 20
151.8336169913084
 30
0.0
 11
360.609234786042
 21
151.8336169913084
 31
0.0
  0
LINE
  5
1C42F
102
{ACAD_REACTORS
330
1C594
102
}
330
1F
100
AcDbEntity
  8
Blech
370
    15
100
AcDbLine
 10
360.109233772763
 20
151.8336169913084
 30
0.0
 11
360.109233772763
 21
151.8345874294311
 31
0.0
  0
LINE
  5
1C430
102
{ACAD_REACTORS
330
1C594
102
}
330
1F
100
AcDbEntity
  8
Blech
370
    15
100
AcDbLine
 10
360.109233772763
 20
156.834588248995
 30
0.0
 11
360.109233772763
 21
158.8186173259884
 31
0.0
  0
LINE
  5
1C431
102
{ACAD_REACTORS
330
1C594
102
}
330
1F
100
AcDbEntity
  8
Blech
370
    15
100
AcDbLine
 10
360.109233772763
 20
158.8186173259884
 30
0.0
 11
361.6092340186322
 21
158.8186173259884
 31
0.0
  0
LINE
  5
1C432
102
{ACAD_REACTORS
330
1C594
102
}
330
1F
100
AcDbEntity
  8
Blech
370
    15
100
AcDbLine
 10
361.6092340186322
 20
149.7345872714788
 30
0.0
 11
361.6092340186322
 21
161.2345872938305
 31
0.0
  0
LINE
  5
1C433
102
{ACAD_REACTORS
330
1C594
102
}
330
1F
100
AcDbEntity
  8
Blech
370
    15
100
AcDbLine
 10
361.6092340186322
 20
161.2345872938305
 30
0.0
 11
363.9948046863162
 21
161.2345872938305
 31
0.0
  0
LINE
  5
1C434
102
{ACAD_REACTORS
330
1C594
102
}
330
1F
100
AcDbEntity
  8
Blech
370
    15
100
AcDbLine
 10
361.6092340186322
 20
149.7345872714788
 30
0.0
 11
363.6993155911648
 21
149.7345872714788
 31
0.0
  0
LINE
  5
1C435
102
{ACAD_REACTORS
330
1C594
102
}
330
1F
100
AcDbEntity
  8
Blech
370
    15
100
AcDbLine
 10
361.1092339366758
 20
230.9845861538917
 30
0.0
 11
365.1092345923269
 21
230.9845861538917
 31
0.0
  0
LINE
  5
1C436
102
{ACAD_REACTORS
330
1C594
102
}
330
1F
100
AcDbEntity
  8
Blech
370
    15
100
AcDbLine
 10
361.1092339366758
 20
243.6845887943775
 30
0.0
 11
366.1092347562396
 21
243.6845887943775
 31
0.0
  0
LINE
  5
1C437
102
{ACAD_REACTORS
330
1C594
102
}
330
1F
100
AcDbEntity
  8
Blech
370
    15
100
AcDbLine
 10
361.1092339366758
 20
230.9845861538917
 30
0.0
 11
361.1092339366758
 21
234.7945858284504
 31
0.0
  0
LINE
  5
1C438
102
{ACAD_REACTORS
330
1C594
102
}
330
1F
100
AcDbEntity
  8
Blech
370
    15
100
AcDbLine
 10
361.1092339366758
 20
239.8745853945285
 30
0.0
 11
361.1092339366758
 21
243.6845887943775
 31
0.0
  0
LINE
  5
1C439
102
{ACAD_REACTORS
330
1C594
102
}
330
1F
100
AcDbEntity
  8
Blech
370
    15
100
AcDbLine
 10
354.6092338025653
 20
199.8345878466636
 30
0.0
 11
366.1092347562396
 21
199.8345878466636
 31
0.0
  0
LINE
  5
1C43A
102
{ACAD_REACTORS
330
1C594
102
}
330
1F
100
AcDbEntity
  8
Blech
370
    15
100
AcDbLine
 10
354.6092338025653
 20
176.8345875691295
 30
0.0
 11
366.1092347562396
 21
176.8345875691295
 31
0.0
  0
LINE
  5
1C43B
102
{ACAD_REACTORS
330
1C594
102
}
330
1F
100
AcDbEntity
  8
Blech
370
    15
100
AcDbLine
 10
354.6092338025653
 20
176.8345875691295
 30
0.0
 11
354.6092338025653
 21
199.8345878466636
 31
0.0
  0
LINE
  5
1C43C
102
{ACAD_REACTORS
330
1C594
102
}
330
1F
100
AcDbEntity
  8
Blech
370
    15
100
AcDbLine
 10
365.1092345923269
 20
214.8345958932907
 30
0.0
 11
365.1092345923269
 21
215.6345982595951
 31
0.0
  0
LINE
  5
1C43D
102
{ACAD_REACTORS
330
1C594
102
}
330
1F
100
AcDbEntity
  8
Blech
370
    15
100
AcDbLine
 10
365.1092345923269
 20
215.6345982595951
 30
0.0
 11
366.1092347562396
 21
215.6345982595951
 31
0.0
  0
LINE
  5
1C43E
102
{ACAD_REACTORS
330
1C594
102
}
330
1F
100
AcDbEntity
  8
Blech
370
    15
100
AcDbLine
 10
365.1092345923269
 20
214.8345958932907
 30
0.0
 11
366.1092347562396
 21
214.8345958932907
 31
0.0
  0
LINE
  5
1C43F
102
{ACAD_REACTORS
330
1C594
102
}
330
1F
100
AcDbEntity
  8
Blech
370
    15
100
AcDbLine
 10
355.6092339664781
 20
173.8345874848448
 30
0.0
 11
355.6092339664781
 21
176.8345875691295
 31
0.0
  0
LINE
  5
1C440
102
{ACAD_REACTORS
330
1C594
102
}
330
1F
100
AcDbEntity
  8
Blech
370
    15
100
AcDbLine
 10
355.6092339664781
 20
163.8350178047687
 30
0.0
 11
355.6092339664781
 21
173.8345874848448
 31
0.0
  0
LINE
  5
1C441
102
{ACAD_REACTORS
330
1C594
102
}
330
1F
100
AcDbEntity
  8
Blech
370
    15
100
AcDbLine
 10
355.6092339664781
 20
163.8350178047687
 30
0.0
 11
361.5092341885054
 21
163.8350178047687
 31
0.0
  0
LINE
  5
1C442
102
{ACAD_REACTORS
330
1C594
102
}
330
1F
100
AcDbEntity
  8
Blech
370
    15
100
AcDbLine
 10
355.6092339664781
 20
173.8345874848448
 30
0.0
 11
360.109233772763
 21
173.8345874848448
 31
0.0
  0
LINE
  5
1C443
102
{ACAD_REACTORS
330
1C594
102
}
330
1F
100
AcDbEntity
  8
Blech
370
    15
100
AcDbLine
 10
365.1092345923269
 20
151.4595866694719
 30
0.0
 11
365.1092345923269
 21
152.4345882728368
 31
0.0
  0
LINE
  5
1C444
102
{ACAD_REACTORS
330
1C594
102
}
330
1F
100
AcDbEntity
  8
Blech
370
    15
100
AcDbLine
 10
366.0092339947903
 20
141.7045880600483
 30
0.0
 11
366.0092339947903
 21
144.9645877375871
 31
0.0
  0
LINE
  5
1C445
102
{ACAD_REACTORS
330
1C594
102
}
330
1F
100
AcDbEntity
  8
Blech
370
    15
100
AcDbLine
 10
365.1092345923269
 20
222.1345890804798
 30
0.0
 11
366.1092347562396
 21
222.1345890804798
 31
0.0
  0
LINE
  5
1C446
102
{ACAD_REACTORS
330
1C594
102
}
330
1F
100
AcDbEntity
  8
Blech
370
    15
100
AcDbLine
 10
365.1092345923269
 20
221.3345867141754
 30
0.0
 11
366.1092347562396
 21
221.3345867141754
 31
0.0
  0
LINE
  5
1C447
102
{ACAD_REACTORS
330
1C594
102
}
330
1F
100
AcDbEntity
  8
Blech
370
    15
100
AcDbLine
 10
365.1092345923269
 20
221.3345867141754
 30
0.0
 11
365.1092345923269
 21
222.1345890804798
 31
0.0
  0
LINE
  5
1C448
102
{ACAD_REACTORS
330
1C594
102
}
330
1F
100
AcDbEntity
  8
Blech
370
    15
100
AcDbLine
 10
365.1092345923269
 20
158.2345877334148
 30
0.0
 11
366.1092347562396
 21
158.2345877334148
 31
0.0
  0
LINE
  5
1C449
102
{ACAD_REACTORS
330
1C594
102
}
330
1F
100
AcDbEntity
  8
Blech
370
    15
100
AcDbLine
 10
365.1092345923269
 20
157.4345872297556
 30
0.0
 11
365.1092345923269
 21
158.2345877334148
 31
0.0
  0
LINE
  5
1C44A
102
{ACAD_REACTORS
330
1C594
102
}
330
1F
100
AcDbEntity
  8
Blech
370
    15
100
AcDbLine
 10
365.1092345923269
 20
157.4345872297556
 30
0.0
 11
366.1092347562396
 21
157.4345872297556
 31
0.0
  0
LINE
  5
1C44B
102
{ACAD_REACTORS
330
1C594
102
}
330
1F
100
AcDbEntity
  8
Blech
370
    15
100
AcDbLine
 10
365.1092345923269
 20
220.4366986199886
 30
0.0
 11
365.1092345923269
 21
220.5345880731613
 31
0.0
  0
LINE
  5
1C44C
102
{ACAD_REACTORS
330
1C594
102
}
330
1F
100
AcDbEntity
  8
Blech
370
    15
100
AcDbLine
 10
365.1092345923269
 20
220.5345880731613
 30
0.0
 11
366.1092347562396
 21
220.5345880731613
 31
0.0
  0
LINE
  5
1C44D
102
{ACAD_REACTORS
330
1C594
102
}
330
1F
100
AcDbEntity
  8
Blech
370
    15
100
AcDbLine
 10
365.1092345923269
 20
152.4345882728368
 30
0.0
 11
366.1092347562396
 21
152.4345882728368
 31
0.0
  0
LINE
  5
1C44E
102
{ACAD_REACTORS
330
1C594
102
}
330
1F
100
AcDbEntity
  8
Blech
370
    15
100
AcDbLine
 10
365.1092345923269
 20
153.2345869138509
 30
0.0
 11
366.1092347562396
 21
153.2345869138509
 31
0.0
  0
LINE
  5
1C44F
102
{ACAD_REACTORS
330
1C594
102
}
330
1F
100
AcDbEntity
  8
Blech
370
    15
100
AcDbLine
 10
365.1092345923269
 20
152.4345882728368
 30
0.0
 11
365.1092345923269
 21
153.2345869138509
 31
0.0
  0
LINE
  5
1C450
102
{ACAD_REACTORS
330
1C594
102
}
330
1F
100
AcDbEntity
  8
Blech
370
    15
100
AcDbLine
 10
364.1092344284141
 20
249.5345909639865
 30
0.0
 11
366.0092339947903
 21
249.5345909639865
 31
0.0
  0
LINE
  5
1C451
102
{ACAD_REACTORS
330
1C594
102
}
330
1F
100
AcDbEntity
  8
Blech
370
    15
100
AcDbLine
 10
364.1092344284141
 20
251.1345882460147
 30
0.0
 11
366.0092339947903
 21
251.1345882460147
 31
0.0
  0
LINE
  5
1C452
102
{ACAD_REACTORS
330
1C594
102
}
330
1F
100
AcDbEntity
  8
Blech
370
    15
100
AcDbLine
 10
364.1092344284141
 20
249.5345909639865
 30
0.0
 11
364.1092344284141
 21
251.1345882460147
 31
0.0
  0
LINE
  5
1C453
102
{ACAD_REACTORS
330
1C594
102
}
330
1F
100
AcDbEntity
  8
Blech
370
    15
100
AcDbLine
 10
363.7092341765845
 20
164.7811875238687
 30
0.0
 11
363.7092341765845
 21
171.279347480987
 31
0.0
  0
LINE
  5
1C454
102
{ACAD_REACTORS
330
1C594
102
}
330
1F
100
AcDbEntity
  8
Blech
370
    15
100
AcDbLine
 10
363.7092341765845
 20
164.7811875238687
 30
0.0
 11
366.1092347562396
 21
164.7811875238687
 31
0.0
  0
LINE
  5
1C455
102
{ACAD_REACTORS
330
1C594
102
}
330
1F
100
AcDbEntity
  8
Blech
370
    15
100
AcDbLine
 10
363.7092341765845
 20
171.279347480987
 30
0.0
 11
366.1092347562396
 21
171.279347480987
 31
0.0
  0
LINE
  5
1C456
102
{ACAD_REACTORS
330
1C594
102
}
330
1F
100
AcDbEntity
  8
Blech
370
    15
100
AcDbLine
 10
364.9092340007508
 20
230.8345873400241
 30
0.0
 11
365.1092345923269
 21
230.8345873400241
 31
0.0
  0
LINE
  5
1C457
102
{ACAD_REACTORS
330
1C594
102
}
330
1F
100
AcDbEntity
  8
Blech
370
    15
100
AcDbLine
 10
364.9092340007508
 20
230.8345873400241
 30
0.0
 11
364.9092340007508
 21
230.8718067153961
 31
0.0
  0
LINE
  5
1C458
102
{ACAD_REACTORS
330
1C594
102
}
330
1F
100
AcDbEntity
  8
Blech
370
    15
100
AcDbLine
 10
360.109233772763
 20
234.6336160346538
 30
0.0
 11
361.0292342588389
 21
234.6336160346538
 31
0.0
  0
LINE
  5
1C459
102
{ACAD_REACTORS
330
1C594
102
}
330
1F
100
AcDbEntity
  8
Blech
370
    15
100
AcDbLine
 10
360.109233772763
 20
234.6336160346538
 30
0.0
 11
360.109233772763
 21
234.8345879956752
 31
0.0
  0
LINE
  5
1C45A
102
{ACAD_REACTORS
330
1C594
102
}
330
1F
100
AcDbEntity
  8
Blech
370
    15
100
AcDbLine
 10
360.109233772763
 20
239.8345906778843
 30
0.0
 11
360.109233772763
 21
241.6186173006565
 31
0.0
  0
LINE
  5
1C45B
102
{ACAD_REACTORS
330
1C594
102
}
330
1F
100
AcDbEntity
  8
Blech
370
    15
100
AcDbLine
 10
360.109233772763
 20
241.6186173006565
 30
0.0
 11
361.0292342588389
 21
241.6186173006565
 31
0.0
  0
LINE
  5
1C45C
102
{ACAD_REACTORS
330
1C594
102
}
330
1F
100
AcDbEntity
  8
Blech
370
    15
100
AcDbLine
 10
365.1092345923269
 20
249.0595791980297
 30
0.0
 11
366.0092339947903
 21
249.0595791980297
 31
0.0
  0
LINE
  5
1C45D
102
{ACAD_REACTORS
330
1C594
102
}
330
1F
100
AcDbEntity
  8
Blech
370
    15
100
AcDbLine
 10
365.1092345923269
 20
248.8345865651638
 30
0.0
 11
365.1092345923269
 21
249.0595791980297
 31
0.0
  0
LINE
  5
1C45E
102
{ACAD_REACTORS
330
1C594
102
}
330
1F
100
AcDbEntity
  8
Blech
370
    15
100
AcDbLine
 10
362.1092341005885
 20
220.5895882591278
 30
0.0
 11
364.9092340007508
 21
220.5895882591278
 31
0.0
  0
LINE
  5
1C45F
102
{ACAD_REACTORS
330
1C594
102
}
330
1F
100
AcDbEntity
  8
Blech
370
    15
100
AcDbLine
 10
362.1092341005885
 20
220.5895882591278
 30
0.0
 11
362.1092341005885
 21
224.0850691243679
 31
0.0
  0
LINE
  5
1C460
102
{ACAD_REACTORS
330
1C594
102
}
330
1F
100
AcDbEntity
  8
Blech
370
    15
100
AcDbLine
 10
362.1092341005885
 20
224.0850691243679
 30
0.0
 11
364.2121269464576
 21
224.0850691243679
 31
0.0
  0
LINE
  5
1C461
102
{ACAD_REACTORS
330
1C594
102
}
330
1F
100
AcDbEntity
  8
Blech
370
    15
100
AcDbLine
 10
364.1092344284141
 20
243.8345987841159
 30
0.0
 11
366.1092347562396
 21
243.8345987841159
 31
0.0
  0
LINE
  5
1C462
102
{ACAD_REACTORS
330
1C594
102
}
330
1F
100
AcDbEntity
  8
Blech
370
    15
100
AcDbLine
 10
364.1092344284141
 20
243.8345987841159
 30
0.0
 11
364.1092344284141
 21
244.8345859095127
 31
0.0
  0
LINE
  5
1C463
102
{ACAD_REACTORS
330
1C594
102
}
330
1F
100
AcDbEntity
  8
Blech
370
    15
100
AcDbLine
 10
365.1092345923269
 20
228.3171330138713
 30
0.0
 11
365.1092345923269
 21
229.8345890387565
 31
0.0
  0
LINE
  5
1C464
102
{ACAD_REACTORS
330
1C594
102
}
330
1F
100
AcDbEntity
  8
Blech
370
    15
100
AcDbLine
 10
365.1092345923269
 20
229.8345890387565
 30
0.0
 11
366.1092347562396
 21
229.8345890387565
 31
0.0
  0
LINE
  5
1C465
102
{ACAD_REACTORS
330
1C594
102
}
330
1F
100
AcDbEntity
  8
Blech
370
    15
100
AcDbLine
 10
362.1092341005885
 20
170.8345875169754
 30
0.0
 11
362.1092341005885
 21
174.1343674741358
 31
0.0
  0
LINE
  5
1C466
102
{ACAD_REACTORS
330
1C594
102
}
330
1F
100
AcDbEntity
  8
Blech
370
    15
100
AcDbLine
 10
362.1092341005885
 20
174.1343674741358
 30
0.0
 11
365.1092345923269
 21
174.1343674741358
 31
0.0
  0
LINE
  5
1C467
102
{ACAD_REACTORS
330
1C594
102
}
330
1F
100
AcDbEntity
  8
Blech
370
    15
100
AcDbLine
 10
364.9592339158141
 20
154.5845874145299
 30
0.0
 11
365.1092345923269
 21
154.5845874145299
 31
0.0
  0
LINE
  5
1C468
102
{ACAD_REACTORS
330
1C594
102
}
330
1F
100
AcDbEntity
  8
Blech
370
    15
100
AcDbLine
 10
364.9592339158141
 20
154.5845874145299
 30
0.0
 11
364.9592339158141
 21
156.0845867290765
 31
0.0
  0
LINE
  5
1C469
102
{ACAD_REACTORS
330
1C594
102
}
330
1F
100
AcDbEntity
  8
Blech
370
    15
100
AcDbLine
 10
364.9592339158141
 20
156.0845867290765
 30
0.0
 11
365.1092345923269
 21
156.0845867290765
 31
0.0
  0
LINE
  5
1C46A
102
{ACAD_REACTORS
330
1C594
102
}
330
1F
100
AcDbEntity
  8
Blech
370
    15
100
AcDbLine
 10
364.1092344284141
 20
247.2345892831356
 30
0.0
 11
364.1092344284141
 21
248.8345865651638
 31
0.0
  0
LINE
  5
1C46B
102
{ACAD_REACTORS
330
1C594
102
}
330
1F
100
AcDbEntity
  8
Blech
370
    15
100
AcDbLine
 10
364.1092344284141
 20
247.2345892831356
 30
0.0
 11
366.1092347562396
 21
247.2345892831356
 31
0.0
  0
LINE
  5
1C46C
102
{ACAD_REACTORS
330
1C594
102
}
330
1F
100
AcDbEntity
  8
Blech
370
    15
100
AcDbLine
 10
364.1092344284141
 20
248.8345865651638
 30
0.0
 11
366.0092339947903
 21
248.8345865651638
 31
0.0
  0
LINE
  5
1C46D
102
{ACAD_REACTORS
330
1C594
102
}
330
1F
100
AcDbEntity
  8
Blech
370
    15
100
AcDbLine
 10
364.1092344284141
 20
244.8345859095127
 30
0.0
 11
366.1092347562396
 21
244.8345859095127
 31
0.0
  0
LINE
  5
1C46E
102
{ACAD_REACTORS
330
1C594
102
}
330
1F
100
AcDbEntity
  8
Blech
370
    15
100
AcDbLine
 10
364.1092344284141
 20
246.4345906421215
 30
0.0
 11
366.1092347562396
 21
246.4345906421215
 31
0.0
  0
LINE
  5
1C46F
102
{ACAD_REACTORS
330
1C594
102
}
330
1F
100
AcDbEntity
  8
Blech
370
    15
100
AcDbLine
 10
364.1092344284141
 20
244.8345859095127
 30
0.0
 11
364.1092344284141
 21
246.4345906421215
 31
0.0
  0
LINE
  5
1C470
102
{ACAD_REACTORS
330
1C594
102
}
330
1F
100
AcDbEntity
  8
Blech
370
    15
100
AcDbLine
 10
364.3192346304738
 20
142.5845873102218
 30
0.0
 11
365.1092345923269
 21
142.5845873102218
 31
0.0
  0
LINE
  5
1C471
102
{ACAD_REACTORS
330
1C594
102
}
330
1F
100
AcDbEntity
  8
Blech
370
    15
100
AcDbLine
 10
364.3285301610911
 20
141.5845890089542
 30
0.0
 11
366.1092347562396
 21
141.5845890089542
 31
0.0
  0
LINE
  5
1C472
102
{ACAD_REACTORS
330
1C594
102
}
330
1F
100
AcDbEntity
  8
Blech
370
    15
100
AcDbLine
 10
364.1092344284141
 20
217.0366969450981
 30
0.0
 11
366.1092347562396
 21
217.0366969450981
 31
0.0
  0
LINE
  5
1C473
102
{ACAD_REACTORS
330
1C594
102
}
330
1F
100
AcDbEntity
  8
Blech
370
    15
100
AcDbLine
 10
364.1092344284141
 20
220.4366986199886
 30
0.0
 11
366.1092347562396
 21
220.4366986199886
 31
0.0
  0
LINE
  5
1C474
102
{ACAD_REACTORS
330
1C594
102
}
330
1F
100
AcDbEntity
  8
Blech
370
    15
100
AcDbLine
 10
364.1092344284141
 20
217.0366969450981
 30
0.0
 11
364.1092344284141
 21
220.4366986199886
 31
0.0
  0
LINE
  5
1C475
102
{ACAD_REACTORS
330
1C594
102
}
330
1F
100
AcDbEntity
  8
Blech
370
    15
100
AcDbLine
 10
364.1092344284141
 20
227.9345866784126
 30
0.0
 11
364.4048250377261
 21
227.9345866784126
 31
0.0
  0
LINE
  5
1C476
102
{ACAD_REACTORS
330
1C594
102
}
330
1F
100
AcDbEntity
  8
Blech
370
    15
100
AcDbLine
 10
364.1092344284141
 20
227.9345866784126
 30
0.0
 11
364.1092344284141
 21
229.5345876857311
 31
0.0
  0
LINE
  5
1C477
102
{ACAD_REACTORS
330
1C594
102
}
330
1F
100
AcDbEntity
  8
Blech
370
    15
100
AcDbLine
 10
364.1092344284141
 20
229.5345876857311
 30
0.0
 11
365.1092345923269
 21
229.5345876857311
 31
0.0
  0
LINE
  5
1C478
102
{ACAD_REACTORS
330
1C594
102
}
330
1F
100
AcDbEntity
  8
Blech
370
    15
100
AcDbLine
 10
364.1092344284141
 20
216.6345891102821
 30
0.0
 11
364.9092340007508
 21
216.6345891102821
 31
0.0
  0
LINE
  5
1C479
102
{ACAD_REACTORS
330
1C594
102
}
330
1F
100
AcDbEntity
  8
Blech
370
    15
100
AcDbLine
 10
364.1092344284141
 20
216.6345891102821
 30
0.0
 11
364.1092344284141
 21
217.0366969450981
 31
0.0
  0
LINE
  5
1C47A
102
{ACAD_REACTORS
330
1C594
102
}
330
1F
100
AcDbEntity
  8
Blech
370
    15
100
AcDbLine
 10
362.1092341005885
 20
170.8345875169754
 30
0.0
 11
363.7092341765845
 21
170.8345875169754
 31
0.0
  0
LINE
  5
1C47B
102
{ACAD_REACTORS
330
1C594
102
}
330
1F
100
AcDbEntity
  8
Blech
370
    15
100
AcDbLine
 10
362.1092341005885
 20
165.8348076536924
 30
0.0
 11
362.1092341005885
 21
170.8345875169754
 31
0.0
  0
LINE
  5
1C47C
102
{ACAD_REACTORS
330
1C594
102
}
330
1F
100
AcDbEntity
  8
Blech
370
    15
100
AcDbLine
 10
362.1092341005885
 20
165.8348076536924
 30
0.0
 11
363.7092341765845
 21
165.8348076536924
 31
0.0
  0
LINE
  5
1C47D
102
{ACAD_REACTORS
330
1C594
102
}
330
1F
100
AcDbEntity
  8
Blech
370
    15
100
AcDbLine
 10
364.9592339158141
 20
243.798239950803
 30
0.0
 11
364.9592339158141
 21
243.8345987841159
 31
0.0
  0
LINE
  5
1C47E
102
{ACAD_REACTORS
330
1C594
102
}
330
1F
100
AcDbEntity
  8
Blech
370
    15
100
AcDbLine
 10
365.1092345923269
 20
150.2095878615648
 30
0.0
 11
366.1092347562396
 21
150.2095878615648
 31
0.0
  0
LINE
  5
1C47F
102
{ACAD_REACTORS
330
1C594
102
}
330
1F
100
AcDbEntity
  8
Blech
370
    15
100
AcDbLine
 10
365.1092345923269
 20
151.4595866694719
 30
0.0
 11
366.1092347562396
 21
151.4595866694719
 31
0.0
  0
LINE
  5
1C480
102
{ACAD_REACTORS
330
1C594
102
}
330
1F
100
AcDbEntity
  8
Blech
370
    15
100
AcDbLine
 10
365.1092345923269
 20
150.2095878615648
 30
0.0
 11
365.1092345923269
 21
151.4595866694719
 31
0.0
  0
LINE
  5
1C481
102
{ACAD_REACTORS
330
1C594
102
}
330
1F
100
AcDbEntity
  8
Blech
370
    15
100
AcDbLine
 10
362.1092341005885
 20
205.4855589314968
 30
0.0
 11
366.1092347562396
 21
205.4855589314968
 31
0.0
  0
LINE
  5
1C482
102
{ACAD_REACTORS
330
1C594
102
}
330
1F
100
AcDbEntity
  8
Blech
370
    15
100
AcDbLine
 10
362.1092341005885
 20
211.1895893260509
 30
0.0
 11
363.9092347681606
 21
211.1895893260509
 31
0.0
  0
LINE
  5
1C483
102
{ACAD_REACTORS
330
1C594
102
}
330
1F
100
AcDbEntity
  8
Blech
370
    15
100
AcDbLine
 10
362.1092341005885
 20
205.4855589314968
 30
0.0
 11
362.1092341005885
 21
211.1895893260509
 31
0.0
  0
LINE
  5
1C484
102
{ACAD_REACTORS
330
1C594
102
}
330
1F
100
AcDbEntity
  8
Blech
370
    15
100
AcDbLine
 10
364.9092340007508
 20
221.8366962417633
 30
0.0
 11
365.1092345923269
 21
221.8366962417633
 31
0.0
  0
LINE
  5
1C485
102
{ACAD_REACTORS
330
1C594
102
}
330
1F
100
AcDbEntity
  8
Blech
370
    15
100
AcDbLine
 10
364.9092340007508
 20
216.0366986438304
 30
0.0
 11
366.1092347562396
 21
216.0366986438304
 31
0.0
  0
LINE
  5
1C486
102
{ACAD_REACTORS
330
1C594
102
}
330
1F
100
AcDbEntity
  8
Blech
370
    15
100
AcDbLine
 10
364.9092340007508
 20
216.0366986438304
 30
0.0
 11
364.9092340007508
 21
217.0366969450981
 31
0.0
  0
LINE
  5
1C487
102
{ACAD_REACTORS
330
1C594
102
}
330
1F
100
AcDbEntity
  8
Blech
370
    15
100
AcDbLine
 10
364.9092340007508
 20
220.4366986199886
 30
0.0
 11
364.9092340007508
 21
221.8366962417633
 31
0.0
  0
LINE
  5
1C488
102
{ACAD_REACTORS
330
1C594
102
}
330
1F
100
AcDbEntity
  8
Blech
370
    15
100
AcDbLine
 10
362.1092341005885
 20
165.0345873579055
 30
0.0
 11
363.7092341765845
 21
165.0345873579055
 31
0.0
  0
LINE
  5
1C489
102
{ACAD_REACTORS
330
1C594
102
}
330
1F
100
AcDbEntity
  8
Blech
370
    15
100
AcDbLine
 10
362.1092341005885
 20
165.0345873579055
 30
0.0
 11
362.1092341005885
 21
165.8348076536924
 31
0.0
  0
LINE
  5
1C48A
102
{ACAD_REACTORS
330
1C594
102
}
330
1F
100
AcDbEntity
  8
Blech
370
    15
100
AcDbLine
 10
362.1092341005885
 20
174.1343674741358
 30
0.0
 11
362.1092341005885
 21
176.8345875691295
 31
0.0
  0
LINE
  5
1C48B
102
{ACAD_REACTORS
330
1C594
102
}
330
1F
100
AcDbEntity
  8
Blech
370
    15
100
AcDbLine
 10
365.1092345923269
 20
161.4345878854066
 30
0.0
 11
366.1092347562396
 21
161.4345878854066
 31
0.0
  0
LINE
  5
1C48C
102
{ACAD_REACTORS
330
1C594
102
}
330
1F
100
AcDbEntity
  8
Blech
370
    15
100
AcDbLine
 10
365.1092345923269
 20
159.259587389198
 30
0.0
 11
366.1092347562396
 21
159.259587389198
 31
0.0
  0
LINE
  5
1C48D
102
{ACAD_REACTORS
330
1C594
102
}
330
1F
100
AcDbEntity
  8
Blech
370
    15
100
AcDbLine
 10
365.1092345923269
 20
159.259587389198
 30
0.0
 11
365.1092345923269
 21
161.4345878854066
 31
0.0
  0
LINE
  5
1C48E
102
{ACAD_REACTORS
330
1C594
102
}
330
1F
100
AcDbEntity
  8
Blech
370
    15
100
AcDbLine
 10
363.1092342645013
 20
156.041418065098
 30
0.0
 11
363.1092342645013
 21
156.7849282666713
 31
0.0
  0
LINE
  5
1C48F
102
{ACAD_REACTORS
330
1C594
102
}
330
1F
100
AcDbEntity
  8
Blech
370
    15
100
AcDbLine
 10
363.1092342645013
 20
156.7849282666713
 30
0.0
 11
364.0092345982873
 21
156.7849282666713
 31
0.0
  0
LINE
  5
1C490
102
{ACAD_REACTORS
330
1C594
102
}
330
1F
100
AcDbEntity
  8
Blech
370
    15
100
AcDbLine
 10
365.1092345923269
 20
142.5040167316467
 30
0.0
 11
366.0092339947903
 21
142.5040167316467
 31
0.0
  0
LINE
  5
1C491
102
{ACAD_REACTORS
330
1C594
102
}
330
1F
100
AcDbEntity
  8
Blech
370
    15
100
AcDbLine
 10
365.1092345923269
 20
142.5040167316467
 30
0.0
 11
365.1092345923269
 21
147.133967702058
 31
0.0
  0
LINE
  5
1C492
102
{ACAD_REACTORS
330
1C594
102
}
330
1F
100
AcDbEntity
  8
Blech
370
    15
100
AcDbLine
 10
365.1092345923269
 20
148.5352077081472
 30
0.0
 11
365.1092345923269
 21
149.1545781984598
 31
0.0
  0
LINE
  5
1C493
102
{ACAD_REACTORS
330
1C594
102
}
330
1F
100
AcDbEntity
  8
Blech
370
    15
100
AcDbLine
 10
365.1092345923269
 20
149.1545781984598
 30
0.0
 11
366.1092347562396
 21
149.1545781984598
 31
0.0
  0
LINE
  5
1C494
102
{ACAD_REACTORS
330
1C594
102
}
330
1F
100
AcDbEntity
  8
Blech
370
    15
100
AcDbLine
 10
365.1092345923269
 20
216.5366959318191
 30
0.0
 11
366.1092347562396
 21
216.5366959318191
 31
0.0
  0
LINE
  5
1C495
102
{ACAD_REACTORS
330
1C594
102
}
330
1F
100
AcDbEntity
  8
Blech
370
    15
100
AcDbLine
 10
365.1092345923269
 20
216.5366959318191
 30
0.0
 11
365.1092345923269
 21
217.0366969450981
 31
0.0
  0
LINE
  5
1C496
102
{ACAD_REACTORS
330
1C594
102
}
330
1F
100
AcDbEntity
  8
Blech
370
    15
100
AcDbLine
 10
364.1092344284141
 20
162.3544561236769
 30
0.0
 11
364.1092344284141
 21
163.5352073728711
 31
0.0
  0
LINE
  5
1C497
102
{ACAD_REACTORS
330
1C594
102
}
330
1F
100
AcDbEntity
  8
Blech
370
    15
100
AcDbLine
 10
364.1092344284141
 20
163.5352073728711
 30
0.0
 11
365.1092345923269
 21
163.5352073728711
 31
0.0
  0
LINE
  5
1C498
102
{ACAD_REACTORS
330
1C594
102
}
330
1F
100
AcDbEntity
  8
Blech
370
    15
100
AcDbLine
 10
362.1092341005885
 20
214.0345860764057
 30
0.0
 11
364.1092344284141
 21
214.0345860764057
 31
0.0
  0
LINE
  5
1C499
102
{ACAD_REACTORS
330
1C594
102
}
330
1F
100
AcDbEntity
  8
Blech
370
    15
100
AcDbLine
 10
362.1092341005885
 20
214.0345860764057
 30
0.0
 11
362.1092341005885
 21
219.7345857068569
 31
0.0
  0
LINE
  5
1C49A
102
{ACAD_REACTORS
330
1C594
102
}
330
1F
100
AcDbEntity
  8
Blech
370
    15
100
AcDbLine
 10
362.1092341005885
 20
219.7345857068569
 30
0.0
 11
364.1092344284141
 21
219.7345857068569
 31
0.0
  0
LINE
  5
1C49B
102
{ACAD_REACTORS
330
1C594
102
}
330
1F
100
AcDbEntity
  8
Blech
370
    15
100
AcDbLine
 10
365.1092345923269
 20
212.2574773177177
 30
0.0
 11
366.1092347562396
 21
212.2574773177177
 31
0.0
  0
LINE
  5
1C49C
102
{ACAD_REACTORS
330
1C594
102
}
330
1F
100
AcDbEntity
  8
Blech
370
    15
100
AcDbLine
 10
365.1092345923269
 20
212.2574773177177
 30
0.0
 11
365.1092345923269
 21
214.4324768826038
 31
0.0
  0
LINE
  5
1C49D
102
{ACAD_REACTORS
330
1C594
102
}
330
1F
100
AcDbEntity
  8
Blech
370
    15
100
AcDbLine
 10
365.1092345923269
 20
214.4324768826038
 30
0.0
 11
366.1092347562396
 21
214.4324768826038
 31
0.0
  0
LINE
  5
1C49E
102
{ACAD_REACTORS
330
1C594
102
}
330
1F
100
AcDbEntity
  8
Blech
370
    15
100
AcDbLine
 10
365.1092345923269
 20
154.1595876708299
 30
0.0
 11
366.1092347562396
 21
154.1595876708299
 31
0.0
  0
LINE
  5
1C49F
102
{ACAD_REACTORS
330
1C594
102
}
330
1F
100
AcDbEntity
  8
Blech
370
    15
100
AcDbLine
 10
365.1092345923269
 20
154.1595876708299
 30
0.0
 11
365.1092345923269
 21
156.334587235716
 31
0.0
  0
LINE
  5
1C4A0
102
{ACAD_REACTORS
330
1C594
102
}
330
1F
100
AcDbEntity
  8
Blech
370
    15
100
AcDbLine
 10
365.1092345923269
 20
156.334587235716
 30
0.0
 11
366.1092347562396
 21
156.334587235716
 31
0.0
  0
LINE
  5
1C4A1
102
{ACAD_REACTORS
330
1C594
102
}
330
1F
100
AcDbEntity
  8
Blech
370
    15
100
AcDbLine
 10
365.1092345923269
 20
159.2345878973276
 30
0.0
 11
366.1092347562396
 21
159.2345878973276
 31
0.0
  0
LINE
  5
1C4A2
102
{ACAD_REACTORS
330
1C594
102
}
330
1F
100
AcDbEntity
  8
Blech
370
    15
100
AcDbLine
 10
365.1092345923269
 20
159.2345878973276
 30
0.0
 11
365.1092345923269
 21
159.259587389198
 31
0.0
  0
LINE
  5
1C4A3
102
{ACAD_REACTORS
330
1C594
102
}
330
1F
100
AcDbEntity
  8
Blech
370
    15
100
AcDbLine
 10
365.1092345923269
 20
222.7095876380474
 30
0.0
 11
366.1092347562396
 21
222.7095876380474
 31
0.0
  0
LINE
  5
1C4A4
102
{ACAD_REACTORS
330
1C594
102
}
330
1F
100
AcDbEntity
  8
Blech
370
    15
100
AcDbLine
 10
365.1092345923269
 20
222.7095876380474
 30
0.0
 11
365.1092345923269
 21
223.9595864459545
 31
0.0
  0
LINE
  5
1C4A5
102
{ACAD_REACTORS
330
1C594
102
}
330
1F
100
AcDbEntity
  8
Blech
370
    15
100
AcDbLine
 10
365.1092345923269
 20
223.9595864459545
 30
0.0
 11
366.1092347562396
 21
223.9595864459545
 31
0.0
  0
LINE
  5
1C4A6
102
{ACAD_REACTORS
330
1C594
102
}
330
1F
100
AcDbEntity
  8
Blech
370
    15
100
AcDbLine
 10
360.109233772763
 20
167.242087286678
 30
0.0
 11
362.0092342704618
 21
167.242087286678
 31
0.0
  0
LINE
  5
1C4A7
102
{ACAD_REACTORS
330
1C594
102
}
330
1F
100
AcDbEntity
  8
Blech
370
    15
100
AcDbLine
 10
360.109233772763
 20
167.242087286678
 30
0.0
 11
360.109233772763
 21
174.2270875049427
 31
0.0
  0
LINE
  5
1C4A8
102
{ACAD_REACTORS
330
1C594
102
}
330
1F
100
AcDbEntity
  8
Blech
370
    15
100
AcDbLine
 10
360.109233772763
 20
174.2270875049427
 30
0.0
 11
362.1092341005885
 21
174.2270875049427
 31
0.0
  0
LINE
  5
1C4A9
102
{ACAD_REACTORS
330
1C594
102
}
330
1F
100
AcDbEntity
  8
Blech
370
    15
100
AcDbLine
 10
365.1092345923269
 20
147.2095873698265
 30
0.0
 11
365.1092345923269
 21
148.4595880403787
 31
0.0
  0
LINE
  5
1C4AA
102
{ACAD_REACTORS
330
1C594
102
}
330
1F
100
AcDbEntity
  8
Blech
370
    15
100
AcDbLine
 10
365.1092345923269
 20
147.2095873698265
 30
0.0
 11
366.1092347562396
 21
147.2095873698265
 31
0.0
  0
LINE
  5
1C4AB
102
{ACAD_REACTORS
330
1C594
102
}
330
1F
100
AcDbEntity
  8
Blech
370
    15
100
AcDbLine
 10
365.1092345923269
 20
148.4595880403787
 30
0.0
 11
366.1092347562396
 21
148.4595880403787
 31
0.0
  0
LINE
  5
1C4AC
102
{ACAD_REACTORS
330
1C594
102
}
330
1F
100
AcDbEntity
  8
Blech
370
    15
100
AcDbLine
 10
365.1092345923269
 20
215.6345982595951
 30
0.0
 11
365.1092345923269
 21
216.0366986438304
 31
0.0
  0
LINE
  5
1C4AD
102
{ACAD_REACTORS
330
1C594
102
}
330
1F
100
AcDbEntity
  8
Blech
370
    15
100
AcDbLine
 10
365.1092345923269
 20
214.4324768826038
 30
0.0
 11
365.1092345923269
 21
214.8345958932907
 31
0.0
  0
LINE
  5
1C4AE
102
{ACAD_REACTORS
330
1C594
102
}
330
1F
100
AcDbEntity
  8
Blech
370
    15
100
AcDbLine
 10
365.1092345923269
 20
149.4345877810985
 30
0.0
 11
366.1092347562396
 21
149.4345877810985
 31
0.0
  0
LINE
  5
1C4AF
102
{ACAD_REACTORS
330
1C594
102
}
330
1F
100
AcDbEntity
  8
Blech
370
    15
100
AcDbLine
 10
365.1092345923269
 20
149.4345877810985
 30
0.0
 11
365.1092345923269
 21
150.2095878615648
 31
0.0
  0
LINE
  5
1C4B0
102
{ACAD_REACTORS
330
1C594
102
}
330
1F
100
AcDbEntity
  8
Blech
370
    15
100
AcDbLine
 10
365.1092345923269
 20
246.4345906421215
 30
0.0
 11
365.1092345923269
 21
247.2345892831356
 31
0.0
  0
LINE
  5
1C4B1
102
{ACAD_REACTORS
330
1C594
102
}
330
1F
100
AcDbEntity
  8
Blech
370
    15
100
AcDbLine
 10
360.109233772763
 20
203.6343466981918
 30
0.0
 11
360.109233772763
 21
209.8186191662818
 31
0.0
  0
LINE
  5
1C4B2
102
{ACAD_REACTORS
330
1C594
102
}
330
1F
100
AcDbEntity
  8
Blech
370
    15
100
AcDbLine
 10
360.109233772763
 20
209.8186191662818
 30
0.0
 11
362.1092341005885
 21
209.8186191662818
 31
0.0
  0
LINE
  5
1C4B3
102
{ACAD_REACTORS
330
1C594
102
}
330
1F
100
AcDbEntity
  8
Blech
370
    15
100
AcDbLine
 10
364.1792344957673
 20
163.5352073728711
 30
0.0
 11
364.1792344957673
 21
164.1345870241195
 31
0.0
  0
LINE
  5
1C4B4
102
{ACAD_REACTORS
330
1C594
102
}
330
1F
100
AcDbEntity
  8
Blech
370
    15
100
AcDbLine
 10
365.1092345923269
 20
156.4095866426498
 30
0.0
 11
366.1092347562396
 21
156.4095866426498
 31
0.0
  0
LINE
  5
1C4B5
102
{ACAD_REACTORS
330
1C594
102
}
330
1F
100
AcDbEntity
  8
Blech
370
    15
100
AcDbLine
 10
365.1092345923269
 20
156.334587235716
 30
0.0
 11
365.1092345923269
 21
156.4095866426498
 31
0.0
  0
LINE
  5
1C4B6
102
{ACAD_REACTORS
330
1C594
102
}
330
1F
100
AcDbEntity
  8
Blech
370
    15
100
AcDbLine
 10
365.1092345923269
 20
157.209587146309
 30
0.0
 11
366.1092347562396
 21
157.209587146309
 31
0.0
  0
LINE
  5
1C4B7
102
{ACAD_REACTORS
330
1C594
102
}
330
1F
100
AcDbEntity
  8
Blech
370
    15
100
AcDbLine
 10
365.1092345923269
 20
158.4595878168613
 30
0.0
 11
366.1092347562396
 21
158.4595878168613
 31
0.0
  0
LINE
  5
1C4B8
102
{ACAD_REACTORS
330
1C594
102
}
330
1F
100
AcDbEntity
  8
Blech
370
    15
100
AcDbLine
 10
365.1092345923269
 20
157.209587146309
 30
0.0
 11
365.1092345923269
 21
157.4345872297556
 31
0.0
  0
LINE
  5
1C4B9
102
{ACAD_REACTORS
330
1C594
102
}
330
1F
100
AcDbEntity
  8
Blech
370
    15
100
AcDbLine
 10
365.1092345923269
 20
158.2345877334148
 30
0.0
 11
365.1092345923269
 21
158.4595878168613
 31
0.0
  0
LINE
  5
1C4BA
102
{ACAD_REACTORS
330
1C594
102
}
330
1F
100
AcDbEntity
  8
Blech
370
    15
100
AcDbLine
 10
365.1092345923269
 20
162.4095876261264
 30
0.0
 11
366.1092347562396
 21
162.4095876261264
 31
0.0
  0
LINE
  5
1C4BB
102
{ACAD_REACTORS
330
1C594
102
}
330
1F
100
AcDbEntity
  8
Blech
370
    15
100
AcDbLine
 10
365.1092345923269
 20
163.6595873653561
 30
0.0
 11
366.1092347562396
 21
163.6595873653561
 31
0.0
  0
LINE
  5
1C4BC
102
{ACAD_REACTORS
330
1C594
102
}
330
1F
100
AcDbEntity
  8
Blech
370
    15
100
AcDbLine
 10
365.1092345923269
 20
162.4095876261264
 30
0.0
 11
365.1092345923269
 21
163.6595873653561
 31
0.0
  0
LINE
  5
1C4BD
102
{ACAD_REACTORS
330
1C594
102
}
330
1F
100
AcDbEntity
  8
Blech
370
    15
100
AcDbLine
 10
364.9092340007508
 20
243.7973682328731
 30
0.0
 11
364.9092340007508
 21
243.8345987841159
 31
0.0
  0
LINE
  5
1C4BE
102
{ACAD_REACTORS
330
1C594
102
}
330
1F
100
AcDbEntity
  8
Blech
370
    15
100
AcDbLine
 10
364.9092340007508
 20
246.4345906421215
 30
0.0
 11
364.9092340007508
 21
246.734580819276
 31
0.0
  0
LINE
  5
1C4BF
102
{ACAD_REACTORS
330
1C594
102
}
330
1F
100
AcDbEntity
  8
Blech
370
    15
100
AcDbLine
 10
366.0092339947903
 20
248.2045878216297
 30
0.0
 11
366.0092339947903
 21
251.4645893618137
 31
0.0
  0
LINE
  5
1C4C0
102
{ACAD_REACTORS
330
1C594
102
}
330
1F
100
AcDbEntity
  8
Blech
370
    15
100
AcDbLine
 10
359.5092347920024
 20
227.6721772297889
 30
0.0
 11
361.8276123985731
 21
227.6721772297889
 31
0.0
  0
LINE
  5
1C4C1
102
{ACAD_REACTORS
330
1C594
102
}
330
1F
100
AcDbEntity
  8
Blech
370
    15
100
AcDbLine
 10
359.5092347920024
 20
232.6721761867076
 30
0.0
 11
361.0292342588389
 21
232.6721761867076
 31
0.0
  0
LINE
  5
1C4C2
102
{ACAD_REACTORS
330
1C594
102
}
330
1F
100
AcDbEntity
  8
Blech
370
    15
100
AcDbLine
 10
359.5092347920024
 20
227.6721772297889
 30
0.0
 11
359.5092347920024
 21
232.6721761867076
 31
0.0
  0
LINE
  5
1C4C3
102
{ACAD_REACTORS
330
1C594
102
}
330
1F
100
AcDbEntity
  8
Blech
370
    15
100
AcDbLine
 10
365.1092345923269
 20
205.7295877977878
 30
0.0
 11
365.1092345923269
 21
207.7200290307075
 31
0.0
  0
LINE
  5
1C4C4
102
{ACAD_REACTORS
330
1C594
102
}
330
1F
100
AcDbEntity
  8
Blech
370
    15
100
AcDbLine
 10
365.1092345923269
 20
205.7295877977878
 30
0.0
 11
366.1092347562396
 21
205.7295877977878
 31
0.0
  0
LINE
  5
1C4C5
102
{ACAD_REACTORS
330
1C594
102
}
330
1F
100
AcDbEntity
  8
Blech
370
    15
100
AcDbLine
 10
359.5092347920024
 20
174.3345875085935
 30
0.0
 11
359.5092347920024
 21
176.8345875691295
 31
0.0
  0
LINE
  5
1C4C6
102
{ACAD_REACTORS
330
1C594
102
}
330
1F
100
AcDbEntity
  8
Blech
370
    15
100
AcDbLine
 10
360.109233772763
 20
199.8345878466636
 30
0.0
 11
360.109233772763
 21
201.4052670940429
 31
0.0
  0
LINE
  5
1C4C7
102
{ACAD_REACTORS
330
1C594
102
}
330
1F
100
AcDbEntity
  8
Blech
370
    15
100
AcDbLine
 10
360.109233772763
 20
201.4052670940429
 30
0.0
 11
360.4092351257884
 21
201.4052670940429
 31
0.0
  0
LINE
  5
1C4C8
102
{ACAD_REACTORS
330
1C594
102
}
330
1F
100
AcDbEntity
  8
Blech
370
    15
100
AcDbLine
 10
360.109233772763
 20
159.8420877501041
 30
0.0
 11
360.109233772763
 21
163.8345875337392
 31
0.0
  0
LINE
  5
1C4C9
102
{ACAD_REACTORS
330
1C594
102
}
330
1F
100
AcDbEntity
  8
Blech
370
    15
100
AcDbLine
 10
360.109233772763
 20
159.8420877501041
 30
0.0
 11
361.5092341885054
 21
159.8420877501041
 31
0.0
  0
LINE
  5
1C4CA
102
{ACAD_REACTORS
330
1C594
102
}
330
1F
100
AcDbEntity
  8
Blech
370
    15
100
AcDbLine
 10
365.1092345923269
 20
230.5096079155475
 30
0.0
 11
366.1092347562396
 21
230.5096079155475
 31
0.0
  0
LINE
  5
1C4CB
102
{ACAD_REACTORS
330
1C594
102
}
330
1F
100
AcDbEntity
  8
Blech
370
    15
100
AcDbLine
 10
365.1092345923269
 20
231.7596067234546
 30
0.0
 11
366.1092347562396
 21
231.7596067234546
 31
0.0
  0
LINE
  5
1C4CC
102
{ACAD_REACTORS
330
1C594
102
}
330
1F
100
AcDbEntity
  8
Blech
370
    15
100
AcDbLine
 10
365.1092345923269
 20
230.5096079155475
 30
0.0
 11
365.1092345923269
 21
231.7596067234546
 31
0.0
  0
LINE
  5
1C4CD
102
{ACAD_REACTORS
330
1C594
102
}
330
1F
100
AcDbEntity
  8
Blech
370
    15
100
AcDbLine
 10
363.9092347681606
 20
207.7200290307075
 30
0.0
 11
366.1092347562396
 21
207.7200290307075
 31
0.0
  0
LINE
  5
1C4CE
102
{ACAD_REACTORS
330
1C594
102
}
330
1F
100
AcDbEntity
  8
Blech
370
    15
100
AcDbLine
 10
363.9092347681606
 20
212.0337959870369
 30
0.0
 11
366.1092347562396
 21
212.0337959870369
 31
0.0
  0
LINE
  5
1C4CF
102
{ACAD_REACTORS
330
1C594
102
}
330
1F
100
AcDbEntity
  8
Blech
370
    15
100
AcDbLine
 10
363.9092347681606
 20
207.7200290307075
 30
0.0
 11
363.9092347681606
 21
212.0337959870369
 31
0.0
  0
LINE
  5
1C4D0
102
{ACAD_REACTORS
330
1C594
102
}
330
1F
100
AcDbEntity
  8
Blech
370
    15
100
AcDbLine
 10
359.5092347920024
 20
246.2845881029636
 30
0.0
 11
359.5092347920024
 21
247.3845843717128
 31
0.0
  0
LINE
  5
1C4D1
102
{ACAD_REACTORS
330
1C594
102
}
330
1F
100
AcDbEntity
  8
Blech
370
    15
100
AcDbLine
 10
364.1092344284141
 20
214.0345860764057
 30
0.0
 11
365.1092345923269
 21
214.0345860764057
 31
0.0
  0
LINE
  5
1C4D2
102
{ACAD_REACTORS
330
1C594
102
}
330
1F
100
AcDbEntity
  8
Blech
370
    15
100
AcDbLine
 10
364.1092344284141
 20
214.0345860764057
 30
0.0
 11
364.1092344284141
 21
215.6345870837242
 31
0.0
  0
LINE
  5
1C4D3
102
{ACAD_REACTORS
330
1C594
102
}
330
1F
100
AcDbEntity
  8
Blech
370
    15
100
AcDbLine
 10
364.1092344284141
 20
215.6345870837242
 30
0.0
 11
365.1092345923269
 21
215.6345870837242
 31
0.0
  0
LINE
  5
1C4D4
102
{ACAD_REACTORS
330
1C594
102
}
330
1F
100
AcDbEntity
  8
Blech
370
    15
100
AcDbLine
 10
364.1092344284141
 20
212.0345857485801
 30
0.0
 11
366.1092347562396
 21
212.0345857485801
 31
0.0
  0
LINE
  5
1C4D5
102
{ACAD_REACTORS
330
1C594
102
}
330
1F
100
AcDbEntity
  8
Blech
370
    15
100
AcDbLine
 10
364.1092344284141
 20
212.0345857485801
 30
0.0
 11
364.1092344284141
 21
213.6345867558986
 31
0.0
  0
LINE
  5
1C4D6
102
{ACAD_REACTORS
330
1C594
102
}
330
1F
100
AcDbEntity
  8
Blech
370
    15
100
AcDbLine
 10
364.1092344284141
 20
213.6345867558986
 30
0.0
 11
365.1092345923269
 21
213.6345867558986
 31
0.0
  0
LINE
  5
1C4D7
102
{ACAD_REACTORS
330
1C594
102
}
330
1F
100
AcDbEntity
  8
Blech
370
    15
100
AcDbLine
 10
364.1092344284141
 20
243.7834058448345
 30
0.0
 11
364.1092344284141
 21
243.8345987841159
 31
0.0
  0
LINE
  5
1C4D8
102
{ACAD_REACTORS
330
1C594
102
}
330
1F
100
AcDbEntity
  8
Blech
370
    15
100
AcDbLine
 10
364.1092344284141
 20
143.6503071829349
 30
0.0
 11
364.1092344284141
 21
146.950187955764
 31
0.0
  0
LINE
  5
1C4D9
102
{ACAD_REACTORS
330
1C594
102
}
330
1F
100
AcDbEntity
  8
Blech
370
    15
100
AcDbLine
 10
364.1092344284141
 20
146.950187955764
 30
0.0
 11
364.181234045335
 21
146.950187955764
 31
0.0
  0
LINE
  5
1C4DA
102
{ACAD_REACTORS
330
1C594
102
}
330
1F
100
AcDbEntity
  8
Blech
370
    15
100
AcDbLine
 10
364.3192346304738
 20
146.950187955764
 30
0.0
 11
365.1092345923269
 21
146.950187955764
 31
0.0
  0
LINE
  5
1C4DB
102
{ACAD_REACTORS
330
1C594
102
}
330
1F
100
AcDbEntity
  8
Blech
370
    15
100
AcDbLine
 10
364.1092344284141
 20
143.6503071829349
 30
0.0
 11
364.181234045335
 21
143.6503071829349
 31
0.0
  0
LINE
  5
1C4DC
102
{ACAD_REACTORS
330
1C594
102
}
330
1F
100
AcDbEntity
  8
Blech
370
    15
100
AcDbLine
 10
364.3192346304738
 20
143.6503071829349
 30
0.0
 11
365.1092345923269
 21
143.6503071829349
 31
0.0
  0
LINE
  5
1C4DD
102
{ACAD_REACTORS
330
1C594
102
}
330
1F
100
AcDbEntity
  8
Blech
370
    15
100
AcDbLine
 10
364.5092346802437
 20
200.1845881834299
 30
0.0
 11
365.1092345923269
 21
200.1845881834299
 31
0.0
  0
LINE
  5
1C4DE
102
{ACAD_REACTORS
330
1C594
102
}
330
1F
100
AcDbEntity
  8
Blech
370
    15
100
AcDbLine
 10
362.1092341005885
 20
204.034347881344
 30
0.0
 11
362.1092341005885
 21
204.6343487247497
 31
0.0
  0
LINE
  5
1C4DF
102
{ACAD_REACTORS
330
1C594
102
}
330
1F
100
AcDbEntity
  8
Blech
370
    15
100
AcDbLine
 10
360.609234786042
 20
244.2945901795894
 30
0.0
 11
364.1092344284141
 21
244.2945901795894
 31
0.0
  0
LINE
  5
1C4E0
102
{ACAD_REACTORS
330
1C594
102
}
330
1F
100
AcDbEntity
  8
Blech
370
    15
100
AcDbLine
 10
360.609234786042
 20
244.2945901795894
 30
0.0
 11
360.609234786042
 21
249.3745897456676
 31
0.0
  0
LINE
  5
1C4E1
102
{ACAD_REACTORS
330
1C594
102
}
330
1F
100
AcDbEntity
  8
Blech
370
    15
100
AcDbLine
 10
360.609234786042
 20
249.3745897456676
 30
0.0
 11
364.1092344284141
 21
249.3745897456676
 31
0.0
  0
LINE
  5
1C4E2
102
{ACAD_REACTORS
330
1C594
102
}
330
1F
100
AcDbEntity
  8
Blech
370
    15
100
AcDbLine
 10
365.1092345923269
 20
154.1345872476369
 30
0.0
 11
365.1092345923269
 21
154.1595876708299
 31
0.0
  0
LINE
  5
1C4E3
102
{ACAD_REACTORS
330
1C594
102
}
330
1F
100
AcDbEntity
  8
Blech
370
    15
100
AcDbLine
 10
365.1092345923269
 20
154.1345872476369
 30
0.0
 11
366.1092347562396
 21
154.1345872476369
 31
0.0
  0
LINE
  5
1C4E4
102
{ACAD_REACTORS
330
1C594
102
}
330
1F
100
AcDbEntity
  8
Blech
370
    15
100
AcDbLine
 10
363.1092342645013
 20
149.8395883038312
 30
0.0
 11
363.1092342645013
 21
156.041418065098
 31
0.0
  0
LINE
  5
1C4E5
102
{ACAD_REACTORS
330
1C594
102
}
330
1F
100
AcDbEntity
  8
Blech
370
    15
100
AcDbLine
 10
363.1092342645013
 20
149.8395883038312
 30
0.0
 11
364.1582341030323
 21
149.8395883038312
 31
0.0
  0
LINE
  5
1C4E6
102
{ACAD_REACTORS
330
1C594
102
}
330
1F
100
AcDbEntity
  8
Blech
370
    15
100
AcDbLine
 10
363.1092342645013
 20
156.041418065098
 30
0.0
 11
364.0092345982873
 21
156.041418065098
 31
0.0
  0
LINE
  5
1C4E7
102
{ACAD_REACTORS
330
1C594
102
}
330
1F
100
AcDbEntity
  8
Blech
370
    15
100
AcDbLine
 10
363.1092342645013
 20
243.7659491344959
 30
0.0
 11
363.1092342645013
 21
244.0877471610576
 31
0.0
  0
LINE
  5
1C4E8
102
{ACAD_REACTORS
330
1C594
102
}
330
1F
100
AcDbEntity
  8
Blech
370
    15
100
AcDbLine
 10
363.1092342645013
 20
244.0877471610576
 30
0.0
 11
364.1092344284141
 21
244.0877471610576
 31
0.0
  0
LINE
  5
1C4E9
102
{ACAD_REACTORS
330
1C594
102
}
330
1F
100
AcDbEntity
  8
Blech
370
    15
100
AcDbLine
 10
364.1092344284141
 20
229.5345876857311
 30
0.0
 11
364.1092344284141
 21
230.8857691034347
 31
0.0
  0
LINE
  5
1C4EA
102
{ACAD_REACTORS
330
1C594
102
}
330
1F
100
AcDbEntity
  8
Blech
370
    15
100
AcDbLine
 10
364.1092344284141
 20
164.1345870241195
 30
0.0
 11
364.1092344284141
 21
164.7811875238687
 31
0.0
  0
LINE
  5
1C4EB
102
{ACAD_REACTORS
330
1C594
102
}
330
1F
100
AcDbEntity
  8
Blech
370
    15
100
AcDbLine
 10
364.1092344284141
 20
164.1345870241195
 30
0.0
 11
366.1092347562396
 21
164.1345870241195
 31
0.0
  0
LINE
  5
1C4EC
102
{ACAD_REACTORS
330
1C594
102
}
330
1F
100
AcDbEntity
  8
Blech
370
    15
100
AcDbLine
 10
360.609234786042
 20
234.7945858284504
 30
0.0
 11
360.609234786042
 21
239.8745853945285
 31
0.0
  0
LINE
  5
1C4ED
102
{ACAD_REACTORS
330
1C594
102
}
330
1F
100
AcDbEntity
  8
Blech
370
    15
100
AcDbLine
 10
360.609234786042
 20
239.8745853945285
 30
0.0
 11
366.1092347562396
 21
239.8745853945285
 31
0.0
  0
LINE
  5
1C4EE
102
{ACAD_REACTORS
330
1C594
102
}
330
1F
100
AcDbEntity
  8
Blech
370
    15
100
AcDbLine
 10
360.609234786042
 20
234.7945858284504
 30
0.0
 11
366.1092347562396
 21
234.7945858284504
 31
0.0
  0
LINE
  5
1C4EF
102
{ACAD_REACTORS
330
1C594
102
}
330
1F
100
AcDbEntity
  8
Blech
370
    15
100
AcDbLine
 10
360.109233772763
 20
216.8336164697677
 30
0.0
 11
360.109233772763
 21
223.8186177357704
 31
0.0
  0
LINE
  5
1C4F0
102
{ACAD_REACTORS
330
1C594
102
}
330
1F
100
AcDbEntity
  8
Blech
370
    15
100
AcDbLine
 10
360.109233772763
 20
223.8186177357704
 30
0.0
 11
360.5092349559152
 21
223.8186177357704
 31
0.0
  0
LINE
  5
1C4F1
102
{ACAD_REACTORS
330
1C594
102
}
330
1F
100
AcDbEntity
  8
Blech
370
    15
100
AcDbLine
 10
360.109233772763
 20
216.8336164697677
 30
0.0
 11
362.0092342704618
 21
216.8336164697677
 31
0.0
  0
LINE
  5
1C4F2
102
{ACAD_REACTORS
330
1C594
102
}
330
1F
100
AcDbEntity
  8
Blech
370
    15
100
AcDbLine
 10
360.609234786042
 20
151.7945871248514
 30
0.0
 11
360.609234786042
 21
156.8745866909296
 31
0.0
  0
LINE
  5
1C4F3
102
{ACAD_REACTORS
330
1C594
102
}
330
1F
100
AcDbEntity
  8
Blech
370
    15
100
AcDbLine
 10
360.609234786042
 20
156.8745866909296
 30
0.0
 11
361.6092340186322
 21
156.8745866909296
 31
0.0
  0
LINE
  5
1C4F4
102
{ACAD_REACTORS
330
1C594
102
}
330
1F
100
AcDbEntity
  8
Blech
370
    15
100
AcDbLine
 10
360.609234786042
 20
151.7945871248514
 30
0.0
 11
361.6092340186322
 21
151.7945871248514
 31
0.0
  0
LINE
  5
1C4F5
102
{ACAD_REACTORS
330
1C594
102
}
330
1F
100
AcDbEntity
  8
Blech
370
    15
100
AcDbLine
 10
361.5092341885054
 20
158.9345874756247
 30
0.0
 11
361.5092341885054
 21
165.1845871030957
 31
0.0
  0
LINE
  5
1C4F6
102
{ACAD_REACTORS
330
1C594
102
}
330
1F
100
AcDbEntity
  8
Blech
370
    15
100
AcDbLine
 10
361.5092341885054
 20
158.9345874756247
 30
0.0
 11
361.6092340186322
 21
158.9345874756247
 31
0.0
  0
LINE
  5
1C4F7
102
{ACAD_REACTORS
330
1C594
102
}
330
1F
100
AcDbEntity
  8
Blech
370
    15
100
AcDbLine
 10
364.1092344284141
 20
148.5352077081472
 30
0.0
 11
364.181234045335
 21
148.5352077081472
 31
0.0
  0
LINE
  5
1C4F8
102
{ACAD_REACTORS
330
1C594
102
}
330
1F
100
AcDbEntity
  8
Blech
370
    15
100
AcDbLine
 10
364.3192346304738
 20
148.5352077081472
 30
0.0
 11
366.1092347562396
 21
148.5352077081472
 31
0.0
  0
LINE
  5
1C4F9
102
{ACAD_REACTORS
330
1C594
102
}
330
1F
100
AcDbEntity
  8
Blech
370
    15
100
AcDbLine
 10
364.1092344284141
 20
147.133967702058
 30
0.0
 11
364.1092344284141
 21
148.5352077081472
 31
0.0
  0
LINE
  5
1C4FA
102
{ACAD_REACTORS
330
1C594
102
}
330
1F
100
AcDbEntity
  8
Blech
370
    15
100
AcDbLine
 10
364.1092344284141
 20
147.133967702058
 30
0.0
 11
364.181234045335
 21
147.133967702058
 31
0.0
  0
LINE
  5
1C4FB
102
{ACAD_REACTORS
330
1C594
102
}
330
1F
100
AcDbEntity
  8
Blech
370
    15
100
AcDbLine
 10
364.3192346304738
 20
147.133967702058
 30
0.0
 11
366.1092347562396
 21
147.133967702058
 31
0.0
  0
LINE
  5
1C4FC
102
{ACAD_REACTORS
330
1C594
102
}
330
1F
100
AcDbEntity
  8
Blech
370
    15
100
AcDbLine
 10
367.709233900913
 20
252.3345862075359
 30
0.0
 11
366.1092347562396
 21
252.3345862075359
 31
0.0
  0
LINE
  5
1C4FD
102
{ACAD_REACTORS
330
1C594
102
}
330
1F
100
AcDbEntity
  8
Blech
370
    15
100
AcDbLine
 10
367.709233900913
 20
140.3345864757568
 30
0.0
 11
367.709233900913
 21
252.3345862075359
 31
0.0
  0
LINE
  5
1C4FE
102
{ACAD_REACTORS
330
1C594
102
}
330
1F
100
AcDbEntity
  8
Blech
370
    15
100
AcDbLine
 10
367.709233900913
 20
140.3345864757568
 30
0.0
 11
366.1092347562396
 21
140.3345864757568
 31
0.0
  0
LINE
  5
1C4FF
102
{ACAD_REACTORS
330
1C594
102
}
330
1F
100
AcDbEntity
  8
Blech
370
    15
100
AcDbLine
 10
372.7192343309605
 20
114.8145858689815
 30
0.0
 11
372.7192343309605
 21
112.4145862206489
 31
0.0
  0
LINE
  5
1C500
102
{ACAD_REACTORS
330
1C594
102
}
330
1F
100
AcDbEntity
  8
Blech
370
    15
100
AcDbLine
 10
372.7692344788545
 20
114.9684329077274
 30
0.0
 11
372.7192343309605
 21
114.8145858689815
 31
0.0
  0
LINE
  5
1C501
102
{ACAD_REACTORS
330
1C594
102
}
330
1F
100
AcDbEntity
  8
Blech
370
    15
100
AcDbLine
 10
371.7192341670477
 20
114.8145858689815
 30
0.0
 11
371.5263861328447
 21
115.407968734172
 31
0.0
  0
LINE
  5
1C502
102
{ACAD_REACTORS
330
1C594
102
}
330
1F
100
AcDbEntity
  8
Blech
370
    15
100
AcDbLine
 10
371.3692342959428
 20
112.4145862206489
 30
0.0
 11
371.3692342959428
 21
115.4145885750324
 31
0.0
  0
LINE
  5
1C503
102
{ACAD_REACTORS
330
1C594
102
}
330
1F
100
AcDbEntity
  8
Blech
370
    15
100
AcDbLine
 10
371.7192341670477
 20
112.4145862206489
 30
0.0
 11
371.7192341670477
 21
113.3145865544349
 31
0.0
  0
LINE
  5
1C504
102
{ACAD_REACTORS
330
1C594
102
}
330
1F
100
AcDbEntity
  8
Blech
370
    15
100
AcDbLine
 10
372.5192344378763
 20
114.614586208728
 30
0.0
 11
372.7192343309605
 21
114.614586208728
 31
0.0
  0
LINE
  5
1C505
102
{ACAD_REACTORS
330
1C594
102
}
330
1F
100
AcDbEntity
  8
Blech
370
    15
100
AcDbLine
 10
371.7192341670477
 20
112.4445859834224
 30
0.0
 11
372.2992343925023
 21
112.4445859834224
 31
0.0
  0
LINE
  5
1C506
102
{ACAD_REACTORS
330
1C594
102
}
330
1F
100
AcDbEntity
  8
Blech
370
    15
100
AcDbLine
 10
372.5192344378763
 20
112.4445859834224
 30
0.0
 11
372.7192343309605
 21
112.4445859834224
 31
0.0
  0
LINE
  5
1C507
102
{ACAD_REACTORS
330
1C594
102
}
330
1F
100
AcDbEntity
  8
Blech
370
    15
100
AcDbLine
 10
371.2192345507526
 20
115.4145885750324
 30
0.0
 11
371.2192345507526
 21
114.9145875617534
 31
0.0
  0
LINE
  5
1C508
102
{ACAD_REACTORS
330
1C594
102
}
330
1F
100
AcDbEntity
  8
Blech
370
    15
100
AcDbLine
 10
371.2192345507526
 20
112.8145892664463
 30
0.0
 11
371.2192345507526
 21
112.4145862206489
 31
0.0
  0
LINE
  5
1C509
102
{ACAD_REACTORS
330
1C594
102
}
330
1F
100
AcDbEntity
  8
Blech
370
    15
100
AcDbLine
 10
371.2192345507526
 20
116.7145882293254
 30
0.0
 11
371.3192343808794
 21
116.7145882293254
 31
0.0
  0
LINE
  5
1C50A
102
{ACAD_REACTORS
330
1C594
102
}
330
1F
100
AcDbEntity
  8
Blech
370
    15
100
AcDbLine
 10
371.2192345507526
 20
116.6145865365535
 30
0.0
 11
371.2192345507526
 21
116.7145882293254
 31
0.0
  0
LINE
  5
1C50B
102
{ACAD_REACTORS
330
1C594
102
}
330
1F
100
AcDbEntity
  8
Blech
370
    15
100
AcDbLine
 10
364.0592345133507
 20
156.6345867260963
 30
0.0
 11
366.0592339098537
 21
156.6345867260963
 31
0.0
  0
LINE
  5
1C50C
102
{ACAD_REACTORS
330
1C594
102
}
330
1F
100
AcDbEntity
  8
Blech
370
    15
100
AcDbLine
 10
366.0592339098537
 20
156.6345867260963
 30
0.0
 11
366.0592339098537
 21
156.4095866426498
 31
0.0
  0
LINE
  5
1C50D
102
{ACAD_REACTORS
330
1C594
102
}
330
1F
100
AcDbEntity
  8
Blech
370
    15
100
AcDbLine
 10
364.0592345133507
 20
156.6345867260963
 30
0.0
 11
364.0592345133507
 21
155.43458690193
 31
0.0
  0
LINE
  5
1C50E
102
{ACAD_REACTORS
330
1C594
102
}
330
1F
100
AcDbEntity
  8
Blech
370
    15
100
AcDbLine
 10
364.0592345133507
 20
155.43458690193
 30
0.0
 11
364.1592343434775
 21
155.3345870718032
 31
0.0
  0
LINE
  5
1C50F
102
{ACAD_REACTORS
330
1C594
102
}
330
1F
100
AcDbEntity
  8
Blech
370
    15
100
AcDbLine
 10
364.5592345953071
 20
156.8845872327358
 30
0.0
 11
365.3592341676438
 21
156.8845872327358
 31
0.0
  0
ARC
  5
1C510
102
{ACAD_REACTORS
330
1C594
102
}
330
1F
100
AcDbEntity
  8
Blech
370
    15
100
AcDbCircle
 10
365.609234362849
 20
156.8845874830753
 30
0.0
 40
0.25
100
AcDbArc
 50
180.0
 51
270.0
  0
ARC
  5
1C511
102
{ACAD_REACTORS
330
1C594
102
}
330
1F
100
AcDbEntity
  8
Blech
370
    15
100
AcDbCircle
 10
364.309234362849
 20
156.8845874830753
 30
0.0
 40
0.25
100
AcDbArc
 50
270.0
 51
0.0
  0
LINE
  5
1C512
102
{ACAD_REACTORS
330
1C594
102
}
330
1F
100
AcDbEntity
  8
Blech
370
    15
100
AcDbLine
 10
365.3592341676438
 20
157.209587146309
 30
0.0
 11
365.3592341676438
 21
156.8845872327358
 31
0.0
  0
LINE
  5
1C513
102
{ACAD_REACTORS
330
1C594
102
}
330
1F
100
AcDbEntity
  8
Blech
370
    15
100
AcDbLine
 10
364.5592345953071
 20
158.5027425110013
 30
0.0
 11
364.5592345953071
 21
156.8845872327358
 31
0.0
  0
LINE
  5
1C514
102
{ACAD_REACTORS
330
1C594
102
}
330
1F
100
AcDbEntity
  8
Blech
370
    15
100
AcDbLine
 10
372.7692344788545
 20
115.4145885750324
 30
0.0
 11
371.2192345507526
 21
115.4145885750324
 31
0.0
  0
LINE
  5
1C515
102
{ACAD_REACTORS
330
1C594
102
}
330
1F
100
AcDbEntity
  8
Blech
370
    15
100
AcDbLine
 10
371.2192345507526
 20
115.4145885750324
 30
0.0
 11
371.2192345507526
 21
116.6145865365535
 31
0.0
  0
LINE
  5
1C516
102
{ACAD_REACTORS
330
1C594
102
}
330
1F
100
AcDbEntity
  8
Blech
370
    15
100
AcDbLine
 10
372.7692344788545
 20
116.7145882293254
 30
0.0
 11
371.3192343808794
 21
116.7145882293254
 31
0.0
  0
LINE
  5
1C517
102
{ACAD_REACTORS
330
1C594
102
}
330
1F
100
AcDbEntity
  8
Blech
370
    15
100
AcDbLine
 10
371.2192345507526
 20
116.6145865365535
 30
0.0
 11
371.3192343808794
 21
116.7145882293254
 31
0.0
  0
LINE
  5
1C518
102
{ACAD_REACTORS
330
1C594
102
}
330
1F
100
AcDbEntity
  8
Blech
370
    15
100
AcDbLine
 10
372.5192344378763
 20
115.1645880683929
 30
0.0
 11
371.7192341670477
 21
115.1645880683929
 31
0.0
  0
ARC
  5
1C519
102
{ACAD_REACTORS
330
1C594
102
}
330
1F
100
AcDbEntity
  8
Blech
370
    15
100
AcDbCircle
 10
371.469234362849
 20
115.1645874830753
 30
0.0
 40
0.25
100
AcDbArc
 50
0.0
 51
90.0
  0
ARC
  5
1C51A
102
{ACAD_REACTORS
330
1C594
102
}
330
1F
100
AcDbEntity
  8
Blech
370
    15
100
AcDbCircle
 10
372.769234362849
 20
115.1645874830753
 30
0.0
 40
0.25
100
AcDbArc
 50
90.00000000002606
 51
180.0
  0
LINE
  5
1C51B
102
{ACAD_REACTORS
330
1C594
102
}
330
1F
100
AcDbEntity
  8
Blech
370
    15
100
AcDbLine
 10
372.5192344378763
 20
115.1645880683929
 30
0.0
 11
372.5192344378763
 21
112.4145862206489
 31
0.0
  0
LINE
  5
1C51C
102
{ACAD_REACTORS
330
1C594
102
}
330
1F
100
AcDbEntity
  8
Blech
370
    15
100
AcDbLine
 10
371.7192341670477
 20
113.3145865544349
 30
0.0
 11
371.7192341670477
 21
115.1645880683929
 31
0.0
  0
LINE
  5
1C51D
102
{ACAD_REACTORS
330
1C594
102
}
330
1F
100
AcDbEntity
  8
Blech
370
    15
100
AcDbLine
 10
372.3192343119615
 20
112.4145862206489
 30
0.0
 11
371.7192341670477
 21
113.3145865544349
 31
0.0
  0
LINE
  5
1C51E
102
{ACAD_REACTORS
330
1C594
102
}
330
1F
100
AcDbEntity
  8
Blech
370
    15
100
AcDbLine
 10
371.3692342959428
 20
114.9145875617534
 30
0.0
 11
371.1692341700279
 21
114.9145875617534
 31
0.0
  0
LINE
  5
1C51F
102
{ACAD_REACTORS
330
1C594
102
}
330
1F
100
AcDbEntity
  8
Blech
370
    15
100
AcDbLine
 10
371.1692341700279
 20
112.8145892664463
 30
0.0
 11
371.3692342959428
 21
112.8145892664463
 31
0.0
  0
LINE
  5
1C520
102
{ACAD_REACTORS
330
1C594
102
}
330
1F
100
AcDbEntity
  8
Blech
370
    15
100
AcDbLine
 10
371.1692341700279
 20
114.9145875617534
 30
0.0
 11
371.1692341700279
 21
112.8145892664463
 31
0.0
  0
LINE
  5
1C521
102
{ACAD_REACTORS
330
1C594
102
}
330
1F
100
AcDbEntity
  8
Blech
370
    15
100
AcDbLine
 10
371.5562345556998
 20
123.9145871743232
 30
0.0
 11
371.781234173485
 21
123.9145871743232
 31
0.0
  0
LINE
  5
1C522
102
{ACAD_REACTORS
330
1C594
102
}
330
1F
100
AcDbEntity
  8
Blech
370
    15
100
AcDbLine
 10
371.781234173485
 20
130.9145864590675
 30
0.0
 11
371.781234173485
 21
123.9145871743232
 31
0.0
  0
ARC
  5
1C523
102
{ACAD_REACTORS
330
1C594
102
}
330
1F
100
AcDbEntity
  8
Blech
370
    15
100
AcDbCircle
 10
366.0568777154078
 20
130.9145874830753
 30
0.0
 40
5.724356647441172
100
AcDbArc
 50
0.0
 51
65.84453529987395
  0
LINE
  5
1C524
102
{ACAD_REACTORS
330
1C594
102
}
330
1F
100
AcDbEntity
  8
Blech
370
    15
100
AcDbLine
 10
368.3993644177997
 20
136.1377116784126
 30
0.0
 11
367.7261616200292
 21
136.4396315559417
 31
0.0
  0
ARC
  5
1C525
102
{ACAD_REACTORS
330
1C594
102
}
330
1F
100
AcDbEntity
  8
Blech
370
    15
100
AcDbCircle
 10
370.1815910102902
 20
141.9145874830753
 30
0.0
 40
6.000356647441174
100
AcDbArc
 50
180.0000000000011
 51
245.8445352998746
  0
LINE
  5
1C526
102
{ACAD_REACTORS
330
1C594
102
}
330
1F
100
AcDbEntity
  8
Blech
370
    15
100
AcDbLine
 10
364.181234045335
 20
141.9145863994628
 30
0.0
 11
364.181234045335
 21
155.3345870718032
 31
0.0
  0
LINE
  5
1C527
102
{ACAD_REACTORS
330
1C594
102
}
330
1F
100
AcDbEntity
  8
Blech
370
    15
100
AcDbLine
 10
364.5592345953071
 20
155.3345870718032
 30
0.0
 11
364.5592345953071
 21
149.914587710765
 31
0.0
  0
LINE
  5
1C528
102
{ACAD_REACTORS
330
1C594
102
}
330
1F
100
AcDbEntity
  8
Blech
370
    15
100
AcDbLine
 10
364.5592345953071
 20
149.914587710765
 30
0.0
 11
364.3192346304738
 21
149.914587710765
 31
0.0
  0
LINE
  5
1C529
102
{ACAD_REACTORS
330
1C594
102
}
330
1F
100
AcDbEntity
  8
Blech
370
    15
100
AcDbLine
 10
364.3192346304738
 20
141.9145863994628
 30
0.0
 11
364.3192346304738
 21
149.914587710765
 31
0.0
  0
ARC
  5
1C52A
102
{ACAD_REACTORS
330
1C594
102
}
330
1F
100
AcDbEntity
  8
Blech
370
    15
100
AcDbCircle
 10
370.1815910102902
 20
141.9145874830753
 30
0.0
 40
5.862356647441175
100
AcDbArc
 50
180.0000000000011
 51
245.8445352998754
  0
LINE
  5
1C52B
102
{ACAD_REACTORS
330
1C594
102
}
330
1F
100
AcDbEntity
  8
Blech
370
    15
100
AcDbLine
 10
368.4558356277728
 20
136.2636264905006
 30
0.0
 11
367.7826332956636
 21
136.5655463680297
 31
0.0
  0
ARC
  5
1C52C
102
{ACAD_REACTORS
330
1C594
102
}
330
1F
100
AcDbEntity
  8
Blech
370
    15
100
AcDbCircle
 10
366.0568777154078
 20
130.9145874830753
 30
0.0
 40
5.862356647441151
100
AcDbArc
 50
12.45651909063658
 51
65.84453529987418
  0
LINE
  5
1C52D
102
{ACAD_REACTORS
330
1C594
102
}
330
1F
100
AcDbEntity
  8
Blech
370
    15
100
AcDbLine
 10
371.781234173485
 20
158.9145873233348
 30
0.0
 11
371.781234173485
 21
132.1790915473968
 31
0.0
  0
LINE
  5
1C52E
102
{ACAD_REACTORS
330
1C594
102
}
330
1F
100
AcDbEntity
  8
Blech
370
    15
100
AcDbLine
 10
371.781234173485
 20
158.9145873233348
 30
0.0
 11
371.8262342833066
 21
158.9145873233348
 31
0.0
  0
LINE
  5
1C52F
102
{ACAD_REACTORS
330
1C594
102
}
330
1F
100
AcDbEntity
  8
Blech
370
    15
100
AcDbLine
 10
371.8262342833066
 20
163.9145872115761
 30
0.0
 11
371.8262342833066
 21
158.9145873233348
 31
0.0
  0
LINE
  5
1C530
102
{ACAD_REACTORS
330
1C594
102
}
330
1F
100
AcDbEntity
  8
Blech
370
    15
100
AcDbLine
 10
371.8262342833066
 20
163.9145872115761
 30
0.0
 11
372.144234376409
 21
163.9145872115761
 31
0.0
  0
LINE
  5
1C531
102
{ACAD_REACTORS
330
1C594
102
}
330
1F
100
AcDbEntity
  8
Blech
370
    15
100
AcDbLine
 10
372.144234376409
 20
153.9145883664161
 30
0.0
 11
372.144234376409
 21
163.9145872115761
 31
0.0
  0
LINE
  5
1C532
102
{ACAD_REACTORS
330
1C594
102
}
330
1F
100
AcDbEntity
  8
Blech
370
    15
100
AcDbLine
 10
372.144234376409
 20
153.9145883664161
 30
0.0
 11
371.9192342929625
 21
153.9145883664161
 31
0.0
  0
LINE
  5
1C533
102
{ACAD_REACTORS
330
1C594
102
}
330
1F
100
AcDbEntity
  8
Blech
370
    15
100
AcDbLine
 10
371.9192342929625
 20
116.7145882293254
 30
0.0
 11
371.9192342929625
 21
153.9145883664161
 31
0.0
  0
LINE
  5
1C534
102
{ACAD_REACTORS
330
1C594
102
}
330
1F
100
AcDbEntity
  8
Blech
370
    15
100
AcDbLine
 10
371.5562345556998
 20
123.9145871743232
 30
0.0
 11
371.5562345556998
 21
116.7145882293254
 31
0.0
  0
LINE
  5
1C535
102
{ACAD_REACTORS
330
1C594
102
}
330
1F
100
AcDbEntity
  8
Blech
370
    15
100
AcDbLine
 10
370.2092343106949
 20
254.8345838233501
 30
0.0
 11
371.7092345565641
 21
254.8345838233501
 31
0.0
  0
LINE
  5
1C536
102
{ACAD_REACTORS
330
1C594
102
}
330
1F
100
AcDbEntity
  8
Blech
370
    15
100
AcDbLine
 10
370.2092343106949
 20
154.8345879211694
 30
0.0
 11
371.7092345565641
 21
154.8345879211694
 31
0.0
  0
LINE
  5
1C537
102
{ACAD_REACTORS
330
1C594
102
}
330
1F
100
AcDbEntity
  8
Blech
370
    15
100
AcDbLine
 10
370.2092343106949
 20
254.8345838233501
 30
0.0
 11
370.2092343106949
 21
154.8345879211694
 31
0.0
  0
LINE
  5
1C538
102
{ACAD_REACTORS
330
1C594
102
}
330
1F
100
AcDbEntity
  8
Blech
370
    15
100
AcDbLine
 10
371.7092345565641
 20
254.8345838233501
 30
0.0
 11
371.7092345565641
 21
154.8345879211694
 31
0.0
  0
LINE
  5
1C539
102
{ACAD_REACTORS
330
1C594
102
}
330
1F
100
AcDbEntity
  8
Blech
370
    15
100
AcDbLine
 10
376.0692343591097
 20
245.9145848199398
 30
0.0
 11
373.3692343909377
 21
245.9145848199398
 31
0.0
  0
LINE
  5
1C53A
102
{ACAD_REACTORS
330
1C594
102
}
330
1F
100
AcDbEntity
  8
Blech
370
    15
100
AcDbLine
 10
376.0692343591097
 20
245.9145848199398
 30
0.0
 11
376.0692343591097
 21
244.9145902439624
 31
0.0
  0
LINE
  5
1C53B
102
{ACAD_REACTORS
330
1C594
102
}
330
1F
100
AcDbEntity
  8
Blech
370
    15
100
AcDbLine
 10
376.0692343591097
 20
244.9145902439624
 30
0.0
 11
373.3692343909377
 21
244.9145902439624
 31
0.0
  0
LINE
  5
1C53C
102
{ACAD_REACTORS
330
1C594
102
}
330
1F
100
AcDbEntity
  8
Blech
370
    15
100
AcDbLine
 10
373.3692343909377
 20
245.9145848199398
 30
0.0
 11
373.3692343909377
 21
244.9145902439624
 31
0.0
  0
LINE
  5
1C53D
102
{ACAD_REACTORS
330
1C594
102
}
330
1F
100
AcDbEntity
  8
Blech
370
    15
100
AcDbLine
 10
376.0692343591097
 20
244.9145902439624
 30
0.0
 11
376.0692343591097
 21
171.9295874729425
 31
0.0
  0
LINE
  5
1C53E
102
{ACAD_REACTORS
330
1C594
102
}
330
1F
100
AcDbEntity
  8
Blech
370
    15
100
AcDbLine
 10
376.0692343591097
 20
167.7395876988441
 30
0.0
 11
376.0692343591097
 21
97.81458867039981
 31
0.0
  0
LINE
  5
1C53F
102
{ACAD_REACTORS
330
1C594
102
}
330
1F
100
AcDbEntity
  8
Blech
370
    15
100
AcDbLine
 10
376.0692343591097
 20
97.81458867039981
 30
0.0
 11
373.3692343909377
 21
97.81458867039981
 31
0.0
  0
LINE
  5
1C540
102
{ACAD_REACTORS
330
1C594
102
}
330
1F
100
AcDbEntity
  8
Blech
370
    15
100
AcDbLine
 10
373.3692343909377
 20
244.9145902439624
 30
0.0
 11
373.3692343909377
 21
171.9295874729425
 31
0.0
  0
LINE
  5
1C541
102
{ACAD_REACTORS
330
1C594
102
}
330
1F
100
AcDbEntity
  8
Blech
370
    15
100
AcDbLine
 10
373.3692343909377
 20
167.7395876988441
 30
0.0
 11
373.3692343909377
 21
97.81458867039981
 31
0.0
  0
LINE
  5
1C542
102
{ACAD_REACTORS
330
1C594
102
}
330
1F
100
AcDbEntity
  8
Blech
370
    15
100
AcDbLine
 10
376.0692343591097
 20
97.81458867039981
 30
0.0
 11
376.0692343591097
 21
96.81458664384189
 31
0.0
  0
LINE
  5
1C543
102
{ACAD_REACTORS
330
1C594
102
}
330
1F
100
AcDbEntity
  8
Blech
370
    15
100
AcDbLine
 10
376.0692343591097
 20
96.81458664384189
 30
0.0
 11
373.3692343909377
 21
96.81458664384189
 31
0.0
  0
LINE
  5
1C544
102
{ACAD_REACTORS
330
1C594
102
}
330
1F
100
AcDbEntity
  8
Blech
370
    15
100
AcDbLine
 10
373.3692343909377
 20
97.81458867039981
 30
0.0
 11
373.3692343909377
 21
96.81458664384189
 31
0.0
  0
LINE
  5
1C545
102
{ACAD_REACTORS
330
1C594
102
}
330
1F
100
AcDbEntity
  8
Blech
370
    15
100
AcDbLine
 10
376.2092343628491
 20
101.8145893260509
 30
0.0
 11
376.0692343591097
 21
101.8145893260509
 31
0.0
  0
LINE
  5
1C546
102
{ACAD_REACTORS
330
1C594
102
}
330
1F
100
AcDbEntity
  8
Blech
370
    15
100
AcDbLine
 10
376.2092343628491
 20
245.8145905777484
 30
0.0
 11
376.0692343591097
 21
245.8145905777484
 31
0.0
  0
LINE
  5
1C547
102
{ACAD_REACTORS
330
1C594
102
}
330
1F
100
AcDbEntity
  8
Blech
370
    15
100
AcDbLine
 10
370.8692342139864
 20
99.41458595242801
 30
0.0
 11
373.3692343909377
 21
99.41458595242801
 31
0.0
  0
LINE
  5
1C548
102
{ACAD_REACTORS
330
1C594
102
}
330
1F
100
AcDbEntity
  8
Blech
370
    15
100
AcDbLine
 10
372.7692344788545
 20
116.914587889579
 30
0.0
 11
373.3692343909377
 21
116.914587889579
 31
0.0
  0
LINE
  5
1C549
102
{ACAD_REACTORS
330
1C594
102
}
330
1F
100
AcDbEntity
  8
Blech
370
    15
100
AcDbLine
 10
372.7692344788545
 20
112.4145862206489
 30
0.0
 11
372.7692344788545
 21
116.914587889579
 31
0.0
  0
LINE
  5
1C54A
102
{ACAD_REACTORS
330
1C594
102
}
330
1F
100
AcDbEntity
  8
Blech
370
    15
100
AcDbLine
 10
372.7692344788545
 20
112.4145862206489
 30
0.0
 11
370.8692342139864
 21
112.4145862206489
 31
0.0
  0
LINE
  5
1C54B
102
{ACAD_REACTORS
330
1C594
102
}
330
1F
100
AcDbEntity
  8
Blech
370
    15
100
AcDbLine
 10
370.8692342139864
 20
99.41458595242801
 30
0.0
 11
370.8692342139864
 21
112.4145862206489
 31
0.0
  0
LINE
  5
1C54C
102
{ACAD_REACTORS
330
1C594
102
}
330
1F
100
AcDbEntity
  8
Blech
370
    15
100
AcDbLine
 10
372.8692343089813
 20
121.4145858332187
 30
0.0
 11
372.7692344788545
 21
121.241382186082
 31
0.0
  0
LINE
  5
1C54D
102
{ACAD_REACTORS
330
1C594
102
}
330
1F
100
AcDbEntity
  8
Blech
370
    15
100
AcDbLine
 10
372.8692343089813
 20
121.4145858332187
 30
0.0
 11
373.3692343909377
 21
121.4145858332187
 31
0.0
  0
LINE
  5
1C54E
102
{ACAD_REACTORS
330
1C594
102
}
330
1F
100
AcDbEntity
  8
Blech
370
    15
100
AcDbLine
 10
372.7692344788545
 20
121.241382186082
 30
0.0
 11
372.7692344788545
 21
116.914587889579
 31
0.0
  0
LINE
  5
1C54F
102
{ACAD_REACTORS
330
1C594
102
}
330
1F
100
AcDbEntity
  8
Blech
370
    15
100
AcDbLine
 10
372.7692344788545
 20
121.241382186082
 30
0.0
 11
371.9192342929625
 21
119.7691400095493
 31
0.0
  0
LINE
  5
1C550
102
{ACAD_REACTORS
330
1C594
102
}
330
1F
100
AcDbEntity
  8
Blech
370
    15
100
AcDbLine
 10
371.5562345556998
 20
119.1404041394264
 30
0.0
 11
370.8692342139864
 21
117.9504868134529
 31
0.0
  0
LINE
  5
1C551
102
{ACAD_REACTORS
330
1C594
102
}
330
1F
100
AcDbEntity
  8
Blech
370
    15
100
AcDbLine
 10
370.8692342139864
 20
117.9504868134529
 30
0.0
 11
370.8692342139864
 21
112.4145862206489
 31
0.0
  0
LINE
  5
1C552
102
{ACAD_REACTORS
330
1C594
102
}
330
1F
100
AcDbEntity
  8
Blech
370
    15
100
AcDbLine
 10
369.3901347093367
 20
97.07742822614017
 30
0.0
 11
369.1908959396267
 21
97.06000131812397
 31
0.0
  0
LINE
  5
1C553
102
{ACAD_REACTORS
330
1C594
102
}
330
1F
100
AcDbEntity
  8
Blech
370
    15
100
AcDbLine
 10
369.1908959396267
 20
97.06000131812397
 30
0.0
 11
366.2443920135581
 21
130.738689427045
 31
0.0
  0
LINE
  5
1C554
102
{ACAD_REACTORS
330
1C594
102
}
330
1F
100
AcDbEntity
  8
Blech
370
    15
100
AcDbLine
 10
366.2443920135581
 20
130.738689427045
 30
0.0
 11
366.4436317145908
 21
130.7561200603515
 31
0.0
  0
LINE
  5
1C555
102
{ACAD_REACTORS
330
1C594
102
}
330
1F
100
AcDbEntity
  8
Blech
370
    15
100
AcDbLine
 10
369.3901347093367
 20
97.07742822614017
 30
0.0
 11
366.4436317145908
 21
130.7561200603515
 31
0.0
  0
LINE
  5
1C556
102
{ACAD_REACTORS
330
1C594
102
}
330
1F
100
AcDbEntity
  8
Blech
370
    15
100
AcDbLine
 10
370.3863294892096
 20
96.16459054198566
 30
0.0
 11
370.3863294892096
 21
95.96458715644184
 31
0.0
  0
ARC
  5
1C557
102
{ACAD_REACTORS
330
1C594
102
}
330
1F
100
AcDbEntity
  8
Blech
370
    15
100
AcDbCircle
 10
370.3863295043751
 20
97.1645874830752
 30
0.0
 40
1.200000000000056
100
AcDbArc
 50
185.0000000000017
 51
270.0
  0
ARC
  5
1C558
102
{ACAD_REACTORS
330
1C594
102
}
330
1F
100
AcDbEntity
  8
Blech
370
    15
100
AcDbCircle
 10
370.3863295043751
 20
97.1645874830752
 30
0.0
 40
1.000000000000064
100
AcDbArc
 50
184.9999999999995
 51
270.0
  0
LINE
  5
1C559
102
{ACAD_REACTORS
330
1C594
102
}
330
1F
100
AcDbEntity
  8
Blech
370
    15
100
AcDbLine
 10
375.0692344134757
 20
96.16459054198566
 30
0.0
 11
375.0692344134757
 21
95.96458715644184
 31
0.0
  0
LINE
  5
1C55A
102
{ACAD_REACTORS
330
1C594
102
}
330
1F
100
AcDbEntity
  8
Blech
370
    15
100
AcDbLine
 10
370.3863294892096
 20
95.96458715644184
 30
0.0
 11
375.0692344134757
 21
95.96458715644184
 31
0.0
  0
LINE
  5
1C55B
102
{ACAD_REACTORS
330
1C594
102
}
330
1F
100
AcDbEntity
  8
Blech
370
    15
100
AcDbLine
 10
370.3863294892096
 20
96.16459054198566
 30
0.0
 11
375.0692344134757
 21
96.16459054198566
 31
0.0
  0
ARC
  5
1C55C
102
{ACAD_REACTORS
330
1C594
102
}
330
1F
100
AcDbEntity
  8
Blech
370
    15
100
AcDbCircle
 10
375.069234362849
 20
97.1645874830752
 30
0.0
 40
1.0
100
AcDbArc
 50
270.0
 51
339.5126848852755
  0
ARC
  5
1C55D
102
{ACAD_REACTORS
330
1C594
102
}
330
1F
100
AcDbEntity
  8
Blech
370
    15
100
AcDbCircle
 10
375.069234362849
 20
97.1645874830752
 30
0.0
 40
1.200000000000045
100
AcDbArc
 50
270.0
 51
341.8051276613476
  0
LINE
  5
1C55E
102
{ACAD_REACTORS
330
1C594
102
}
330
1F
100
AcDbEntity
  8
Blech
370
    15
100
AcDbLine
 10
367.1008278712713
 20
114.0653554841548
 30
0.0
 11
367.6985451117241
 21
114.1176473840744
 31
0.0
  0
LINE
  5
1C55F
102
{ACAD_REACTORS
330
1C594
102
}
330
1F
100
AcDbEntity
  8
Blech
370
    15
100
AcDbLine
 10
366.2292710602367
 20
124.0273032828838
 30
0.0
 11
366.8269873693669
 21
124.0795951828033
 31
0.0
  0
LINE
  5
1C560
102
{ACAD_REACTORS
330
1C594
102
}
330
1F
100
AcDbEntity
  8
Blech
370
    15
100
AcDbLine
 10
367.1008278712713
 20
114.0653554841548
 30
0.0
 11
366.2292710602367
 21
124.0273032828838
 31
0.0
  0
LINE
  5
1C561
102
{ACAD_REACTORS
330
1C594
102
}
330
1F
100
AcDbEntity
  8
Blech
370
    15
100
AcDbLine
 10
366.4436317145908
 20
130.7561200603515
 30
0.0
 11
365.8287185341203
 21
137.7846029147178
 31
0.0
  0
LINE
  5
1C562
102
{ACAD_REACTORS
330
1C594
102
}
330
1F
100
AcDbEntity
  8
Blech
370
    15
100
AcDbLine
 10
365.8090219929898
 20
138.0097371086151
 30
0.0
 11
365.4962633833372
 21
141.5845890089542
 31
0.0
  0
LINE
  5
1C563
102
{ACAD_REACTORS
330
1C594
102
}
330
1F
100
AcDbEntity
  8
Blech
370
    15
100
AcDbLine
 10
366.2443920135581
 20
130.738689427045
 30
0.0
 11
365.6062674805605
 21
138.0324874564678
 31
0.0
  0
LINE
  5
1C564
102
{ACAD_REACTORS
330
1C594
102
}
330
1F
100
AcDbEntity
  8
Blech
370
    15
100
AcDbLine
 10
365.584948575505
 20
138.2761661454708
 30
0.0
 11
365.29549910725
 21
141.5845890089542
 31
0.0
  0
LINE
  5
1C565
102
{ACAD_REACTORS
330
1C594
102
}
330
1F
100
AcDbEntity
  8
Blech
370
    15
100
AcDbLine
 10
379.209234388926
 20
252.684584681657
 30
0.0
 11
379.2107342839324
 21
252.684584681657
 31
0.0
  0
LINE
  5
1C566
102
{ACAD_REACTORS
330
1C594
102
}
330
1F
100
AcDbEntity
  8
Blech
370
    15
100
AcDbLine
 10
379.2107342839324
 20
252.684584681657
 30
0.0
 11
379.2107342839324
 21
250.6845880791217
 31
0.0
  0
LINE
  5
1C567
102
{ACAD_REACTORS
330
1C594
102
}
330
1F
100
AcDbEntity
  8
Blech
370
    15
100
AcDbLine
 10
379.209234388926
 20
93.6845902844936
 30
0.0
 11
379.2107342839324
 21
93.6845902844936
 31
0.0
  0
LINE
  5
1C568
102
{ACAD_REACTORS
330
1C594
102
}
330
1F
100
AcDbEntity
  8
Blech
370
    15
100
AcDbLine
 10
379.2107342839324
 20
95.68458688702884
 30
0.0
 11
379.2107342839324
 21
93.6845902844936
 31
0.0
  0
LINE
  5
1C569
102
{ACAD_REACTORS
330
1C594
102
}
330
1F
100
AcDbEntity
  8
Blech
370
    15
100
AcDbLine
 10
379.2107342839324
 20
250.6845880791217
 30
0.0
 11
379.2107342839324
 21
95.68458688702884
 31
0.0
  0
LINE
  5
1C56A
102
{ACAD_REACTORS
330
1C594
102
}
330
1F
100
AcDbEntity
  8
Blech
370
    15
100
AcDbLine
 10
379.2122344117695
 20
250.6845880791217
 30
0.0
 11
379.2107342839324
 21
250.6845880791217
 31
0.0
  0
LINE
  5
1C56B
102
{ACAD_REACTORS
330
1C594
102
}
330
1F
100
AcDbEntity
  8
Blech
370
    15
100
AcDbLine
 10
379.2122344117695
 20
250.6845880791217
 30
0.0
 11
379.2122344117695
 21
95.68458688702884
 31
0.0
  0
LINE
  5
1C56C
102
{ACAD_REACTORS
330
1C594
102
}
330
1F
100
AcDbEntity
  8
Blech
370
    15
100
AcDbLine
 10
379.2122344117695
 20
95.68458688702884
 30
0.0
 11
379.2107342839324
 21
95.68458688702884
 31
0.0
  0
LINE
  5
1C56D
102
{ACAD_REACTORS
330
1C594
102
}
330
1F
100
AcDbEntity
  8
Blech
370
    15
100
AcDbLine
 10
379.2122344117695
 20
93.6845902844936
 30
0.0
 11
379.2107342839324
 21
93.6845902844936
 31
0.0
  0
LINE
  5
1C56E
102
{ACAD_REACTORS
330
1C594
102
}
330
1F
100
AcDbEntity
  8
Blech
370
    15
100
AcDbLine
 10
379.2122344117695
 20
95.68458688702884
 30
0.0
 11
379.2122344117695
 21
93.6845902844936
 31
0.0
  0
LINE
  5
1C56F
102
{ACAD_REACTORS
330
1C594
102
}
330
1F
100
AcDbEntity
  8
Blech
370
    15
100
AcDbLine
 10
379.2122344117695
 20
252.684584681657
 30
0.0
 11
379.2107342839324
 21
252.684584681657
 31
0.0
  0
LINE
  5
1C570
102
{ACAD_REACTORS
330
1C594
102
}
330
1F
100
AcDbEntity
  8
Blech
370
    15
100
AcDbLine
 10
379.2122344117695
 20
252.684584681657
 30
0.0
 11
379.2122344117695
 21
250.6845880791217
 31
0.0
  0
LINE
  5
1C571
102
{ACAD_REACTORS
330
1C594
102
}
330
1F
100
AcDbEntity
  8
Blech
370
    15
100
AcDbLine
 10
379.209234388926
 20
269.8345844193965
 30
0.0
 11
379.209234388926
 21
76.53459054675403
 31
0.0
  0
LINE
  5
1C572
102
{ACAD_REACTORS
330
1C594
102
}
330
1F
100
AcDbEntity
  8
Blech
370
    15
100
AcDbLine
 10
379.209234388926
 20
269.8345844193965
 30
0.0
 11
376.209234362849
 21
269.8345844193965
 31
0.0
  0
LINE
  5
1C573
102
{ACAD_REACTORS
330
1C594
102
}
330
1F
100
AcDbEntity
  8
Blech
370
    15
100
AcDbLine
 10
376.209234362849
 20
269.8345844193965
 30
0.0
 11
376.209234362849
 21
76.53459054675403
 31
0.0
  0
LINE
  5
1C574
102
{ACAD_REACTORS
330
1C594
102
}
330
1F
100
AcDbEntity
  8
Blech
370
    15
100
AcDbLine
 10
379.209234388926
 20
76.53459054675403
 30
0.0
 11
376.209234362849
 21
76.53459054675403
 31
0.0
  0
LINE
  5
1C575
102
{ACAD_REACTORS
330
1C594
102
}
330
1F
100
AcDbEntity
  8
Blech
370
    15
100
AcDbLine
 10
365.9566161319697
 20
158.4595878168613
 30
0.0
 11
365.9566161319697
 21
159.259587389198
 31
0.0
  0
LINE
  5
1C576
102
{ACAD_REACTORS
330
1C594
102
}
330
1F
100
AcDbEntity
  8
Blech
370
    15
100
AcDbLine
 10
365.9566161319697
 20
161.4345878854066
 30
0.0
 11
365.9566161319697
 21
162.4345871179968
 31
0.0
  0
LINE
  5
1C577
102
{ACAD_REACTORS
330
1C594
102
}
330
1F
100
AcDbEntity
  8
Blech
370
    15
100
AcDbLine
 10
364.7387581974351
 20
163.3106655001313
 30
0.0
 11
364.7387581974351
 21
158.3585095151931
 31
0.0
  0
LINE
  5
1C578
102
{ACAD_REACTORS
330
1C594
102
}
330
1F
100
AcDbEntity
  8
Blech
370
    15
100
AcDbLine
 10
364.6218492746436
 20
160.6040753915578
 30
0.0
 11
364.6218492746436
 21
163.2513160377413
 31
0.0
  0
LINE
  5
1C579
102
{ACAD_REACTORS
330
1C594
102
}
330
1F
100
AcDbEntity
  8
Blech
370
    15
100
AcDbLine
 10
364.6218492746436
 20
158.4178589775831
 30
0.0
 11
364.6218492746436
 21
160.6040753915578
 31
0.0
  0
LINE
  5
1C57A
102
{ACAD_REACTORS
330
1C594
102
}
330
1F
100
AcDbEntity
  8
Blech
370
    15
100
AcDbLine
 10
363.3566168233835
 20
225.0660311922103
 30
0.0
 11
363.3566168233835
 21
228.0330125733882
 31
0.0
  0
LINE
  5
1C57B
102
{ACAD_REACTORS
330
1C594
102
}
330
1F
100
AcDbEntity
  8
Blech
370
    15
100
AcDbLine
 10
363.3566168233835
 20
224.0850691243679
 30
0.0
 11
363.3566168233835
 21
225.0660311922103
 31
0.0
  0
LINE
  5
1C57C
102
{ACAD_REACTORS
330
1C594
102
}
330
1F
100
AcDbEntity
  8
Blech
370
    15
100
AcDbLine
 10
362.1387579575264
 20
225.0700284287006
 30
0.0
 11
362.1387579575264
 21
224.0850691243679
 31
0.0
  0
LINE
  5
1C57D
102
{ACAD_REACTORS
330
1C594
102
}
330
1F
100
AcDbEntity
  8
Blech
370
    15
100
AcDbLine
 10
362.1387579575264
 20
228.0117560669452
 30
0.0
 11
362.1387579575264
 21
225.0700284287006
 31
0.0
  0
LINE
  5
1C57E
102
{ACAD_REACTORS
330
1C594
102
}
330
1F
100
AcDbEntity
  8
Blech
370
    15
100
AcDbLine
 10
362.0218490347349
 20
223.1189486130745
 30
0.0
 11
362.0218490347349
 21
227.9524047419101
 31
0.0
  0
LINE
  5
1C57F
102
{ACAD_REACTORS
330
1C594
102
}
330
1F
100
AcDbEntity
  8
Blech
370
    15
100
AcDbLine
 10
365.9566161319697
 20
223.9595864459545
 30
0.0
 11
365.9566161319697
 21
228.3319224163562
 31
0.0
  0
LINE
  5
1C580
102
{ACAD_REACTORS
330
1C594
102
}
330
1F
100
AcDbEntity
  8
Blech
370
    15
100
AcDbLine
 10
364.7387581974351
 20
228.3106659099132
 30
0.0
 11
364.7387581974351
 21
223.3585108562976
 31
0.0
  0
LINE
  5
1C581
102
{ACAD_REACTORS
330
1C594
102
}
330
1F
100
AcDbEntity
  8
Blech
370
    15
100
AcDbLine
 10
364.6218492746436
 20
225.8345883831054
 30
0.0
 11
364.6218492746436
 21
228.2513145848781
 31
0.0
  0
LINE
  5
1C582
102
{ACAD_REACTORS
330
1C594
102
}
330
1F
100
AcDbEntity
  8
Blech
370
    15
100
AcDbLine
 10
364.6218492746436
 20
223.4178584560424
 30
0.0
 11
364.6218492746436
 21
225.8345883831054
 31
0.0
  0
LINE
  5
1C583
102
{ACAD_REACTORS
330
1C594
102
}
330
1F
100
AcDbEntity
  8
Blech
370
    15
100
AcDbLine
 10
356.0092351496303
 20
171.0799879885882
 30
0.0
 11
356.0092351496303
 21
167.6085678420633
 31
0.0
  0
LINE
  5
1C584
102
{ACAD_REACTORS
330
1C594
102
}
330
1F
100
AcDbEntity
  8
Blech
370
    15
100
AcDbLine
 10
356.0092351496303
 20
176.8345875691295
 30
0.0
 11
356.0092351496303
 21
173.8345874848448
 31
0.0
  0
LINE
  5
1C585
102
{ACAD_REACTORS
330
1C594
102
}
330
1F
100
AcDbEntity
  8
Blech
370
    15
100
AcDbLine
 10
365.4274861425245
 20
153.2345869138509
 30
0.0
 11
365.4274861425245
 21
153.7195880457431
 31
0.0
  0
LINE
  5
1C586
102
{ACAD_REACTORS
330
1C594
102
}
330
1F
100
AcDbEntity
  8
Blech
370
    15
100
AcDbLine
 10
365.1602347478354
 20
153.3314556374818
 30
0.0
 11
365.1602347478354
 21
154.0377203866512
 31
0.0
  0
LINE
  5
1C587
102
{ACAD_REACTORS
330
1C594
102
}
330
1F
100
AcDbEntity
  8
Blech
370
    15
100
AcDbLine
 10
362.6942341312849
 20
175.9845873832375
 30
0.0
 11
365.1092345923269
 21
175.9845873832375
 31
0.0
  0
LINE
  5
1C588
102
{ACAD_REACTORS
330
1C594
102
}
330
1F
100
AcDbEntity
  8
Blech
370
    15
100
AcDbLine
 10
362.6942341312849
 20
175.3557113490671
 30
0.0
 11
365.1092345923269
 21
175.3557113490671
 31
0.0
  0
LINE
  5
1C589
102
{ACAD_REACTORS
330
1C594
102
}
330
1F
100
AcDbEntity
  8
Blech
370
    15
100
AcDbLine
 10
365.2942343711936
 20
203.5845879956752
 30
0.0
 11
365.2942343711936
 21
205.4855589314968
 31
0.0
  0
LINE
  5
1C58A
102
{ACAD_REACTORS
330
1C594
102
}
330
1F
100
AcDbEntity
  8
Blech
370
    15
100
AcDbLine
 10
362.5942343011582
 20
176.4345875501305
 30
0.0
 11
362.5942343011582
 21
174.1343674741358
 31
0.0
  0
LINE
  5
1C58B
102
{ACAD_REACTORS
330
1C594
102
}
330
1F
100
AcDbEntity
  8
Blech
370
    15
100
AcDbLine
 10
365.0442347958767
 20
199.8345878466636
 30
0.0
 11
365.0442347958767
 21
200.1845881834299
 31
0.0
  0
LINE
  5
1C58C
102
{ACAD_REACTORS
330
1C594
102
}
330
1F
100
AcDbEntity
  8
Blech
370
    15
100
AcDbLine
 10
364.0592345133507
 20
155.43458690193
 30
0.0
 11
364.9592339158141
 21
155.43458690193
 31
0.0
  0
LINE
  5
1C58D
102
{ACAD_REACTORS
330
1C594
102
}
330
1F
100
AcDbEntity
  8
Blech
370
    15
100
AcDbLine
 10
372.7692344788545
 20
116.6145865365535
 30
0.0
 11
371.2192345507526
 21
116.6145865365535
 31
0.0
  0
LINE
  5
1C58E
102
{ACAD_REACTORS
330
1C594
102
}
330
1F
100
AcDbEntity
  8
Blech
370
    15
100
AcDbLine
 10
376.2092343628491
 20
102.8145839020282
 30
0.0
 11
376.0692343591097
 21
102.8145839020282
 31
0.0
  0
LINE
  5
1C58F
102
{ACAD_REACTORS
330
1C594
102
}
330
1F
100
AcDbEntity
  8
Blech
370
    15
100
AcDbLine
 10
376.2092343628491
 20
244.8145885511905
 30
0.0
 11
376.0692343591097
 21
244.8145885511905
 31
0.0
  0
LINE
  5
1C590
102
{ACAD_REACTORS
330
1C594
102
}
330
1F
100
AcDbEntity
  8
Blech
370
    15
100
AcDbLine
 10
376.0692343591097
 20
97.16458511796299
 30
0.0
 11
376.2092343628498
 21
97.16458511796299
 31
0.0
  0
LINE
  5
1C591
102
{ACAD_REACTORS
330
1C594
102
}
330
1F
100
AcDbEntity
  8
Blech
370
    15
100
AcDbLine
 10
379.209234388926
 20
250.6845880791217
 30
0.0
 11
379.2107342839324
 21
250.6845880791217
 31
0.0
  0
LINE
  5
1C592
102
{ACAD_REACTORS
330
1C594
102
}
330
1F
100
AcDbEntity
  8
Blech
370
    15
100
AcDbLine
 10
379.209234388926
 20
95.68458688702884
 30
0.0
 11
379.2107342839324
 21
95.68458688702884
 31
0.0
  0
DIMENSION
  5
1C596
102
{ACAD_REACTORS
102
}
102
{ACAD_XDICTIONARY
360
1C597
102
}
330
1F
100
AcDbEntity
  8
BEMASSUNG
100
AcDbDimension
  2
*D54
 10
33.22700211827701
 20
269.8345844193965
 30
0.0
 11
33.227002118277
 21
176.1570177888989
 31
0.0
 70
   160
 71
     5
 42
193.2999938726425
  3
ISO-25
100
AcDbAlignedDimension
 13
41.53751712833125
 23
76.53459054675403
 33
0.0
 14
41.53751712833125
 24
269.8345844193965
 34
0.0
 50
90.0
100
AcDbRotatedDimension
  0
DIMENSION
  5
1C5A5
102
{ACAD_REACTORS
102
}
102
{ACAD_XDICTIONARY
360
1C5A6
102
}
330
1F
100
AcDbEntity
  8
BEMASSUNG
100
AcDbDimension
  2
*D55
 10
67.95453814781897
 20
241.5345896526844
 30
0.0
 11
67.95453814781897
 21
178.4721868575351
 31
0.0
 70
   160
 71
     5
 42
136.7000043392181
  3
ISO-25
100
AcDbAlignedDimension
 13
59.93751567397791
 23
104.8345853134662
 33
0.0
 14
59.93751567397791
 24
241.5345896526844
 34
0.0
 50
90.0
100
AcDbRotatedDimension
  0
DIMENSION
  5
1C5B4
102
{ACAD_REACTORS
102
}
102
{ACAD_XDICTIONARY
360
1C5B5
102
}
330
1F
100
AcDbEntity
  8
BEMASSUNG
100
AcDbDimension
  2
*D56
 10
277.9375104287691
 20
115.3838297372005
 30
0.0
 11
161.1400931604232
 21
115.3838297372005
 31
0.0
 70
   160
 71
     5
 42
217.9999947547912
  3
ISO-25
100
AcDbAlignedDimension
 13
59.93751567397791
 23
104.8345853134662
 33
0.0
 14
277.9375104287691
 24
104.8345853134662
 34
0.0
100
AcDbRotatedDimension
  0
DIMENSION
  5
1C5C3
102
{ACAD_REACTORS
102
}
102
{ACAD_XDICTIONARY
360
1C5C4
102
}
330
1F
100
AcDbEntity
  8
BEMASSUNG
100
AcDbDimension
  2
*D57
 10
296.3375089744158
 20
66.76527929584182
 30
0.0
 11
169.2431849006496
 21
66.76527929584182
 31
0.0
 70
   160
 71
     5
 42
254.7999918460845
  3
ISO-25
100
AcDbAlignedDimension
 13
41.53751712833125
 23
76.53459054675403
 33
0.0
 14
296.3375089744158
 24
76.53459054675403
 34
0.0
100
AcDbRotatedDimension
  0
DIMENSION
  5
1C5D2
102
{ACAD_REACTORS
102
}
102
{ACAD_XDICTIONARY
360
1C5D3
102
}
330
1F
100
AcDbEntity
  8
BEMASSUNG
100
AcDbDimension
  2
*D58
 10
354.6092338025653
 20
68.50165609731897
 30
0.0
 11
367.7689325361976
 21
68.50165609731897
 31
0.0
 70
   160
 71
     5
 42
24.60000058636069
  3
ISO-25
100
AcDbAlignedDimension
 13
379.209234388926
 23
76.53459054675403
 33
0.0
 14
354.6092338025653
 24
176.8345875691295
 34
0.0
100
AcDbRotatedDimension
  0
LINE
  5
1C5E2
330
1F
100
AcDbEntity
  8
Mitte
100
AcDbLine
 10
168.9375130513735
 20
269.8345844193965
 30
0.0
 11
168.9375130513735
 21
76.53459054675403
 31
0.0
  0
LINE
  5
1C5E4
330
1F
100
AcDbEntity
  8
Mitte
100
AcDbLine
 10
41.53751712833125
 20
173.1845874830753
 30
0.0
 11
296.3375089744158
 21
173.1845874830753
 31
0.0
  0
ENDSEC
  0
SECTION
  2
OBJECTS
  0
DICTIONARY
  5
C
330
0
100
AcDbDictionary
281
     1
  3
ACAD_DETAILVIEWSTYLE
350
1BD38
  3
ACAD_GROUP
350
D
  3
ACAD_IMAGE_VARS
350
1BD30
  3
ACAD_LAYOUT
350
1A
  3
ACAD_MLINESTYLE
350
17
  3
ACAD_PLOTSETTINGS
350
19
  3
ACAD_PLOTSTYLENAME
350
E
  3
ACAD_SCALELIST
350
1BD09
  3
ACAD_SECTIONVIEWSTYLE
350
1BD39
  3
AcadDim
350
ACE3
  3
AcDbVariableDictionary
350
2C
  3
APPDATA
350
1BD2E
  3
DWGPROPS
350
1C5E5
  0
DICTIONARY
  5
1B0C6
330
2
100
AcDbDictionary
280
     1
281
     1
  3
ACAD_LAYERFILTERS
360
1BC9D
  3
ACAD_LAYERSTATES
360
1B0C7
  3
ACLYDICTIONARY
360
1BC9C
  0
DICTIONARY
  5
1B974
330
1F
100
AcDbDictionary
280
     1
281
     1
  3
ACAD_SORTENTS
360
1B975
  0
DICTIONARY
  5
1C597
330
1C596
100
AcDbDictionary
280
     1
281
     1
  0
DICTIONARY
  5
1C5A6
330
1C5A5
100
AcDbDictionary
280
     1
281
     1
  0
DICTIONARY
  5
1C5B5
330
1C5B4
100
AcDbDictionary
280
     1
281
     1
  0
DICTIONARY
  5
1C5C4
330
1C5C3
100
AcDbDictionary
280
     1
281
     1
  0
DICTIONARY
  5
1C5D3
330
1C5D2
100
AcDbDictionary
280
     1
281
     1
  0
DICTIONARY
  5
1BD38
102
{ACAD_REACTORS
330
C
102
}
330
C
100
AcDbDictionary
281
     1
  0
DICTIONARY
  5
D
102
{ACAD_REACTORS
330
C
102
}
330
C
100
AcDbDictionary
281
     1
  3
*A1434
350
1C593
  3
*A1435
350
1C594
  3
*A484
350
1BB54
  0
RASTERVARIABLES
  5
1BD30
102
{ACAD_REACTORS
330
C
102
}
330
C
100
AcDbRasterVariables
 90
        0
 70
     1
 71
     1
 72
     1
  0
DICTIONARY
  5
1A
102
{ACAD_REACTORS
330
C
102
}
330
C
100
AcDbDictionary
281
     1
  3
Layout1
350
1E
  3
Layout2
350
26
  3
Model
350
22
  0
DICTIONARY
  5
17
102
{ACAD_REACTORS
330
C
102
}
330
C
100
AcDbDictionary
281
     1
  3
Standard
350
18
  0
DICTIONARY
  5
19
102
{ACAD_REACTORS
330
C
102
}
330
C
100
AcDbDictionary
281
     1
  0
ACDBDICTIONARYWDFLT
  5
E
102
{ACAD_REACTORS
330
C
102
}
330
C
100
AcDbDictionary
281
     1
  3
Normal
350
F
100
AcDbDictionaryWithDefault
340
F
  0
DICTIONARY
  5
1BD09
102
{ACAD_REACTORS
330
C
102
}
330
C
100
AcDbDictionary
281
     1
  3
A0
350
1BD0A
  3
A1
350
1BD0B
  3
A2
350
1BD0C
  3
A3
350
1BD0D
  3
A4
350
1BD0E
  3
A5
350
1BD0F
  3
A6
350
1BD10
  3
A7
350
1BD11
  3
A8
350
1BD12
  3
A9
350
1BD13
  3
B0
350
1BD14
  3
B1
350
1BD15
  3
B2
350
1BD16
  3
B3
350
1BD17
  3
B4
350
1BD18
  3
B5
350
1BD19
  3
B6
350
1BD1A
  3
B7
350
1BD1B
  3
B8
350
1BD1C
  3
B9
350
1BD1D
  3
C0
350
1BD1E
  3
C1
350
1BD1F
  3
C2
350
1BD20
  3
C3
350
1BD21
  3
C4
350
1BD22
  3
C5
350
1BD23
  3
C6
350
1BD24
  3
C7
350
1BD25
  3
C8
350
1BD26
  3
C9
350
1BD27
  3
D0
350
1BD28
  3
D1
350
1BD29
  3
D2
350
1BD2A
  0
DICTIONARY
  5
1BD39
102
{ACAD_REACTORS
330
C
102
}
330
C
100
AcDbDictionary
281
     1
  0
XRECORD
  5
ACE3
102
{ACAD_REACTORS
330
C
102
}
330
C
100
AcDbXrecord
280
     1
 90
   990106
  3

 60
     0
 61
     0
 62
     1
 63
     3
 64
     0
 65
     0
 66
     0
 67
     3
 68
     1
 69
     0
 70
     0
 71
     0
 72
     0
 40
0.0
170
     0
340
0
  0
DICTIONARY
  5
2C
102
{ACAD_REACTORS
330
C
102
}
330
C
100
AcDbDictionary
281
     1
  3
DIMASSOC
350
2E
  3
HIDETEXT
350
2D
  3
PROJECTNAME
350
1B24A
  0
DICTIONARY
  5
1BD2E
102
{ACAD_REACTORS
330
C
102
}
330
C
100
AcDbDictionary
281
     1
  0
XRECORD
  5
1C5E5
102
{ACAD_REACTORS
330
C
102
}
330
C
100
AcDbXrecord
280
     1
  1
DWGPROPS COOKIE
  2

  3

  4

  6

  7

  8
fm
  9

300
=
301
=
302
=
303
=
304
=
305
=
306
=
307
=
308
=
309
=
 40
0.0
 41
2453192.476425058
 42
2457372.403777454
  1

 90
        0
  0
DICTIONARY
  5
1BC9D
102
{ACAD_REACTORS
330
1B0C6
102
}
330
1B0C6
100
AcDbDictionary
281
     1
  0
DICTIONARY
  5
1B0C7
102
{ACAD_REACTORS
330
1B0C6
102
}
330
1B0C6
100
AcDbDictionary
281
     1
  3
ARGON_LAYERP_1
350
1C595
  3
ARGON_LAYERP_2
350
1C5E1
  0
DICTIONARY
  5
1BC9C
102
{ACAD_REACTORS
330
1B0C6
102
}
330
1B0C6
100
AcDbDictionary
281
     1
1001
ACAD
1000
<All
  0
SORTENTSTABLE
  5
1B975
102
{ACAD_REACTORS
330
1B974
102
}
330
1B974
100
AcDbSortentsTable
330
1F
331
0
  5
1BADE
331
0
  5
1B6B1
331
0
  5
1B6B2
331
0
  5
1B6B5
331
0
  5
1B6B6
331
0
  5
1B6B7
331
0
  5
1B6B8
331
0
  5
1B6BB
331
0
  5
1B6BC
331
0
  5
1B6BD
331
0
  5
1B6BE
331
0
  5
1B6BF
331
0
  5
1B6C0
331
0
  5
1B6C1
331
0
  5
1B6C2
331
0
  5
1B6C3
331
0
  5
1B6C4
331
0
  5
1B6C5
331
0
  5
1B6C6
331
0
  5
1B6C7
331
0
  5
1B6C8
331
0
  5
1B6D5
331
0
  5
1B6D6
331
0
  5
1B6D9
331
0
  5
1B6DD
331
0
  5
1B6E8
331
1BAB9
  5
1BAB9
331
1BABC
  5
1BABC
331
1BABD
  5
1BABD
331
1BABE
  5
1BABE
331
1BABF
  5
1BABF
331
1BAC1
  5
1BAC1
331
1BAC2
  5
1BAC2
  0
GROUP
  5
1C593
102
{ACAD_REACTORS
330
D
102
}
330
D
100
AcDbGroup
300

 70
     1
 71
     1
340
1C190
340
1C191
340
1C192
340
1C193
340
1C194
340
1C195
340
1C196
340
1C197
340
1C198
340
1C199
340
1C19A
340
1C19B
340
1C19C
340
1C19D
340
1C19E
340
1C19F
340
1C1A0
340
1C1A1
340
1C1A2
340
1C1A3
340
1C1A4
340
1C1A5
340
1C1A6
340
1C1A7
340
1C1A8
340
1C1A9
340
1C1AA
340
1C1AB
340
1C1AC
340
1C1AD
340
1C1AE
340
1C1AF
340
1C1B0
340
1C1B1
340
1C1B2
340
1C1B3
340
1C1B4
340
1C1B5
340
1C1B6
340
1C1B7
340
1C1B8
340
1C1B9
340
1C1BA
340
1C1BB
340
1C1BC
340
1C1BD
340
1C1BE
340
1C1BF
340
1C1C0
340
1C1C1
340
1C1C2
340
1C1C3
340
1C1C4
340
1C1C5
340
1C1C6
340
1C1C7
340
1C1C8
340
1C1C9
340
1C1CA
340
1C1CB
340
1C1CC
340
1C1CD
340
1C1CE
340
1C1CF
340
1C1D0
340
1C1D1
340
1C1D2
340
1C1D3
340
1C1D4
340
1C1D5
340
1C1D6
340
1C1D7
340
1C1D8
340
1C1D9
340
1C1DA
340
1C1DB
340
1C1DC
340
1C1DD
340
1C1DE
340
1C1DF
340
1C1E0
340
1C1E1
340
1C1E2
340
1C1E3
340
1C1E4
340
1C1E5
340
1C1E6
340
1C1E7
340
1C1E8
340
1C1E9
340
1C1EA
340
1C1EB
340
1C1EC
340
1C1ED
340
1C1EE
340
1C1EF
340
1C1F0
340
1C1F1
340
1C1F2
340
1C1F3
340
1C1F4
340
1C1F5
340
1C1F6
340
1C1F7
340
1C1F8
340
1C1F9
340
1C1FA
340
1C1FB
340
1C1FC
340
1C1FD
340
1C1FE
340
1C1FF
340
1C200
340
1C201
340
1C202
340
1C203
340
1C204
340
1C205
340
1C206
340
1C207
340
1C208
340
1C209
340
1C20A
340
1C20B
340
1C20C
340
1C20D
340
1C20E
340
1C20F
340
1C210
340
1C211
340
1C212
340
1C213
340
1C214
340
1C215
340
1C216
340
1C217
340
1C218
340
1C219
340
1C21A
340
1C21B
340
1C21C
340
1C21D
340
1C21E
340
1C21F
340
1C220
340
1C221
340
1C222
340
1C223
340
1C224
340
1C225
340
1C226
340
1C227
340
1C228
340
1C229
340
1C22A
340
1C22B
340
1C22C
340
1C22D
340
1C22E
340
1C22F
340
1C230
340
1C231
340
1C232
340
1C233
340
1C234
340
1C235
340
1C236
340
1C237
340
1C238
340
1C239
340
1C23A
340
1C23B
340
1C23C
340
1C23D
340
1C23E
340
1C23F
340
1C240
340
1C241
340
1C242
340
1C243
340
1C244
340
1C245
340
1C246
340
1C247
340
1C248
340
1C249
340
1C24A
340
1C24B
340
1C24C
340
1C24D
340
1C24E
340
1C24F
340
1C250
340
1C251
340
1C252
340
1C253
340
1C254
340
1C255
340
1C256
340
1C257
340
1C258
340
1C259
340
1C25A
340
1C25B
340
1C25C
340
1C25D
340
1C25E
340
1C25F
340
1C260
340
1C261
340
1C262
340
1C263
340
1C264
340
1C267
340
1C268
340
1C269
  0
GROUP
  5
1C594
102
{ACAD_REACTORS
330
D
102
}
330
D
100
AcDbGroup
300

 70
     1
 71
     1
340
1C270
340
1C271
340
1C272
340
1C273
340
1C274
340
1C275
340
1C276
340
1C277
340
1C278
340
1C279
340
1C27A
340
1C27B
340
1C27C
340
1C27D
340
1C27E
340
1C27F
340
1C280
340
1C281
340
1C282
340
1C283
340
1C284
340
1C285
340
1C286
340
1C287
340
1C288
340
1C289
340
1C28A
340
1C28B
340
1C28C
340
1C28D
340
1C28E
340
1C28F
340
1C290
340
1C291
340
1C292
340
1C293
340
1C294
340
1C295
340
1C296
340
1C297
340
1C298
340
1C299
340
1C29A
340
1C29B
340
1C29C
340
1C29D
340
1C29E
340
1C29F
340
1C2A0
340
1C2A1
340
1C2A2
340
1C2A3
340
1C2A4
340
1C2A5
340
1C2A6
340
1C2A7
340
1C2A8
340
1C2A9
340
1C2AA
340
1C2AB
340
1C2AC
340
1C2AD
340
1C2AE
340
1C2AF
340
1C2B0
340
1C2B1
340
1C2B2
340
1C2B3
340
1C2B4
340
1C2B5
340
1C2B6
340
1C2B7
340
1C2B8
340
1C2B9
340
1C2BA
340
1C2BB
340
1C2BC
340
1C2BD
340
1C2BE
340
1C2BF
340
1C2C0
340
1C2C1
340
1C2C2
340
1C2C3
340
1C2C4
340
1C2C5
340
1C2C6
340
1C2C7
340
1C2C8
340
1C2C9
340
1C2CA
340
1C2CB
340
1C2CC
340
1C2CD
340
1C2CE
340
1C2CF
340
1C2D0
340
1C2D1
340
1C2D2
340
1C2D3
340
1C2D4
340
1C2D5
340
1C2D6
340
1C2D7
340
1C2D8
340
1C2D9
340
1C2DA
340
1C2DB
340
1C2DC
340
1C2DD
340
1C2DE
340
1C2DF
340
1C2E0
340
1C2E1
340
1C2E2
340
1C2E3
340
1C2E4
340
1C2E5
340
1C2E6
340
1C2E7
340
1C2E8
340
1C2E9
340
1C2EA
340
1C2EB
340
1C2EC
340
1C2ED
340
1C2EE
340
1C2EF
340
1C2F0
340
1C2F1
340
1C2F2
340
1C2F3
340
1C2F4
340
1C2F5
340
1C2F6
340
1C2F7
340
1C2F8
340
1C2F9
340
1C2FA
340
1C2FB
340
1C2FC
340
1C2FD
340
1C2FE
340
1C2FF
340
1C300
340
1C301
340
1C302
340
1C303
340
1C304
340
1C305
340
1C306
340
1C307
340
1C308
340
1C309
340
1C30A
340
1C30B
340
1C30C
340
1C30D
340
1C30E
340
1C30F
340
1C310
340
1C311
340
1C312
340
1C313
340
1C314
340
1C315
340
1C316
340
1C317
340
1C318
340
1C319
340
1C31A
340
1C31B
340
1C31C
340
1C31D
340
1C31E
340
1C31F
340
1C320
340
1C321
340
1C322
340
1C323
340
1C324
340
1C325
340
1C326
340
1C327
340
1C328
340
1C329
340
1C32A
340
1C32B
340
1C32C
340
1C32D
340
1C32E
340
1C32F
340
1C330
340
1C331
340
1C332
340
1C333
340
1C334
340
1C335
340
1C336
340
1C337
340
1C338
340
1C339
340
1C33A
340
1C33B
340
1C33C
340
1C33D
340
1C33E
340
1C33F
340
1C340
340
1C341
340
1C342
340
1C343
340
1C344
340
1C345
340
1C346
340
1C347
340
1C348
340
1C349
340
1C34A
340
1C34B
340
1C34C
340
1C34D
340
1C34E
340
1C34F
340
1C350
340
1C351
340
1C352
340
1C353
340
1C354
340
1C355
340
1C356
340
1C357
340
1C358
340
1C359
340
1C35A
340
1C35B
340
1C35C
340
1C35D
340
1C35E
340
1C35F
340
1C360
340
1C361
340
1C362
340
1C363
340
1C364
340
1C365
340
1C366
340
1C367
340
1C368
340
1C369
340
1C36A
340
1C36B
340
1C36C
340
1C36D
340
1C36E
340
1C36F
340
1C370
340
1C371
340
1C372
340
1C373
340
1C374
340
1C375
340
1C376
340
1C377
340
1C378
340
1C379
340
1C37A
340
1C37B
340
1C37C
340
1C37D
340
1C37E
340
1C37F
340
1C380
340
1C381
340
1C382
340
1C383
340
1C384
340
1C385
340
1C386
340
1C387
340
1C388
340
1C389
340
1C38A
340
1C38B
340
1C38C
340
1C38D
340
1C38E
340
1C38F
340
1C390
340
1C391
340
1C392
340
1C393
340
1C394
340
1C395
340
1C396
340
1C397
340
1C398
340
1C399
340
1C39A
340
1C39B
340
1C39C
340
1C39D
340
1C39E
340
1C39F
340
1C3A0
340
1C3A1
340
1C3A2
340
1C3A3
340
1C3A4
340
1C3A5
340
1C3A6
340
1C3A7
340
1C3A8
340
1C3A9
340
1C3AA
340
1C3AB
340
1C3AC
340
1C3AD
340
1C3AE
340
1C3AF
340
1C3B0
340
1C3B1
340
1C3B2
340
1C3B3
340
1C3B4
340
1C3B5
340
1C3B6
340
1C3B7
340
1C3B8
340
1C3B9
340
1C3BA
340
1C3BB
340
1C3BC
340
1C3BD
340
1C3BE
340
1C3BF
340
1C3C0
340
1C3C1
340
1C3C2
340
1C3C3
340
1C3C4
340
1C3C5
340
1C3C6
340
1C3C7
340
1C3C8
340
1C3C9
340
1C3CA
340
1C3CB
340
1C3CC
340
1C3CD
340
1C3CE
340
1C3CF
340
1C3D0
340
1C3D1
340
1C3D2
340
1C3D3
340
1C3D4
340
1C3D5
340
1C3D6
340
1C3D7
340
1C3D8
340
1C3D9
340
1C3DA
340
1C3DB
340
1C3DC
340
1C3DD
340
1C3DE
340
1C3DF
340
1C3E0
340
1C3E1
340
1C3E2
340
1C3E3
340
1C3E4
340
1C3E5
340
1C3E6
340
1C3E7
340
1C3E8
340
1C3E9
340
1C3EA
340
1C3EB
340
1C3EC
340
1C3ED
340
1C3EE
340
1C3EF
340
1C3F0
340
1C3F1
340
1C3F2
340
1C3F3
340
1C3F4
340
1C3F5
340
1C3F6
340
1C3F7
340
1C3F8
340
1C3F9
340
1C3FA
340
1C3FB
340
1C3FC
340
1C3FD
340
1C3FE
340
1C3FF
340
1C400
340
1C401
340
1C402
340
1C403
340
1C404
340
1C405
340
1C406
340
1C407
340
1C408
340
1C409
340
1C40A
340
1C40B
340
1C40C
340
1C40D
340
1C40E
340
1C40F
340
1C410
340
1C411
340
1C412
340
1C413
340
1C414
340
1C415
340
1C416
340
1C417
340
1C418
340
1C419
340
1C41A
340
1C41B
340
1C41C
340
1C41D
340
1C41E
340
1C41F
340
1C420
340
1C421
340
1C422
340
1C423
340
1C424
340
1C425
340
1C426
340
1C427
340
1C428
340
1C429
340
1C42A
340
1C42B
340
1C42C
340
1C42D
340
1C42E
340
1C42F
340
1C430
340
1C431
340
1C432
340
1C433
340
1C434
340
1C435
340
1C436
340
1C437
340
1C438
340
1C439
340
1C43A
340
1C43B
340
1C43C
340
1C43D
340
1C43E
340
1C43F
340
1C440
340
1C441
340
1C442
340
1C443
340
1C444
340
1C445
340
1C446
340
1C447
340
1C448
340
1C449
340
1C44A
340
1C44B
340
1C44C
340
1C44D
340
1C44E
340
1C44F
340
1C450
340
1C451
340
1C452
340
1C453
340
1C454
340
1C455
340
1C456
340
1C457
340
1C458
340
1C459
340
1C45A
340
1C45B
340
1C45C
340
1C45D
340
1C45E
340
1C45F
340
1C460
340
1C461
340
1C462
340
1C463
340
1C464
340
1C465
340
1C466
340
1C467
340
1C468
340
1C469
340
1C46A
340
1C46B
340
1C46C
340
1C46D
340
1C46E
340
1C46F
340
1C470
340
1C471
340
1C472
340
1C473
340
1C474
340
1C475
340
1C476
340
1C477
340
1C478
340
1C479
340
1C47A
340
1C47B
340
1C47C
340
1C47D
340
1C47E
340
1C47F
340
1C480
340
1C481
340
1C482
340
1C483
340
1C484
340
1C485
340
1C486
340
1C487
340
1C488
340
1C489
340
1C48A
340
1C48B
340
1C48C
340
1C48D
340
1C48E
340
1C48F
340
1C490
340
1C491
340
1C492
340
1C493
340
1C494
340
1C495
340
1C496
340
1C497
340
1C498
340
1C499
340
1C49A
340
1C49B
340
1C49C
340
1C49D
340
1C49E
340
1C49F
340
1C4A0
340
1C4A1
340
1C4A2
340
1C4A3
340
1C4A4
340
1C4A5
340
1C4A6
340
1C4A7
340
1C4A8
340
1C4A9
340
1C4AA
340
1C4AB
340
1C4AC
340
1C4AD
340
1C4AE
340
1C4AF
340
1C4B0
340
1C4B1
340
1C4B2
340
1C4B3
340
1C4B4
340
1C4B5
340
1C4B6
340
1C4B7
340
1C4B8
340
1C4B9
340
1C4BA
340
1C4BB
340
1C4BC
340
1C4BD
340
1C4BE
340
1C4BF
340
1C4C0
340
1C4C1
340
1C4C2
340
1C4C3
340
1C4C4
340
1C4C5
340
1C4C6
340
1C4C7
340
1C4C8
340
1C4C9
340
1C4CA
340
1C4CB
340
1C4CC
340
1C4CD
340
1C4CE
340
1C4CF
340
1C4D0
340
1C4D1
340
1C4D2
340
1C4D3
340
1C4D4
340
1C4D5
340
1C4D6
340
1C4D7
340
1C4D8
340
1C4D9
340
1C4DA
340
1C4DB
340
1C4DC
340
1C4DD
340
1C4DE
340
1C4DF
340
1C4E0
340
1C4E1
340
1C4E2
340
1C4E3
340
1C4E4
340
1C4E5
340
1C4E6
340
1C4E7
340
1C4E8
340
1C4E9
340
1C4EA
340
1C4EB
340
1C4EC
340
1C4ED
340
1C4EE
340
1C4EF
340
1C4F0
340
1C4F1
340
1C4F2
340
1C4F3
340
1C4F4
340
1C4F5
340
1C4F6
340
1C4F7
340
1C4F8
340
1C4F9
340
1C4FA
340
1C4FB
340
1C4FC
340
1C4FD
340
1C4FE
340
1C4FF
340
1C500
340
1C501
340
1C502
340
1C503
340
1C504
340
1C505
340
1C506
340
1C507
340
1C508
340
1C509
340
1C50A
340
1C50B
340
1C50C
340
1C50D
340
1C50E
340
1C50F
340
1C510
340
1C511
340
1C512
340
1C513
340
1C514
340
1C515
340
1C516
340
1C517
340
1C518
340
1C519
340
1C51A
340
1C51B
340
1C51C
340
1C51D
340
1C51E
340
1C51F
340
1C520
340
1C521
340
1C522
340
1C523
340
1C524
340
1C525
340
1C526
340
1C527
340
1C528
340
1C529
340
1C52A
340
1C52B
340
1C52C
340
1C52D
340
1C52E
340
1C52F
340
1C530
340
1C531
340
1C532
340
1C533
340
1C534
340
1C535
340
1C536
340
1C537
340
1C538
340
1C539
340
1C53A
340
1C53B
340
1C53C
340
1C53D
340
1C53E
340
1C53F
340
1C540
340
1C541
340
1C542
340
1C543
340
1C544
340
1C545
340
1C546
340
1C547
340
1C548
340
1C549
340
1C54A
340
1C54B
340
1C54C
340
1C54D
340
1C54E
340
1C54F
340
1C550
340
1C551
340
1C552
340
1C553
340
1C554
340
1C555
340
1C556
340
1C557
340
1C558
340
1C559
340
1C55A
340
1C55B
340
1C55C
340
1C55D
340
1C55E
340
1C55F
340
1C560
340
1C561
340
1C562
340
1C563
340
1C564
340
1C565
340
1C566
340
1C567
340
1C568
340
1C569
340
1C56A
340
1C56B
340
1C56C
340
1C56D
340
1C56E
340
1C56F
340
1C570
340
1C571
340
1C572
340
1C573
340
1C574
340
1C575
340
1C576
340
1C577
340
1C578
340
1C579
340
1C57A
340
1C57B
340
1C57C
340
1C57D
340
1C57E
340
1C57F
340
1C580
340
1C581
340
1C582
340
1C583
340
1C584
340
1C585
340
1C586
340
1C587
340
1C588
340
1C589
340
1C58A
340
1C58B
340
1C58C
340
1C58D
340
1C58E
340
1C58F
340
1C590
340
1C591
340
1C592
  0
GROUP
  5
1BB54
102
{ACAD_REACTORS
330
D
102
}
330
D
100
AcDbGroup
300

 70
     1
 71
     1
340
1BAC2
340
1BAC1
  0
LAYOUT
  5
1E
102
{ACAD_REACTORS
330
1A
102
}
330
1A
100
AcDbPlotSettings
  1

  2
\\GENESIS\HP DeskJet 1120C
  4

  6

 40
0.0
 41
0.0
 42
0.0
 43
0.0
 44
0.0
 45
0.0
 46
0.0
 47
0.0
 48
0.0
 49
0.0
140
0.0
141
0.0
142
1.0
143
1.0
 70
   688
 72
     0
 73
     0
 74
     5
  7
aclt.ctb
 75
    16
147
1.0
148
0.0
149
0.0
100
AcDbLayout
  1
Layout1
 70
     1
 71
     1
 10
0.0
 20
0.0
 11
420.0
 21
297.0
 12
0.0
 22
0.0
 32
0.0
 14
1.000000000000000E+20
 24
1.000000000000000E+20
 34
1.000000000000000E+20
 15
-1.000000000000000E+20
 25
-1.000000000000000E+20
 35
-1.000000000000000E+20
146
0.0
 13
0.0
 23
0.0
 33
0.0
 16
1.0
 26
0.0
 36
0.0
 17
0.0
 27
1.0
 37
0.0
 76
     0
330
1B
  0
LAYOUT
  5
26
102
{ACAD_REACTORS
330
1A
102
}
330
1A
100
AcDbPlotSettings
  1

  2
\\GENESIS\HP DeskJet 1120C
  4

  6

 40
0.0
 41
0.0
 42
0.0
 43
0.0
 44
0.0
 45
0.0
 46
0.0
 47
0.0
 48
0.0
 49
0.0
140
0.0
141
0.0
142
1.0
143
1.0
 70
   688
 72
     0
 73
     0
 74
     5
  7
aclt.ctb
 75
    16
147
1.0
148
0.0
149
0.0
100
AcDbLayout
  1
Layout2
 70
     1
 71
     2
 10
0.0
 20
0.0
 11
12.0
 21
9.0
 12
0.0
 22
0.0
 32
0.0
 14
0.0
 24
0.0
 34
0.0
 15
0.0
 25
0.0
 35
0.0
146
0.0
 13
0.0
 23
0.0
 33
0.0
 16
1.0
 26
0.0
 36
0.0
 17
0.0
 27
1.0
 37
0.0
 76
     0
330
23
  0
LAYOUT
  5
22
102
{ACAD_REACTORS
330
1A
102
}
330
1A
100
AcDbPlotSettings
  1

  2
\\SERVER1\HP Color LaserJet 4500
  4
A4
  6

 40
5.365749835968018
 41
5.450419902801514
 42
5.111740112304688
 43
5.069427490234375
 44
209.9733276367188
 45
296.9683227539062
 46
0.0
 47
18.48
 48
477.6934108874216
 49
124.4826183238026
140
761.68107534415
141
351.5675187745969
142
1.0
143
1.138293926740638
 70
 11956
 72
     1
 73
     1
 74
     4
  7
monochrome.ctb
 75
     0
147
0.8785077180051152
148
-477.6934108874216
149
-124.4826183238026
100
AcDbLayout
  1
Model
 70
     1
 71
     0
 10
0.0
 20
0.0
 11
12.0
 21
9.0
 12
0.0
 22
0.0
 32
0.0
 14
-0.0000000000004547
 24
-0.0000000000000568
 34
0.0
 15
419.9999999999995
 25
296.9999999999999
 35
0.0
146
0.0
 13
0.0
 23
0.0
 33
0.0
 16
1.0
 26
0.0
 36
0.0
 17
0.0
 27
1.0
 37
0.0
 76
     0
330
1F
331
1BCB0
  0
MLINESTYLE
  5
18
102
{ACAD_REACTORS
330
17
102
}
330
17
100
AcDbMlineStyle
  2
STANDARD
 70
     0
  3

 62
   256
 51
90.0
 52
90.0
 71
     2
 49
0.5
 62
   256
  6
BYLAYER
 49
-0.5
 62
   256
  6
BYLAYER
  0
ACDBPLACEHOLDER
  5
F
102
{ACAD_REACTORS
330
E
102
}
330
E
  0
SCALE
  5
1BD0A
102
{ACAD_REACTORS
330
1BD09
102
}
330
1BD09
100
AcDbScale
 70
     0
300
1:1
140
1.0
141
1.0
290
     1
  0
SCALE
  5
1BD0B
102
{ACAD_REACTORS
330
1BD09
102
}
330
1BD09
100
AcDbScale
 70
     0
300
1:2
140
1.0
141
2.0
290
     0
  0
SCALE
  5
1BD0C
102
{ACAD_REACTORS
330
1BD09
102
}
330
1BD09
100
AcDbScale
 70
     0
300
1:4
140
1.0
141
4.0
290
     0
  0
SCALE
  5
1BD0D
102
{ACAD_REACTORS
330
1BD09
102
}
330
1BD09
100
AcDbScale
 70
     0
300
1:5
140
1.0
141
5.0
290
     0
  0
SCALE
  5
1BD0E
102
{ACAD_REACTORS
330
1BD09
102
}
330
1BD09
100
AcDbScale
 70
     0
300
1:8
140
1.0
141
8.0
290
     0
  0
SCALE
  5
1BD0F
102
{ACAD_REACTORS
330
1BD09
102
}
330
1BD09
100
AcDbScale
 70
     0
300
1:10
140
1.0
141
10.0
290
     0
  0
SCALE
  5
1BD10
102
{ACAD_REACTORS
330
1BD09
102
}
330
1BD09
100
AcDbScale
 70
     0
300
1:16
140
1.0
141
16.0
290
     0
  0
SCALE
  5
1BD11
102
{ACAD_REACTORS
330
1BD09
102
}
330
1BD09
100
AcDbScale
 70
     0
300
1:20
140
1.0
141
20.0
290
     0
  0
SCALE
  5
1BD12
102
{ACAD_REACTORS
330
1BD09
102
}
330
1BD09
100
AcDbScale
 70
     0
300
1:30
140
1.0
141
30.0
290
     0
  0
SCALE
  5
1BD13
102
{ACAD_REACTORS
330
1BD09
102
}
330
1BD09
100
AcDbScale
 70
     0
300
1:40
140
1.0
141
40.0
290
     0
  0
SCALE
  5
1BD14
102
{ACAD_REACTORS
330
1BD09
102
}
330
1BD09
100
AcDbScale
 70
     0
300
1:50
140
1.0
141
50.0
290
     0
  0
SCALE
  5
1BD15
102
{ACAD_REACTORS
330
1BD09
102
}
330
1BD09
100
AcDbScale
 70
     0
300
1:100
140
1.0
141
100.0
290
     0
  0
SCALE
  5
1BD16
102
{ACAD_REACTORS
330
1BD09
102
}
330
1BD09
100
AcDbScale
 70
     0
300
2:1
140
2.0
141
1.0
290
     0
  0
SCALE
  5
1BD17
102
{ACAD_REACTORS
330
1BD09
102
}
330
1BD09
100
AcDbScale
 70
     0
300
4:1
140
4.0
141
1.0
290
     0
  0
SCALE
  5
1BD18
102
{ACAD_REACTORS
330
1BD09
102
}
330
1BD09
100
AcDbScale
 70
     0
300
8:1
140
8.0
141
1.0
290
     0
  0
SCALE
  5
1BD19
102
{ACAD_REACTORS
330
1BD09
102
}
330
1BD09
100
AcDbScale
 70
     0
300
10:1
140
10.0
141
1.0
290
     0
  0
SCALE
  5
1BD1A
102
{ACAD_REACTORS
330
1BD09
102
}
330
1BD09
100
AcDbScale
 70
     0
300
100:1
140
100.0
141
1.0
290
     0
  0
SCALE
  5
1BD1B
102
{ACAD_REACTORS
330
1BD09
102
}
330
1BD09
100
AcDbScale
 70
     0
300
1/128" = 1'-0"
140
0.0078125
141
12.0
290
     0
  0
SCALE
  5
1BD1C
102
{ACAD_REACTORS
330
1BD09
102
}
330
1BD09
100
AcDbScale
 70
     0
300
1/64" = 1'-0"
140
0.015625
141
12.0
290
     0
  0
SCALE
  5
1BD1D
102
{ACAD_REACTORS
330
1BD09
102
}
330
1BD09
100
AcDbScale
 70
     0
300
1/32" = 1'-0"
140
0.03125
141
12.0
290
     0
  0
SCALE
  5
1BD1E
102
{ACAD_REACTORS
330
1BD09
102
}
330
1BD09
100
AcDbScale
 70
     0
300
1/16" = 1'-0"
140
0.0625
141
12.0
290
     0
  0
SCALE
  5
1BD1F
102
{ACAD_REACTORS
330
1BD09
102
}
330
1BD09
100
AcDbScale
 70
     0
300
3/32" = 1'-0"
140
0.09375
141
12.0
290
     0
  0
SCALE
  5
1BD20
102
{ACAD_REACTORS
330
1BD09
102
}
330
1BD09
100
AcDbScale
 70
     0
300
1/8" = 1'-0"
140
0.125
141
12.0
290
     0
  0
SCALE
  5
1BD21
102
{ACAD_REACTORS
330
1BD09
102
}
330
1BD09
100
AcDbScale
 70
     0
300
3/16" = 1'-0"
140
0.1875
141
12.0
290
     0
  0
SCALE
  5
1BD22
102
{ACAD_REACTORS
330
1BD09
102
}
330
1BD09
100
AcDbScale
 70
     0
300
1/4" = 1'-0"
140
0.25
141
12.0
290
     0
  0
SCALE
  5
1BD23
102
{ACAD_REACTORS
330
1BD09
102
}
330
1BD09
100
AcDbScale
 70
     0
300
3/8" = 1'-0"
140
0.375
141
12.0
290
     0
  0
SCALE
  5
1BD24
102
{ACAD_REACTORS
330
1BD09
102
}
330
1BD09
100
AcDbScale
 70
     0
300
1/2" = 1'-0"
140
0.5
141
12.0
290
     0
  0
SCALE
  5
1BD25
102
{ACAD_REACTORS
330
1BD09
102
}
330
1BD09
100
AcDbScale
 70
     0
300
3/4" = 1'-0"
140
0.75
141
12.0
290
     0
  0
SCALE
  5
1BD26
102
{ACAD_REACTORS
330
1BD09
102
}
330
1BD09
100
AcDbScale
 70
     0
300
1" = 1'-0"
140
1.0
141
12.0
290
     0
  0
SCALE
  5
1BD27
102
{ACAD_REACTORS
330
1BD09
102
}
330
1BD09
100
AcDbScale
 70
     0
300
1-1/2" = 1'-0"
140
1.5
141
12.0
290
     0
  0
SCALE
  5
1BD28
102
{ACAD_REACTORS
330
1BD09
102
}
330
1BD09
100
AcDbScale
 70
     0
300
3" = 1'-0"
140
3.0
141
12.0
290
     0
  0
SCALE
  5
1BD29
102
{ACAD_REACTORS
330
1BD09
102
}
330
1BD09
100
AcDbScale
 70
     0
300
6" = 1'-0"
140
6.0
141
12.0
290
     0
  0
SCALE
  5
1BD2A
102
{ACAD_REACTORS
330
1BD09
102
}
330
1BD09
100
AcDbScale
 70
     0
300
1'-0" = 1'-0"
140
12.0
141
12.0
290
     0
  0
DICTIONARYVAR
  5
2E
102
{ACAD_REACTORS
330
2C
102
}
330
2C
100
DictionaryVariables
280
     0
  1
2
  0
DICTIONARYVAR
  5
2D
102
{ACAD_REACTORS
330
2C
102
}
330
2C
100
DictionaryVariables
280
     0
  1
1
  0
DICTIONARYVAR
  5
1B24A
102
{ACAD_REACTORS
330
2C
102
}
330
2C
100
DictionaryVariables
280
     0
  1

  0
XRECORD
  5
1C595
102
{ACAD_REACTORS
330
1B0C7
102
}
330
1B0C7
100
AcDbXrecord
280
     1
 91
     1023
301

290
     0
302
Mitte
330
10
 90
        8
 62
     7
370
    -3
331
16
  1
Color_7
330
3F
 90
        0
 62
     7
370
    -3
331
16
  1
Color_7
330
15B54
 90
        8
 62
     3
370
    -3
331
16
  1
Color_3
330
1B1DE
 90
        8
 62
     7
370
    -3
331
16
  1
Color_7
330
1BA25
 90
        8
 62
     7
370
    -3
331
16
  1
Color_7
330
1BC99
 90
        8
 62
     5
370
    -3
331
16
  1
Color_5
330
1BC9B
 90
        8
 62
     2
370
    -3
331
1B3CE
  1
Color_2
  0
XRECORD
  5
1C5E1
102
{ACAD_REACTORS
330
1B0C7
102
}
330
1B0C7
100
AcDbXrecord
280
     1
 91
     1023
301

290
     0
302
BEMASSUNG
330
10
 90
        8
 62
     7
370
    -3
331
16
  1
Color_7
330
3F
 90
        0
 62
     7
370
    -3
331
16
  1
Color_7
330
15B54
 90
        8
 62
     3
370
    -3
331
16
  1
Color_3
330
1B1DE
 90
        8
 62
     7
370
    -3
331
16
  1
Color_7
330
1BA25
 90
        8
 62
     7
370
    -3
331
16
  1
Color_7
330
1BC99
 90
        8
 62
     5
370
    -3
331
16
  1
Color_5
330
1BC9B
 90
        8
 62
     2
370
    -3
331
1B3CE
  1
Color_2
  0
ENDSEC
  0
EOF
