  0
SECTION
  2
HEADER
  9
$ACADVER
  1
AC1015
  9
$ACADMAINTVER
 70
     6
  9
$DWGCODEPAGE
  3
ANSI_1252
  9
$INSBASE
 10
0.0
 20
0.0
 30
0.0
  9
$EXTMIN
 10
-0.000000690567426
 20
-0.0000001410991004
 30
0.0
  9
$EXTMAX
 10
593.9999993094325
 20
419.9999998589009
 30
0.0
  9
$LIMMIN
 10
0.0
 20
0.0
  9
$LIMMAX
 10
594.0
 20
420.0
  9
$ORTHOMODE
 70
     1
  9
$REGENMODE
 70
     1
  9
$FILLMODE
 70
     1
  9
$QTEXTMODE
 70
     0
  9
$MIRRTEXT
 70
     1
  9
$LTSCALE
 40
1.0
  9
$ATTMODE
 70
     1
  9
$TEXTSIZE
 40
2.5
  9
$TRACEWID
 40
1.0
  9
$TEXTSTYLE
  7
OLED
  9
$CLAYER
  8
RAHMEN025
  9
$CELTYPE
  6
ByLayer
  9
$CECOLOR
 62
   256
  9
$CELTSCALE
 40
1.0
  9
$DISPSILH
 70
     0
  9
$DIMSCALE
 40
1.0
  9
$DIMASZ
 40
6.0
  9
$DIMEXO
 40
1.0
  9
$DIMDLI
 40
3.75
  9
$DIMRND
 40
0.0
  9
$DIMDLE
 40
0.0
  9
$DIMEXE
 40
1.0
  9
$DIMTP
 40
0.0
  9
$DIMTM
 40
0.0
  9
$DIMTXT
 40
3.5
  9
$DIMCEN
 40
2.5
  9
$DIMTSZ
 40
0.0
  9
$DIMTOL
 70
     0
  9
$DIMLIM
 70
     0
  9
$DIMTIH
 70
     0
  9
$DIMTOH
 70
     0
  9
$DIMSE1
 70
     0
  9
$DIMSE2
 70
     0
  9
$DIMTAD
 70
     1
  9
$DIMZIN
 70
     8
  9
$DIMBLK
  1

  9
$DIMASO
 70
     1
  9
$DIMSHO
 70
     1
  9
$DIMPOST
  1
mm
  9
$DIMAPOST
  1

  9
$DIMALT
 70
     0
  9
$DIMALTD
 70
     3
  9
$DIMALTF
 40
0.0393700787401575
  9
$DIMLFAC
 40
1.0
  9
$DIMTOFL
 70
     1
  9
$DIMTVP
 40
0.0
  9
$DIMTIX
 70
     0
  9
$DIMSOXD
 70
     0
  9
$DIMSAH
 70
     0
  9
$DIMBLK1
  1

  9
$DIMBLK2
  1

  9
$DIMSTYLE
  2
ISO-25
  9
$DIMCLRD
 70
     0
  9
$DIMCLRE
 70
     0
  9
$DIMCLRT
 70
     0
  9
$DIMTFAC
 40
1.0
  9
$DIMGAP
 40
1.524
  9
$DIMJUST
 70
     0
  9
$DIMSD1
 70
     0
  9
$DIMSD2
 70
     0
  9
$DIMTOLJ
 70
     0
  9
$DIMTZIN
 70
     0
  9
$DIMALTZ
 70
     0
  9
$DIMALTTZ
 70
     0
  9
$DIMUPT
 70
     0
  9
$DIMDEC
 70
     1
  9
$DIMTDEC
 70
     1
  9
$DIMALTU
 70
     2
  9
$DIMALTTD
 70
     3
  9
$DIMTXSTY
  7
Standard
  9
$DIMAUNIT
 70
     0
  9
$DIMADEC
 70
     0
  9
$DIMALTRND
 40
0.0
  9
$DIMAZIN
 70
     2
  9
$DIMDSEP
 70
    44
  9
$DIMATFIT
 70
     3
  9
$DIMFRAC
 70
     0
  9
$DIMLDRBLK
  1

  9
$DIMLUNIT
 70
     2
  9
$DIMLWD
 70
    -2
  9
$DIMLWE
 70
    -2
  9
$DIMTMOVE
 70
     0
  9
$LUNITS
 70
     2
  9
$LUPREC
 70
     2
  9
$SKETCHINC
 40
1.0
  9
$FILLETRAD
 40
10.0
  9
$AUNITS
 70
     0
  9
$AUPREC
 70
     0
  9
$MENU
  1
.
  9
$ELEVATION
 40
0.0
  9
$PELEVATION
 40
0.0
  9
$THICKNESS
 40
0.0
  9
$LIMCHECK
 70
     0
  9
$CHAMFERA
 40
10.0
  9
$CHAMFERB
 40
10.0
  9
$CHAMFERC
 40
20.0
  9
$CHAMFERD
 40
0.0
  9
$SKPOLY
 70
     0
  9
$TDCREATE
 40
2455069.349989144
  9
$TDUCREATE
 40
2455069.308322477
  9
$TDUPDATE
 40
2457043.450792708
  9
$TDUUPDATE
 40
2457043.409126041
  9
$TDINDWG
 40
0.6058270255
  9
$TDUSRTIMER
 40
2457043.408177836
  9
$USRTIMER
 70
     1
  9
$ANGBASE
 50
0.0
  9
$ANGDIR
 70
     0
  9
$PDMODE
 70
     0
  9
$PDSIZE
 40
-1.0
  9
$PLINEWID
 40
0.0
  9
$SPLFRAME
 70
     0
  9
$SPLINETYPE
 70
     6
  9
$SPLINESEGS
 70
     8
  9
$HANDSEED
  5
5C15
  9
$SURFTAB1
 70
     6
  9
$SURFTAB2
 70
     6
  9
$SURFTYPE
 70
     6
  9
$SURFU
 70
     6
  9
$SURFV
 70
     6
  9
$UCSBASE
  2

  9
$UCSNAME
  2

  9
$UCSORG
 10
0.0
 20
0.0
 30
0.0
  9
$UCSXDIR
 10
1.0
 20
0.0
 30
0.0
  9
$UCSYDIR
 10
0.0
 20
1.0
 30
0.0
  9
$UCSORTHOREF
  2

  9
$UCSORTHOVIEW
 70
     0
  9
$UCSORGTOP
 10
0.0
 20
0.0
 30
0.0
  9
$UCSORGBOTTOM
 10
0.0
 20
0.0
 30
0.0
  9
$UCSORGLEFT
 10
0.0
 20
0.0
 30
0.0
  9
$UCSORGRIGHT
 10
0.0
 20
0.0
 30
0.0
  9
$UCSORGFRONT
 10
0.0
 20
0.0
 30
0.0
  9
$UCSORGBACK
 10
0.0
 20
0.0
 30
0.0
  9
$PUCSBASE
  2

  9
$PUCSNAME
  2

  9
$PUCSORG
 10
0.0
 20
0.0
 30
0.0
  9
$PUCSXDIR
 10
1.0
 20
0.0
 30
0.0
  9
$PUCSYDIR
 10
0.0
 20
1.0
 30
0.0
  9
$PUCSORTHOREF
  2

  9
$PUCSORTHOVIEW
 70
     0
  9
$PUCSORGTOP
 10
0.0
 20
0.0
 30
0.0
  9
$PUCSORGBOTTOM
 10
0.0
 20
0.0
 30
0.0
  9
$PUCSORGLEFT
 10
0.0
 20
0.0
 30
0.0
  9
$PUCSORGRIGHT
 10
0.0
 20
0.0
 30
0.0
  9
$PUCSORGFRONT
 10
0.0
 20
0.0
 30
0.0
  9
$PUCSORGBACK
 10
0.0
 20
0.0
 30
0.0
  9
$USERI1
 70
     0
  9
$USERI2
 70
     0
  9
$USERI3
 70
     0
  9
$USERI4
 70
     0
  9
$USERI5
 70
     0
  9
$USERR1
 40
0.0
  9
$USERR2
 40
0.0
  9
$USERR3
 40
0.0
  9
$USERR4
 40
0.0
  9
$USERR5
 40
0.0
  9
$WORLDVIEW
 70
     1
  9
$SHADEDGE
 70
     3
  9
$SHADEDIF
 70
    70
  9
$TILEMODE
 70
     1
  9
$MAXACTVP
 70
    64
  9
$PINSBASE
 10
0.0
 20
0.0
 30
0.0
  9
$PLIMCHECK
 70
     0
  9
$PEXTMIN
 10
1.000000000000000E+20
 20
1.000000000000000E+20
 30
1.000000000000000E+20
  9
$PEXTMAX
 10
-1.000000000000000E+20
 20
-1.000000000000000E+20
 30
-1.000000000000000E+20
  9
$PLIMMIN
 10
0.0
 20
0.0
  9
$PLIMMAX
 10
0.0
 20
0.0
  9
$UNITMODE
 70
     0
  9
$VISRETAIN
 70
     1
  9
$PLINEGEN
 70
     0
  9
$PSLTSCALE
 70
     1
  9
$TREEDEPTH
 70
  3020
  9
$CMLSTYLE
  2
Standard
  9
$CMLJUST
 70
     0
  9
$CMLSCALE
 40
20.0
  9
$PROXYGRAPHICS
 70
     1
  9
$MEASUREMENT
 70
     1
  9
$CELWEIGHT
370
    -1
  9
$ENDCAPS
280
     0
  9
$JOINSTYLE
280
     0
  9
$LWDISPLAY
290
     1
  9
$INSUNITS
 70
     4
  9
$HYPERLINKBASE
  1

  9
$STYLESHEET
  1
aclt.ctb
  9
$XEDIT
290
     1
  9
$CEPSNTYPE
380
     0
  9
$PSTYLEMODE
290
     1
  9
$FINGERPRINTGUID
  2
{DB7250D2-6D98-4010-90BA-56ECE810444C}
  9
$VERSIONGUID
  2
{3316803C-F0B8-475A-9351-19720FCF486D}
  9
$EXTNAMES
290
     1
  9
$PSVPSCALE
 40
0.0
  9
$OLESTARTUP
290
     0
  0
ENDSEC
  0
SECTION
  2
CLASSES
  0
CLASS
  1
ACDBDICTIONARYWDFLT
  2
AcDbDictionaryWithDefault
  3
ObjectDBX Classes
 90
        0
280
     0
281
     0
  0
CLASS
  1
VISUALSTYLE
  2
AcDbVisualStyle
  3
ObjectDBX Classes
 90
     4095
280
     0
281
     0
  0
CLASS
  1
DICTIONARYVAR
  2
AcDbDictionaryVar
  3
ObjectDBX Classes
 90
        0
280
     0
281
     0
  0
CLASS
  1
ACDBPLACEHOLDER
  2
AcDbPlaceHolder
  3
ObjectDBX Classes
 90
        0
280
     0
281
     0
  0
CLASS
  1
LAYOUT
  2
AcDbLayout
  3
ObjectDBX Classes
 90
        0
280
     0
281
     0
  0
CLASS
  1
TABLESTYLE
  2
AcDbTableStyle
  3
ObjectDBX Classes
 90
     4095
280
     0
281
     0
  0
CLASS
  1
SORTENTSTABLE
  2
AcDbSortentsTable
  3
ObjectDBX Classes
 90
        0
280
     0
281
     0
  0
CLASS
  1
SCALE
  2
AcDbScale
  3
ObjectDBX Classes
 90
     1153
280
     0
281
     0
  0
CLASS
  1
MATERIAL
  2
AcDbMaterial
  3
ObjectDBX Classes
 90
     1153
280
     0
281
     0
  0
CLASS
  1
SUN
  2
AcDbSun
  3
SCENEOE
 90
     1153
280
     0
281
     0
  0
CLASS
  1
RASTERVARIABLES
  2
AcDbRasterVariables
  3
ISM
 90
        0
280
     0
281
     0
  0
CLASS
  1
CELLSTYLEMAP
  2
AcDbCellStyleMap
  3
ObjectDBX Classes
 90
     1152
280
     0
281
     0
  0
ENDSEC
  0
SECTION
  2
TABLES
  0
TABLE
  2
VPORT
  5
8
330
0
100
AcDbSymbolTable
 70
     3
  0
VPORT
  5
5BAF
330
8
100
AcDbSymbolTableRecord
100
AcDbViewportTableRecord
  2
*Active
 70
     0
 10
0.0
 20
0.0
 11
1.0
 21
1.0
 12
296.9999996547162
 22
209.9999999294505
 13
0.0
 23
0.0
 14
10.0
 24
10.0
 15
10.0
 25
10.0
 16
0.0
 26
0.0
 36
1.0
 17
0.0
 27
0.0
 37
0.0
 40
428.4000001439211
 41
1.723044397463002
 42
50.0
 43
0.0
 44
0.0
 50
0.0
 51
0.0
 71
    16
 72
  2000
 73
     1
 74
     3
 75
     0
 76
     0
 77
     0
 78
     0
281
     0
 65
     1
110
0.0
120
0.0
130
0.0
111
1.0
121
0.0
131
0.0
112
0.0
122
1.0
132
0.0
 79
     0
146
0.0
  0
ENDTAB
  0
TABLE
  2
LTYPE
  5
5
330
0
100
AcDbSymbolTable
 70
     1
  0
LTYPE
  5
14
330
5
100
AcDbSymbolTableRecord
100
AcDbLinetypeTableRecord
  2
ByBlock
 70
     0
  3

 72
    65
 73
     0
 40
0.0
  0
LTYPE
  5
15
330
5
100
AcDbSymbolTableRecord
100
AcDbLinetypeTableRecord
  2
ByLayer
 70
     0
  3

 72
    65
 73
     0
 40
0.0
  0
LTYPE
  5
16
330
5
100
AcDbSymbolTableRecord
100
AcDbLinetypeTableRecord
  2
Continuous
 70
     0
  3
Solid line
 72
    65
 73
     0
 40
0.0
  0
ENDTAB
  0
TABLE
  2
LAYER
  5
2
102
{ACAD_XDICTIONARY
360
1C1E
102
}
330
0
100
AcDbSymbolTable
 70
     9
  0
LAYER
  5
10
330
2
100
AcDbSymbolTableRecord
100
AcDbLayerTableRecord
  2
0
 70
     0
 62
     7
  6
Continuous
370
    -3
390
F
  0
LAYER
  5
1C1A
330
2
100
AcDbSymbolTableRecord
100
AcDbLayerTableRecord
  2
kontur
 70
     0
 62
     7
  6
Continuous
370
    -3
390
F
1001
AcAecLayerStandard
1000

1000

  0
LAYER
  5
1C1D
330
2
100
AcDbSymbolTableRecord
100
AcDbLayerTableRecord
  2
abmessung
 70
     0
 62
     3
  6
Continuous
370
    -3
390
F
1001
AcAecLayerStandard
1000

1000

  0
LAYER
  5
2107
330
2
100
AcDbSymbolTableRecord
100
AcDbLayerTableRecord
  2
Defpoints
 70
     0
 62
     7
  6
Continuous
290
     0
370
    -3
390
F
  0
LAYER
  5
33EC
330
2
100
AcDbSymbolTableRecord
100
AcDbLayerTableRecord
  2
RAHMEN025
 70
     0
 62
     7
  6
Continuous
370
    -3
390
F
  0
LAYER
  5
33ED
330
2
100
AcDbSymbolTableRecord
100
AcDbLayerTableRecord
  2
RAHMEN07
 70
     0
 62
     5
  6
Continuous
370
    -3
390
F
  0
LAYER
  5
33EE
330
2
100
AcDbSymbolTableRecord
100
AcDbLayerTableRecord
  2
TEXTFELD
 70
     0
 62
     7
  6
Continuous
370
    -3
390
F
  0
ENDTAB
  0
TABLE
  2
STYLE
  5
3
330
0
100
AcDbSymbolTable
 70
     2
  0
STYLE
  5
11
330
3
100
AcDbSymbolTableRecord
100
AcDbTextStyleTableRecord
  2
Standard
 70
     0
 40
0.0
 41
1.0
 50
0.0
 71
     0
 42
2.5
  3
txt
  4

  0
STYLE
  5
338A
330
3
100
AcDbSymbolTableRecord
100
AcDbTextStyleTableRecord
  2
OLED
 70
     0
 40
0.0
 41
1.0
 50
0.0
 71
     0
 42
2.5
  3
ericssonga628.TTF
  4

1001
ACAD
1000
Ericsson GA628
1071
        1
  0
ENDTAB
  0
TABLE
  2
VIEW
  5
6
330
0
100
AcDbSymbolTable
 70
     0
  0
ENDTAB
  0
TABLE
  2
UCS
  5
7
330
0
100
AcDbSymbolTable
 70
     0
  0
ENDTAB
  0
TABLE
  2
APPID
  5
9
330
0
100
AcDbSymbolTable
 70
    12
  0
APPID
  5
12
330
9
100
AcDbSymbolTableRecord
100
AcDbRegAppTableRecord
  2
ACAD
 70
     0
  0
APPID
  5
1C1B
330
9
100
AcDbSymbolTableRecord
100
AcDbRegAppTableRecord
  2
AcAecLayerStandard
 70
     0
  0
APPID
  5
2122
330
9
100
AcDbSymbolTableRecord
100
AcDbRegAppTableRecord
  2
ACAD_DSTYLE_DIMTEXT_FILL
 70
     0
  0
APPID
  5
2123
330
9
100
AcDbSymbolTableRecord
100
AcDbRegAppTableRecord
  2
ACAD_DSTYLE_DIMEXT_LENGTH
 70
     0
  0
APPID
  5
2124
330
9
100
AcDbSymbolTableRecord
100
AcDbRegAppTableRecord
  2
ACAD_DSTYLE_DIMEXT_ENABLED
 70
     0
  0
APPID
  5
2125
330
9
100
AcDbSymbolTableRecord
100
AcDbRegAppTableRecord
  2
ACAD_DSTYLE_DIM_LINETYPE
 70
     0
  0
APPID
  5
2126
330
9
100
AcDbSymbolTableRecord
100
AcDbRegAppTableRecord
  2
ACAD_DSTYLE_DIM_EXT1_LINETYPE
 70
     0
  0
APPID
  5
2127
330
9
100
AcDbSymbolTableRecord
100
AcDbRegAppTableRecord
  2
ACAD_DSTYLE_DIM_EXT2_LINETYPE
 70
     0
  0
APPID
  5
21E3
330
9
100
AcDbSymbolTableRecord
100
AcDbRegAppTableRecord
  2
ACAD_DSTYLE_DIMJOGGED_JOGANGLE_SYMBOL
 70
     0
  0
APPID
  5
2A57
330
9
100
AcDbSymbolTableRecord
100
AcDbRegAppTableRecord
  2
ACAD_DSTYLE_DIMARC_LENGTH_SYMBOL
 70
     0
  0
APPID
  5
2DEE
330
9
100
AcDbSymbolTableRecord
100
AcDbRegAppTableRecord
  2
ACAD_EXEMPT_FROM_CAD_STANDARDS
 70
     0
  0
APPID
  5
33EF
330
9
100
AcDbSymbolTableRecord
100
AcDbRegAppTableRecord
  2
ACAD_PSEXT
 70
     0
  0
ENDTAB
  0
TABLE
  2
DIMSTYLE
  5
A
330
0
100
AcDbSymbolTable
 70
     2
100
AcDbDimStyleTable
  0
DIMSTYLE
105
27
102
{ACAD_REACTORS
330
2106
330
316B
330
47F3
330
4800
330
4974
330
4981
330
498E
330
49DC
330
49E9
330
4A09
102
}
330
A
100
AcDbSymbolTableRecord
100
AcDbDimStyleTableRecord
  2
ISO-25
 70
     0
 41
2.5
 42
0.625
 43
3.75
 44
1.25
 73
     0
 74
     0
 77
     1
 78
     8
140
2.5
141
2.5
143
0.03937007874016
147
0.625
171
     3
172
     1
178
     0
271
     2
272
     2
274
     3
278
    44
283
     0
284
     8
340
11
  0
DIMSTYLE
105
2AD4
330
A
100
AcDbSymbolTableRecord
100
AcDbDimStyleTableRecord
  2
Standard
 70
     0
178
     0
289
     0
340
11
  0
ENDTAB
  0
TABLE
  2
BLOCK_RECORD
  5
1
330
0
100
AcDbSymbolTable
 70
    11
  0
BLOCK_RECORD
  5
1F
102
{ACAD_XDICTIONARY
360
2DFE
102
}
330
1
100
AcDbSymbolTableRecord
100
AcDbBlockTableRecord
  2
*Model_Space
340
22
  0
BLOCK_RECORD
  5
1B
330
1
100
AcDbSymbolTableRecord
100
AcDbBlockTableRecord
  2
*Paper_Space
340
1E
  0
BLOCK_RECORD
  5
23
330
1
100
AcDbSymbolTableRecord
100
AcDbBlockTableRecord
  2
*Paper_Space0
340
26
  0
BLOCK_RECORD
  5
2108
330
1
100
AcDbSymbolTableRecord
100
AcDbBlockTableRecord
  2
*D1
340
0
  0
BLOCK_RECORD
  5
316C
330
1
100
AcDbSymbolTableRecord
100
AcDbBlockTableRecord
  2
*D2
340
0
  0
BLOCK_RECORD
  5
47F4
330
1
100
AcDbSymbolTableRecord
100
AcDbBlockTableRecord
  2
*D3
340
0
  0
BLOCK_RECORD
  5
4801
330
1
100
AcDbSymbolTableRecord
100
AcDbBlockTableRecord
  2
*D4
340
0
  0
BLOCK_RECORD
  5
4975
330
1
100
AcDbSymbolTableRecord
100
AcDbBlockTableRecord
  2
*D5
340
0
  0
BLOCK_RECORD
  5
4982
330
1
100
AcDbSymbolTableRecord
100
AcDbBlockTableRecord
  2
*D6
340
0
  0
BLOCK_RECORD
  5
498F
330
1
100
AcDbSymbolTableRecord
100
AcDbBlockTableRecord
  2
*D7
340
0
  0
BLOCK_RECORD
  5
49DD
330
1
100
AcDbSymbolTableRecord
100
AcDbBlockTableRecord
  2
*D8
340
0
  0
BLOCK_RECORD
  5
49EA
330
1
100
AcDbSymbolTableRecord
100
AcDbBlockTableRecord
  2
*D9
340
0
  0
BLOCK_RECORD
  5
4A0A
330
1
100
AcDbSymbolTableRecord
100
AcDbBlockTableRecord
  2
*D10
340
0
  0
ENDTAB
  0
ENDSEC
  0
SECTION
  2
BLOCKS
  0
BLOCK
  5
20
330
1F
100
AcDbEntity
  8
0
100
AcDbBlockBegin
  2
*Model_Space
 70
     0
 10
0.0
 20
0.0
 30
0.0
  3
*Model_Space
  1
*Model_Space
  0
ENDBLK
  5
21
330
1F
100
AcDbEntity
  8
0
100
AcDbBlockEnd
  0
BLOCK
  5
1C
330
1B
100
AcDbEntity
 67
     1
  8
0
100
AcDbBlockBegin
  2
*Paper_Space
 70
     0
 10
0.0
 20
0.0
 30
0.0
  3
*Paper_Space
  1
*Paper_Space
  0
ENDBLK
  5
1D
330
1B
100
AcDbEntity
 67
     1
  8
0
100
AcDbBlockEnd
  0
BLOCK
  5
24
330
23
100
AcDbEntity
  8
0
100
AcDbBlockBegin
  2
*Paper_Space0
 70
     0
 10
0.0
 20
0.0
 30
0.0
  3
*Paper_Space0
  1
*Paper_Space0
  0
ENDBLK
  5
25
330
23
100
AcDbEntity
  8
0
100
AcDbBlockEnd
  0
BLOCK
  5
2112
330
2108
100
AcDbEntity
  8
0
100
AcDbBlockBegin
  2
*D1
 70
     1
 10
0.0
 20
0.0
 30
0.0
  3
*D1
  1
*D1
  0
LINE
  5
4A8C
330
2108
100
AcDbEntity
  8
abmessung
 62
     0
370
    -2
100
AcDbLine
 10
53.74057772620908
 20
235.7411147298909
 30
0.0
 11
53.74057772620908
 21
258.6740376711579
 31
0.0
  0
LINE
  5
4A8D
330
2108
100
AcDbEntity
  8
abmessung
 62
     0
370
    -2
100
AcDbLine
 10
444.8405671404242
 20
235.7411147298923
 30
0.0
 11
444.8405671404242
 21
258.6740376711579
 31
0.0
  0
LINE
  5
4A8E
330
2108
100
AcDbEntity
  8
abmessung
 62
     0
370
    -2
100
AcDbLine
 10
59.74057772620908
 20
257.6740376711579
 30
0.0
 11
438.8405671404242
 21
257.6740376711579
 31
0.0
  0
SOLID
  5
4A8F
330
2108
100
AcDbEntity
  8
abmessung
 62
     0
100
AcDbTrace
 10
59.74057772620908
 20
258.6740376711579
 30
0.0
 11
59.74057772620908
 21
256.6740376711579
 31
0.0
 12
53.74057772620908
 22
257.6740376711579
 32
0.0
 13
53.74057772620908
 23
257.6740376711579
 33
0.0
  0
SOLID
  5
4A90
330
2108
100
AcDbEntity
  8
abmessung
 62
     0
100
AcDbTrace
 10
438.8405671404242
 20
258.6740376711579
 30
0.0
 11
438.8405671404242
 21
256.6740376711579
 31
0.0
 12
444.8405671404242
 22
257.6740376711579
 32
0.0
 13
444.8405671404242
 23
257.6740376711579
 33
0.0
  0
MTEXT
  5
4A91
330
2108
100
AcDbEntity
  8
abmessung
 62
     0
100
AcDbMText
 10
249.2905724333166
 20
261.2397043378245
 30
0.0
 40
3.5
 41
0.0
 71
     5
 72
     1
  1
391,1mm
 73
     1
 44
1.0
  0
POINT
  5
4A92
330
2108
100
AcDbEntity
  8
Defpoints
 62
     0
100
AcDbPoint
 10
53.74057772620908
 20
234.7411147298909
 30
0.0
  0
POINT
  5
4A93
330
2108
100
AcDbEntity
  8
Defpoints
 62
     0
100
AcDbPoint
 10
444.8405671404242
 20
234.7411147298923
 30
0.0
  0
POINT
  5
4A94
330
2108
100
AcDbEntity
  8
Defpoints
 62
     0
100
AcDbPoint
 10
444.8405671404242
 20
257.6740376711579
 30
0.0
  0
ENDBLK
  5
2113
330
2108
100
AcDbEntity
  8
0
100
AcDbBlockEnd
  0
BLOCK
  5
3176
330
316C
100
AcDbEntity
  8
0
100
AcDbBlockBegin
  2
*D2
 70
     1
 10
0.0
 20
0.0
 30
0.0
  3
*D2
  1
*D2
  0
LINE
  5
4A95
330
316C
100
AcDbEntity
  8
abmessung
 62
     0
370
    -2
100
AcDbLine
 10
52.74057772620908
 20
234.7411147298909
 30
0.0
 11
30.66789550904671
 21
234.7411147298909
 31
0.0
  0
LINE
  5
4A96
330
316C
100
AcDbEntity
  8
abmessung
 62
     0
370
    -2
100
AcDbLine
 10
52.74057772620964
 20
75.14111017609608
 30
0.0
 11
30.66789550904667
 21
75.14111017609609
 31
0.0
  0
LINE
  5
4A97
330
316C
100
AcDbEntity
  8
abmessung
 62
     0
370
    -2
100
AcDbLine
 10
31.6678955090467
 20
228.7411147298909
 30
0.0
 11
31.66789550904667
 21
81.14111017609609
 31
0.0
  0
SOLID
  5
4A98
330
316C
100
AcDbEntity
  8
abmessung
 62
     0
100
AcDbTrace
 10
30.6678955090467
 20
228.7411147298909
 30
0.0
 11
32.66789550904671
 21
228.7411147298909
 31
0.0
 12
31.66789550904671
 22
234.7411147298909
 32
0.0
 13
31.66789550904671
 23
234.7411147298909
 33
0.0
  0
SOLID
  5
4A99
330
316C
100
AcDbEntity
  8
abmessung
 62
     0
100
AcDbTrace
 10
30.66789550904667
 20
81.14111017609609
 30
0.0
 11
32.66789550904668
 21
81.14111017609608
 31
0.0
 12
31.66789550904667
 22
75.14111017609609
 32
0.0
 13
31.66789550904667
 23
75.14111017609609
 33
0.0
  0
MTEXT
  5
4A9A
330
316C
100
AcDbEntity
  8
abmessung
 62
     0
100
AcDbMText
 10
28.10222884238
 20
154.9411124529935
 30
0.0
 40
3.5
 41
0.0
 71
     5
 72
     1
  1
159,6mm
 11
6.123031769111886E-17
 21
1.0
 31
0.0
 73
     1
 44
1.0
  0
POINT
  5
4A9B
330
316C
100
AcDbEntity
  8
Defpoints
 62
     0
100
AcDbPoint
 10
53.74057772620908
 20
234.7411147298909
 30
0.0
  0
POINT
  5
4A9C
330
316C
100
AcDbEntity
  8
Defpoints
 62
     0
100
AcDbPoint
 10
53.74057772620964
 20
75.14111017609608
 30
0.0
  0
POINT
  5
4A9D
330
316C
100
AcDbEntity
  8
Defpoints
 62
     0
100
AcDbPoint
 10
31.66789550904667
 20
75.14111017609609
 30
0.0
  0
ENDBLK
  5
3177
330
316C
100
AcDbEntity
  8
0
100
AcDbBlockEnd
  0
BLOCK
  5
47FE
330
47F4
100
AcDbEntity
  8
0
100
AcDbBlockBegin
  2
*D3
 70
     1
 10
0.0
 20
0.0
 30
0.0
  3
*D3
  1
*D3
  0
LINE
  5
4A40
330
47F4
100
AcDbEntity
  8
abmessung
 62
     0
370
    -2
100
AcDbLine
 10
53.04056790336364
 20
365.817760209708
 30
0.0
 11
33.13713258903517
 21
365.817760209708
 31
0.0
  0
LINE
  5
4A41
330
47F4
100
AcDbEntity
  8
abmessung
 62
     0
370
    -2
100
AcDbLine
 10
126.5405724333171
 20
309.8177602572065
 30
0.0
 11
33.13713258903516
 21
309.8177602572065
 31
0.0
  0
LINE
  5
4A42
330
47F4
100
AcDbEntity
  8
abmessung
 62
     0
370
    -2
100
AcDbLine
 10
34.13713258903517
 20
359.817760209708
 30
0.0
 11
34.13713258903516
 21
315.8177602572065
 31
0.0
  0
SOLID
  5
4A43
330
47F4
100
AcDbEntity
  8
abmessung
 62
     0
100
AcDbTrace
 10
33.13713258903517
 20
359.817760209708
 30
0.0
 11
35.13713258903517
 21
359.817760209708
 31
0.0
 12
34.13713258903517
 22
365.817760209708
 32
0.0
 13
34.13713258903517
 23
365.817760209708
 33
0.0
  0
SOLID
  5
4A44
330
47F4
100
AcDbEntity
  8
abmessung
 62
     0
100
AcDbTrace
 10
33.13713258903516
 20
315.8177602572065
 30
0.0
 11
35.13713258903516
 21
315.8177602572065
 31
0.0
 12
34.13713258903516
 22
309.8177602572065
 32
0.0
 13
34.13713258903516
 23
309.8177602572065
 33
0.0
  0
MTEXT
  5
4A45
330
47F4
100
AcDbEntity
  8
abmessung
 62
     0
100
AcDbMText
 10
30.86313258903511
 20
337.8177602334572
 30
0.0
 40
3.5
 41
0.0
 71
     5
 72
     1
  1
56mm
 11
6.123031769111886E-17
 21
1.0
 31
0.0
 73
     1
 44
1.0
  0
POINT
  5
4A46
330
47F4
100
AcDbEntity
  8
Defpoints
 62
     0
100
AcDbPoint
 10
54.04056790336364
 20
365.817760209708
 30
0.0
  0
POINT
  5
4A47
330
47F4
100
AcDbEntity
  8
Defpoints
 62
     0
100
AcDbPoint
 10
127.5405724333171
 20
309.8177602572065
 30
0.0
  0
POINT
  5
4A48
330
47F4
100
AcDbEntity
  8
Defpoints
 62
     0
100
AcDbPoint
 10
34.13713258903516
 20
309.8177602572065
 30
0.0
  0
ENDBLK
  5
47FF
330
47F4
100
AcDbEntity
  8
0
100
AcDbBlockEnd
  0
BLOCK
  5
480D
330
4801
100
AcDbEntity
  8
0
100
AcDbBlockBegin
  2
*D4
 70
     1
 10
0.0
 20
0.0
 30
0.0
  3
*D4
  1
*D4
  0
LINE
  5
4A49
330
4801
100
AcDbEntity
  8
abmessung
 62
     0
370
    -2
100
AcDbLine
 10
53.04056790336364
 20
365.817760209708
 30
0.0
 11
33.11466656133387
 21
365.817760209708
 31
0.0
  0
LINE
  5
4A4A
330
4801
100
AcDbEntity
  8
abmessung
 62
     0
370
    -2
100
AcDbLine
 10
52.7405777262091
 20
368.2477602028907
 30
0.0
 11
33.11466656133388
 21
368.2477602028907
 31
0.0
  0
LINE
  5
4A4B
330
4801
100
AcDbEntity
  8
abmessung
 62
     0
370
    -2
100
AcDbLine
 10
34.11466656133387
 20
359.817760209708
 30
0.0
 11
34.11466656133387
 21
353.817760209708
 31
0.0
  0
LINE
  5
4A4C
330
4801
100
AcDbEntity
  8
abmessung
 62
     0
370
    -2
100
AcDbLine
 10
34.11466656133388
 20
374.2477602028907
 30
0.0
 11
34.11466656133388
 21
397.879093536224
 31
0.0
  0
LINE
  5
4A4D
330
4801
100
AcDbEntity
  8
abmessung
 62
     0
370
    -2
100
AcDbLine
 10
34.11466656133387
 20
365.817760209708
 30
0.0
 11
34.11466656133388
 21
368.2477602028907
 31
0.0
  0
SOLID
  5
4A4E
330
4801
100
AcDbEntity
  8
abmessung
 62
     0
100
AcDbTrace
 10
33.11466656133387
 20
359.817760209708
 30
0.0
 11
35.11466656133387
 21
359.817760209708
 31
0.0
 12
34.11466656133387
 22
365.817760209708
 32
0.0
 13
34.11466656133387
 23
365.817760209708
 33
0.0
  0
SOLID
  5
4A4F
330
4801
100
AcDbEntity
  8
abmessung
 62
     0
100
AcDbTrace
 10
33.11466656133388
 20
374.2477602028907
 30
0.0
 11
35.11466656133388
 21
374.2477602028907
 31
0.0
 12
34.11466656133388
 22
368.2477602028907
 32
0.0
 13
34.11466656133388
 23
368.2477602028907
 33
0.0
  0
MTEXT
  5
4A50
330
4801
100
AcDbEntity
  8
abmessung
 62
     0
100
AcDbMText
 10
30.54899989466715
 20
389.0634268695574
 30
0.0
 40
3.5
 41
0.0
 71
     5
 72
     1
  1
2,4mm
 11
6.123031769111886E-17
 21
1.0
 31
0.0
 73
     1
 44
1.0
  0
POINT
  5
4A51
330
4801
100
AcDbEntity
  8
Defpoints
 62
     0
100
AcDbPoint
 10
54.04056790336364
 20
365.817760209708
 30
0.0
  0
POINT
  5
4A52
330
4801
100
AcDbEntity
  8
Defpoints
 62
     0
100
AcDbPoint
 10
53.7405777262091
 20
368.2477602028907
 30
0.0
  0
POINT
  5
4A53
330
4801
100
AcDbEntity
  8
Defpoints
 62
     0
100
AcDbPoint
 10
34.11466656133388
 20
368.2477602028907
 30
0.0
  0
ENDBLK
  5
480E
330
4801
100
AcDbEntity
  8
0
100
AcDbBlockEnd
  0
BLOCK
  5
497F
330
4975
100
AcDbEntity
  8
0
100
AcDbBlockBegin
  2
*D5
 70
     1
 10
0.0
 20
0.0
 30
0.0
  3
*D5
  1
*D5
  0
LINE
  5
4A9E
330
4975
100
AcDbEntity
  8
abmessung
 62
     0
370
    -2
100
AcDbLine
 10
56.84057243331662
 20
230.9411124529934
 30
0.0
 11
56.84057243331662
 21
251.9374878645298
 31
0.0
  0
LINE
  5
4A9F
330
4975
100
AcDbEntity
  8
abmessung
 62
     0
370
    -2
100
AcDbLine
 10
441.8405724333167
 20
230.9411124529948
 30
0.0
 11
441.8405724333167
 21
251.9374878645298
 31
0.0
  0
LINE
  5
4AA0
330
4975
100
AcDbEntity
  8
abmessung
 62
     0
370
    -2
100
AcDbLine
 10
62.84057243331662
 20
250.9374878645298
 30
0.0
 11
435.8405724333167
 21
250.9374878645298
 31
0.0
  0
SOLID
  5
4AA1
330
4975
100
AcDbEntity
  8
abmessung
 62
     0
100
AcDbTrace
 10
62.84057243331662
 20
251.9374878645298
 30
0.0
 11
62.84057243331662
 21
249.9374878645298
 31
0.0
 12
56.84057243331662
 22
250.9374878645298
 32
0.0
 13
56.84057243331662
 23
250.9374878645298
 33
0.0
  0
SOLID
  5
4AA2
330
4975
100
AcDbEntity
  8
abmessung
 62
     0
100
AcDbTrace
 10
435.8405724333167
 20
251.9374878645298
 30
0.0
 11
435.8405724333167
 21
249.9374878645298
 31
0.0
 12
441.8405724333167
 22
250.9374878645298
 32
0.0
 13
441.8405724333167
 23
250.9374878645298
 33
0.0
  0
MTEXT
  5
4AA3
330
4975
100
AcDbEntity
  8
abmessung
 62
     0
100
AcDbMText
 10
249.3405724333167
 20
254.2114878645298
 30
0.0
 40
3.5
 41
0.0
 71
     5
 72
     1
  1
385mm
 73
     1
 44
1.0
  0
POINT
  5
4AA4
330
4975
100
AcDbEntity
  8
Defpoints
 62
     0
100
AcDbPoint
 10
56.84057243331662
 20
229.9411124529934
 30
0.0
  0
POINT
  5
4AA5
330
4975
100
AcDbEntity
  8
Defpoints
 62
     0
100
AcDbPoint
 10
441.8405724333167
 20
229.9411124529948
 30
0.0
  0
POINT
  5
4AA6
330
4975
100
AcDbEntity
  8
Defpoints
 62
     0
100
AcDbPoint
 10
441.8405724333167
 20
250.9374878645298
 30
0.0
  0
ENDBLK
  5
4980
330
4975
100
AcDbEntity
  8
0
100
AcDbBlockEnd
  0
BLOCK
  5
498C
330
4982
100
AcDbEntity
  8
0
100
AcDbBlockBegin
  2
*D6
 70
     1
 10
0.0
 20
0.0
 30
0.0
  3
*D6
  1
*D6
  0
LINE
  5
4AA7
330
4982
100
AcDbEntity
  8
abmessung
 62
     0
370
    -2
100
AcDbLine
 10
55.84057243331662
 20
229.9411124529934
 30
0.0
 11
37.20409583273177
 21
229.9411124529934
 31
0.0
  0
LINE
  5
4AA8
330
4982
100
AcDbEntity
  8
abmessung
 62
     0
370
    -2
100
AcDbLine
 10
55.84057243331715
 20
79.94111245299351
 30
0.0
 11
37.20409583273174
 21
79.94111245299351
 31
0.0
  0
LINE
  5
4AA9
330
4982
100
AcDbEntity
  8
abmessung
 62
     0
370
    -2
100
AcDbLine
 10
38.20409583273177
 20
223.9411124529934
 30
0.0
 11
38.20409583273175
 21
85.94111245299351
 31
0.0
  0
SOLID
  5
4AAA
330
4982
100
AcDbEntity
  8
abmessung
 62
     0
100
AcDbTrace
 10
37.20409583273177
 20
223.9411124529934
 30
0.0
 11
39.20409583273177
 21
223.9411124529934
 31
0.0
 12
38.20409583273177
 22
229.9411124529934
 32
0.0
 13
38.20409583273177
 23
229.9411124529934
 33
0.0
  0
SOLID
  5
4AAB
330
4982
100
AcDbEntity
  8
abmessung
 62
     0
100
AcDbTrace
 10
37.20409583273175
 20
85.94111245299351
 30
0.0
 11
39.20409583273175
 21
85.94111245299351
 31
0.0
 12
38.20409583273174
 22
79.94111245299351
 32
0.0
 13
38.20409583273174
 23
79.94111245299351
 33
0.0
  0
MTEXT
  5
4AAC
330
4982
100
AcDbEntity
  8
abmessung
 62
     0
100
AcDbMText
 10
34.93009583273173
 20
154.9411124529935
 30
0.0
 40
3.5
 41
0.0
 71
     5
 72
     1
  1
150mm
 11
6.123031769111886E-17
 21
1.0
 31
0.0
 73
     1
 44
1.0
  0
POINT
  5
4AAD
330
4982
100
AcDbEntity
  8
Defpoints
 62
     0
100
AcDbPoint
 10
56.84057243331662
 20
229.9411124529934
 30
0.0
  0
POINT
  5
4AAE
330
4982
100
AcDbEntity
  8
Defpoints
 62
     0
100
AcDbPoint
 10
56.84057243331715
 20
79.94111245299351
 30
0.0
  0
POINT
  5
4AAF
330
4982
100
AcDbEntity
  8
Defpoints
 62
     0
100
AcDbPoint
 10
38.20409583273174
 20
79.94111245299351
 30
0.0
  0
ENDBLK
  5
498D
330
4982
100
AcDbEntity
  8
0
100
AcDbBlockEnd
  0
BLOCK
  5
4999
330
498F
100
AcDbEntity
  8
0
100
AcDbBlockBegin
  2
*D7
 70
     1
 10
0.0
 20
0.0
 30
0.0
  3
*D7
  1
*D7
  0
LINE
  5
4A66
330
498F
100
AcDbEntity
  8
abmessung
 62
     0
370
    -2
100
AcDbLine
 10
53.04056790336364
 20
365.817760209708
 30
0.0
 11
39.95925032569011
 21
365.817760209708
 31
0.0
  0
LINE
  5
4A67
330
498F
100
AcDbEntity
  8
abmessung
 62
     0
370
    -2
100
AcDbLine
 10
64.54056885703795
 20
332.8177584094613
 30
0.0
 11
39.95925032569011
 21
332.8177584094613
 31
0.0
  0
LINE
  5
4A68
330
498F
100
AcDbEntity
  8
abmessung
 62
     0
370
    -2
100
AcDbLine
 10
40.95925032569011
 20
359.817760209708
 30
0.0
 11
40.95925032569011
 21
338.8177584094613
 31
0.0
  0
SOLID
  5
4A69
330
498F
100
AcDbEntity
  8
abmessung
 62
     0
100
AcDbTrace
 10
39.95925032569011
 20
359.817760209708
 30
0.0
 11
41.95925032569011
 21
359.817760209708
 31
0.0
 12
40.95925032569011
 22
365.817760209708
 32
0.0
 13
40.95925032569011
 23
365.817760209708
 33
0.0
  0
SOLID
  5
4A6A
330
498F
100
AcDbEntity
  8
abmessung
 62
     0
100
AcDbTrace
 10
39.95925032569011
 20
338.8177584094613
 30
0.0
 11
41.95925032569011
 21
338.8177584094613
 31
0.0
 12
40.95925032569011
 22
332.8177584094613
 32
0.0
 13
40.95925032569011
 23
332.8177584094613
 33
0.0
  0
MTEXT
  5
4A6B
330
498F
100
AcDbEntity
  8
abmessung
 62
     0
100
AcDbMText
 10
37.68525032569006
 20
349.3177593095846
 30
0.0
 40
3.5
 41
0.0
 71
     5
 72
     1
  1
33mm
 11
6.123031769111886E-17
 21
1.0
 31
0.0
 73
     1
 44
1.0
  0
POINT
  5
4A6C
330
498F
100
AcDbEntity
  8
Defpoints
 62
     0
100
AcDbPoint
 10
54.04056790336364
 20
365.817760209708
 30
0.0
  0
POINT
  5
4A6D
330
498F
100
AcDbEntity
  8
Defpoints
 62
     0
100
AcDbPoint
 10
65.54056885703795
 20
332.8177584094613
 30
0.0
  0
POINT
  5
4A6E
330
498F
100
AcDbEntity
  8
Defpoints
 62
     0
100
AcDbPoint
 10
40.95925032569011
 20
332.8177584094613
 30
0.0
  0
ENDBLK
  5
499A
330
498F
100
AcDbEntity
  8
0
100
AcDbBlockEnd
  0
BLOCK
  5
49E7
330
49DD
100
AcDbEntity
  8
0
100
AcDbBlockBegin
  2
*D8
 70
     1
 10
0.0
 20
0.0
 30
0.0
  3
*D8
  1
*D8
  0
LINE
  5
4A6F
330
49DD
100
AcDbEntity
  8
abmessung
 62
     0
370
    -2
100
AcDbLine
 10
63.54057243331698
 20
333.8177602572068
 30
0.0
 11
63.54057243331698
 21
286.0565335599453
 31
0.0
  0
LINE
  5
4A70
330
49DD
100
AcDbEntity
  8
abmessung
 62
     0
370
    -2
100
AcDbLine
 10
435.040572433317
 20
310.8177602572055
 30
0.0
 11
435.040572433317
 21
286.0565335599453
 31
0.0
  0
LINE
  5
4A71
330
49DD
100
AcDbEntity
  8
abmessung
 62
     0
370
    -2
100
AcDbLine
 10
69.54057243331698
 20
287.0565335599453
 30
0.0
 11
429.040572433317
 21
287.0565335599453
 31
0.0
  0
SOLID
  5
4A72
330
49DD
100
AcDbEntity
  8
abmessung
 62
     0
100
AcDbTrace
 10
69.54057243331698
 20
288.0565335599453
 30
0.0
 11
69.54057243331698
 21
286.0565335599453
 31
0.0
 12
63.54057243331698
 22
287.0565335599453
 32
0.0
 13
63.54057243331698
 23
287.0565335599453
 33
0.0
  0
SOLID
  5
4A73
330
49DD
100
AcDbEntity
  8
abmessung
 62
     0
100
AcDbTrace
 10
429.040572433317
 20
288.0565335599453
 30
0.0
 11
429.040572433317
 21
286.0565335599453
 31
0.0
 12
435.040572433317
 22
287.0565335599453
 32
0.0
 13
435.040572433317
 23
287.0565335599453
 33
0.0
  0
MTEXT
  5
4A74
330
49DD
100
AcDbEntity
  8
abmessung
 62
     0
100
AcDbMText
 10
249.290572433317
 20
290.6222002266119
 30
0.0
 40
3.5
 41
0.0
 71
     5
 72
     1
  1
371,5mm
 73
     1
 44
1.0
  0
POINT
  5
4A75
330
49DD
100
AcDbEntity
  8
Defpoints
 62
     0
100
AcDbPoint
 10
63.54057243331698
 20
334.8177602572068
 30
0.0
  0
POINT
  5
4A76
330
49DD
100
AcDbEntity
  8
Defpoints
 62
     0
100
AcDbPoint
 10
435.040572433317
 20
311.8177602572055
 30
0.0
  0
POINT
  5
4A77
330
49DD
100
AcDbEntity
  8
Defpoints
 62
     0
100
AcDbPoint
 10
435.040572433317
 20
287.0565335599453
 30
0.0
  0
ENDBLK
  5
49E8
330
49DD
100
AcDbEntity
  8
0
100
AcDbBlockEnd
  0
BLOCK
  5
49F4
330
49EA
100
AcDbEntity
  8
0
100
AcDbBlockBegin
  2
*D9
 70
     1
 10
0.0
 20
0.0
 30
0.0
  3
*D9
  1
*D9
  0
LINE
  5
4A78
330
49EA
100
AcDbEntity
  8
abmessung
 62
     0
370
    -2
100
AcDbLine
 10
125.5405712412235
 20
310.8177605552283
 30
0.0
 11
125.5405712412235
 21
292.7491822064991
 31
0.0
  0
LINE
  5
4A79
330
49EA
100
AcDbEntity
  8
abmessung
 62
     0
370
    -2
100
AcDbLine
 10
435.040572433317
 20
310.8177602572055
 30
0.0
 11
435.040572433317
 21
292.7491822064991
 31
0.0
  0
LINE
  5
4A7A
330
49EA
100
AcDbEntity
  8
abmessung
 62
     0
370
    -2
100
AcDbLine
 10
131.5405712412235
 20
293.7491822064991
 30
0.0
 11
429.040572433317
 21
293.7491822064991
 31
0.0
  0
SOLID
  5
4A7B
330
49EA
100
AcDbEntity
  8
abmessung
 62
     0
100
AcDbTrace
 10
131.5405712412235
 20
294.7491822064991
 30
0.0
 11
131.5405712412235
 21
292.7491822064991
 31
0.0
 12
125.5405712412235
 22
293.7491822064991
 32
0.0
 13
125.5405712412235
 23
293.7491822064991
 33
0.0
  0
SOLID
  5
4A7C
330
49EA
100
AcDbEntity
  8
abmessung
 62
     0
100
AcDbTrace
 10
429.040572433317
 20
294.7491822064991
 30
0.0
 11
429.040572433317
 21
292.7491822064991
 31
0.0
 12
435.040572433317
 22
293.7491822064991
 32
0.0
 13
435.040572433317
 23
293.7491822064991
 33
0.0
  0
MTEXT
  5
4A7D
330
49EA
100
AcDbEntity
  8
abmessung
 62
     0
100
AcDbMText
 10
280.2905718372702
 20
297.3148488731658
 30
0.0
 40
3.5
 41
0.0
 71
     5
 72
     1
  1
309,5mm
 73
     1
 44
1.0
  0
POINT
  5
4A7E
330
49EA
100
AcDbEntity
  8
Defpoints
 62
     0
100
AcDbPoint
 10
125.5405712412235
 20
311.8177605552283
 30
0.0
  0
POINT
  5
4A7F
330
49EA
100
AcDbEntity
  8
Defpoints
 62
     0
100
AcDbPoint
 10
435.040572433317
 20
311.8177602572055
 30
0.0
  0
POINT
  5
4A80
330
49EA
100
AcDbEntity
  8
Defpoints
 62
     0
100
AcDbPoint
 10
435.040572433317
 20
293.7491822064991
 30
0.0
  0
ENDBLK
  5
49F5
330
49EA
100
AcDbEntity
  8
0
100
AcDbBlockEnd
  0
BLOCK
  5
4A16
330
4A0A
100
AcDbEntity
  8
0
100
AcDbBlockBegin
  2
*D10
 70
     1
 10
0.0
 20
0.0
 30
0.0
  3
*D10
  1
*D10
  0
LINE
  5
4A81
330
4A0A
100
AcDbEntity
  8
abmessung
 62
     0
370
    -2
100
AcDbLine
 10
444.8405671404242
 20
366.8177603047015
 30
0.0
 11
444.8405671404242
 21
286.1546920380446
 31
0.0
  0
LINE
  5
4A82
330
4A0A
100
AcDbEntity
  8
abmessung
 62
     0
370
    -2
100
AcDbLine
 10
435.0405651615499
 20
310.8177605552274
 30
0.0
 11
435.0405651615499
 21
286.1546920380446
 31
0.0
  0
LINE
  5
4A83
330
4A0A
100
AcDbEntity
  8
abmessung
 62
     0
370
    -2
100
AcDbLine
 10
429.0405651615499
 20
287.1546920380446
 30
0.0
 11
423.0405651615499
 21
287.1546920380446
 31
0.0
  0
LINE
  5
4A84
330
4A0A
100
AcDbEntity
  8
abmessung
 62
     0
370
    -2
100
AcDbLine
 10
450.8405671404242
 20
287.1546920380446
 30
0.0
 11
474.4719004737575
 21
287.1546920380446
 31
0.0
  0
LINE
  5
4A85
330
4A0A
100
AcDbEntity
  8
abmessung
 62
     0
370
    -2
100
AcDbLine
 10
435.0405651615499
 20
287.1546920380446
 30
0.0
 11
444.8405671404242
 21
287.1546920380446
 31
0.0
  0
SOLID
  5
4A86
330
4A0A
100
AcDbEntity
  8
abmessung
 62
     0
100
AcDbTrace
 10
429.0405651615499
 20
288.1546920380446
 30
0.0
 11
429.0405651615499
 21
286.1546920380446
 31
0.0
 12
435.0405651615499
 22
287.1546920380446
 32
0.0
 13
435.0405651615499
 23
287.1546920380446
 33
0.0
  0
SOLID
  5
4A87
330
4A0A
100
AcDbEntity
  8
abmessung
 62
     0
100
AcDbTrace
 10
450.8405671404242
 20
288.1546920380446
 30
0.0
 11
450.8405671404242
 21
286.1546920380446
 31
0.0
 12
444.8405671404242
 22
287.1546920380446
 32
0.0
 13
444.8405671404242
 23
287.1546920380446
 33
0.0
  0
MTEXT
  5
4A88
330
4A0A
100
AcDbEntity
  8
abmessung
 62
     0
100
AcDbMText
 10
465.6562338070909
 20
290.7203587047113
 30
0.0
 40
3.5
 41
0.0
 71
     5
 72
     1
  1
9,8mm
 73
     1
 44
1.0
  0
POINT
  5
4A89
330
4A0A
100
AcDbEntity
  8
Defpoints
 62
     0
100
AcDbPoint
 10
444.8405671404242
 20
367.8177603047015
 30
0.0
  0
POINT
  5
4A8A
330
4A0A
100
AcDbEntity
  8
Defpoints
 62
     0
100
AcDbPoint
 10
435.0405651615499
 20
311.8177605552274
 30
0.0
  0
POINT
  5
4A8B
330
4A0A
100
AcDbEntity
  8
Defpoints
 62
     0
100
AcDbPoint
 10
435.0405651615499
 20
287.1546920380446
 30
0.0
  0
ENDBLK
  5
4A17
330
4A0A
100
AcDbEntity
  8
0
100
AcDbBlockEnd
  0
ENDSEC
  0
SECTION
  2
ENTITIES
  0
ARC
  5
11A5
102
{ACAD_REACTORS
330
1C18
330
5BAE
102
}
330
1F
100
AcDbEntity
  8
kontur
  6
Continuous
370
    15
100
AcDbCircle
 10
56.84057243331662
 20
229.9411124529934
 30
0.0
 40
0.8500000000000081
100
AcDbArc
 50
199.8808331015952
 51
220.1191668984044
  0
LINE
  5
11A6
102
{ACAD_REACTORS
330
1C18
330
5BAE
102
}
330
1F
100
AcDbEntity
  8
kontur
  6
Continuous
370
    15
100
AcDbLine
 10
56.19056704505677
 20
228.8152805509663
 30
0.0
 11
56.19056704505677
 21
229.3933934512235
 31
0.0
  0
LINE
  5
11A7
102
{ACAD_REACTORS
330
1C18
330
5BAE
102
}
330
1F
100
AcDbEntity
  8
kontur
  6
Continuous
370
    15
100
AcDbLine
 10
56.69123116000885
 20
229.1043332758047
 30
0.0
 11
56.19056704505677
 21
228.8152805509663
 31
0.0
  0
ARC
  5
11A8
102
{ACAD_REACTORS
330
1C18
330
5BAE
102
}
330
1F
100
AcDbEntity
  8
kontur
  6
Continuous
370
    15
100
AcDbCircle
 10
56.84057243331662
 20
229.9411124529934
 30
0.0
 40
0.8499999999999852
100
AcDbArc
 50
259.8808331015961
 51
280.1191668984056
  0
LINE
  5
11A9
102
{ACAD_REACTORS
330
1C18
330
5BAE
102
}
330
1F
100
AcDbEntity
  8
kontur
  6
Continuous
370
    15
100
AcDbLine
 10
57.49057414993042
 20
228.8152805509664
 30
0.0
 11
56.98991003497834
 21
229.1043332758047
 31
0.0
  0
LINE
  5
11AA
102
{ACAD_REACTORS
330
1C18
330
5BAE
102
}
330
1F
100
AcDbEntity
  8
kontur
  6
Continuous
370
    15
100
AcDbLine
 10
57.49057414993042
 20
229.3933934512235
 30
0.0
 11
57.49057414993042
 21
228.8152805509664
 31
0.0
  0
ARC
  5
11AB
102
{ACAD_REACTORS
330
1C18
330
5BAE
102
}
330
1F
100
AcDbEntity
  8
kontur
  6
Continuous
370
    15
100
AcDbCircle
 10
56.84057243331662
 20
229.9411124529934
 30
0.0
 40
0.8499999999999962
100
AcDbArc
 50
319.8808331015964
 51
340.1191668984057
  0
LINE
  5
11AC
102
{ACAD_REACTORS
330
1C18
330
5BAE
102
}
330
1F
100
AcDbEntity
  8
kontur
  6
Continuous
370
    15
100
AcDbLine
 10
58.14057770236725
 20
229.9411154332258
 30
0.0
 11
57.63991358741517
 21
229.6520552578069
 31
0.0
  0
LINE
  5
11AD
102
{ACAD_REACTORS
330
1C18
330
5BAE
102
}
330
1F
100
AcDbEntity
  8
kontur
  6
Continuous
370
    15
100
AcDbLine
 10
57.63991358741517
 20
230.230168158064
 30
0.0
 11
58.14057770236725
 21
229.9411154332258
 31
0.0
  0
ARC
  5
11AE
102
{ACAD_REACTORS
330
1C18
330
5BAE
102
}
330
1F
100
AcDbEntity
  8
kontur
  6
Continuous
370
    15
100
AcDbCircle
 10
56.84057243331662
 20
229.9411124529934
 30
0.0
 40
0.8499999999999962
100
AcDbArc
 50
19.88083310159514
 51
40.1191668984044
  0
LINE
  5
11AF
102
{ACAD_REACTORS
330
1C18
330
5BAE
102
}
330
1F
100
AcDbEntity
  8
kontur
  6
Continuous
370
    15
100
AcDbLine
 10
57.49057414993042
 20
231.0669428649045
 30
0.0
 11
57.49057414993042
 21
230.488837415228
 31
0.0
  0
LINE
  5
11B0
102
{ACAD_REACTORS
330
1C18
330
5BAE
102
}
330
1F
100
AcDbEntity
  8
kontur
  6
Continuous
370
    15
100
AcDbLine
 10
56.98991003497834
 20
230.7778901400663
 30
0.0
 11
57.49057414993042
 21
231.0669428649045
 31
0.0
  0
ARC
  5
11B1
102
{ACAD_REACTORS
330
1C18
330
5BAE
102
}
330
1F
100
AcDbEntity
  8
kontur
  6
Continuous
370
    15
100
AcDbCircle
 10
56.84057243331662
 20
229.9411124529934
 30
0.0
 40
0.8499999999999852
100
AcDbArc
 50
79.88083310159524
 51
100.1191668984048
  0
LINE
  5
11B2
102
{ACAD_REACTORS
330
1C18
330
5BAE
102
}
330
1F
100
AcDbEntity
  8
kontur
  6
Continuous
370
    15
100
AcDbLine
 10
56.19056704505677
 20
231.0669428649045
 30
0.0
 11
56.69123116000885
 21
230.7778901400663
 31
0.0
  0
LINE
  5
11B3
102
{ACAD_REACTORS
330
1C18
330
5BAE
102
}
330
1F
100
AcDbEntity
  8
kontur
  6
Continuous
370
    15
100
AcDbLine
 10
56.19056704505677
 20
230.488837415228
 30
0.0
 11
56.19056704505677
 21
231.0669428649045
 31
0.0
  0
ARC
  5
11B4
102
{ACAD_REACTORS
330
1C18
330
5BAE
102
}
330
1F
100
AcDbEntity
  8
kontur
  6
Continuous
370
    15
100
AcDbCircle
 10
56.84057243331662
 20
229.9411124529934
 30
0.0
 40
0.8500000000000081
100
AcDbArc
 50
139.8808331015964
 51
160.1191668984057
  0
LINE
  5
11B5
102
{ACAD_REACTORS
330
1C18
330
5BAE
102
}
330
1F
100
AcDbEntity
  8
kontur
  6
Continuous
370
    15
100
AcDbLine
 10
55.54057839378113
 20
229.9411154332257
 30
0.0
 11
56.04122760757203
 21
230.230168158064
 31
0.0
  0
LINE
  5
11B6
102
{ACAD_REACTORS
330
1C18
330
5BAE
102
}
330
1F
100
AcDbEntity
  8
kontur
  6
Continuous
370
    15
100
AcDbLine
 10
56.04122760757203
 20
229.6520552578069
 30
0.0
 11
55.54057839378113
 21
229.9411154332257
 31
0.0
  0
CIRCLE
  5
11B7
102
{ACAD_REACTORS
330
1C18
330
5BAE
102
}
330
1F
100
AcDbEntity
  8
kontur
  6
Continuous
370
    15
100
AcDbCircle
 10
56.84057243331662
 20
229.9411124529934
 30
0.0
 40
2.319397828232979
  0
LINE
  5
11B8
102
{ACAD_REACTORS
330
1C18
330
5BAE
102
}
330
1F
100
AcDbEntity
  8
kontur
  6
Continuous
370
    15
100
AcDbLine
 10
56.19056704505677
 20
230.488837415228
 30
0.0
 11
56.19056704505677
 21
230.3163937273122
 31
0.0
  0
LINE
  5
11B9
102
{ACAD_REACTORS
330
1C18
330
5BAE
102
}
330
1F
100
AcDbEntity
  8
kontur
  6
Continuous
370
    15
100
AcDbLine
 10
56.19056704505677
 20
230.3163937273122
 30
0.0
 11
56.04122760757203
 21
230.230168158064
 31
0.0
  0
LINE
  5
11BA
102
{ACAD_REACTORS
330
1C18
330
5BAE
102
}
330
1F
100
AcDbEntity
  8
kontur
  6
Continuous
370
    15
100
AcDbLine
 10
56.19056704505677
 20
229.5658371391393
 30
0.0
 11
56.19056704505677
 21
229.3933934512235
 31
0.0
  0
LINE
  5
11BB
102
{ACAD_REACTORS
330
1C18
330
5BAE
102
}
330
1F
100
AcDbEntity
  8
kontur
  6
Continuous
370
    15
100
AcDbLine
 10
56.04122760757203
 20
229.6520552578069
 30
0.0
 11
56.19056704505677
 21
229.5658371391393
 31
0.0
  0
LINE
  5
11BC
102
{ACAD_REACTORS
330
1C18
330
5BAE
102
}
330
1F
100
AcDbEntity
  8
kontur
  6
Continuous
370
    15
100
AcDbLine
 10
56.8405705974936
 20
229.1905588450529
 30
0.0
 11
56.98991003497834
 21
229.1043332758047
 31
0.0
  0
LINE
  5
11BD
102
{ACAD_REACTORS
330
1C18
330
5BAE
102
}
330
1F
100
AcDbEntity
  8
kontur
  6
Continuous
370
    15
100
AcDbLine
 10
56.69123116000885
 20
229.1043332758047
 30
0.0
 11
56.8405705974936
 21
229.1905588450529
 31
0.0
  0
LINE
  5
11BE
102
{ACAD_REACTORS
330
1C18
330
5BAE
102
}
330
1F
100
AcDbEntity
  8
kontur
  6
Continuous
370
    15
100
AcDbLine
 10
56.98991003497834
 20
230.7778901400663
 30
0.0
 11
56.8405705974936
 21
230.6916645708181
 31
0.0
  0
LINE
  5
11BF
102
{ACAD_REACTORS
330
1C18
330
5BAE
102
}
330
1F
100
AcDbEntity
  8
kontur
  6
Continuous
370
    15
100
AcDbLine
 10
56.8405705974936
 20
230.6916645708181
 30
0.0
 11
56.69123116000885
 21
230.7778901400663
 31
0.0
  0
LINE
  5
11C0
102
{ACAD_REACTORS
330
1C18
330
5BAE
102
}
330
1F
100
AcDbEntity
  8
kontur
  6
Continuous
370
    15
100
AcDbLine
 10
57.49057414993042
 20
229.3933934512235
 30
0.0
 11
57.49057414993042
 21
229.5658371391393
 31
0.0
  0
LINE
  5
11C1
102
{ACAD_REACTORS
330
1C18
330
5BAE
102
}
330
1F
100
AcDbEntity
  8
kontur
  6
Continuous
370
    15
100
AcDbLine
 10
57.49057414993042
 20
229.5658371391393
 30
0.0
 11
57.63991358741517
 21
229.6520552578069
 31
0.0
  0
LINE
  5
11C2
102
{ACAD_REACTORS
330
1C18
330
5BAE
102
}
330
1F
100
AcDbEntity
  8
kontur
  6
Continuous
370
    15
100
AcDbLine
 10
57.49057414993042
 20
230.3163937273122
 30
0.0
 11
57.49057414993042
 21
230.488837415228
 31
0.0
  0
LINE
  5
11C3
102
{ACAD_REACTORS
330
1C18
330
5BAE
102
}
330
1F
100
AcDbEntity
  8
kontur
  6
Continuous
370
    15
100
AcDbLine
 10
57.63991358741517
 20
230.230168158064
 30
0.0
 11
57.49057414993042
 21
230.3163937273122
 31
0.0
  0
CIRCLE
  5
11C4
102
{ACAD_REACTORS
330
1C18
330
5BAE
102
}
330
1F
100
AcDbEntity
  8
kontur
  6
Continuous
370
    15
100
AcDbCircle
 10
56.84057243331662
 20
229.9411124529934
 30
0.0
 40
2.450000000000003
  0
ARC
  5
11C5
102
{ACAD_REACTORS
330
1C19
330
5BAE
102
}
330
1F
100
AcDbEntity
  8
kontur
  6
Continuous
370
    15
100
AcDbCircle
 10
56.84057243331715
 20
79.94111245299351
 30
0.0
 40
0.8500000000000254
100
AcDbArc
 50
199.8808331015952
 51
220.1191668984057
  0
LINE
  5
11C6
102
{ACAD_REACTORS
330
1C19
330
5BAE
102
}
330
1F
100
AcDbEntity
  8
kontur
  6
Continuous
370
    15
100
AcDbLine
 10
56.19056704505729
 20
78.8152820410825
 30
0.0
 11
56.19056704505729
 21
79.39338749075901
 31
0.0
  0
LINE
  5
11C7
102
{ACAD_REACTORS
330
1C19
330
5BAE
102
}
330
1F
100
AcDbEntity
  8
kontur
  6
Continuous
370
    15
100
AcDbLine
 10
56.69123116000938
 20
79.10433476592078
 30
0.0
 11
56.19056704505729
 21
78.8152820410825
 31
0.0
  0
ARC
  5
11C8
102
{ACAD_REACTORS
330
1C19
330
5BAE
102
}
330
1F
100
AcDbEntity
  8
kontur
  6
Continuous
370
    15
100
AcDbCircle
 10
56.84057243331715
 20
79.94111245299351
 30
0.0
 40
0.8499999999999852
100
AcDbArc
 50
259.8808331015961
 51
280.1191668984056
  0
LINE
  5
11C9
102
{ACAD_REACTORS
330
1C19
330
5BAE
102
}
330
1F
100
AcDbEntity
  8
kontur
  6
Continuous
370
    15
100
AcDbLine
 10
57.49057414993095
 20
78.81528204108253
 30
0.0
 11
56.98991003497886
 21
79.10433476592078
 31
0.0
  0
LINE
  5
11CA
102
{ACAD_REACTORS
330
1C19
330
5BAE
102
}
330
1F
100
AcDbEntity
  8
kontur
  6
Continuous
370
    15
100
AcDbLine
 10
57.49057414993095
 20
79.39338749075904
 30
0.0
 11
57.49057414993095
 21
78.81528204108253
 31
0.0
  0
ARC
  5
11CB
102
{ACAD_REACTORS
330
1C19
330
5BAE
102
}
330
1F
100
AcDbEntity
  8
kontur
  6
Continuous
370
    15
100
AcDbCircle
 10
56.84057243331715
 20
79.94111245299351
 30
0.0
 40
0.8499999999999962
100
AcDbArc
 50
319.8808331015964
 51
340.1191668984074
  0
LINE
  5
11CC
102
{ACAD_REACTORS
330
1C19
330
5BAE
102
}
330
1F
100
AcDbEntity
  8
kontur
  6
Continuous
370
    15
100
AcDbLine
 10
58.14057770236778
 20
79.9411094727613
 30
0.0
 11
57.63991358741569
 21
79.65205674792304
 31
0.0
  0
LINE
  5
11CD
102
{ACAD_REACTORS
330
1C19
330
5BAE
102
}
330
1F
100
AcDbEntity
  8
kontur
  6
Continuous
370
    15
100
AcDbLine
 10
57.63991358741569
 20
80.23016964818015
 30
0.0
 11
58.14057770236778
 21
79.9411094727613
 31
0.0
  0
ARC
  5
11CE
102
{ACAD_REACTORS
330
1C19
330
5BAE
102
}
330
1F
100
AcDbEntity
  8
kontur
  6
Continuous
370
    15
100
AcDbCircle
 10
56.84057243331715
 20
79.94111245299351
 30
0.0
 40
0.8499999999999962
100
AcDbArc
 50
19.88083310159514
 51
40.1191668984044
  0
LINE
  5
11CF
102
{ACAD_REACTORS
330
1C19
330
5BAE
102
}
330
1F
100
AcDbEntity
  8
kontur
  6
Continuous
370
    15
100
AcDbLine
 10
57.49057414993095
 20
81.06694435502067
 30
0.0
 11
57.49057414993095
 21
80.48883145476356
 31
0.0
  0
LINE
  5
11D0
102
{ACAD_REACTORS
330
1C19
330
5BAE
102
}
330
1F
100
AcDbEntity
  8
kontur
  6
Continuous
370
    15
100
AcDbLine
 10
56.98991003497886
 20
80.77789163018241
 30
0.0
 11
57.49057414993095
 21
81.06694435502067
 31
0.0
  0
ARC
  5
11D1
102
{ACAD_REACTORS
330
1C19
330
5BAE
102
}
330
1F
100
AcDbEntity
  8
kontur
  6
Continuous
370
    15
100
AcDbCircle
 10
56.84057243331715
 20
79.94111245299351
 30
0.0
 40
0.8500000000000133
100
AcDbArc
 50
79.88083310159564
 51
100.1191668984044
  0
LINE
  5
11D2
102
{ACAD_REACTORS
330
1C19
330
5BAE
102
}
330
1F
100
AcDbEntity
  8
kontur
  6
Continuous
370
    15
100
AcDbLine
 10
56.19056704505729
 20
81.06694435502064
 30
0.0
 11
56.69123116000938
 21
80.77789163018241
 31
0.0
  0
LINE
  5
11D3
102
{ACAD_REACTORS
330
1C19
330
5BAE
102
}
330
1F
100
AcDbEntity
  8
kontur
  6
Continuous
370
    15
100
AcDbLine
 10
56.19056704505729
 20
80.48883145476353
 30
0.0
 11
56.19056704505729
 21
81.06694435502064
 31
0.0
  0
ARC
  5
11D4
102
{ACAD_REACTORS
330
1C19
330
5BAE
102
}
330
1F
100
AcDbEntity
  8
kontur
  6
Continuous
370
    15
100
AcDbCircle
 10
56.84057243331715
 20
79.94111245299351
 30
0.0
 40
0.8500000000000081
100
AcDbArc
 50
139.8808331015964
 51
160.1191668984057
  0
LINE
  5
11D5
102
{ACAD_REACTORS
330
1C19
330
5BAE
102
}
330
1F
100
AcDbEntity
  8
kontur
  6
Continuous
370
    15
100
AcDbLine
 10
55.54057839378166
 20
79.94110947276127
 30
0.0
 11
56.04122760757255
 21
80.23016964818012
 31
0.0
  0
LINE
  5
11D6
102
{ACAD_REACTORS
330
1C19
330
5BAE
102
}
330
1F
100
AcDbEntity
  8
kontur
  6
Continuous
370
    15
100
AcDbLine
 10
56.04122760757255
 20
79.65205674792301
 30
0.0
 11
55.54057839378166
 21
79.94110947276127
 31
0.0
  0
CIRCLE
  5
11D7
102
{ACAD_REACTORS
330
1C19
330
5BAE
102
}
330
1F
100
AcDbEntity
  8
kontur
  6
Continuous
370
    15
100
AcDbCircle
 10
56.84057243331715
 20
79.94111245299351
 30
0.0
 40
2.319397828232979
  0
LINE
  5
11D8
102
{ACAD_REACTORS
330
1C19
330
5BAE
102
}
330
1F
100
AcDbEntity
  8
kontur
  6
Continuous
370
    15
100
AcDbLine
 10
56.19056704505729
 20
79.56583117867481
 30
0.0
 11
56.19056704505729
 21
79.39338749075901
 31
0.0
  0
LINE
  5
11D9
102
{ACAD_REACTORS
330
1C19
330
5BAE
102
}
330
1F
100
AcDbEntity
  8
kontur
  6
Continuous
370
    15
100
AcDbLine
 10
56.04122760757255
 20
79.65205674792301
 30
0.0
 11
56.19056704505729
 21
79.56583117867481
 31
0.0
  0
LINE
  5
11DA
102
{ACAD_REACTORS
330
1C19
330
5BAE
102
}
330
1F
100
AcDbEntity
  8
kontur
  6
Continuous
370
    15
100
AcDbLine
 10
56.19056704505729
 20
80.48883145476353
 30
0.0
 11
56.19056704505729
 21
80.31638776684773
 31
0.0
  0
LINE
  5
11DB
102
{ACAD_REACTORS
330
1C19
330
5BAE
102
}
330
1F
100
AcDbEntity
  8
kontur
  6
Continuous
370
    15
100
AcDbLine
 10
56.19056704505729
 20
80.31638776684773
 30
0.0
 11
56.04122760757255
 21
80.23016964818012
 31
0.0
  0
LINE
  5
11DC
102
{ACAD_REACTORS
330
1C19
330
5BAE
102
}
330
1F
100
AcDbEntity
  8
kontur
  6
Continuous
370
    15
100
AcDbLine
 10
56.84057059749412
 20
79.19056033516898
 30
0.0
 11
56.98991003497886
 21
79.10433476592078
 31
0.0
  0
LINE
  5
11DD
102
{ACAD_REACTORS
330
1C19
330
5BAE
102
}
330
1F
100
AcDbEntity
  8
kontur
  6
Continuous
370
    15
100
AcDbLine
 10
56.69123116000938
 20
79.10433476592078
 30
0.0
 11
56.84057059749412
 21
79.19056033516898
 31
0.0
  0
LINE
  5
11DE
102
{ACAD_REACTORS
330
1C19
330
5BAE
102
}
330
1F
100
AcDbEntity
  8
kontur
  6
Continuous
370
    15
100
AcDbLine
 10
56.98991003497886
 20
80.77789163018241
 30
0.0
 11
56.84057059749412
 21
80.69166606093421
 31
0.0
  0
LINE
  5
11DF
102
{ACAD_REACTORS
330
1C19
330
5BAE
102
}
330
1F
100
AcDbEntity
  8
kontur
  6
Continuous
370
    15
100
AcDbLine
 10
56.84057059749412
 20
80.69166606093421
 30
0.0
 11
56.69123116000938
 21
80.77789163018241
 31
0.0
  0
LINE
  5
11E0
102
{ACAD_REACTORS
330
1C19
330
5BAE
102
}
330
1F
100
AcDbEntity
  8
kontur
  6
Continuous
370
    15
100
AcDbLine
 10
57.49057414993095
 20
79.39338749075904
 30
0.0
 11
57.49057414993095
 21
79.56583117867484
 31
0.0
  0
LINE
  5
11E1
102
{ACAD_REACTORS
330
1C19
330
5BAE
102
}
330
1F
100
AcDbEntity
  8
kontur
  6
Continuous
370
    15
100
AcDbLine
 10
57.49057414993095
 20
79.56583117867484
 30
0.0
 11
57.63991358741569
 21
79.65205674792304
 31
0.0
  0
LINE
  5
11E2
102
{ACAD_REACTORS
330
1C19
330
5BAE
102
}
330
1F
100
AcDbEntity
  8
kontur
  6
Continuous
370
    15
100
AcDbLine
 10
57.49057414993095
 20
80.31638776684775
 30
0.0
 11
57.49057414993095
 21
80.48883145476356
 31
0.0
  0
LINE
  5
11E3
102
{ACAD_REACTORS
330
1C19
330
5BAE
102
}
330
1F
100
AcDbEntity
  8
kontur
  6
Continuous
370
    15
100
AcDbLine
 10
57.63991358741569
 20
80.23016964818015
 30
0.0
 11
57.49057414993095
 21
80.31638776684775
 31
0.0
  0
CIRCLE
  5
11E4
102
{ACAD_REACTORS
330
1C19
330
5BAE
102
}
330
1F
100
AcDbEntity
  8
kontur
  6
Continuous
370
    15
100
AcDbCircle
 10
56.84057243331715
 20
79.94111245299351
 30
0.0
 40
2.450000000000003
  0
ARC
  5
11E5
102
{ACAD_REACTORS
330
1E93
330
5BAE
102
}
330
1F
100
AcDbEntity
  8
kontur
  6
Continuous
370
    15
100
AcDbCircle
 10
441.8405724333167
 20
229.9411124529948
 30
0.0
 40
0.8500000000000749
100
AcDbArc
 50
199.8808331015934
 51
220.1191668984038
  0
LINE
  5
11E6
102
{ACAD_REACTORS
330
1E93
330
5BAE
102
}
330
1F
100
AcDbEntity
  8
kontur
  6
Continuous
370
    15
100
AcDbLine
 10
441.1905724094748
 20
228.8152805509678
 30
0.0
 11
441.1905724094748
 21
229.3933934512249
 31
0.0
  0
LINE
  5
11E7
102
{ACAD_REACTORS
330
1E93
330
5BAE
102
}
330
1F
100
AcDbEntity
  8
kontur
  6
Continuous
370
    15
100
AcDbLine
 10
441.6912365244269
 20
229.104333275806
 30
0.0
 11
441.1905724094748
 21
228.8152805509678
 31
0.0
  0
ARC
  5
11E8
102
{ACAD_REACTORS
330
1E93
330
5BAE
102
}
330
1F
100
AcDbEntity
  8
kontur
  6
Continuous
370
    15
100
AcDbCircle
 10
441.8405724333167
 20
229.9411124529948
 30
0.0
 40
0.8500000000000413
100
AcDbArc
 50
259.8808331015969
 51
280.1191668984048
  0
LINE
  5
11E9
102
{ACAD_REACTORS
330
1E93
330
5BAE
102
}
330
1F
100
AcDbEntity
  8
kontur
  6
Continuous
370
    15
100
AcDbLine
 10
442.4905795143484
 20
228.8152805509678
 30
0.0
 11
441.9899153993964
 21
229.104333275806
 31
0.0
  0
LINE
  5
11EA
102
{ACAD_REACTORS
330
1E93
330
5BAE
102
}
330
1F
100
AcDbEntity
  8
kontur
  6
Continuous
370
    15
100
AcDbLine
 10
442.4905795143484
 20
229.3933934512249
 30
0.0
 11
442.4905795143484
 21
228.8152805509678
 31
0.0
  0
ARC
  5
11EB
102
{ACAD_REACTORS
330
1E93
330
5BAE
102
}
330
1F
100
AcDbEntity
  8
kontur
  6
Continuous
370
    15
100
AcDbCircle
 10
441.8405724333167
 20
229.9411124529948
 30
0.0
 40
0.8499999999999487
100
AcDbArc
 50
319.8808331015986
 51
340.1191668984083
  0
LINE
  5
11EC
102
{ACAD_REACTORS
330
1E93
330
5BAE
102
}
330
1F
100
AcDbEntity
  8
kontur
  6
Continuous
370
    15
100
AcDbLine
 10
443.1405681656241
 20
229.9411154332271
 30
0.0
 11
442.6399189518332
 21
229.6520552578083
 31
0.0
  0
LINE
  5
11ED
102
{ACAD_REACTORS
330
1E93
330
5BAE
102
}
330
1F
100
AcDbEntity
  8
kontur
  6
Continuous
370
    15
100
AcDbLine
 10
442.6399189518332
 20
230.2301681580654
 30
0.0
 11
443.1405681656241
 21
229.9411154332271
 31
0.0
  0
ARC
  5
11EE
102
{ACAD_REACTORS
330
1E93
330
5BAE
102
}
330
1F
100
AcDbEntity
  8
kontur
  6
Continuous
370
    15
100
AcDbCircle
 10
441.8405724333167
 20
229.9411124529948
 30
0.0
 40
0.8500000000000111
100
AcDbArc
 50
19.88083310159601
 51
40.11916689840869
  0
LINE
  5
11EF
102
{ACAD_REACTORS
330
1E93
330
5BAE
102
}
330
1F
100
AcDbEntity
  8
kontur
  6
Continuous
370
    15
100
AcDbLine
 10
442.4905795143484
 20
231.0669428649059
 30
0.0
 11
442.4905795143484
 21
230.4888374152294
 31
0.0
  0
LINE
  5
11F0
102
{ACAD_REACTORS
330
1E93
330
5BAE
102
}
330
1F
100
AcDbEntity
  8
kontur
  6
Continuous
370
    15
100
AcDbLine
 10
441.9899153993964
 20
230.7778901400677
 30
0.0
 11
442.4905795143484
 21
231.0669428649059
 31
0.0
  0
ARC
  5
11F1
102
{ACAD_REACTORS
330
1E93
330
5BAE
102
}
330
1F
100
AcDbEntity
  8
kontur
  6
Continuous
370
    15
100
AcDbCircle
 10
441.8405724333167
 20
229.9411124529948
 30
0.0
 40
0.8500000000000413
100
AcDbArc
 50
79.88083310159604
 51
100.119166898404
  0
LINE
  5
11F2
102
{ACAD_REACTORS
330
1E93
330
5BAE
102
}
330
1F
100
AcDbEntity
  8
kontur
  6
Continuous
370
    15
100
AcDbLine
 10
441.1905724094748
 20
231.0669428649059
 30
0.0
 11
441.6912365244269
 21
230.7778901400677
 31
0.0
  0
LINE
  5
11F3
102
{ACAD_REACTORS
330
1E93
330
5BAE
102
}
330
1F
100
AcDbEntity
  8
kontur
  6
Continuous
370
    15
100
AcDbLine
 10
441.1905724094748
 20
230.4888374152294
 30
0.0
 11
441.1905724094748
 21
231.0669428649059
 31
0.0
  0
ARC
  5
11F4
102
{ACAD_REACTORS
330
1E93
330
5BAE
102
}
330
1F
100
AcDbEntity
  8
kontur
  6
Continuous
370
    15
100
AcDbCircle
 10
441.8405724333167
 20
229.9411124529948
 30
0.0
 40
0.8500000000000749
100
AcDbArc
 50
139.8808331015943
 51
160.1191668984066
  0
LINE
  5
11F5
102
{ACAD_REACTORS
330
1E93
330
5BAE
102
}
330
1F
100
AcDbEntity
  8
kontur
  6
Continuous
370
    15
100
AcDbLine
 10
440.540568857038
 20
229.9411154332271
 30
0.0
 11
441.04123297199
 21
230.2301681580654
 31
0.0
  0
LINE
  5
11F6
102
{ACAD_REACTORS
330
1E93
330
5BAE
102
}
330
1F
100
AcDbEntity
  8
kontur
  6
Continuous
370
    15
100
AcDbLine
 10
441.04123297199
 20
229.6520552578083
 30
0.0
 11
440.540568857038
 21
229.9411154332271
 31
0.0
  0
CIRCLE
  5
11F7
102
{ACAD_REACTORS
330
1E93
330
5BAE
102
}
330
1F
100
AcDbEntity
  8
kontur
  6
Continuous
370
    15
100
AcDbCircle
 10
441.8405724333167
 20
229.9411124529948
 30
0.0
 40
2.319397828232979
  0
LINE
  5
11F8
102
{ACAD_REACTORS
330
1E93
330
5BAE
102
}
330
1F
100
AcDbEntity
  8
kontur
  6
Continuous
370
    15
100
AcDbLine
 10
441.1905724094748
 20
230.4888374152294
 30
0.0
 11
441.1905724094748
 21
230.3163937273136
 31
0.0
  0
LINE
  5
11F9
102
{ACAD_REACTORS
330
1E93
330
5BAE
102
}
330
1F
100
AcDbEntity
  8
kontur
  6
Continuous
370
    15
100
AcDbLine
 10
441.1905724094748
 20
230.3163937273136
 30
0.0
 11
441.04123297199
 21
230.2301681580654
 31
0.0
  0
LINE
  5
11FA
102
{ACAD_REACTORS
330
1E93
330
5BAE
102
}
330
1F
100
AcDbEntity
  8
kontur
  6
Continuous
370
    15
100
AcDbLine
 10
441.1905724094748
 20
229.5658371391407
 30
0.0
 11
441.1905724094748
 21
229.3933934512249
 31
0.0
  0
LINE
  5
11FB
102
{ACAD_REACTORS
330
1E93
330
5BAE
102
}
330
1F
100
AcDbEntity
  8
kontur
  6
Continuous
370
    15
100
AcDbLine
 10
441.04123297199
 20
229.6520552578083
 30
0.0
 11
441.1905724094748
 21
229.5658371391407
 31
0.0
  0
LINE
  5
11FC
102
{ACAD_REACTORS
330
1E93
330
5BAE
102
}
330
1F
100
AcDbEntity
  8
kontur
  6
Continuous
370
    15
100
AcDbLine
 10
441.9899153993964
 20
230.7778901400677
 30
0.0
 11
441.8405759619116
 21
230.6916645708195
 31
0.0
  0
LINE
  5
11FD
102
{ACAD_REACTORS
330
1E93
330
5BAE
102
}
330
1F
100
AcDbEntity
  8
kontur
  6
Continuous
370
    15
100
AcDbLine
 10
441.8405759619116
 20
230.6916645708195
 30
0.0
 11
441.6912365244269
 21
230.7778901400677
 31
0.0
  0
LINE
  5
11FE
102
{ACAD_REACTORS
330
1E93
330
5BAE
102
}
330
1F
100
AcDbEntity
  8
kontur
  6
Continuous
370
    15
100
AcDbLine
 10
441.8405759619116
 20
229.1905588450542
 30
0.0
 11
441.9899153993964
 21
229.104333275806
 31
0.0
  0
LINE
  5
11FF
102
{ACAD_REACTORS
330
1E93
330
5BAE
102
}
330
1F
100
AcDbEntity
  8
kontur
  6
Continuous
370
    15
100
AcDbLine
 10
441.6912365244269
 20
229.104333275806
 30
0.0
 11
441.8405759619116
 21
229.1905588450542
 31
0.0
  0
LINE
  5
1200
102
{ACAD_REACTORS
330
1E93
330
5BAE
102
}
330
1F
100
AcDbEntity
  8
kontur
  6
Continuous
370
    15
100
AcDbLine
 10
442.4905795143484
 20
230.3163937273136
 30
0.0
 11
442.4905795143484
 21
230.4888374152294
 31
0.0
  0
LINE
  5
1201
102
{ACAD_REACTORS
330
1E93
330
5BAE
102
}
330
1F
100
AcDbEntity
  8
kontur
  6
Continuous
370
    15
100
AcDbLine
 10
442.6399189518332
 20
230.2301681580654
 30
0.0
 11
442.4905795143484
 21
230.3163937273136
 31
0.0
  0
LINE
  5
1202
102
{ACAD_REACTORS
330
1E93
330
5BAE
102
}
330
1F
100
AcDbEntity
  8
kontur
  6
Continuous
370
    15
100
AcDbLine
 10
442.4905795143484
 20
229.3933934512249
 30
0.0
 11
442.4905795143484
 21
229.5658371391407
 31
0.0
  0
LINE
  5
1203
102
{ACAD_REACTORS
330
1E93
330
5BAE
102
}
330
1F
100
AcDbEntity
  8
kontur
  6
Continuous
370
    15
100
AcDbLine
 10
442.4905795143484
 20
229.5658371391407
 30
0.0
 11
442.6399189518332
 21
229.6520552578083
 31
0.0
  0
CIRCLE
  5
1204
102
{ACAD_REACTORS
330
1E93
330
5BAE
102
}
330
1F
100
AcDbEntity
  8
kontur
  6
Continuous
370
    15
100
AcDbCircle
 10
441.8405724333167
 20
229.9411124529948
 30
0.0
 40
2.449999999999932
  0
ARC
  5
1205
102
{ACAD_REACTORS
330
1E94
330
5BAE
102
}
330
1F
100
AcDbEntity
  8
kontur
  6
Continuous
370
    15
100
AcDbCircle
 10
441.8405724333172
 20
79.94111245299484
 30
0.0
 40
0.850000000000018
100
AcDbArc
 50
199.8808331015934
 51
220.1191668984038
  0
LINE
  5
1206
102
{ACAD_REACTORS
330
1E94
330
5BAE
102
}
330
1F
100
AcDbEntity
  8
kontur
  6
Continuous
370
    15
100
AcDbLine
 10
441.1905724094754
 20
78.81528204108386
 30
0.0
 11
441.1905724094754
 21
79.39338749076038
 31
0.0
  0
LINE
  5
1207
102
{ACAD_REACTORS
330
1E94
330
5BAE
102
}
330
1F
100
AcDbEntity
  8
kontur
  6
Continuous
370
    15
100
AcDbLine
 10
441.6912365244274
 20
79.10433476592212
 30
0.0
 11
441.1905724094754
 21
78.81528204108386
 31
0.0
  0
ARC
  5
1208
102
{ACAD_REACTORS
330
1E94
330
5BAE
102
}
330
1F
100
AcDbEntity
  8
kontur
  6
Continuous
370
    15
100
AcDbCircle
 10
441.8405724333172
 20
79.94111245299484
 30
0.0
 40
0.8499999999999852
100
AcDbArc
 50
259.8808331015961
 51
280.1191668984056
  0
LINE
  5
1209
102
{ACAD_REACTORS
330
1E94
330
5BAE
102
}
330
1F
100
AcDbEntity
  8
kontur
  6
Continuous
370
    15
100
AcDbLine
 10
442.490579514349
 20
78.81528204108389
 30
0.0
 11
441.9899153993969
 21
79.10433476592212
 31
0.0
  0
LINE
  5
120A
102
{ACAD_REACTORS
330
1E94
330
5BAE
102
}
330
1F
100
AcDbEntity
  8
kontur
  6
Continuous
370
    15
100
AcDbLine
 10
442.490579514349
 20
79.3933874907604
 30
0.0
 11
442.490579514349
 21
78.81528204108389
 31
0.0
  0
ARC
  5
120B
102
{ACAD_REACTORS
330
1E94
330
5BAE
102
}
330
1F
100
AcDbEntity
  8
kontur
  6
Continuous
370
    15
100
AcDbCircle
 10
441.8405724333172
 20
79.94111245299484
 30
0.0
 40
0.8500000000000117
100
AcDbArc
 50
319.8808331015954
 51
340.1191668984083
  0
LINE
  5
120C
102
{ACAD_REACTORS
330
1E94
330
5BAE
102
}
330
1F
100
AcDbEntity
  8
kontur
  6
Continuous
370
    15
100
AcDbLine
 10
443.1405681656246
 20
79.94110947276266
 30
0.0
 11
442.6399189518337
 21
79.6520567479244
 31
0.0
  0
LINE
  5
120D
102
{ACAD_REACTORS
330
1E94
330
5BAE
102
}
330
1F
100
AcDbEntity
  8
kontur
  6
Continuous
370
    15
100
AcDbLine
 10
442.6399189518337
 20
80.23016964818152
 30
0.0
 11
443.1405681656246
 21
79.94110947276266
 31
0.0
  0
ARC
  5
120E
102
{ACAD_REACTORS
330
1E94
330
5BAE
102
}
330
1F
100
AcDbEntity
  8
kontur
  6
Continuous
370
    15
100
AcDbCircle
 10
441.8405724333172
 20
79.94111245299484
 30
0.0
 40
0.8500000000000311
100
AcDbArc
 50
19.88083310159601
 51
40.11916689840682
  0
LINE
  5
120F
102
{ACAD_REACTORS
330
1E94
330
5BAE
102
}
330
1F
100
AcDbEntity
  8
kontur
  6
Continuous
370
    15
100
AcDbLine
 10
442.490579514349
 20
81.06694435502203
 30
0.0
 11
442.490579514349
 21
80.48883145476492
 31
0.0
  0
LINE
  5
1210
102
{ACAD_REACTORS
330
1E94
330
5BAE
102
}
330
1F
100
AcDbEntity
  8
kontur
  6
Continuous
370
    15
100
AcDbLine
 10
441.9899153993969
 20
80.77789163018375
 30
0.0
 11
442.490579514349
 21
81.06694435502203
 31
0.0
  0
ARC
  5
1211
102
{ACAD_REACTORS
330
1E94
330
5BAE
102
}
330
1F
100
AcDbEntity
  8
kontur
  6
Continuous
370
    15
100
AcDbCircle
 10
441.8405724333172
 20
79.94111245299484
 30
0.0
 40
0.8500000000000133
100
AcDbArc
 50
79.88083310159564
 51
100.1191668984044
  0
LINE
  5
1212
102
{ACAD_REACTORS
330
1E94
330
5BAE
102
}
330
1F
100
AcDbEntity
  8
kontur
  6
Continuous
370
    15
100
AcDbLine
 10
441.1905724094754
 20
81.066944355022
 30
0.0
 11
441.6912365244274
 21
80.77789163018375
 31
0.0
  0
LINE
  5
1213
102
{ACAD_REACTORS
330
1E94
330
5BAE
102
}
330
1F
100
AcDbEntity
  8
kontur
  6
Continuous
370
    15
100
AcDbLine
 10
441.1905724094754
 20
80.48883145476489
 30
0.0
 11
441.1905724094754
 21
81.066944355022
 31
0.0
  0
ARC
  5
1214
102
{ACAD_REACTORS
330
1E94
330
5BAE
102
}
330
1F
100
AcDbEntity
  8
kontur
  6
Continuous
370
    15
100
AcDbCircle
 10
441.8405724333172
 20
79.94111245299484
 30
0.0
 40
0.8500000000000214
100
AcDbArc
 50
139.8808331015973
 51
160.1191668984057
  0
LINE
  5
1215
102
{ACAD_REACTORS
330
1E94
330
5BAE
102
}
330
1F
100
AcDbEntity
  8
kontur
  6
Continuous
370
    15
100
AcDbLine
 10
440.5405688570385
 20
79.94110947276263
 30
0.0
 11
441.0412329719906
 21
80.23016964818149
 31
0.0
  0
LINE
  5
1216
102
{ACAD_REACTORS
330
1E94
330
5BAE
102
}
330
1F
100
AcDbEntity
  8
kontur
  6
Continuous
370
    15
100
AcDbLine
 10
441.0412329719906
 20
79.65205674792438
 30
0.0
 11
440.5405688570385
 21
79.94110947276263
 31
0.0
  0
CIRCLE
  5
1217
102
{ACAD_REACTORS
330
1E94
330
5BAE
102
}
330
1F
100
AcDbEntity
  8
kontur
  6
Continuous
370
    15
100
AcDbCircle
 10
441.8405724333172
 20
79.94111245299484
 30
0.0
 40
2.319397828232979
  0
LINE
  5
1218
102
{ACAD_REACTORS
330
1E94
330
5BAE
102
}
330
1F
100
AcDbEntity
  8
kontur
  6
Continuous
370
    15
100
AcDbLine
 10
441.1905724094754
 20
80.48883145476489
 30
0.0
 11
441.1905724094754
 21
80.31638776684909
 31
0.0
  0
LINE
  5
1219
102
{ACAD_REACTORS
330
1E94
330
5BAE
102
}
330
1F
100
AcDbEntity
  8
kontur
  6
Continuous
370
    15
100
AcDbLine
 10
441.1905724094754
 20
80.31638776684909
 30
0.0
 11
441.0412329719906
 21
80.23016964818149
 31
0.0
  0
LINE
  5
121A
102
{ACAD_REACTORS
330
1E94
330
5BAE
102
}
330
1F
100
AcDbEntity
  8
kontur
  6
Continuous
370
    15
100
AcDbLine
 10
441.1905724094754
 20
79.56583117867618
 30
0.0
 11
441.1905724094754
 21
79.39338749076038
 31
0.0
  0
LINE
  5
121B
102
{ACAD_REACTORS
330
1E94
330
5BAE
102
}
330
1F
100
AcDbEntity
  8
kontur
  6
Continuous
370
    15
100
AcDbLine
 10
441.0412329719906
 20
79.65205674792438
 30
0.0
 11
441.1905724094754
 21
79.56583117867618
 31
0.0
  0
LINE
  5
121C
102
{ACAD_REACTORS
330
1E94
330
5BAE
102
}
330
1F
100
AcDbEntity
  8
kontur
  6
Continuous
370
    15
100
AcDbLine
 10
441.8405759619122
 20
79.19056033517032
 30
0.0
 11
441.9899153993969
 21
79.10433476592212
 31
0.0
  0
LINE
  5
121D
102
{ACAD_REACTORS
330
1E94
330
5BAE
102
}
330
1F
100
AcDbEntity
  8
kontur
  6
Continuous
370
    15
100
AcDbLine
 10
441.6912365244274
 20
79.10433476592212
 30
0.0
 11
441.8405759619122
 21
79.19056033517032
 31
0.0
  0
LINE
  5
121E
102
{ACAD_REACTORS
330
1E94
330
5BAE
102
}
330
1F
100
AcDbEntity
  8
kontur
  6
Continuous
370
    15
100
AcDbLine
 10
441.9899153993969
 20
80.77789163018375
 30
0.0
 11
441.8405759619122
 21
80.69166606093555
 31
0.0
  0
LINE
  5
121F
102
{ACAD_REACTORS
330
1E94
330
5BAE
102
}
330
1F
100
AcDbEntity
  8
kontur
  6
Continuous
370
    15
100
AcDbLine
 10
441.8405759619122
 20
80.69166606093555
 30
0.0
 11
441.6912365244274
 21
80.77789163018375
 31
0.0
  0
LINE
  5
1220
102
{ACAD_REACTORS
330
1E94
330
5BAE
102
}
330
1F
100
AcDbEntity
  8
kontur
  6
Continuous
370
    15
100
AcDbLine
 10
442.490579514349
 20
79.3933874907604
 30
0.0
 11
442.490579514349
 21
79.5658311786762
 31
0.0
  0
LINE
  5
1221
102
{ACAD_REACTORS
330
1E94
330
5BAE
102
}
330
1F
100
AcDbEntity
  8
kontur
  6
Continuous
370
    15
100
AcDbLine
 10
442.490579514349
 20
79.5658311786762
 30
0.0
 11
442.6399189518337
 21
79.6520567479244
 31
0.0
  0
LINE
  5
1222
102
{ACAD_REACTORS
330
1E94
330
5BAE
102
}
330
1F
100
AcDbEntity
  8
kontur
  6
Continuous
370
    15
100
AcDbLine
 10
442.490579514349
 20
80.31638776684912
 30
0.0
 11
442.490579514349
 21
80.48883145476492
 31
0.0
  0
LINE
  5
1223
102
{ACAD_REACTORS
330
1E94
330
5BAE
102
}
330
1F
100
AcDbEntity
  8
kontur
  6
Continuous
370
    15
100
AcDbLine
 10
442.6399189518337
 20
80.23016964818152
 30
0.0
 11
442.490579514349
 21
80.31638776684912
 31
0.0
  0
CIRCLE
  5
1224
102
{ACAD_REACTORS
330
1E94
330
5BAE
102
}
330
1F
100
AcDbEntity
  8
kontur
  6
Continuous
370
    15
100
AcDbCircle
 10
441.8405724333172
 20
79.94111245299484
 30
0.0
 40
2.449999999999989
  0
LINE
  5
194D
102
{ACAD_REACTORS
330
5BAE
102
}
330
1F
100
AcDbEntity
  8
kontur
  6
Continuous
370
    15
100
AcDbLine
 10
53.74057772620908
 20
234.7411147298909
 30
0.0
 11
53.74057772620964
 21
75.14111017609608
 31
0.0
  0
LINE
  5
194E
102
{ACAD_REACTORS
330
5BAE
102
}
330
1F
100
AcDbEntity
  8
kontur
  6
Continuous
370
    15
100
AcDbLine
 10
444.8405671404248
 20
75.14111017609747
 30
0.0
 11
444.8405671404242
 21
234.7411147298923
 31
0.0
  0
LINE
  5
194F
102
{ACAD_REACTORS
330
5BAE
102
}
330
1F
100
AcDbEntity
  8
kontur
  6
Continuous
370
    15
100
AcDbLine
 10
53.74057772620964
 20
75.14111017609608
 30
0.0
 11
444.8405671404248
 21
75.14111017609747
 31
0.0
  0
LINE
  5
19B1
102
{ACAD_REACTORS
330
5BAE
102
}
330
1F
100
AcDbEntity
  8
kontur
  6
Continuous
370
    15
100
AcDbLine
 10
444.8405671404242
 20
234.7411147298923
 30
0.0
 11
53.74057772620908
 21
234.7411147298909
 31
0.0
  0
DIMENSION
  5
2106
330
1F
100
AcDbEntity
  8
abmessung
100
AcDbDimension
  2
*D1
 10
444.8405671404242
 20
257.6740376711579
 30
0.0
 11
249.2905724333166
 21
261.2397043378245
 31
0.0
 70
    32
 71
     5
 42
391.0999894142151
  3
ISO-25
100
AcDbAlignedDimension
 13
53.74057772620908
 23
234.7411147298909
 33
0.0
 14
444.8405671404242
 24
234.7411147298923
 34
0.0
100
AcDbRotatedDimension
1001
ACAD
1000
DSTYLE
1002
{
1070
     3
1000
mm
1070
    41
1040
6.0
1070
    42
1040
1.0
1070
    44
1040
1.0
1070
    79
1070
     2
1070
   140
1040
3.5
1070
   143
1040
0.0393700787401575
1070
   147
1040
1.524
1070
   284
1070
     0
1002
}
  0
DIMENSION
  5
316B
330
1F
100
AcDbEntity
  8
abmessung
100
AcDbDimension
  2
*D2
 10
31.66789550904667
 20
75.14111017609609
 30
0.0
 11
28.10222884238
 21
154.9411124529935
 31
0.0
 70
    32
 71
     5
 42
159.6000045537948
  3
ISO-25
100
AcDbAlignedDimension
 13
53.74057772620908
 23
234.7411147298909
 33
0.0
 14
53.74057772620964
 24
75.14111017609608
 34
0.0
 50
90.0
100
AcDbRotatedDimension
1001
ACAD
1000
DSTYLE
1002
{
1070
     3
1000
mm
1070
    41
1040
6.0
1070
    42
1040
1.0
1070
    44
1040
1.0
1070
    79
1070
     2
1070
   140
1040
3.5
1070
   143
1040
0.0393700787401575
1070
   147
1040
1.524
1070
   284
1070
     0
1002
}
  0
LINE
  5
3425
330
1F
100
AcDbEntity
  8
TEXTFELD
100
AcDbLine
 10
588.9999993094325
 20
13.399999858901
 30
0.0
 11
484.4529448909185
 21
13.399999858901
 31
0.0
  0
LINE
  5
3426
330
1F
100
AcDbEntity
  8
TEXTFELD
100
AcDbLine
 10
528.999999309433
 20
9.19999985890118
 30
0.0
 11
488.9999993094326
 21
9.19999985890118
 31
0.0
  0
LINE
  5
3427
330
1F
100
AcDbEntity
  8
TEXTFELD
100
AcDbLine
 10
588.9999993094325
 20
21.69999985890118
 30
0.0
 11
528.999999309433
 21
21.69999985890118
 31
0.0
  0
LINE
  5
3428
330
1F
100
AcDbEntity
  8
TEXTFELD
100
AcDbLine
 10
578.48087435443
 20
4.999999858900907
 30
0.0
 11
578.4808743544304
 21
13.399999858901
 31
0.0
  0
LINE
  5
3429
330
1F
100
AcDbEntity
  8
TEXTFELD
100
AcDbLine
 10
588.9999993094325
 20
9.19999985890118
 30
0.0
 11
578.48087435443
 21
9.19999985890118
 31
0.0
  0
TEXT
  5
342A
330
1F
100
AcDbEntity
  8
TEXTFELD
100
AcDbText
 10
579.5778827215447
 20
10.2968869260516
 30
0.0
 40
1.738212755828499
  1
Page:
100
AcDbText
  0
TEXT
  5
342B
330
1F
100
AcDbEntity
  8
TEXTFELD
100
AcDbText
 10
579.5778827215447
 20
6.128347441165175
 30
0.0
 40
1.738212755828499
  1
1 / 1
100
AcDbText
  0
LINE
  5
342C
330
1F
100
AcDbEntity
  8
TEXTFELD
100
AcDbLine
 10
528.9999993094325
 20
4.999999858901361
 30
0.0
 11
528.9999993094325
 21
29.99999985890136
 31
0.0
  0
LINE
  5
342E
330
1F
100
AcDbEntity
  8
TEXTFELD
100
AcDbLine
 10
506.7264721001762
 20
13.399999858901
 30
0.0
 11
506.7264721001758
 21
9.19999985890118
 31
0.0
  0
TEXT
  5
342F
330
1F
100
AcDbEntity
  8
TEXTFELD
100
AcDbText
 10
484.7600843012686
 20
10.2968869260516
 30
0.0
 40
1.738212755828499
  1
Name:
100
AcDbText
  0
TEXT
  5
3430
330
1F
100
AcDbEntity
  8
TEXTFELD
100
AcDbText
 10
484.7600843012686
 20
6.128347441165175
 30
0.0
 40
1.738212755828499
  1
File: 
100
AcDbText
  0
TEXT
  5
3431
330
1F
100
AcDbEntity
  8
TEXTFELD
100
AcDbText
 10
529.829795792559
 20
24.8328108420807
 30
0.0
 40
1.738212755828499
  1
Scale 1:1 (DIN A2)
100
AcDbText
  0
LINE
  5
3432
330
1F
100
AcDbEntity
  8
TEXTFELD
100
AcDbLine
 10
578.4808743544301
 20
21.69999985890118
 30
0.0
 11
578.4808743544305
 21
29.99999985890096
 31
0.0
  0
LINE
  5
3433
330
1F
100
AcDbEntity
  8
TEXTFELD
100
AcDbLine
 10
588.9999993094325
 20
4.999999858900907
 30
0.0
 11
484.4529448909185
 21
4.99999985890139
 31
0.0
  0
LINE
  5
3434
330
1F
100
AcDbEntity
  8
TEXTFELD
100
AcDbLine
 10
484.4529448909185
 20
4.999999858901361
 30
0.0
 11
484.4529448909185
 21
29.99999985890136
 31
0.0
  0
LINE
  5
3435
330
1F
100
AcDbEntity
  8
TEXTFELD
100
AcDbLine
 10
484.4529448909185
 20
29.99999985890139
 30
0.0
 11
588.9999993094325
 21
29.99999985890091
 31
0.0
  0
LINE
  5
3436
330
1F
100
AcDbEntity
  8
TEXTFELD
100
AcDbLine
 10
588.9999993094325
 20
29.99999985890091
 30
0.0
 11
588.9999993094325
 21
4.999999858900907
 31
0.0
  0
LINE
  5
3437
330
1F
100
AcDbEntity
  8
TEXTFELD
100
AcDbLine
 10
528.9999993094325
 20
4.999999858901191
 30
0.0
 11
528.9999993094325
 21
29.99999985890119
 31
0.0
  0
TEXT
  5
3438
330
1F
100
AcDbEntity
  8
TEXTFELD
100
AcDbText
 10
493.2748596103285
 20
10.31526679560668
 30
0.0
 40
1.738212755828499
  1
Miethling
100
AcDbText
  0
TEXT
  5
3439
330
1F
100
AcDbEntity
  8
TEXTFELD
100
AcDbText
 10
485.4147388350844
 20
14.86348631136727
 30
0.0
 40
1.738212755828499
  1
Fax:
100
AcDbText
  0
TEXT
  5
343A
330
1F
100
AcDbEntity
  8
TEXTFELD
100
AcDbText
 10
485.4147388350844
 20
26.05193481824469
 30
0.0
 40
1.738212755828499
  1
DHD GmbH
100
AcDbText
  0
TEXT
  5
343B
330
1F
100
AcDbEntity
  8
TEXTFELD
100
AcDbText
 10
485.4147388350844
 20
23.37740292250814
 30
0.0
 40
1.738212755828499
  1
Haferkornstraße 5
100
AcDbText
  0
TEXT
  5
343C
330
1F
100
AcDbEntity
  8
TEXTFELD
100
AcDbText
 10
485.4147388350844
 20
20.64738744522455
 30
0.0
 40
1.738212755828499
  1
04129 Leipzig / Germany
100
AcDbText
  0
TEXT
  5
343D
330
1F
100
AcDbEntity
  8
TEXTFELD
100
AcDbText
 10
493.7402756747139
 20
14.76608519818248
 30
0.0
 40
1.738212755828499
  1
+ 49  341  5897022
100
AcDbText
  0
TEXT
  5
343E
330
1F
100
AcDbEntity
  8
TEXTFELD
100
AcDbText
 10
507.1977818513359
 20
10.29688692605143
 30
0.0
 40
1.738212755828499
  1
Date:
100
AcDbText
  0
TEXT
  5
343F
330
1F
100
AcDbEntity
  8
TEXTFELD
100
AcDbText
 10
484.7600843012686
 20
10.29688692605143
 30
0.0
 40
1.738212755828499
  1
Name:
100
AcDbText
  0
TEXT
  5
3440
330
1F
100
AcDbEntity
  8
TEXTFELD
100
AcDbText
 10
484.7600843012686
 20
6.128347441165005
 30
0.0
 40
1.738212755828499
  1
File: 
100
AcDbText
  0
LINE
  5
3441
330
1F
100
AcDbEntity
  8
TEXTFELD
100
AcDbLine
 10
528.999999309433
 20
9.199999858901009
 30
0.0
 11
484.4529448909186
 21
9.199999858901009
 31
0.0
  0
TEXT
  5
3442
330
1F
100
AcDbEntity
  8
TEXTFELD
100
AcDbText
 10
485.4147388350844
 20
17.29284373999516
 30
0.0
 40
1.738212755828499
  1
Phone: + 49  341  5897020
100
AcDbText
  0
TEXT
  5
3443
330
1F
100
AcDbEntity
  8
TEXTFELD
100
AcDbText
 10
490.8403061298219
 20
6.234549152978076
 30
0.0
 40
1.738212755828499
  1
52-2022bdimension.dwg
100
AcDbText
  0
TEXT
  5
3444
330
1F
100
AcDbEntity
  8
TEXTFELD
100
AcDbText
 10
514.8424729428998
 20
10.4073814923655
 30
0.0
 40
1.738212755828499
  1
06.04.2014
100
AcDbText
  0
TEXT
  5
3445
330
1F
100
AcDbEntity
  8
TEXTFELD
100
AcDbText
 10
545.5716297704375
 20
7.497173059517053
 30
0.0
 40
2.629907217668009
  1
52-2022
100
AcDbText
  0
TEXT
  5
344D
330
1F
100
AcDbEntity
  8
TEXTFELD
100
AcDbText
 10
552.3130075837967
 20
17.97702603586364
 30
0.0
 40
2.2
  1
52/RX
100
AcDbText
  0
LINE
  5
384F
330
1F
100
AcDbEntity
  8
RAHMEN07
100
AcDbLine
 10
588.9999993094325
 20
414.9999998589009
 30
0.0
 11
19.99999930943257
 21
414.9999998589009
 31
0.0
  0
LINE
  5
3850
330
1F
100
AcDbEntity
  8
RAHMEN07
100
AcDbLine
 10
19.99999930943257
 20
4.9999998589009
 30
0.0
 11
588.9999993094325
 21
4.9999998589009
 31
0.0
  0
LINE
  5
3851
330
1F
100
AcDbEntity
  8
RAHMEN025
100
AcDbLine
 10
593.9999993094325
 20
419.9999998589009
 30
0.0
 11
-0.000000690567426
 21
419.9999998589009
 31
0.0
  0
LINE
  5
3852
330
1F
100
AcDbEntity
  8
RAHMEN025
100
AcDbLine
 10
-0.000000690567426
 20
-0.0000001410991004
 30
0.0
 11
593.9999993094325
 21
-0.0000001410991004
 31
0.0
  0
LINE
  5
3853
330
1F
100
AcDbEntity
  8
RAHMEN07
100
AcDbLine
 10
19.99999930943257
 20
414.9999998589009
 30
0.0
 11
19.99999930943257
 21
4.9999998589009
 31
0.0
  0
LINE
  5
3854
330
1F
100
AcDbEntity
  8
RAHMEN025
100
AcDbLine
 10
-0.000000690567426
 20
419.9999998589009
 30
0.0
 11
-0.000000690567426
 21
-0.0000001410991004
 31
0.0
  0
LINE
  5
3855
330
1F
100
AcDbEntity
  8
RAHMEN07
100
AcDbLine
 10
588.9999993094325
 20
4.9999998589009
 30
0.0
 11
588.9999993094325
 21
414.9999998589009
 31
0.0
  0
LINE
  5
3856
330
1F
100
AcDbEntity
  8
RAHMEN025
100
AcDbLine
 10
593.9999993094325
 20
-0.0000001410991004
 30
0.0
 11
593.9999993094325
 21
419.9999998589009
 31
0.0
  0
LINE
  5
4131
102
{ACAD_REACTORS
330
5BAC
102
}
330
1F
100
AcDbEntity
  8
kontur
100
AcDbLine
 10
64.54056683048003
 20
352.6677600798815
 30
0.0
 11
64.54412820800536
 21
352.6713140068262
 31
0.0
  0
LINE
  5
4132
102
{ACAD_REACTORS
330
5BAC
102
}
330
1F
100
AcDbEntity
  8
kontur
100
AcDbLine
 10
64.54412820800536
 20
354.9642069024652
 30
0.0
 11
64.54056683048003
 21
354.9677598980873
 31
0.0
  0
LINE
  5
4133
102
{ACAD_REACTORS
330
5BAC
102
}
330
1F
100
AcDbEntity
  8
kontur
100
AcDbLine
 10
63.49057140811675
 20
351.9177604226082
 30
0.0
 11
63.5405797050833
 21
351.9177604226082
 31
0.0
  0
LINE
  5
4134
102
{ACAD_REACTORS
330
5BAC
102
}
330
1F
100
AcDbEntity
  8
kontur
100
AcDbLine
 10
63.5405797050833
 20
355.7177604866832
 30
0.0
 11
63.49057140811675
 21
355.7177604866832
 31
0.0
  0
ARC
  5
4135
102
{ACAD_REACTORS
330
5BAC
102
}
330
1F
100
AcDbEntity
  8
kontur
100
AcDbCircle
 10
64.89767921450363
 20
352.3177602572076
 30
0.0
 40
0.5000000000000286
100
AcDbArc
 50
102.3693928381677
 51
135.0000000000003
  0
ARC
  5
4136
102
{ACAD_REACTORS
330
5BAC
102
}
330
1F
100
AcDbEntity
  8
kontur
100
AcDbCircle
 10
64.89767921450363
 20
355.3177602572076
 30
0.0
 40
0.5000000000000286
100
AcDbArc
 50
224.9999999999996
 51
257.6306071618322
  0
ARC
  5
4137
102
{ACAD_REACTORS
330
5BAC
102
}
330
1F
100
AcDbEntity
  8
kontur
100
AcDbCircle
 10
54.54057243331664
 20
368.3977602572054
 30
0.0
 40
0.1500000000000909
100
AcDbArc
 50
180.0
 51
270.0
  0
ARC
  5
4138
102
{ACAD_REACTORS
330
5BAC
102
}
330
1F
100
AcDbEntity
  8
kontur
100
AcDbCircle
 10
59.14057243331666
 20
368.3977602572054
 30
0.0
 40
0.1499999999999773
100
AcDbArc
 50
270.0
 51
0.0
  0
LINE
  5
4139
102
{ACAD_REACTORS
330
5BAC
102
}
330
1F
100
AcDbEntity
  8
kontur
100
AcDbLine
 10
59.29057481750243
 20
368.3977602973268
 30
0.0
 11
59.29057481750243
 21
369.7456083951205
 31
0.0
  0
LINE
  5
413A
102
{ACAD_REACTORS
330
5BAC
102
}
330
1F
100
AcDbEntity
  8
kontur
100
AcDbLine
 10
54.39056637748473
 20
369.7456083951205
 30
0.0
 11
54.39056637748473
 21
368.3977602973268
 31
0.0
  0
ARC
  5
413B
102
{ACAD_REACTORS
330
5BAC
102
}
330
1F
100
AcDbEntity
  8
kontur
100
AcDbCircle
 10
54.69057243331673
 20
369.7456085025931
 30
0.0
 40
0.3000000000000682
100
AcDbArc
 50
124.378644686297
 51
180.0
  0
ARC
  5
413C
102
{ACAD_REACTORS
330
5BAC
102
}
330
1F
100
AcDbEntity
  8
kontur
100
AcDbCircle
 10
58.99057243331669
 20
369.745608502593
 30
0.0
 40
0.3000000000000668
100
AcDbArc
 50
0.0
 51
55.62135531370303
  0
ARC
  5
413D
102
{ACAD_REACTORS
330
5BAC
102
}
330
1F
100
AcDbEntity
  8
kontur
100
AcDbCircle
 10
57.69057243331673
 20
367.8454875299327
 30
0.0
 40
2.602272727272802
100
AcDbArc
 50
55.62135531370251
 51
80.25597270001722
  0
ARC
  5
413E
102
{ACAD_REACTORS
330
5BAC
102
}
330
1F
100
AcDbEntity
  8
kontur
100
AcDbCircle
 10
55.99057243331669
 20
367.8454875299327
 30
0.0
 40
2.60227272727277
100
AcDbArc
 50
99.55185839601103
 51
124.3786446862975
  0
LINE
  5
413F
102
{ACAD_REACTORS
330
5BAC
102
}
330
1F
100
AcDbEntity
  8
kontur
100
AcDbLine
 10
55.59057178958648
 20
360.3477603515298
 30
0.0
 11
56.69057550891631
 21
359.2477603574902
 31
0.0
  0
LINE
  5
4140
102
{ACAD_REACTORS
330
5BAC
102
}
330
1F
100
AcDbEntity
  8
kontur
100
AcDbLine
 10
56.99056568607085
 20
359.2477603574902
 30
0.0
 11
58.09056940540069
 21
360.3477603515298
 31
0.0
  0
LINE
  5
4141
102
{ACAD_REACTORS
330
5BAC
102
}
330
1F
100
AcDbEntity
  8
kontur
100
AcDbLine
 10
55.59057178958648
 20
365.2177602976248
 30
0.0
 11
55.59057178958648
 21
360.3477603515298
 31
0.0
  0
LINE
  5
4142
102
{ACAD_REACTORS
330
5BAC
102
}
330
1F
100
AcDbEntity
  8
kontur
100
AcDbLine
 10
58.09056940540069
 20
360.3477603515298
 30
0.0
 11
58.09056940540069
 21
365.2177602976248
 31
0.0
  0
LINE
  5
4143
102
{ACAD_REACTORS
330
5BAC
102
}
330
1F
100
AcDbEntity
  8
kontur
100
AcDbLine
 10
444.2905652807593
 20
368.3977602973254
 30
0.0
 11
444.2905652807593
 21
369.7456083951192
 31
0.0
  0
LINE
  5
4144
102
{ACAD_REACTORS
330
5BAC
102
}
330
1F
100
AcDbEntity
  8
kontur
100
AcDbLine
 10
439.3905717419028
 20
369.7456083951193
 30
0.0
 11
439.3905717419028
 21
368.3977602973255
 31
0.0
  0
ARC
  5
4145
102
{ACAD_REACTORS
330
5BAC
102
}
330
1F
100
AcDbEntity
  8
kontur
100
AcDbCircle
 10
439.6905724333166
 20
369.7456085025918
 30
0.0
 40
0.3000000000000019
100
AcDbArc
 50
124.3786446862975
 51
180.0
  0
ARC
  5
4146
102
{ACAD_REACTORS
330
5BAC
102
}
330
1F
100
AcDbEntity
  8
kontur
100
AcDbCircle
 10
443.9905724333167
 20
369.7456085025918
 30
0.0
 40
0.2999999999999954
100
AcDbArc
 50
0.0
 51
55.62135531369502
  0
ARC
  5
4147
102
{ACAD_REACTORS
330
5BAC
102
}
330
1F
100
AcDbEntity
  8
kontur
100
AcDbCircle
 10
439.5405724333166
 20
368.3977602572041
 30
0.0
 40
0.1500000000000341
100
AcDbArc
 50
180.0
 51
270.0
  0
ARC
  5
4148
102
{ACAD_REACTORS
330
5BAC
102
}
330
1F
100
AcDbEntity
  8
kontur
100
AcDbCircle
 10
444.1405724333167
 20
368.3977602572041
 30
0.0
 40
0.1500000000000341
100
AcDbArc
 50
270.0
 51
0.0
  0
ARC
  5
4149
102
{ACAD_REACTORS
330
5BAC
102
}
330
1F
100
AcDbEntity
  8
kontur
100
AcDbCircle
 10
442.6905724333166
 20
367.8454875299313
 30
0.0
 40
2.602272727272697
100
AcDbArc
 50
55.62135531370251
 51
80.25597270001062
  0
ARC
  5
414A
102
{ACAD_REACTORS
330
5BAC
102
}
330
1F
100
AcDbEntity
  8
kontur
100
AcDbCircle
 10
440.9905724333167
 20
367.8454875299313
 30
0.0
 40
2.602272727272745
100
AcDbArc
 50
99.55185839601103
 51
124.3786446862975
  0
LINE
  5
414B
102
{ACAD_REACTORS
330
5BAC
102
}
330
1F
100
AcDbEntity
  8
kontur
100
AcDbLine
 10
440.5905771540045
 20
365.2177602976236
 30
0.0
 11
440.5905771540045
 21
360.3477603515285
 31
0.0
  0
LINE
  5
414C
102
{ACAD_REACTORS
330
5BAC
102
}
330
1F
100
AcDbEntity
  8
kontur
100
AcDbLine
 10
443.0905747698187
 20
360.3477603515284
 30
0.0
 11
443.0905747698187
 21
365.2177602976234
 31
0.0
  0
LINE
  5
414D
102
{ACAD_REACTORS
330
5BAC
102
}
330
1F
100
AcDbEntity
  8
kontur
100
AcDbLine
 10
440.5905771540045
 20
360.3477603515285
 30
0.0
 11
441.6905659721731
 21
359.247760357489
 31
0.0
  0
LINE
  5
414E
102
{ACAD_REACTORS
330
5BAC
102
}
330
1F
100
AcDbEntity
  8
kontur
100
AcDbLine
 10
441.9905710504889
 20
359.247760357489
 30
0.0
 11
443.0905747698187
 21
360.3477603515284
 31
0.0
  0
ARC
  5
418F
102
{ACAD_REACTORS
330
5BAC
102
}
330
1F
100
AcDbEntity
  8
kontur
100
AcDbCircle
 10
58.69057243331673
 20
365.3177602572054
 30
0.0
 40
0.5000000000000568
100
AcDbArc
 50
90.0
 51
180.0
  0
ARC
  5
4190
102
{ACAD_REACTORS
330
5BAC
102
}
330
1F
100
AcDbEntity
  8
kontur
100
AcDbCircle
 10
54.89057243331666
 20
365.3177602572054
 30
0.0
 40
0.5
100
AcDbArc
 50
0.0
 51
90.0
  0
ARC
  5
4191
102
{ACAD_REACTORS
330
5BAC
102
}
330
1F
100
AcDbEntity
  8
kontur
100
AcDbCircle
 10
443.6905724333167
 20
365.3177602572042
 30
0.0
 40
0.5
100
AcDbArc
 50
90.0
 51
180.0
  0
ARC
  5
4192
102
{ACAD_REACTORS
330
5BAC
102
}
330
1F
100
AcDbEntity
  8
kontur
100
AcDbCircle
 10
439.8905724333167
 20
365.3177602572042
 30
0.0
 40
0.5
100
AcDbArc
 50
0.0
 51
90.0
  0
LINE
  5
4193
102
{ACAD_REACTORS
330
5BAC
102
}
330
1F
100
AcDbEntity
  8
kontur
100
AcDbLine
 10
55.39056840404265
 20
365.3177602441669
 30
0.0
 11
55.39056840404265
 21
365.2177602976248
 31
0.0
  0
LINE
  5
4194
102
{ACAD_REACTORS
330
5BAC
102
}
330
1F
100
AcDbEntity
  8
kontur
100
AcDbLine
 10
58.1905710981726
 20
365.2177602976248
 30
0.0
 11
58.1905710981726
 21
365.3177602441669
 31
0.0
  0
LINE
  5
4195
102
{ACAD_REACTORS
330
5BAC
102
}
330
1F
100
AcDbEntity
  8
kontur
100
AcDbLine
 10
440.3905737684607
 20
365.3177602441656
 30
0.0
 11
440.3905737684607
 21
365.2177602976236
 31
0.0
  0
LINE
  5
4196
102
{ACAD_REACTORS
330
5BAC
102
}
330
1F
100
AcDbEntity
  8
kontur
100
AcDbLine
 10
443.1905764625906
 20
365.2177602976234
 30
0.0
 11
443.1905764625906
 21
365.3177602441655
 31
0.0
  0
ARC
  5
436C
102
{ACAD_REACTORS
330
5BAC
102
}
330
1F
100
AcDbEntity
  8
kontur
100
AcDbCircle
 10
159.5405724333166
 20
314.8177602572051
 30
0.0
 40
0.3555000000000179
100
AcDbArc
 50
132.462342273664
 51
137.5376577263387
  0
LINE
  5
436D
102
{ACAD_REACTORS
330
5BAC
102
}
330
1F
100
AcDbEntity
  8
kontur
100
AcDbLine
 10
159.2783126519558
 20
315.0577610117999
 30
0.0
 11
159.1724920557377
 21
315.0577610117999
 31
0.0
  0
ARC
  5
436E
102
{ACAD_REACTORS
330
5BAC
102
}
330
1F
100
AcDbEntity
  8
kontur
100
AcDbCircle
 10
159.5405724333166
 20
314.8177602572051
 30
0.0
 40
0.4394121743322073
100
AcDbArc
 50
123.1056269541247
 51
146.8943730458685
  0
LINE
  5
436F
102
{ACAD_REACTORS
330
5BAC
102
}
330
1F
100
AcDbEntity
  8
kontur
100
AcDbLine
 10
159.3005749867794
 20
315.1858402175513
 30
0.0
 11
159.3005749867794
 21
315.0800196213332
 31
0.0
  0
LINE
  5
4370
102
{ACAD_REACTORS
330
5BAC
102
}
330
1F
100
AcDbEntity
  8
kontur
100
AcDbLine
 10
160.4905742691395
 20
315.0577610117999
 30
0.0
 11
160.4905742691395
 21
314.5777610821333
 31
0.0
  0
LINE
  5
4371
102
{ACAD_REACTORS
330
5BAC
102
}
330
1F
100
AcDbEntity
  8
kontur
100
AcDbLine
 10
159.8922777460453
 20
314.7659329456893
 30
0.0
 11
159.8922777460453
 21
314.5777610821333
 31
0.0
  0
ELLIPSE
  5
4372
102
{ACAD_REACTORS
330
5BAC
102
}
330
1F
100
AcDbEntity
  8
kontur
100
AcDbEllipse
 10
159.5843753131058
 20
314.8177602572051
 30
0.0
 11
-0.3123166762799201
 21
1.912324930885383E-17
 31
0.0
210
0.0
220
0.0
230
1.0
 40
0.9901159119132996
 41
2.973202302872974
 42
3.309983004306445
  0
LINE
  5
4373
102
{ACAD_REACTORS
330
5BAC
102
}
330
1F
100
AcDbEntity
  8
kontur
100
AcDbLine
 10
159.8922777460453
 20
315.0577610117999
 30
0.0
 11
159.8922777460453
 21
314.8695854229537
 31
0.0
  0
LINE
  5
4374
102
{ACAD_REACTORS
330
5BAC
102
}
330
1F
100
AcDbEntity
  8
kontur
100
AcDbLine
 10
159.3005749867794
 20
314.5554987473097
 30
0.0
 11
159.3005749867794
 21
314.4496818763819
 31
0.0
  0
ARC
  5
4375
102
{ACAD_REACTORS
330
5BAC
102
}
330
1F
100
AcDbEntity
  8
kontur
100
AcDbCircle
 10
159.5405724333166
 20
314.8177602572051
 30
0.0
 40
0.4394121743322549
100
AcDbArc
 50
213.1056269541315
 51
236.8943730458758
  0
LINE
  5
4376
102
{ACAD_REACTORS
330
5BAC
102
}
330
1F
100
AcDbEntity
  8
kontur
100
AcDbLine
 10
159.1724920557377
 20
314.5777610821333
 30
0.0
 11
159.2783126519558
 21
314.5777610821333
 31
0.0
  0
ARC
  5
4377
102
{ACAD_REACTORS
330
5BAC
102
}
330
1F
100
AcDbEntity
  8
kontur
100
AcDbCircle
 10
159.5405724333166
 20
314.8177602572051
 30
0.0
 40
0.3555000000000179
100
AcDbArc
 50
222.4623422736613
 51
227.5376577263405
  0
LINE
  5
4378
102
{ACAD_REACTORS
330
5BAC
102
}
330
1F
100
AcDbEntity
  8
kontur
100
AcDbLine
 10
159.7805711911556
 20
313.8677617294398
 30
0.0
 11
159.3005749867794
 21
313.8677617294398
 31
0.0
  0
LINE
  5
4379
102
{ACAD_REACTORS
330
5BAC
102
}
330
1F
100
AcDbEntity
  8
kontur
100
AcDbLine
 10
159.4887468503353
 20
314.466058252534
 30
0.0
 11
159.3005749867794
 21
314.466058252534
 31
0.0
  0
ELLIPSE
  5
437A
102
{ACAD_REACTORS
330
5BAC
102
}
330
1F
100
AcDbEntity
  8
kontur
100
AcDbEllipse
 10
159.5405724333166
 20
314.7739573774159
 30
0.0
 11
1.912324930885731E-17
 21
0.3123166762799769
 31
0.0
210
0.0
220
0.0
230
1.0
 40
0.9901159119133014
 41
2.973202302873125
 42
3.309983004306656
  0
LINE
  5
437B
102
{ACAD_REACTORS
330
5BAC
102
}
330
1F
100
AcDbEntity
  8
kontur
100
AcDbLine
 10
159.7805711911556
 20
314.466058252534
 30
0.0
 11
159.5923993275997
 21
314.466058252534
 31
0.0
  0
ARC
  5
437C
102
{ACAD_REACTORS
330
5BAC
102
}
330
1F
100
AcDbEntity
  8
kontur
100
AcDbCircle
 10
159.5405724333166
 20
314.8177602572051
 30
0.0
 40
0.4394121743322073
100
AcDbArc
 50
33.10562695412597
 51
56.89437304587529
  0
LINE
  5
437D
102
{ACAD_REACTORS
330
5BAC
102
}
330
1F
100
AcDbEntity
  8
kontur
100
AcDbLine
 10
159.9086541221973
 20
315.0577610117999
 30
0.0
 11
159.8028335259792
 21
315.0577610117999
 31
0.0
  0
ARC
  5
437E
102
{ACAD_REACTORS
330
5BAC
102
}
330
1F
100
AcDbEntity
  8
kontur
100
AcDbCircle
 10
159.5405724333166
 20
314.8177602572051
 30
0.0
 40
0.3555000000000179
100
AcDbArc
 50
42.46234227366133
 51
47.53765772633596
  0
LINE
  5
437F
102
{ACAD_REACTORS
330
5BAC
102
}
330
1F
100
AcDbEntity
  8
kontur
100
AcDbLine
 10
159.7805711911556
 20
315.0800196213332
 30
0.0
 11
159.7805711911556
 21
315.1858402175513
 31
0.0
  0
LINE
  5
4380
102
{ACAD_REACTORS
330
5BAC
102
}
330
1F
100
AcDbEntity
  8
kontur
100
AcDbLine
 10
158.5905719087955
 20
314.5777610821333
 30
0.0
 11
158.5905719087955
 21
315.0577610117999
 31
0.0
  0
LINE
  5
4381
102
{ACAD_REACTORS
330
5BAC
102
}
330
1F
100
AcDbEntity
  8
kontur
100
AcDbLine
 10
159.1888684318897
 20
314.8695854229537
 30
0.0
 11
159.1888684318897
 21
315.0577610117999
 31
0.0
  0
ELLIPSE
  5
4382
102
{ACAD_REACTORS
330
5BAC
102
}
330
1F
100
AcDbEntity
  8
kontur
100
AcDbEllipse
 10
159.4967695535276
 20
314.8177602572051
 30
0.0
 11
-0.3123166762799769
 21
1.912324930885731E-17
 31
0.0
210
0.0
220
0.0
230
1.0
 40
0.9901159119131194
 41
6.114794956462902
 42
6.45157565789648
  0
LINE
  5
4383
102
{ACAD_REACTORS
330
5BAC
102
}
330
1F
100
AcDbEntity
  8
kontur
100
AcDbLine
 10
159.1888684318897
 20
314.5777610821333
 30
0.0
 11
159.1888684318897
 21
314.7659329456893
 31
0.0
  0
LINE
  5
4384
102
{ACAD_REACTORS
330
5BAC
102
}
330
1F
100
AcDbEntity
  8
kontur
100
AcDbLine
 10
159.3005749867794
 20
315.7677603644934
 30
0.0
 11
159.7805711911556
 21
315.7677603644934
 31
0.0
  0
LINE
  5
4385
102
{ACAD_REACTORS
330
5BAC
102
}
330
1F
100
AcDbEntity
  8
kontur
100
AcDbLine
 10
159.5923993275997
 20
315.1694638413992
 30
0.0
 11
159.7805711911556
 21
315.1694638413992
 31
0.0
  0
ELLIPSE
  5
4386
102
{ACAD_REACTORS
330
5BAC
102
}
330
1F
100
AcDbEntity
  8
kontur
100
AcDbEllipse
 10
159.5405724333166
 20
314.8615631369942
 30
0.0
 11
1.912324930885383E-17
 21
0.3123166762799201
 31
0.0
210
0.0
220
0.0
230
1.0
 40
0.9901159119134816
 41
6.114794956462782
 42
6.451575657896238
  0
LINE
  5
4387
102
{ACAD_REACTORS
330
5BAC
102
}
330
1F
100
AcDbEntity
  8
kontur
100
AcDbLine
 10
159.3005749867794
 20
315.1694638413992
 30
0.0
 11
159.4887468503353
 21
315.1694638413992
 31
0.0
  0
ARC
  5
4388
102
{ACAD_REACTORS
330
5BAC
102
}
330
1F
100
AcDbEntity
  8
kontur
100
AcDbCircle
 10
159.5405724333166
 20
314.8177602572051
 30
0.0
 40
0.3555000000000563
100
AcDbArc
 50
312.4623422736596
 51
317.5376577263338
  0
LINE
  5
4389
102
{ACAD_REACTORS
330
5BAC
102
}
330
1F
100
AcDbEntity
  8
kontur
100
AcDbLine
 10
159.8028335259792
 20
314.5777610821333
 30
0.0
 11
159.9086541221973
 21
314.5777610821333
 31
0.0
  0
ARC
  5
438A
102
{ACAD_REACTORS
330
5BAC
102
}
330
1F
100
AcDbEntity
  8
kontur
100
AcDbCircle
 10
159.5405724333166
 20
314.8177602572051
 30
0.0
 40
0.4394121743322549
100
AcDbArc
 50
303.1056269541242
 51
326.8943730458685
  0
LINE
  5
438B
102
{ACAD_REACTORS
330
5BAC
102
}
330
1F
100
AcDbEntity
  8
kontur
100
AcDbLine
 10
159.7805711911556
 20
314.4496818763819
 30
0.0
 11
159.7805711911556
 21
314.5554987473097
 31
0.0
  0
LINE
  5
438C
102
{ACAD_REACTORS
330
5BAC
102
}
330
1F
100
AcDbEntity
  8
kontur
100
AcDbLine
 10
160.4905742691395
 20
314.5777610821333
 30
0.0
 11
159.9086541221973
 21
314.5777610821333
 31
0.0
  0
LINE
  5
438D
102
{ACAD_REACTORS
330
5BAC
102
}
330
1F
100
AcDbEntity
  8
kontur
100
AcDbLine
 10
159.9086541221973
 20
315.0577610117999
 30
0.0
 11
160.4905742691395
 21
315.0577610117999
 31
0.0
  0
LINE
  5
438E
102
{ACAD_REACTORS
330
5BAC
102
}
330
1F
100
AcDbEntity
  8
kontur
100
AcDbLine
 10
159.1724920557377
 20
314.5777610821333
 30
0.0
 11
158.5905719087955
 21
314.5777610821333
 31
0.0
  0
LINE
  5
438F
102
{ACAD_REACTORS
330
5BAC
102
}
330
1F
100
AcDbEntity
  8
kontur
100
AcDbLine
 10
158.5905719087955
 20
315.0577610117999
 30
0.0
 11
159.1724920557377
 21
315.0577610117999
 31
0.0
  0
LINE
  5
4390
102
{ACAD_REACTORS
330
5BAC
102
}
330
1F
100
AcDbEntity
  8
kontur
100
AcDbLine
 10
159.7805711911556
 20
314.4496818763819
 30
0.0
 11
159.7805711911556
 21
313.8677617294398
 31
0.0
  0
LINE
  5
4391
102
{ACAD_REACTORS
330
5BAC
102
}
330
1F
100
AcDbEntity
  8
kontur
100
AcDbLine
 10
159.7805711911556
 20
315.7677603644934
 30
0.0
 11
159.7805711911556
 21
315.1858402175513
 31
0.0
  0
LINE
  5
4392
102
{ACAD_REACTORS
330
5BAC
102
}
330
1F
100
AcDbEntity
  8
kontur
100
AcDbLine
 10
159.3005749867794
 20
313.8677617294398
 30
0.0
 11
159.3005749867794
 21
314.4496818763819
 31
0.0
  0
CIRCLE
  5
4393
102
{ACAD_REACTORS
330
5BAC
102
}
330
1F
100
AcDbEntity
  8
kontur
100
AcDbCircle
 10
159.5405724333166
 20
314.8177602572051
 30
0.0
 40
1.900000000000034
  0
LINE
  5
4394
102
{ACAD_REACTORS
330
5BAC
102
}
330
1F
100
AcDbEntity
  8
kontur
100
AcDbLine
 10
159.3005749867794
 20
315.1858402175513
 30
0.0
 11
159.3005749867794
 21
315.7677603644934
 31
0.0
  0
ARC
  5
4395
102
{ACAD_REACTORS
330
5BAC
102
}
330
1F
100
AcDbEntity
  8
kontur
100
AcDbCircle
 10
159.5405724333166
 20
314.8177602572051
 30
0.0
 40
0.3555000000000019
100
AcDbArc
 50
81.61742386236811
 51
98.3825761376253
  0
ARC
  5
4396
102
{ACAD_REACTORS
330
5BAC
102
}
330
1F
100
AcDbEntity
  8
kontur
100
AcDbCircle
 10
159.5405724333166
 20
314.8177602572051
 30
0.0
 40
0.3555000000000019
100
AcDbArc
 50
261.6174238623747
 51
278.3825761376385
  0
ARC
  5
4397
102
{ACAD_REACTORS
330
5BAC
102
}
330
1F
100
AcDbEntity
  8
kontur
100
AcDbCircle
 10
159.5405724333166
 20
314.8177602572051
 30
0.0
 40
0.3555000000000019
100
AcDbArc
 50
171.6174238623745
 51
188.3825761376385
  0
ARC
  5
4398
102
{ACAD_REACTORS
330
5BAC
102
}
330
1F
100
AcDbEntity
  8
kontur
100
AcDbCircle
 10
159.5405724333166
 20
314.8177602572051
 30
0.0
 40
0.3555000000000582
100
AcDbArc
 50
351.6174238623677
 51
8.382576137625488
  0
ARC
  5
4399
102
{ACAD_REACTORS
330
5BAC
102
}
330
1F
100
AcDbEntity
  8
kontur
100
AcDbCircle
 10
159.5405724333166
 20
314.8177602572051
 30
0.0
 40
0.3555000000000179
100
AcDbArc
 50
278.3825761376385
 51
312.4623422736596
  0
ARC
  5
439A
102
{ACAD_REACTORS
330
5BAC
102
}
330
1F
100
AcDbEntity
  8
kontur
100
AcDbCircle
 10
159.5405724333166
 20
314.8177602572051
 30
0.0
 40
0.3555000000000499
100
AcDbArc
 50
8.382576137625488
 51
42.46234227366133
  0
ARC
  5
439B
102
{ACAD_REACTORS
330
5BAC
102
}
330
1F
100
AcDbEntity
  8
kontur
100
AcDbCircle
 10
159.5405724333166
 20
314.8177602572051
 30
0.0
 40
0.3555000000000582
100
AcDbArc
 50
317.5376577263338
 51
351.6174238623677
  0
ARC
  5
439C
102
{ACAD_REACTORS
330
5BAC
102
}
330
1F
100
AcDbEntity
  8
kontur
100
AcDbCircle
 10
159.5405724333166
 20
314.8177602572051
 30
0.0
 40
0.3554999999999937
100
AcDbArc
 50
98.3825761376253
 51
132.462342273664
  0
ARC
  5
439D
102
{ACAD_REACTORS
330
5BAC
102
}
330
1F
100
AcDbEntity
  8
kontur
100
AcDbCircle
 10
159.5405724333166
 20
314.8177602572051
 30
0.0
 40
0.3555000000000179
100
AcDbArc
 50
227.5376577263405
 51
261.6174238623747
  0
ARC
  5
439E
102
{ACAD_REACTORS
330
5BAC
102
}
330
1F
100
AcDbEntity
  8
kontur
100
AcDbCircle
 10
159.5405724333166
 20
314.8177602572051
 30
0.0
 40
0.3555000000000179
100
AcDbArc
 50
188.3825761376385
 51
222.4623422736613
  0
ARC
  5
439F
102
{ACAD_REACTORS
330
5BAC
102
}
330
1F
100
AcDbEntity
  8
kontur
100
AcDbCircle
 10
159.5405724333166
 20
314.8177602572051
 30
0.0
 40
0.3555000000000179
100
AcDbArc
 50
137.5376577263387
 51
171.6174238623745
  0
ARC
  5
43A0
102
{ACAD_REACTORS
330
5BAC
102
}
330
1F
100
AcDbEntity
  8
kontur
100
AcDbCircle
 10
159.5405724333166
 20
314.8177602572051
 30
0.0
 40
0.3555000000000019
100
AcDbArc
 50
47.53765772633596
 51
81.61742386236811
  0
LINE
  5
43A1
102
{ACAD_REACTORS
330
5BAC
102
}
330
1F
100
AcDbEntity
  8
kontur
100
AcDbLine
 10
294.7805728302833
 20
313.8677617294393
 30
0.0
 11
294.3005729006168
 21
313.8677617294393
 31
0.0
  0
LINE
  5
43A2
102
{ACAD_REACTORS
330
5BAC
102
}
330
1F
100
AcDbEntity
  8
kontur
100
AcDbLine
 10
294.488748489463
 20
314.4660582525335
 30
0.0
 11
294.3005729006168
 21
314.4660582525335
 31
0.0
  0
ELLIPSE
  5
43A3
102
{ACAD_REACTORS
330
5BAC
102
}
330
1F
100
AcDbEntity
  8
kontur
100
AcDbEllipse
 10
294.5405724333166
 20
314.7739573774155
 30
0.0
 11
1.912324930885731E-17
 21
0.3123166762799769
 31
0.0
210
0.0
220
0.0
230
1.0
 40
0.9901159119132105
 41
2.973202302872838
 42
3.309983004306671
  0
LINE
  5
43A4
102
{ACAD_REACTORS
330
5BAC
102
}
330
1F
100
AcDbEntity
  8
kontur
100
AcDbLine
 10
294.7805728302833
 20
314.4660582525335
 30
0.0
 11
294.5923972414371
 21
314.4660582525335
 31
0.0
  0
LINE
  5
43A5
102
{ACAD_REACTORS
330
5BAC
102
}
330
1F
100
AcDbEntity
  8
kontur
100
AcDbLine
 10
294.7805728302833
 20
315.0800196213327
 30
0.0
 11
294.7805728302833
 21
315.1858402175508
 31
0.0
  0
ARC
  5
43A6
102
{ACAD_REACTORS
330
5BAC
102
}
330
1F
100
AcDbEntity
  8
kontur
100
AcDbCircle
 10
294.5405724333166
 20
314.8177602572046
 30
0.0
 40
0.4394121743322073
100
AcDbArc
 50
33.10562695412597
 51
56.8943730458758
  0
ARC
  5
43A7
102
{ACAD_REACTORS
330
5BAC
102
}
330
1F
100
AcDbEntity
  8
kontur
100
AcDbCircle
 10
294.5405724333166
 20
314.8177602572046
 30
0.0
 40
0.3554999999999988
100
AcDbArc
 50
42.46234227366133
 51
47.53765772634968
  0
LINE
  5
43A8
102
{ACAD_REACTORS
330
5BAC
102
}
330
1F
100
AcDbEntity
  8
kontur
100
AcDbLine
 10
294.9086520360348
 20
315.0577610117994
 30
0.0
 11
294.8028314398167
 21
315.0577610117994
 31
0.0
  0
ARC
  5
43A9
102
{ACAD_REACTORS
330
5BAC
102
}
330
1F
100
AcDbEntity
  8
kontur
100
AcDbCircle
 10
294.5405724333166
 20
314.8177602572046
 30
0.0
 40
0.4394121743322073
100
AcDbArc
 50
213.1056269541259
 51
236.8943730458753
  0
LINE
  5
43AA
102
{ACAD_REACTORS
330
5BAC
102
}
330
1F
100
AcDbEntity
  8
kontur
100
AcDbLine
 10
294.1724936948654
 20
314.5777610821329
 30
0.0
 11
294.2783142910835
 21
314.5777610821329
 31
0.0
  0
ARC
  5
43AB
102
{ACAD_REACTORS
330
5BAC
102
}
330
1F
100
AcDbEntity
  8
kontur
100
AcDbCircle
 10
294.5405724333166
 20
314.8177602572046
 30
0.0
 40
0.355499999999976
100
AcDbArc
 50
222.4623422736566
 51
227.5376577263337
  0
LINE
  5
43AC
102
{ACAD_REACTORS
330
5BAC
102
}
330
1F
100
AcDbEntity
  8
kontur
100
AcDbLine
 10
294.3005729006168
 20
314.5554987473093
 30
0.0
 11
294.3005729006168
 21
314.4496818763815
 31
0.0
  0
LINE
  5
43AD
102
{ACAD_REACTORS
330
5BAC
102
}
330
1F
100
AcDbEntity
  8
kontur
100
AcDbLine
 10
295.4905721829769
 20
315.0577610117994
 30
0.0
 11
295.4905721829769
 21
314.5777610821329
 31
0.0
  0
LINE
  5
43AE
102
{ACAD_REACTORS
330
5BAC
102
}
330
1F
100
AcDbEntity
  8
kontur
100
AcDbLine
 10
294.8922756598827
 20
314.7659329456888
 30
0.0
 11
294.8922756598827
 21
314.5777610821329
 31
0.0
  0
ELLIPSE
  5
43AF
102
{ACAD_REACTORS
330
5BAC
102
}
330
1F
100
AcDbEntity
  8
kontur
100
AcDbEllipse
 10
294.5843753131058
 20
314.8177602572046
 30
0.0
 11
-0.3123166762799485
 21
1.912324930885558E-17
 31
0.0
210
0.0
220
0.0
230
1.0
 40
0.9901159119132095
 41
2.973202302873125
 42
3.309983004306656
  0
LINE
  5
43B0
102
{ACAD_REACTORS
330
5BAC
102
}
330
1F
100
AcDbEntity
  8
kontur
100
AcDbLine
 10
294.8922756598827
 20
315.0577610117994
 30
0.0
 11
294.8922756598827
 21
314.8695854229532
 31
0.0
  0
ARC
  5
43B1
102
{ACAD_REACTORS
330
5BAC
102
}
330
1F
100
AcDbEntity
  8
kontur
100
AcDbCircle
 10
294.5405724333166
 20
314.8177602572046
 30
0.0
 40
0.3554999999999586
100
AcDbArc
 50
312.4623422736596
 51
317.537657726343
  0
LINE
  5
43B2
102
{ACAD_REACTORS
330
5BAC
102
}
330
1F
100
AcDbEntity
  8
kontur
100
AcDbLine
 10
294.8028314398167
 20
314.5777610821329
 30
0.0
 11
294.9086520360348
 21
314.5777610821329
 31
0.0
  0
ARC
  5
43B3
102
{ACAD_REACTORS
330
5BAC
102
}
330
1F
100
AcDbEntity
  8
kontur
100
AcDbCircle
 10
294.5405724333166
 20
314.8177602572046
 30
0.0
 40
0.4394121743321918
100
AcDbArc
 50
303.1056269541247
 51
326.8943730458839
  0
LINE
  5
43B4
102
{ACAD_REACTORS
330
5BAC
102
}
330
1F
100
AcDbEntity
  8
kontur
100
AcDbLine
 10
294.7805728302833
 20
314.4496818763815
 30
0.0
 11
294.7805728302833
 21
314.5554987473093
 31
0.0
  0
LINE
  5
43B5
102
{ACAD_REACTORS
330
5BAC
102
}
330
1F
100
AcDbEntity
  8
kontur
100
AcDbLine
 10
293.5905735479233
 20
314.5777610821329
 30
0.0
 11
293.5905735479233
 21
315.0577610117994
 31
0.0
  0
LINE
  5
43B6
102
{ACAD_REACTORS
330
5BAC
102
}
330
1F
100
AcDbEntity
  8
kontur
100
AcDbLine
 10
294.1888700710174
 20
314.8695854229532
 30
0.0
 11
294.1888700710174
 21
315.0577610117994
 31
0.0
  0
ELLIPSE
  5
43B7
102
{ACAD_REACTORS
330
5BAC
102
}
330
1F
100
AcDbEntity
  8
kontur
100
AcDbEllipse
 10
294.4967695535276
 20
314.8177602572046
 30
0.0
 11
-0.3123166762799769
 21
1.912324930885731E-17
 31
0.0
210
0.0
220
0.0
230
1.0
 40
0.9901159119131194
 41
6.114794956462721
 42
6.45157565789648
  0
LINE
  5
43B8
102
{ACAD_REACTORS
330
5BAC
102
}
330
1F
100
AcDbEntity
  8
kontur
100
AcDbLine
 10
294.1888700710174
 20
314.5777610821329
 30
0.0
 11
294.1888700710174
 21
314.7659329456888
 31
0.0
  0
LINE
  5
43B9
102
{ACAD_REACTORS
330
5BAC
102
}
330
1F
100
AcDbEntity
  8
kontur
100
AcDbLine
 10
294.3005729006168
 20
315.767760364493
 30
0.0
 11
294.7805728302833
 21
315.767760364493
 31
0.0
  0
LINE
  5
43BA
102
{ACAD_REACTORS
330
5BAC
102
}
330
1F
100
AcDbEntity
  8
kontur
100
AcDbLine
 10
294.5923972414371
 20
315.1694638413988
 30
0.0
 11
294.7805728302833
 21
315.1694638413988
 31
0.0
  0
ELLIPSE
  5
43BB
102
{ACAD_REACTORS
330
5BAC
102
}
330
1F
100
AcDbEntity
  8
kontur
100
AcDbEllipse
 10
294.5405724333166
 20
314.8615631369937
 30
0.0
 11
1.912324930885731E-17
 21
0.3123166762799769
 31
0.0
210
0.0
220
0.0
230
1.0
 40
0.9901159119132105
 41
6.114794956462736
 42
6.451575657896555
  0
LINE
  5
43BC
102
{ACAD_REACTORS
330
5BAC
102
}
330
1F
100
AcDbEntity
  8
kontur
100
AcDbLine
 10
294.3005729006168
 20
315.1694638413988
 30
0.0
 11
294.488748489463
 21
315.1694638413988
 31
0.0
  0
ARC
  5
43BD
102
{ACAD_REACTORS
330
5BAC
102
}
330
1F
100
AcDbEntity
  8
kontur
100
AcDbCircle
 10
294.5405724333166
 20
314.8177602572046
 30
0.0
 40
0.3555000000000179
100
AcDbArc
 50
132.4623422736592
 51
137.5376577263387
  0
LINE
  5
43BE
102
{ACAD_REACTORS
330
5BAC
102
}
330
1F
100
AcDbEntity
  8
kontur
100
AcDbLine
 10
294.2783142910835
 20
315.0577610117994
 30
0.0
 11
294.1724936948654
 21
315.0577610117994
 31
0.0
  0
ARC
  5
43BF
102
{ACAD_REACTORS
330
5BAC
102
}
330
1F
100
AcDbEntity
  8
kontur
100
AcDbCircle
 10
294.5405724333166
 20
314.8177602572046
 30
0.0
 40
0.4394121743322073
100
AcDbArc
 50
123.1056269541247
 51
146.894373045874
  0
LINE
  5
43C0
102
{ACAD_REACTORS
330
5BAC
102
}
330
1F
100
AcDbEntity
  8
kontur
100
AcDbLine
 10
294.3005729006168
 20
315.1858402175508
 30
0.0
 11
294.3005729006168
 21
315.0800196213327
 31
0.0
  0
LINE
  5
43C1
102
{ACAD_REACTORS
330
5BAC
102
}
330
1F
100
AcDbEntity
  8
kontur
100
AcDbLine
 10
293.5905735479233
 20
315.0577610117994
 30
0.0
 11
294.1724936948654
 21
315.0577610117994
 31
0.0
  0
LINE
  5
43C2
102
{ACAD_REACTORS
330
5BAC
102
}
330
1F
100
AcDbEntity
  8
kontur
100
AcDbLine
 10
294.1724936948654
 20
314.5777610821329
 30
0.0
 11
293.5905735479233
 21
314.5777610821329
 31
0.0
  0
LINE
  5
43C3
102
{ACAD_REACTORS
330
5BAC
102
}
330
1F
100
AcDbEntity
  8
kontur
100
AcDbLine
 10
295.4905721829769
 20
314.5777610821329
 30
0.0
 11
294.9086520360348
 21
314.5777610821329
 31
0.0
  0
LINE
  5
43C4
102
{ACAD_REACTORS
330
5BAC
102
}
330
1F
100
AcDbEntity
  8
kontur
100
AcDbLine
 10
294.7805728302833
 20
315.767760364493
 30
0.0
 11
294.7805728302833
 21
315.1858402175508
 31
0.0
  0
LINE
  5
43C5
102
{ACAD_REACTORS
330
5BAC
102
}
330
1F
100
AcDbEntity
  8
kontur
100
AcDbLine
 10
294.7805728302833
 20
314.4496818763815
 30
0.0
 11
294.7805728302833
 21
313.8677617294393
 31
0.0
  0
LINE
  5
43C6
102
{ACAD_REACTORS
330
5BAC
102
}
330
1F
100
AcDbEntity
  8
kontur
100
AcDbLine
 10
294.3005729006168
 20
313.8677617294393
 30
0.0
 11
294.3005729006168
 21
314.4496818763815
 31
0.0
  0
CIRCLE
  5
43C7
102
{ACAD_REACTORS
330
5BAC
102
}
330
1F
100
AcDbEntity
  8
kontur
100
AcDbCircle
 10
294.5405724333166
 20
314.8177602572046
 30
0.0
 40
1.899999999999977
  0
LINE
  5
43C8
102
{ACAD_REACTORS
330
5BAC
102
}
330
1F
100
AcDbEntity
  8
kontur
100
AcDbLine
 10
294.9086520360348
 20
315.0577610117994
 30
0.0
 11
295.4905721829769
 21
315.0577610117994
 31
0.0
  0
LINE
  5
43C9
102
{ACAD_REACTORS
330
5BAC
102
}
330
1F
100
AcDbEntity
  8
kontur
100
AcDbLine
 10
294.3005729006168
 20
315.1858402175508
 30
0.0
 11
294.3005729006168
 21
315.767760364493
 31
0.0
  0
ARC
  5
43CA
102
{ACAD_REACTORS
330
5BAC
102
}
330
1F
100
AcDbEntity
  8
kontur
100
AcDbCircle
 10
294.5405724333166
 20
314.8177602572046
 30
0.0
 40
0.3555000000000061
100
AcDbArc
 50
81.61742386236811
 51
98.38257613763847
  0
ARC
  5
43CB
102
{ACAD_REACTORS
330
5BAC
102
}
330
1F
100
AcDbEntity
  8
kontur
100
AcDbCircle
 10
294.5405724333166
 20
314.8177602572046
 30
0.0
 40
0.3555000000000019
100
AcDbArc
 50
351.6174238623744
 51
8.382576137638537
  0
ARC
  5
43CC
102
{ACAD_REACTORS
330
5BAC
102
}
330
1F
100
AcDbEntity
  8
kontur
100
AcDbCircle
 10
294.5405724333166
 20
314.8177602572046
 30
0.0
 40
0.3555000000000019
100
AcDbArc
 50
171.6174238623614
 51
188.3825761376385
  0
ARC
  5
43CD
102
{ACAD_REACTORS
330
5BAC
102
}
330
1F
100
AcDbEntity
  8
kontur
100
AcDbCircle
 10
294.5405724333166
 20
314.8177602572046
 30
0.0
 40
0.3555000000000061
100
AcDbArc
 50
261.6174238623615
 51
278.3825761376385
  0
ARC
  5
43CE
102
{ACAD_REACTORS
330
5BAC
102
}
330
1F
100
AcDbEntity
  8
kontur
100
AcDbCircle
 10
294.5405724333166
 20
314.8177602572046
 30
0.0
 40
0.3554999999999937
100
AcDbArc
 50
317.537657726343
 51
351.6174238623744
  0
ARC
  5
43CF
102
{ACAD_REACTORS
330
5BAC
102
}
330
1F
100
AcDbEntity
  8
kontur
100
AcDbCircle
 10
294.5405724333166
 20
314.8177602572046
 30
0.0
 40
0.3555000000000019
100
AcDbArc
 50
278.3825761376385
 51
312.4623422736596
  0
ARC
  5
43D0
102
{ACAD_REACTORS
330
5BAC
102
}
330
1F
100
AcDbEntity
  8
kontur
100
AcDbCircle
 10
294.5405724333166
 20
314.8177602572046
 30
0.0
 40
0.3555000000000061
100
AcDbArc
 50
227.5376577263337
 51
261.6174238623615
  0
ARC
  5
43D1
102
{ACAD_REACTORS
330
5BAC
102
}
330
1F
100
AcDbEntity
  8
kontur
100
AcDbCircle
 10
294.5405724333166
 20
314.8177602572046
 30
0.0
 40
0.3555000000000019
100
AcDbArc
 50
188.3825761376385
 51
222.4623422736566
  0
ARC
  5
43D2
102
{ACAD_REACTORS
330
5BAC
102
}
330
1F
100
AcDbEntity
  8
kontur
100
AcDbCircle
 10
294.5405724333166
 20
314.8177602572046
 30
0.0
 40
0.3555000000000019
100
AcDbArc
 50
137.5376577263387
 51
171.6174238623614
  0
ARC
  5
43D3
102
{ACAD_REACTORS
330
5BAC
102
}
330
1F
100
AcDbEntity
  8
kontur
100
AcDbCircle
 10
294.5405724333166
 20
314.8177602572046
 30
0.0
 40
0.3555000000000179
100
AcDbArc
 50
98.38257613763847
 51
132.4623422736592
  0
ARC
  5
43D4
102
{ACAD_REACTORS
330
5BAC
102
}
330
1F
100
AcDbEntity
  8
kontur
100
AcDbCircle
 10
294.5405724333166
 20
314.8177602572046
 30
0.0
 40
0.3555000000000019
100
AcDbArc
 50
47.53765772634968
 51
81.61742386236811
  0
ARC
  5
43D5
102
{ACAD_REACTORS
330
5BAC
102
}
330
1F
100
AcDbEntity
  8
kontur
100
AcDbCircle
 10
294.5405724333166
 20
314.8177602572046
 30
0.0
 40
0.3555000000000019
100
AcDbArc
 50
8.382576137638537
 51
42.46234227366133
  0
LINE
  5
43D6
102
{ACAD_REACTORS
330
5BAC
102
}
330
1F
100
AcDbEntity
  8
kontur
100
AcDbLine
 10
410.4905742691396
 20
315.057761011799
 30
0.0
 11
410.4905742691396
 21
314.5777610821324
 31
0.0
  0
LINE
  5
43D7
102
{ACAD_REACTORS
330
5BAC
102
}
330
1F
100
AcDbEntity
  8
kontur
100
AcDbLine
 10
409.8922777460454
 20
314.7659329456883
 30
0.0
 11
409.8922777460454
 21
314.5777610821324
 31
0.0
  0
ELLIPSE
  5
43D8
102
{ACAD_REACTORS
330
5BAC
102
}
330
1F
100
AcDbEntity
  8
kontur
100
AcDbEllipse
 10
409.5843753131058
 20
314.8177602572042
 30
0.0
 11
-0.3123166762799841
 21
1.912324930885775E-17
 31
0.0
210
0.0
220
0.0
230
1.0
 40
0.9901159119130969
 41
2.973202302872914
 42
3.309983004306687
  0
LINE
  5
43D9
102
{ACAD_REACTORS
330
5BAC
102
}
330
1F
100
AcDbEntity
  8
kontur
100
AcDbLine
 10
409.8922777460454
 20
315.057761011799
 30
0.0
 11
409.8922777460454
 21
314.8695854229528
 31
0.0
  0
LINE
  5
43DA
102
{ACAD_REACTORS
330
5BAC
102
}
330
1F
100
AcDbEntity
  8
kontur
100
AcDbLine
 10
409.7805786417363
 20
313.8677617294389
 30
0.0
 11
409.3005675361989
 21
313.8677617294389
 31
0.0
  0
LINE
  5
43DB
102
{ACAD_REACTORS
330
5BAC
102
}
330
1F
100
AcDbEntity
  8
kontur
100
AcDbLine
 10
409.488754300916
 20
314.4660582525331
 30
0.0
 11
409.3005675361989
 21
314.4660582525331
 31
0.0
  0
ELLIPSE
  5
43DC
102
{ACAD_REACTORS
330
5BAC
102
}
330
1F
100
AcDbEntity
  8
kontur
100
AcDbEllipse
 10
409.5405724333166
 20
314.7739573774151
 30
0.0
 11
1.912324930885383E-17
 21
0.3123166762799201
 31
0.0
210
0.0
220
0.0
230
1.0
 40
0.9901159119133907
 41
2.973202302873035
 42
3.309983004306543
  0
LINE
  5
43DD
102
{ACAD_REACTORS
330
5BAC
102
}
330
1F
100
AcDbEntity
  8
kontur
100
AcDbLine
 10
409.7805786417363
 20
314.4660582525331
 30
0.0
 11
409.5923918770192
 21
314.4660582525331
 31
0.0
  0
LINE
  5
43DE
102
{ACAD_REACTORS
330
5BAC
102
}
330
1F
100
AcDbEntity
  8
kontur
100
AcDbLine
 10
409.3005675361989
 20
315.7677603644925
 30
0.0
 11
409.7805786417363
 21
315.7677603644925
 31
0.0
  0
LINE
  5
43DF
102
{ACAD_REACTORS
330
5BAC
102
}
330
1F
100
AcDbEntity
  8
kontur
100
AcDbLine
 10
409.5923918770192
 20
315.1694638413983
 30
0.0
 11
409.7805786417363
 21
315.1694638413983
 31
0.0
  0
ELLIPSE
  5
43E0
102
{ACAD_REACTORS
330
5BAC
102
}
330
1F
100
AcDbEntity
  8
kontur
100
AcDbEllipse
 10
409.5405724333166
 20
314.8615631369933
 30
0.0
 11
1.912324930885731E-17
 21
0.3123166762799769
 31
0.0
210
0.0
220
0.0
230
1.0
 40
0.9901159119132105
 41
6.114794956462713
 42
6.451575657896329
  0
LINE
  5
43E1
102
{ACAD_REACTORS
330
5BAC
102
}
330
1F
100
AcDbEntity
  8
kontur
100
AcDbLine
 10
409.3005675361989
 20
315.1694638413983
 30
0.0
 11
409.488754300916
 21
315.1694638413983
 31
0.0
  0
LINE
  5
43E2
102
{ACAD_REACTORS
330
5BAC
102
}
330
1F
100
AcDbEntity
  8
kontur
100
AcDbLine
 10
409.7805786417363
 20
314.449681876381
 30
0.0
 11
409.7805786417363
 21
314.5554987473088
 31
0.0
  0
ARC
  5
43E3
102
{ACAD_REACTORS
330
5BAC
102
}
330
1F
100
AcDbEntity
  8
kontur
100
AcDbCircle
 10
409.5405724333166
 20
314.8177602572042
 30
0.0
 40
0.3555000000000035
100
AcDbArc
 50
312.4623422736585
 51
317.5376577263482
  0
LINE
  5
43E4
102
{ACAD_REACTORS
330
5BAC
102
}
330
1F
100
AcDbEntity
  8
kontur
100
AcDbLine
 10
409.8028260753987
 20
314.5777610821324
 30
0.0
 11
409.9086541221974
 21
314.5777610821324
 31
0.0
  0
ARC
  5
43E5
102
{ACAD_REACTORS
330
5BAC
102
}
330
1F
100
AcDbEntity
  8
kontur
100
AcDbCircle
 10
409.5405724333166
 20
314.8177602572042
 30
0.0
 40
0.4394121743321956
100
AcDbArc
 50
303.1056269541247
 51
326.8943730458839
  0
ARC
  5
43E6
102
{ACAD_REACTORS
330
5BAC
102
}
330
1F
100
AcDbEntity
  8
kontur
100
AcDbCircle
 10
409.5405724333166
 20
314.8177602572042
 30
0.0
 40
0.4394121743322112
100
AcDbArc
 50
33.10562695412597
 51
56.89437304587529
  0
ARC
  5
43E7
102
{ACAD_REACTORS
330
5BAC
102
}
330
1F
100
AcDbEntity
  8
kontur
100
AcDbCircle
 10
409.5405724333166
 20
314.8177602572042
 30
0.0
 40
0.3555000000000127
100
AcDbArc
 50
42.46234227366133
 51
47.53765772634518
  0
LINE
  5
43E8
102
{ACAD_REACTORS
330
5BAC
102
}
330
1F
100
AcDbEntity
  8
kontur
100
AcDbLine
 10
409.9086541221974
 20
315.057761011799
 30
0.0
 11
409.8028260753987
 21
315.057761011799
 31
0.0
  0
LINE
  5
43E9
102
{ACAD_REACTORS
330
5BAC
102
}
330
1F
100
AcDbEntity
  8
kontur
100
AcDbLine
 10
409.7805786417363
 20
315.0800196213323
 30
0.0
 11
409.7805786417363
 21
315.1858402175504
 31
0.0
  0
LINE
  5
43EA
102
{ACAD_REACTORS
330
5BAC
102
}
330
1F
100
AcDbEntity
  8
kontur
100
AcDbLine
 10
409.3005675361989
 20
314.5554987473088
 30
0.0
 11
409.3005675361989
 21
314.449681876381
 31
0.0
  0
ARC
  5
43EB
102
{ACAD_REACTORS
330
5BAC
102
}
330
1F
100
AcDbEntity
  8
kontur
100
AcDbCircle
 10
409.5405724333166
 20
314.8177602572042
 30
0.0
 40
0.4394121743321995
100
AcDbArc
 50
213.1056269541259
 51
236.8943730458753
  0
ARC
  5
43EC
102
{ACAD_REACTORS
330
5BAC
102
}
330
1F
100
AcDbEntity
  8
kontur
100
AcDbCircle
 10
409.5405724333166
 20
314.8177602572042
 30
0.0
 40
0.3555000000000083
100
AcDbArc
 50
222.4623422736518
 51
227.5376577263415
  0
LINE
  5
43ED
102
{ACAD_REACTORS
330
5BAC
102
}
330
1F
100
AcDbEntity
  8
kontur
100
AcDbLine
 10
409.1724920557378
 20
314.5777610821324
 30
0.0
 11
409.2783052013753
 21
314.5777610821324
 31
0.0
  0
LINE
  5
43EE
102
{ACAD_REACTORS
330
5BAC
102
}
330
1F
100
AcDbEntity
  8
kontur
100
AcDbLine
 10
408.5905719087957
 20
314.5777610821324
 30
0.0
 11
408.5905719087957
 21
315.057761011799
 31
0.0
  0
LINE
  5
43EF
102
{ACAD_REACTORS
330
5BAC
102
}
330
1F
100
AcDbEntity
  8
kontur
100
AcDbLine
 10
409.1888684318898
 20
314.8695854229528
 30
0.0
 11
409.1888684318898
 21
315.057761011799
 31
0.0
  0
ELLIPSE
  5
43F0
102
{ACAD_REACTORS
330
5BAC
102
}
330
1F
100
AcDbEntity
  8
kontur
100
AcDbEllipse
 10
409.4967695535276
 20
314.8177602572042
 30
0.0
 11
-0.3123166762799841
 21
1.912324930885775E-17
 31
0.0
210
0.0
220
0.0
230
1.0
 40
0.9901159119130969
 41
6.114794956462539
 42
6.45157565789648
  0
LINE
  5
43F1
102
{ACAD_REACTORS
330
5BAC
102
}
330
1F
100
AcDbEntity
  8
kontur
100
AcDbLine
 10
409.1888684318898
 20
314.5777610821324
 30
0.0
 11
409.1888684318898
 21
314.7659329456883
 31
0.0
  0
ARC
  5
43F2
102
{ACAD_REACTORS
330
5BAC
102
}
330
1F
100
AcDbEntity
  8
kontur
100
AcDbCircle
 10
409.5405724333166
 20
314.8177602572042
 30
0.0
 40
0.4394121743322133
100
AcDbArc
 50
123.1056269541238
 51
146.894373045874
  0
LINE
  5
43F3
102
{ACAD_REACTORS
330
5BAC
102
}
330
1F
100
AcDbEntity
  8
kontur
100
AcDbLine
 10
409.3005675361989
 20
313.8677617294389
 30
0.0
 11
409.3005675361989
 21
314.449681876381
 31
0.0
  0
LINE
  5
43F4
102
{ACAD_REACTORS
330
5BAC
102
}
330
1F
100
AcDbEntity
  8
kontur
100
AcDbLine
 10
409.7805786417363
 20
314.449681876381
 30
0.0
 11
409.7805786417363
 21
313.8677617294389
 31
0.0
  0
LINE
  5
43F5
102
{ACAD_REACTORS
330
5BAC
102
}
330
1F
100
AcDbEntity
  8
kontur
100
AcDbLine
 10
410.4905742691396
 20
314.5777610821324
 30
0.0
 11
409.9086541221974
 21
314.5777610821324
 31
0.0
  0
LINE
  5
43F6
102
{ACAD_REACTORS
330
5BAC
102
}
330
1F
100
AcDbEntity
  8
kontur
100
AcDbLine
 10
409.3005675361989
 20
315.1858402175504
 30
0.0
 11
409.3005675361989
 21
315.7677603644925
 31
0.0
  0
CIRCLE
  5
43F7
102
{ACAD_REACTORS
330
5BAC
102
}
330
1F
100
AcDbEntity
  8
kontur
100
AcDbCircle
 10
409.5405724333166
 20
314.8177602572042
 30
0.0
 40
1.900000000000013
  0
LINE
  5
43F8
102
{ACAD_REACTORS
330
5BAC
102
}
330
1F
100
AcDbEntity
  8
kontur
100
AcDbLine
 10
409.1724920557378
 20
314.5777610821324
 30
0.0
 11
408.5905719087957
 21
314.5777610821324
 31
0.0
  0
LINE
  5
43F9
102
{ACAD_REACTORS
330
5BAC
102
}
330
1F
100
AcDbEntity
  8
kontur
100
AcDbLine
 10
409.9086541221974
 20
315.057761011799
 30
0.0
 11
410.4905742691396
 21
315.057761011799
 31
0.0
  0
LINE
  5
43FA
102
{ACAD_REACTORS
330
5BAC
102
}
330
1F
100
AcDbEntity
  8
kontur
100
AcDbLine
 10
409.7805786417363
 20
315.7677603644925
 30
0.0
 11
409.7805786417363
 21
315.1858402175504
 31
0.0
  0
LINE
  5
43FB
102
{ACAD_REACTORS
330
5BAC
102
}
330
1F
100
AcDbEntity
  8
kontur
100
AcDbLine
 10
408.5905719087957
 20
315.057761011799
 30
0.0
 11
409.1724920557378
 21
315.057761011799
 31
0.0
  0
ARC
  5
43FC
102
{ACAD_REACTORS
330
5BAC
102
}
330
1F
100
AcDbEntity
  8
kontur
100
AcDbCircle
 10
409.5405724333166
 20
314.8177602572042
 30
0.0
 40
0.3555000000000179
100
AcDbArc
 50
132.4623422736585
 51
137.5376577263387
  0
LINE
  5
43FD
102
{ACAD_REACTORS
330
5BAC
102
}
330
1F
100
AcDbEntity
  8
kontur
100
AcDbLine
 10
409.3005675361989
 20
315.1858402175504
 30
0.0
 11
409.3005675361989
 21
315.0800196213323
 31
0.0
  0
LINE
  5
43FE
102
{ACAD_REACTORS
330
5BAC
102
}
330
1F
100
AcDbEntity
  8
kontur
100
AcDbLine
 10
409.2783052013753
 20
315.057761011799
 30
0.0
 11
409.1724920557378
 21
315.057761011799
 31
0.0
  0
ARC
  5
43FF
102
{ACAD_REACTORS
330
5BAC
102
}
330
1F
100
AcDbEntity
  8
kontur
100
AcDbCircle
 10
409.5405724333166
 20
314.8177602572042
 30
0.0
 40
0.3555000000000032
100
AcDbArc
 50
171.6174238623551
 51
188.3825761376385
  0
ARC
  5
4400
102
{ACAD_REACTORS
330
5BAC
102
}
330
1F
100
AcDbEntity
  8
kontur
100
AcDbCircle
 10
409.5405724333166
 20
314.8177602572042
 30
0.0
 40
0.355500000000003
100
AcDbArc
 50
81.61742386236153
 51
98.38257613763187
  0
ARC
  5
4401
102
{ACAD_REACTORS
330
5BAC
102
}
330
1F
100
AcDbEntity
  8
kontur
100
AcDbCircle
 10
409.5405724333166
 20
314.8177602572042
 30
0.0
 40
0.3554999999999999
100
AcDbArc
 50
261.6174238623681
 51
278.3825761376319
  0
ARC
  5
4402
102
{ACAD_REACTORS
330
5BAC
102
}
330
1F
100
AcDbEntity
  8
kontur
100
AcDbCircle
 10
409.5405724333166
 20
314.8177602572042
 30
0.0
 40
0.3554999999999949
100
AcDbArc
 50
351.6174238623677
 51
8.382576137638537
  0
ARC
  5
4403
102
{ACAD_REACTORS
330
5BAC
102
}
330
1F
100
AcDbEntity
  8
kontur
100
AcDbCircle
 10
409.5405724333166
 20
314.8177602572042
 30
0.0
 40
0.3554999999999949
100
AcDbArc
 50
188.3825761376385
 51
222.4623422736518
  0
ARC
  5
4404
102
{ACAD_REACTORS
330
5BAC
102
}
330
1F
100
AcDbEntity
  8
kontur
100
AcDbCircle
 10
409.5405724333166
 20
314.8177602572042
 30
0.0
 40
0.3555000000000035
100
AcDbArc
 50
278.3825761376319
 51
312.4623422736585
  0
ARC
  5
4405
102
{ACAD_REACTORS
330
5BAC
102
}
330
1F
100
AcDbEntity
  8
kontur
100
AcDbCircle
 10
409.5405724333166
 20
314.8177602572042
 30
0.0
 40
0.3555000000000083
100
AcDbArc
 50
98.38257613763187
 51
132.4623422736585
  0
ARC
  5
4406
102
{ACAD_REACTORS
330
5BAC
102
}
330
1F
100
AcDbEntity
  8
kontur
100
AcDbCircle
 10
409.5405724333166
 20
314.8177602572042
 30
0.0
 40
0.3555000000000083
100
AcDbArc
 50
227.5376577263415
 51
261.6174238623681
  0
ARC
  5
4407
102
{ACAD_REACTORS
330
5BAC
102
}
330
1F
100
AcDbEntity
  8
kontur
100
AcDbCircle
 10
409.5405724333166
 20
314.8177602572042
 30
0.0
 40
0.3555000000000035
100
AcDbArc
 50
47.53765772634518
 51
81.61742386236153
  0
ARC
  5
4408
102
{ACAD_REACTORS
330
5BAC
102
}
330
1F
100
AcDbEntity
  8
kontur
100
AcDbCircle
 10
409.5405724333166
 20
314.8177602572042
 30
0.0
 40
0.3555000000000127
100
AcDbArc
 50
8.382576137638537
 51
42.46234227366133
  0
ARC
  5
4409
102
{ACAD_REACTORS
330
5BAC
102
}
330
1F
100
AcDbEntity
  8
kontur
100
AcDbCircle
 10
409.5405724333166
 20
314.8177602572042
 30
0.0
 40
0.3554999999999949
100
AcDbArc
 50
317.5376577263482
 51
351.6174238623677
  0
ARC
  5
440A
102
{ACAD_REACTORS
330
5BAC
102
}
330
1F
100
AcDbEntity
  8
kontur
100
AcDbCircle
 10
409.5405724333166
 20
314.8177602572042
 30
0.0
 40
0.3555000000000179
100
AcDbArc
 50
137.5376577263387
 51
171.6174238623551
  0
LINE
  5
440B
102
{ACAD_REACTORS
330
5BAC
102
}
330
1F
100
AcDbEntity
  8
kontur
100
AcDbLine
 10
104.3005752848028
 20
337.5555006546586
 30
0.0
 11
104.3005752848028
 21
337.4496800584405
 31
0.0
  0
ARC
  5
440C
102
{ACAD_REACTORS
330
5BAC
102
}
330
1F
100
AcDbEntity
  8
kontur
100
AcDbCircle
 10
104.5405724333165
 20
337.8177602572046
 30
0.0
 40
0.4394121743322073
100
AcDbArc
 50
213.1056269541259
 51
236.8943730458753
  0
LINE
  5
440D
102
{ACAD_REACTORS
330
5BAC
102
}
330
1F
100
AcDbEntity
  8
kontur
100
AcDbLine
 10
104.1724849031805
 20
337.5777611268371
 30
0.0
 11
104.2783129499792
 21
337.5777611268371
 31
0.0
  0
ARC
  5
440E
102
{ACAD_REACTORS
330
5BAC
102
}
330
1F
100
AcDbEntity
  8
kontur
100
AcDbCircle
 10
104.5405724333165
 20
337.8177602572046
 30
0.0
 40
0.3554999999999796
100
AcDbArc
 50
222.4623422736518
 51
227.5376577263337
  0
LINE
  5
440F
102
{ACAD_REACTORS
330
5BAC
102
}
330
1F
100
AcDbEntity
  8
kontur
100
AcDbLine
 10
104.3005752848028
 20
338.7677604091971
 30
0.0
 11
104.7805714891791
 21
338.7677604091971
 31
0.0
  0
LINE
  5
4410
102
{ACAD_REACTORS
330
5BAC
102
}
330
1F
100
AcDbEntity
  8
kontur
100
AcDbLine
 10
104.5923996256232
 20
338.1694620234578
 30
0.0
 11
104.7805714891791
 21
338.1694620234578
 31
0.0
  0
ELLIPSE
  5
4411
102
{ACAD_REACTORS
330
5BAC
102
}
330
1F
100
AcDbEntity
  8
kontur
100
AcDbEllipse
 10
104.5405724333165
 20
337.8615631369938
 30
0.0
 11
1.912324930885731E-17
 21
0.3123166762799769
 31
0.0
210
0.0
220
0.0
230
1.0
 40
0.9901159119133014
 41
6.114794956462752
 42
6.451575657896268
  0
LINE
  5
4412
102
{ACAD_REACTORS
330
5BAC
102
}
330
1F
100
AcDbEntity
  8
kontur
100
AcDbLine
 10
104.3005752848028
 20
338.1694620234578
 30
0.0
 11
104.4887471483588
 21
338.1694620234578
 31
0.0
  0
LINE
  5
4413
102
{ACAD_REACTORS
330
5BAC
102
}
330
1F
100
AcDbEntity
  8
kontur
100
AcDbLine
 10
104.7805714891791
 20
338.0800196660369
 30
0.0
 11
104.7805714891791
 21
338.185840262255
 31
0.0
  0
ARC
  5
4414
102
{ACAD_REACTORS
330
5BAC
102
}
330
1F
100
AcDbEntity
  8
kontur
100
AcDbCircle
 10
104.5405724333165
 20
337.8177602572046
 30
0.0
 40
0.439412174332286
100
AcDbArc
 50
33.10562695412597
 51
56.89437304587529
  0
LINE
  5
4415
102
{ACAD_REACTORS
330
5BAC
102
}
330
1F
100
AcDbEntity
  8
kontur
100
AcDbLine
 10
104.9086469696402
 20
338.0577610565036
 30
0.0
 11
104.8028338240027
 21
338.0577610565036
 31
0.0
  0
ARC
  5
4416
102
{ACAD_REACTORS
330
5BAC
102
}
330
1F
100
AcDbEntity
  8
kontur
100
AcDbCircle
 10
104.5405724333165
 20
337.8177602572046
 30
0.0
 40
0.3555000000000563
100
AcDbArc
 50
42.46234227366133
 51
47.53765772633596
  0
LINE
  5
4417
102
{ACAD_REACTORS
330
5BAC
102
}
330
1F
100
AcDbEntity
  8
kontur
100
AcDbLine
 10
104.7805714891791
 20
336.8677599114984
 30
0.0
 11
104.3005752848028
 21
336.8677599114984
 31
0.0
  0
LINE
  5
4418
102
{ACAD_REACTORS
330
5BAC
102
}
330
1F
100
AcDbEntity
  8
kontur
100
AcDbLine
 10
104.4887471483588
 20
337.4660582972377
 30
0.0
 11
104.3005752848028
 21
337.4660582972377
 31
0.0
  0
ELLIPSE
  5
4419
102
{ACAD_REACTORS
330
5BAC
102
}
330
1F
100
AcDbEntity
  8
kontur
100
AcDbEllipse
 10
104.5405724333165
 20
337.7739573774157
 30
0.0
 11
1.912324930885383E-17
 21
0.3123166762799201
 31
0.0
210
0.0
220
0.0
230
1.0
 40
0.9901159119134816
 41
2.973202302873155
 42
3.309983004306626
  0
LINE
  5
441A
102
{ACAD_REACTORS
330
5BAC
102
}
330
1F
100
AcDbEntity
  8
kontur
100
AcDbLine
 10
104.7805714891791
 20
337.4660582972377
 30
0.0
 11
104.5923996256232
 21
337.4660582972377
 31
0.0
  0
LINE
  5
441B
102
{ACAD_REACTORS
330
5BAC
102
}
330
1F
100
AcDbEntity
  8
kontur
100
AcDbLine
 10
105.4905671165823
 20
338.0577610565036
 30
0.0
 11
105.4905671165823
 21
337.5777611268371
 31
0.0
  0
LINE
  5
441C
102
{ACAD_REACTORS
330
5BAC
102
}
330
1F
100
AcDbEntity
  8
kontur
100
AcDbLine
 10
104.9086469696402
 20
338.0577610565036
 30
0.0
 11
105.4905671165823
 21
338.0577610565036
 31
0.0
  0
ARC
  5
441D
102
{ACAD_REACTORS
330
5BAC
102
}
330
1F
100
AcDbEntity
  8
kontur
100
AcDbCircle
 10
104.5405724333165
 20
337.8177602572046
 30
0.0
 40
0.4394121743322549
100
AcDbArc
 50
123.1056269541238
 51
146.8943730458685
  0
LINE
  5
441E
102
{ACAD_REACTORS
330
5BAC
102
}
330
1F
100
AcDbEntity
  8
kontur
100
AcDbLine
 10
103.5905796573996
 20
338.0577610565036
 30
0.0
 11
104.1724849031805
 21
338.0577610565036
 31
0.0
  0
LINE
  5
441F
102
{ACAD_REACTORS
330
5BAC
102
}
330
1F
100
AcDbEntity
  8
kontur
100
AcDbLine
 10
103.5905796573996
 20
337.5777611268371
 30
0.0
 11
103.5905796573996
 21
338.0577610565036
 31
0.0
  0
LINE
  5
4420
102
{ACAD_REACTORS
330
5BAC
102
}
330
1F
100
AcDbEntity
  8
kontur
100
AcDbLine
 10
104.3005752848028
 20
336.8677599114984
 30
0.0
 11
104.3005752848028
 21
337.4496800584405
 31
0.0
  0
ARC
  5
4421
102
{ACAD_REACTORS
330
5BAC
102
}
330
1F
100
AcDbEntity
  8
kontur
100
AcDbCircle
 10
104.5405724333165
 20
337.8177602572046
 30
0.0
 40
0.4394121743322384
100
AcDbArc
 50
303.1056269541321
 51
326.8943730458839
  0
LINE
  5
4422
102
{ACAD_REACTORS
330
5BAC
102
}
330
1F
100
AcDbEntity
  8
kontur
100
AcDbLine
 10
105.4905671165823
 20
337.5777611268371
 30
0.0
 11
104.9086469696402
 21
337.5777611268371
 31
0.0
  0
LINE
  5
4423
102
{ACAD_REACTORS
330
5BAC
102
}
330
1F
100
AcDbEntity
  8
kontur
100
AcDbLine
 10
104.7805714891791
 20
338.7677604091971
 30
0.0
 11
104.7805714891791
 21
338.185840262255
 31
0.0
  0
LINE
  5
4424
102
{ACAD_REACTORS
330
5BAC
102
}
330
1F
100
AcDbEntity
  8
kontur
100
AcDbLine
 10
104.7805714891791
 20
337.4496800584405
 30
0.0
 11
104.7805714891791
 21
336.8677599114984
 31
0.0
  0
CIRCLE
  5
4425
102
{ACAD_REACTORS
330
5BAC
102
}
330
1F
100
AcDbEntity
  8
kontur
100
AcDbCircle
 10
104.5405724333165
 20
337.8177602572046
 30
0.0
 40
1.900000000000034
  0
LINE
  5
4426
102
{ACAD_REACTORS
330
5BAC
102
}
330
1F
100
AcDbEntity
  8
kontur
100
AcDbLine
 10
104.1724849031805
 20
337.5777611268371
 30
0.0
 11
103.5905796573996
 21
337.5777611268371
 31
0.0
  0
LINE
  5
4427
102
{ACAD_REACTORS
330
5BAC
102
}
330
1F
100
AcDbEntity
  8
kontur
100
AcDbLine
 10
104.3005752848028
 20
338.185840262255
 30
0.0
 11
104.3005752848028
 21
338.7677604091971
 31
0.0
  0
ARC
  5
4428
102
{ACAD_REACTORS
330
5BAC
102
}
330
1F
100
AcDbEntity
  8
kontur
100
AcDbCircle
 10
104.5405724333165
 20
337.8177602572046
 30
0.0
 40
0.3555000000000179
100
AcDbArc
 50
132.4623422736592
 51
137.5376577263387
  0
LINE
  5
4429
102
{ACAD_REACTORS
330
5BAC
102
}
330
1F
100
AcDbEntity
  8
kontur
100
AcDbLine
 10
104.2783129499792
 20
338.0577610565036
 30
0.0
 11
104.1724849031805
 21
338.0577610565036
 31
0.0
  0
LINE
  5
442A
102
{ACAD_REACTORS
330
5BAC
102
}
330
1F
100
AcDbEntity
  8
kontur
100
AcDbLine
 10
104.3005752848028
 20
338.185840262255
 30
0.0
 11
104.3005752848028
 21
338.0800196660369
 31
0.0
  0
LINE
  5
442B
102
{ACAD_REACTORS
330
5BAC
102
}
330
1F
100
AcDbEntity
  8
kontur
100
AcDbLine
 10
104.8922705934881
 20
337.7659348530381
 30
0.0
 11
104.8922705934881
 21
337.5777611268371
 31
0.0
  0
ELLIPSE
  5
442C
102
{ACAD_REACTORS
330
5BAC
102
}
330
1F
100
AcDbEntity
  8
kontur
100
AcDbEllipse
 10
104.5843753131057
 20
337.8177602572046
 30
0.0
 11
-0.3123166762800338
 21
1.912324930886080E-17
 31
0.0
210
0.0
220
0.0
230
1.0
 40
0.9901159119131212
 41
2.973202302872914
 42
3.309983004306867
  0
LINE
  5
442D
102
{ACAD_REACTORS
330
5BAC
102
}
330
1F
100
AcDbEntity
  8
kontur
100
AcDbLine
 10
104.8922705934881
 20
338.0577610565036
 30
0.0
 11
104.8922705934881
 21
337.8695854676574
 31
0.0
  0
ARC
  5
442E
102
{ACAD_REACTORS
330
5BAC
102
}
330
1F
100
AcDbEntity
  8
kontur
100
AcDbCircle
 10
104.5405724333165
 20
337.8177602572046
 30
0.0
 40
0.3555000000000144
100
AcDbArc
 50
312.4623422736752
 51
317.5376577263482
  0
LINE
  5
442F
102
{ACAD_REACTORS
330
5BAC
102
}
330
1F
100
AcDbEntity
  8
kontur
100
AcDbLine
 10
104.8028338240027
 20
337.5777611268371
 30
0.0
 11
104.9086469696402
 21
337.5777611268371
 31
0.0
  0
LINE
  5
4430
102
{ACAD_REACTORS
330
5BAC
102
}
330
1F
100
AcDbEntity
  8
kontur
100
AcDbLine
 10
104.7805714891791
 20
337.4496800584405
 30
0.0
 11
104.7805714891791
 21
337.5555006546586
 31
0.0
  0
LINE
  5
4431
102
{ACAD_REACTORS
330
5BAC
102
}
330
1F
100
AcDbEntity
  8
kontur
100
AcDbLine
 10
104.1888761804938
 20
337.8695854676574
 30
0.0
 11
104.1888761804938
 21
338.0577610565036
 31
0.0
  0
ELLIPSE
  5
4432
102
{ACAD_REACTORS
330
5BAC
102
}
330
1F
100
AcDbEntity
  8
kontur
100
AcDbEllipse
 10
104.4967695535275
 20
337.8177602572046
 30
0.0
 11
-0.3123166762799201
 21
1.912324930885383E-17
 31
0.0
210
0.0
220
0.0
230
1.0
 40
0.9901159119134816
 41
6.114794956462601
 42
6.451575657896419
  0
LINE
  5
4433
102
{ACAD_REACTORS
330
5BAC
102
}
330
1F
100
AcDbEntity
  8
kontur
100
AcDbLine
 10
104.1888761804938
 20
337.5777611268371
 30
0.0
 11
104.1888761804938
 21
337.7659348530381
 31
0.0
  0
ARC
  5
4434
102
{ACAD_REACTORS
330
5BAC
102
}
330
1F
100
AcDbEntity
  8
kontur
100
AcDbCircle
 10
104.5405724333165
 20
337.8177602572046
 30
0.0
 40
0.3555000000000665
100
AcDbArc
 50
351.6174238623677
 51
8.382576137644888
  0
ARC
  5
4435
102
{ACAD_REACTORS
330
5BAC
102
}
330
1F
100
AcDbEntity
  8
kontur
100
AcDbCircle
 10
104.5405724333165
 20
337.8177602572046
 30
0.0
 40
0.3555000000000103
100
AcDbArc
 50
171.6174238623551
 51
188.3825761376385
  0
ARC
  5
4436
102
{ACAD_REACTORS
330
5BAC
102
}
330
1F
100
AcDbEntity
  8
kontur
100
AcDbCircle
 10
104.5405724333165
 20
337.8177602572046
 30
0.0
 40
0.3555000000000019
100
AcDbArc
 50
81.61742386236811
 51
98.3825761376253
  0
ARC
  5
4437
102
{ACAD_REACTORS
330
5BAC
102
}
330
1F
100
AcDbEntity
  8
kontur
100
AcDbCircle
 10
104.5405724333165
 20
337.8177602572046
 30
0.0
 40
0.3554999999999457
100
AcDbArc
 50
261.6174238623747
 51
278.3825761376385
  0
ARC
  5
4438
102
{ACAD_REACTORS
330
5BAC
102
}
330
1F
100
AcDbEntity
  8
kontur
100
AcDbCircle
 10
104.5405724333165
 20
337.8177602572046
 30
0.0
 40
0.3555000000000582
100
AcDbArc
 50
317.5376577263482
 51
351.6174238623677
  0
ARC
  5
4439
102
{ACAD_REACTORS
330
5BAC
102
}
330
1F
100
AcDbEntity
  8
kontur
100
AcDbCircle
 10
104.5405724333165
 20
337.8177602572046
 30
0.0
 40
0.3555000000000144
100
AcDbArc
 50
278.3825761376385
 51
312.4623422736752
  0
ARC
  5
443A
102
{ACAD_REACTORS
330
5BAC
102
}
330
1F
100
AcDbEntity
  8
kontur
100
AcDbCircle
 10
104.5405724333165
 20
337.8177602572046
 30
0.0
 40
0.355499999999976
100
AcDbArc
 50
227.5376577263337
 51
261.6174238623747
  0
ARC
  5
443B
102
{ACAD_REACTORS
330
5BAC
102
}
330
1F
100
AcDbEntity
  8
kontur
100
AcDbCircle
 10
104.5405724333165
 20
337.8177602572046
 30
0.0
 40
0.3555000000000019
100
AcDbArc
 50
188.3825761376385
 51
222.4623422736518
  0
ARC
  5
443C
102
{ACAD_REACTORS
330
5BAC
102
}
330
1F
100
AcDbEntity
  8
kontur
100
AcDbCircle
 10
104.5405724333165
 20
337.8177602572046
 30
0.0
 40
0.3555000000000179
100
AcDbArc
 50
137.5376577263387
 51
171.6174238623551
  0
ARC
  5
443D
102
{ACAD_REACTORS
330
5BAC
102
}
330
1F
100
AcDbEntity
  8
kontur
100
AcDbCircle
 10
104.5405724333165
 20
337.8177602572046
 30
0.0
 40
0.3555000000000179
100
AcDbArc
 50
98.3825761376253
 51
132.4623422736592
  0
ARC
  5
443E
102
{ACAD_REACTORS
330
5BAC
102
}
330
1F
100
AcDbEntity
  8
kontur
100
AcDbCircle
 10
104.5405724333165
 20
337.8177602572046
 30
0.0
 40
0.3555000000000563
100
AcDbArc
 50
47.53765772633596
 51
81.61742386236811
  0
ARC
  5
443F
102
{ACAD_REACTORS
330
5BAC
102
}
330
1F
100
AcDbEntity
  8
kontur
100
AcDbCircle
 10
104.5405724333165
 20
337.8177602572046
 30
0.0
 40
0.3555000000000665
100
AcDbArc
 50
8.382576137644888
 51
42.46234227366133
  0
LINE
  5
4440
102
{ACAD_REACTORS
330
5BAC
102
}
330
1F
100
AcDbEntity
  8
kontur
100
AcDbLine
 10
430.7405668781637
 20
335.0577605647641
 30
0.0
 11
430.7405668781637
 21
334.5777606350976
 31
0.0
  0
LINE
  5
4441
102
{ACAD_REACTORS
330
5BAC
102
}
330
1F
100
AcDbEntity
  8
kontur
100
AcDbLine
 10
430.1586467312216
 20
335.0577605647641
 30
0.0
 11
430.7405668781637
 21
335.0577605647641
 31
0.0
  0
ARC
  5
4442
102
{ACAD_REACTORS
330
5BAC
102
}
330
1F
100
AcDbEntity
  8
kontur
100
AcDbCircle
 10
429.7905724333165
 20
334.8177602572042
 30
0.0
 40
0.4394121743321956
100
AcDbArc
 50
33.10562695412597
 51
56.89437304587529
  0
LINE
  5
4443
102
{ACAD_REACTORS
330
5BAC
102
}
330
1F
100
AcDbEntity
  8
kontur
100
AcDbLine
 10
430.0305712507605
 20
335.7677599174577
 30
0.0
 11
430.0305712507605
 21
335.1858397705155
 31
0.0
  0
LINE
  5
4444
102
{ACAD_REACTORS
330
5BAC
102
}
330
1F
100
AcDbEntity
  8
kontur
100
AcDbLine
 10
429.5505750463843
 20
335.7677599174577
 30
0.0
 11
430.0305712507605
 21
335.7677599174577
 31
0.0
  0
LINE
  5
4445
102
{ACAD_REACTORS
330
5BAC
102
}
330
1F
100
AcDbEntity
  8
kontur
100
AcDbLine
 10
429.5505750463843
 20
335.1858397705155
 30
0.0
 11
429.5505750463843
 21
335.7677599174577
 31
0.0
  0
ARC
  5
4446
102
{ACAD_REACTORS
330
5BAC
102
}
330
1F
100
AcDbEntity
  8
kontur
100
AcDbCircle
 10
429.7905724333165
 20
334.8177602572042
 30
0.0
 40
0.4394121743321976
100
AcDbArc
 50
123.1056269541247
 51
146.894373045874
  0
LINE
  5
4447
102
{ACAD_REACTORS
330
5BAC
102
}
330
1F
100
AcDbEntity
  8
kontur
100
AcDbLine
 10
428.840579418981
 20
334.5777606350976
 30
0.0
 11
428.840579418981
 21
335.0577605647641
 31
0.0
  0
LINE
  5
4448
102
{ACAD_REACTORS
330
5BAC
102
}
330
1F
100
AcDbEntity
  8
kontur
100
AcDbLine
 10
429.4224995659231
 20
334.5777606350976
 30
0.0
 11
428.840579418981
 21
334.5777606350976
 31
0.0
  0
ARC
  5
4449
102
{ACAD_REACTORS
330
5BAC
102
}
330
1F
100
AcDbEntity
  8
kontur
100
AcDbCircle
 10
429.7905724333165
 20
334.8177602572042
 30
0.0
 40
0.4394121743322103
100
AcDbArc
 50
213.1056269541259
 51
236.8943730458753
  0
LINE
  5
444A
102
{ACAD_REACTORS
330
5BAC
102
}
330
1F
100
AcDbEntity
  8
kontur
100
AcDbLine
 10
429.5505750463843
 20
333.867761282404
 30
0.0
 11
429.5505750463843
 21
334.4496814293462
 31
0.0
  0
LINE
  5
444B
102
{ACAD_REACTORS
330
5BAC
102
}
330
1F
100
AcDbEntity
  8
kontur
100
AcDbLine
 10
430.0305712507605
 20
333.867761282404
 30
0.0
 11
429.5505750463843
 21
333.867761282404
 31
0.0
  0
ARC
  5
444C
102
{ACAD_REACTORS
330
5BAC
102
}
330
1F
100
AcDbEntity
  8
kontur
100
AcDbCircle
 10
429.7905724333165
 20
334.8177602572042
 30
0.0
 40
0.4394121743322073
100
AcDbArc
 50
303.1056269541247
 51
326.894373045874
  0
LINE
  5
444D
102
{ACAD_REACTORS
330
5BAC
102
}
330
1F
100
AcDbEntity
  8
kontur
100
AcDbLine
 10
430.7405668781637
 20
334.5777606350976
 30
0.0
 11
430.1586467312216
 21
334.5777606350976
 31
0.0
  0
CIRCLE
  5
444E
102
{ACAD_REACTORS
330
5BAC
102
}
330
1F
100
AcDbEntity
  8
kontur
100
AcDbCircle
 10
429.7905724333165
 20
334.8177602572042
 30
0.0
 40
1.900000000000013
  0
LINE
  5
444F
102
{ACAD_REACTORS
330
5BAC
102
}
330
1F
100
AcDbEntity
  8
kontur
100
AcDbLine
 10
428.840579418981
 20
335.0577605647641
 30
0.0
 11
429.4224995659231
 21
335.0577605647641
 31
0.0
  0
LINE
  5
4450
102
{ACAD_REACTORS
330
5BAC
102
}
330
1F
100
AcDbEntity
  8
kontur
100
AcDbLine
 10
430.0305712507605
 20
334.4496814293462
 30
0.0
 11
430.0305712507605
 21
333.867761282404
 31
0.0
  0
LINE
  5
4451
102
{ACAD_REACTORS
330
5BAC
102
}
330
1F
100
AcDbEntity
  8
kontur
100
AcDbLine
 10
429.4388759420752
 20
334.8695849759179
 30
0.0
 11
429.4388759420752
 21
335.0577605647641
 31
0.0
  0
ELLIPSE
  5
4452
102
{ACAD_REACTORS
330
5BAC
102
}
330
1F
100
AcDbEntity
  8
kontur
100
AcDbEllipse
 10
429.7467695535275
 20
334.8177602572042
 30
0.0
 11
-0.3123166762799805
 21
1.912324930885753E-17
 31
0.0
210
0.0
220
0.0
230
1.0
 40
0.9901159119132902
 41
6.114794956462753
 42
6.451575657896448
  0
LINE
  5
4453
102
{ACAD_REACTORS
330
5BAC
102
}
330
1F
100
AcDbEntity
  8
kontur
100
AcDbLine
 10
429.4388759420752
 20
334.5777606350976
 30
0.0
 11
429.4388759420752
 21
334.7659362239438
 31
0.0
  0
ARC
  5
4454
102
{ACAD_REACTORS
330
5BAC
102
}
330
1F
100
AcDbEntity
  8
kontur
100
AcDbCircle
 10
429.7905724333165
 20
334.8177602572042
 30
0.0
 40
0.3554999999999769
100
AcDbArc
 50
132.4623422736592
 51
137.5376577263482
  0
LINE
  5
4455
102
{ACAD_REACTORS
330
5BAC
102
}
330
1F
100
AcDbEntity
  8
kontur
100
AcDbLine
 10
429.5505750463843
 20
335.1858397705155
 30
0.0
 11
429.5505750463843
 21
335.0800191742974
 31
0.0
  0
LINE
  5
4456
102
{ACAD_REACTORS
330
5BAC
102
}
330
1F
100
AcDbEntity
  8
kontur
100
AcDbLine
 10
429.5283127115607
 20
335.0577605647641
 30
0.0
 11
429.4224995659231
 21
335.0577605647641
 31
0.0
  0
LINE
  5
4457
102
{ACAD_REACTORS
330
5BAC
102
}
330
1F
100
AcDbEntity
  8
kontur
100
AcDbLine
 10
429.7387469099402
 20
334.4660578054982
 30
0.0
 11
429.5505750463843
 21
334.4660578054982
 31
0.0
  0
ELLIPSE
  5
4458
102
{ACAD_REACTORS
330
5BAC
102
}
330
1F
100
AcDbEntity
  8
kontur
100
AcDbEllipse
 10
429.7905724333165
 20
334.773957377415
 30
0.0
 11
1.912324930885731E-17
 21
0.3123166762799769
 31
0.0
210
0.0
220
0.0
230
1.0
 40
0.9901159119132105
 41
2.973202302872985
 42
3.309983004306603
  0
LINE
  5
4459
102
{ACAD_REACTORS
330
5BAC
102
}
330
1F
100
AcDbEntity
  8
kontur
100
AcDbLine
 10
430.0305712507605
 20
334.4660578054982
 30
0.0
 11
429.8423993872046
 21
334.4660578054982
 31
0.0
  0
LINE
  5
445A
102
{ACAD_REACTORS
330
5BAC
102
}
330
1F
100
AcDbEntity
  8
kontur
100
AcDbLine
 10
429.8423993872046
 20
335.1694633943635
 30
0.0
 11
430.0305712507605
 21
335.1694633943635
 31
0.0
  0
ELLIPSE
  5
445B
102
{ACAD_REACTORS
330
5BAC
102
}
330
1F
100
AcDbEntity
  8
kontur
100
AcDbEllipse
 10
429.7905724333165
 20
334.8615631369931
 30
0.0
 11
1.912324930886080E-17
 21
0.3123166762800338
 31
0.0
210
0.0
220
0.0
230
1.0
 40
0.9901159119130302
 41
6.114794956462805
 42
6.451575657896408
  0
LINE
  5
445C
102
{ACAD_REACTORS
330
5BAC
102
}
330
1F
100
AcDbEntity
  8
kontur
100
AcDbLine
 10
429.5505750463843
 20
335.1694633943635
 30
0.0
 11
429.7387469099402
 21
335.1694633943635
 31
0.0
  0
LINE
  5
445D
102
{ACAD_REACTORS
330
5BAC
102
}
330
1F
100
AcDbEntity
  8
kontur
100
AcDbLine
 10
430.1422703550696
 20
334.7659362239438
 30
0.0
 11
430.1422703550696
 21
334.5777606350976
 31
0.0
  0
ELLIPSE
  5
445E
102
{ACAD_REACTORS
330
5BAC
102
}
330
1F
100
AcDbEntity
  8
kontur
100
AcDbEllipse
 10
429.8343753131056
 20
334.8177602572042
 30
0.0
 11
-0.3123166762799841
 21
1.912324930885775E-17
 31
0.0
210
0.0
220
0.0
230
1.0
 40
0.9901159119132789
 41
2.973202302873125
 42
3.309983004306656
  0
LINE
  5
445F
102
{ACAD_REACTORS
330
5BAC
102
}
330
1F
100
AcDbEntity
  8
kontur
100
AcDbLine
 10
430.1422703550696
 20
335.0577605647641
 30
0.0
 11
430.1422703550696
 21
334.8695849759179
 31
0.0
  0
ARC
  5
4460
102
{ACAD_REACTORS
330
5BAC
102
}
330
1F
100
AcDbEntity
  8
kontur
100
AcDbCircle
 10
429.7905724333165
 20
334.8177602572042
 30
0.0
 40
0.3554999999999743
100
AcDbArc
 50
42.46234227365181
 51
47.53765772634046
  0
LINE
  5
4461
102
{ACAD_REACTORS
330
5BAC
102
}
330
1F
100
AcDbEntity
  8
kontur
100
AcDbLine
 10
430.1586467312216
 20
335.0577605647641
 30
0.0
 11
430.0528335855841
 21
335.0577605647641
 31
0.0
  0
LINE
  5
4462
102
{ACAD_REACTORS
330
5BAC
102
}
330
1F
100
AcDbEntity
  8
kontur
100
AcDbLine
 10
430.0305712507605
 20
335.0800191742974
 30
0.0
 11
430.0305712507605
 21
335.1858397705155
 31
0.0
  0
ARC
  5
4463
102
{ACAD_REACTORS
330
5BAC
102
}
330
1F
100
AcDbEntity
  8
kontur
100
AcDbCircle
 10
429.7905724333165
 20
334.8177602572042
 30
0.0
 40
0.3555000000000153
100
AcDbArc
 50
222.4623422736613
 51
227.5376577263415
  0
LINE
  5
4464
102
{ACAD_REACTORS
330
5BAC
102
}
330
1F
100
AcDbEntity
  8
kontur
100
AcDbLine
 10
429.4224995659231
 20
334.5777606350976
 30
0.0
 11
429.5283127115607
 21
334.5777606350976
 31
0.0
  0
LINE
  5
4465
102
{ACAD_REACTORS
330
5BAC
102
}
330
1F
100
AcDbEntity
  8
kontur
100
AcDbLine
 10
429.5505750463843
 20
334.5555020255643
 30
0.0
 11
429.5505750463843
 21
334.4496814293462
 31
0.0
  0
ARC
  5
4466
102
{ACAD_REACTORS
330
5BAC
102
}
330
1F
100
AcDbEntity
  8
kontur
100
AcDbCircle
 10
429.7905724333165
 20
334.8177602572042
 30
0.0
 40
0.3555000000000127
100
AcDbArc
 50
312.4623422736585
 51
317.5376577263387
  0
LINE
  5
4467
102
{ACAD_REACTORS
330
5BAC
102
}
330
1F
100
AcDbEntity
  8
kontur
100
AcDbLine
 10
430.0528335855841
 20
334.5777606350976
 30
0.0
 11
430.1586467312216
 21
334.5777606350976
 31
0.0
  0
LINE
  5
4468
102
{ACAD_REACTORS
330
5BAC
102
}
330
1F
100
AcDbEntity
  8
kontur
100
AcDbLine
 10
430.0305712507605
 20
334.4496814293462
 30
0.0
 11
430.0305712507605
 21
334.5555020255643
 31
0.0
  0
ARC
  5
4469
102
{ACAD_REACTORS
330
5BAC
102
}
330
1F
100
AcDbEntity
  8
kontur
100
AcDbCircle
 10
429.7905724333165
 20
334.8177602572042
 30
0.0
 40
0.3554999999999984
100
AcDbArc
 50
171.6174238623614
 51
188.3825761376385
  0
ARC
  5
446A
102
{ACAD_REACTORS
330
5BAC
102
}
330
1F
100
AcDbEntity
  8
kontur
100
AcDbCircle
 10
429.7905724333165
 20
334.8177602572042
 30
0.0
 40
0.3554999999999994
100
AcDbArc
 50
261.6174238623681
 51
278.3825761376319
  0
ARC
  5
446B
102
{ACAD_REACTORS
330
5BAC
102
}
330
1F
100
AcDbEntity
  8
kontur
100
AcDbCircle
 10
429.7905724333165
 20
334.8177602572042
 30
0.0
 40
0.3554999999999994
100
AcDbArc
 50
81.61742386236811
 51
98.38257613763187
  0
ARC
  5
446C
102
{ACAD_REACTORS
330
5BAC
102
}
330
1F
100
AcDbEntity
  8
kontur
100
AcDbCircle
 10
429.7905724333165
 20
334.8177602572042
 30
0.0
 40
0.3554999999999949
100
AcDbArc
 50
351.6174238623744
 51
8.382576137638537
  0
ARC
  5
446D
102
{ACAD_REACTORS
330
5BAC
102
}
330
1F
100
AcDbEntity
  8
kontur
100
AcDbCircle
 10
429.7905724333165
 20
334.8177602572042
 30
0.0
 40
0.3554999999999949
100
AcDbArc
 50
8.382576137638537
 51
42.46234227365181
  0
ARC
  5
446E
102
{ACAD_REACTORS
330
5BAC
102
}
330
1F
100
AcDbEntity
  8
kontur
100
AcDbCircle
 10
429.7905724333165
 20
334.8177602572042
 30
0.0
 40
0.3554999999999989
100
AcDbArc
 50
47.53765772634046
 51
81.61742386236811
  0
ARC
  5
446F
102
{ACAD_REACTORS
330
5BAC
102
}
330
1F
100
AcDbEntity
  8
kontur
100
AcDbCircle
 10
429.7905724333165
 20
334.8177602572042
 30
0.0
 40
0.3555000000000127
100
AcDbArc
 50
317.5376577263387
 51
351.6174238623744
  0
ARC
  5
4470
102
{ACAD_REACTORS
330
5BAC
102
}
330
1F
100
AcDbEntity
  8
kontur
100
AcDbCircle
 10
429.7905724333165
 20
334.8177602572042
 30
0.0
 40
0.3555000000000035
100
AcDbArc
 50
278.3825761376319
 51
312.4623422736585
  0
ARC
  5
4471
102
{ACAD_REACTORS
330
5BAC
102
}
330
1F
100
AcDbEntity
  8
kontur
100
AcDbCircle
 10
429.7905724333165
 20
334.8177602572042
 30
0.0
 40
0.3555000000000059
100
AcDbArc
 50
227.5376577263415
 51
261.6174238623681
  0
ARC
  5
4472
102
{ACAD_REACTORS
330
5BAC
102
}
330
1F
100
AcDbEntity
  8
kontur
100
AcDbCircle
 10
429.7905724333165
 20
334.8177602572042
 30
0.0
 40
0.3555000000000153
100
AcDbArc
 50
188.3825761376385
 51
222.4623422736613
  0
ARC
  5
4473
102
{ACAD_REACTORS
330
5BAC
102
}
330
1F
100
AcDbEntity
  8
kontur
100
AcDbCircle
 10
429.7905724333165
 20
334.8177602572042
 30
0.0
 40
0.3554999999999984
100
AcDbArc
 50
137.5376577263482
 51
171.6174238623614
  0
ARC
  5
4474
102
{ACAD_REACTORS
330
5BAC
102
}
330
1F
100
AcDbEntity
  8
kontur
100
AcDbCircle
 10
429.7905724333165
 20
334.8177602572042
 30
0.0
 40
0.3554999999999994
100
AcDbArc
 50
98.38257613763187
 51
132.4623422736592
  0
LINE
  5
4475
102
{ACAD_REACTORS
330
5BAC
102
}
330
1F
100
AcDbEntity
  8
kontur
100
AcDbLine
 10
63.49057140811675
 20
353.8177599889844
 30
0.0
 11
63.49057140811675
 21
355.7177604866832
 31
0.0
  0
LINE
  5
4476
102
{ACAD_REACTORS
330
5BAC
102
}
330
1F
100
AcDbEntity
  8
kontur
100
AcDbLine
 10
63.49057140811675
 20
351.9177604226082
 30
0.0
 11
63.49057140811675
 21
353.8177599889844
 31
0.0
  0
LINE
  5
4477
102
{ACAD_REACTORS
330
5BAC
102
}
330
1F
100
AcDbEntity
  8
kontur
100
AcDbLine
 10
56.19056704505675
 20
370.4477601909697
 30
0.0
 11
56.04122760757201
 21
370.4477601909697
 31
0.0
  0
LINE
  5
4478
102
{ACAD_REACTORS
330
5BAC
102
}
330
1F
100
AcDbEntity
  8
kontur
100
AcDbLine
 10
56.19056704505675
 20
370.4085566328526
 30
0.0
 11
56.19056704505675
 21
370.4477601909697
 31
0.0
  0
LINE
  5
4479
102
{ACAD_REACTORS
330
5BAC
102
}
330
1F
100
AcDbEntity
  8
kontur
100
AcDbLine
 10
56.69123116000884
 20
370.4477601909697
 30
0.0
 11
56.19056704505675
 21
370.4085566328526
 31
0.0
  0
LINE
  5
447A
102
{ACAD_REACTORS
330
5BAC
102
}
330
1F
100
AcDbEntity
  8
kontur
100
AcDbLine
 10
56.98991003497832
 20
370.4477601909697
 30
0.0
 11
56.69123116000884
 21
370.4477601909697
 31
0.0
  0
LINE
  5
447B
102
{ACAD_REACTORS
330
5BAC
102
}
330
1F
100
AcDbEntity
  8
kontur
100
AcDbLine
 10
57.49057414993041
 20
370.4085566328526
 30
0.0
 11
56.98991003497832
 21
370.4477601909697
 31
0.0
  0
LINE
  5
447C
102
{ACAD_REACTORS
330
5BAC
102
}
330
1F
100
AcDbEntity
  8
kontur
100
AcDbLine
 10
57.49057414993041
 20
370.4477601909697
 30
0.0
 11
57.49057414993041
 21
370.4085566328526
 31
0.0
  0
LINE
  5
447D
102
{ACAD_REACTORS
330
5BAC
102
}
330
1F
100
AcDbEntity
  8
kontur
100
AcDbLine
 10
57.63991358741515
 20
370.4477601909697
 30
0.0
 11
57.49057414993041
 21
370.4477601909697
 31
0.0
  0
LINE
  5
447E
102
{ACAD_REACTORS
330
5BAC
102
}
330
1F
100
AcDbEntity
  8
kontur
100
AcDbLine
 10
58.14057770236724
 20
370.4085566328526
 30
0.0
 11
57.63991358741515
 21
370.4477601909697
 31
0.0
  0
LINE
  5
447F
102
{ACAD_REACTORS
330
5BAC
102
}
330
1F
100
AcDbEntity
  8
kontur
100
AcDbLine
 10
57.63991358741515
 20
370.4477601909697
 30
0.0
 11
58.14057770236724
 21
370.4085566328526
 31
0.0
  0
LINE
  5
4480
102
{ACAD_REACTORS
330
5BAC
102
}
330
1F
100
AcDbEntity
  8
kontur
100
AcDbLine
 10
55.54057839378112
 20
370.4085566328526
 30
0.0
 11
56.04122760757201
 21
370.4477601909697
 31
0.0
  0
LINE
  5
4481
102
{ACAD_REACTORS
330
5BAC
102
}
330
1F
100
AcDbEntity
  8
kontur
100
AcDbLine
 10
56.04122760757201
 20
370.4477601909697
 30
0.0
 11
55.54057839378112
 21
370.4085566328526
 31
0.0
  0
LINE
  5
4482
102
{ACAD_REACTORS
330
5BAC
102
}
330
1F
100
AcDbEntity
  8
kontur
100
AcDbLine
 10
56.99056568607085
 20
359.2477603574902
 30
0.0
 11
56.69057550891631
 21
359.2477603574902
 31
0.0
  0
LINE
  5
4483
102
{ACAD_REACTORS
330
5BAC
102
}
330
1F
100
AcDbEntity
  8
kontur
100
AcDbLine
 10
55.59057178958648
 20
360.3477603515298
 30
0.0
 11
58.09056940540069
 21
360.3477603515298
 31
0.0
  0
LINE
  5
4484
102
{ACAD_REACTORS
330
5BAC
102
}
330
1F
100
AcDbEntity
  8
kontur
100
AcDbLine
 10
441.1905724094748
 20
370.4477601909685
 30
0.0
 11
441.04123297199
 21
370.4477601909685
 31
0.0
  0
LINE
  5
4485
102
{ACAD_REACTORS
330
5BAC
102
}
330
1F
100
AcDbEntity
  8
kontur
100
AcDbLine
 10
441.1905724094748
 20
370.4085566328513
 30
0.0
 11
441.1905724094748
 21
370.4477601909685
 31
0.0
  0
LINE
  5
4486
102
{ACAD_REACTORS
330
5BAC
102
}
330
1F
100
AcDbEntity
  8
kontur
100
AcDbLine
 10
441.6912365244269
 20
370.4477601909685
 30
0.0
 11
441.1905724094748
 21
370.4085566328513
 31
0.0
  0
LINE
  5
4487
102
{ACAD_REACTORS
330
5BAC
102
}
330
1F
100
AcDbEntity
  8
kontur
100
AcDbLine
 10
441.9899153993964
 20
370.4477601909685
 30
0.0
 11
441.6912365244269
 21
370.4477601909685
 31
0.0
  0
LINE
  5
4488
102
{ACAD_REACTORS
330
5BAC
102
}
330
1F
100
AcDbEntity
  8
kontur
100
AcDbLine
 10
442.4905795143484
 20
370.4085566328513
 30
0.0
 11
441.9899153993964
 21
370.4477601909685
 31
0.0
  0
LINE
  5
4489
102
{ACAD_REACTORS
330
5BAC
102
}
330
1F
100
AcDbEntity
  8
kontur
100
AcDbLine
 10
442.4905795143484
 20
370.4477601909685
 30
0.0
 11
442.4905795143484
 21
370.4085566328513
 31
0.0
  0
LINE
  5
448A
102
{ACAD_REACTORS
330
5BAC
102
}
330
1F
100
AcDbEntity
  8
kontur
100
AcDbLine
 10
442.6399189518332
 20
370.4477601909684
 30
0.0
 11
442.4905795143484
 21
370.4477601909685
 31
0.0
  0
LINE
  5
448B
102
{ACAD_REACTORS
330
5BAC
102
}
330
1F
100
AcDbEntity
  8
kontur
100
AcDbLine
 10
443.1405681656241
 20
370.4085566328512
 30
0.0
 11
442.6399189518332
 21
370.4477601909684
 31
0.0
  0
LINE
  5
448C
102
{ACAD_REACTORS
330
5BAC
102
}
330
1F
100
AcDbEntity
  8
kontur
100
AcDbLine
 10
442.6399189518332
 20
370.4477601909684
 30
0.0
 11
443.1405681656241
 21
370.4085566328512
 31
0.0
  0
LINE
  5
448D
102
{ACAD_REACTORS
330
5BAC
102
}
330
1F
100
AcDbEntity
  8
kontur
100
AcDbLine
 10
440.540568857038
 20
370.4085566328513
 30
0.0
 11
441.04123297199
 21
370.4477601909685
 31
0.0
  0
LINE
  5
448E
102
{ACAD_REACTORS
330
5BAC
102
}
330
1F
100
AcDbEntity
  8
kontur
100
AcDbLine
 10
441.04123297199
 20
370.4477601909685
 30
0.0
 11
440.540568857038
 21
370.4085566328513
 31
0.0
  0
LINE
  5
448F
102
{ACAD_REACTORS
330
5BAC
102
}
330
1F
100
AcDbEntity
  8
kontur
100
AcDbLine
 10
440.5905771540045
 20
360.3477603515285
 30
0.0
 11
443.0905747698187
 21
360.3477603515284
 31
0.0
  0
LINE
  5
4490
102
{ACAD_REACTORS
330
5BAC
102
}
330
1F
100
AcDbEntity
  8
kontur
100
AcDbLine
 10
441.9905710504889
 20
359.247760357489
 30
0.0
 11
441.6905659721731
 21
359.247760357489
 31
0.0
  0
LINE
  5
464A
102
{ACAD_REACTORS
330
5BAC
102
}
330
1F
100
AcDbEntity
  8
kontur
100
AcDbLine
 10
444.8405671404242
 20
368.0477603098051
 30
0.0
 11
444.8405671404242
 21
367.8177603047015
 31
0.0
  0
LINE
  5
464C
102
{ACAD_REACTORS
330
5BAC
102
}
330
1F
100
AcDbEntity
  8
kontur
100
AcDbLine
 10
53.7405777262091
 20
367.8177603047029
 30
0.0
 11
444.8405671404242
 21
367.8177603047015
 31
0.0
  0
LINE
  5
464D
102
{ACAD_REACTORS
330
5BAC
102
}
330
1F
100
AcDbEntity
  8
kontur
100
AcDbLine
 10
53.7405777262091
 20
368.0477603098065
 30
0.0
 11
53.7405777262091
 21
367.8177603047029
 31
0.0
  0
LINE
  5
464E
102
{ACAD_REACTORS
330
5BAC
102
}
330
1F
100
AcDbEntity
  8
kontur
100
AcDbLine
 10
53.7405777262091
 20
368.2477602028907
 30
0.0
 11
53.7405777262091
 21
368.0477603098065
 31
0.0
  0
LINE
  5
464F
102
{ACAD_REACTORS
330
5BAC
102
}
330
1F
100
AcDbEntity
  8
kontur
100
AcDbLine
 10
53.7405777262091
 20
368.2477602028907
 30
0.0
 11
444.8405671404242
 21
368.2477602028893
 31
0.0
  0
LINE
  5
4650
102
{ACAD_REACTORS
330
5BAC
102
}
330
1F
100
AcDbEntity
  8
kontur
100
AcDbLine
 10
444.8405671404242
 20
368.2477602028893
 30
0.0
 11
444.8405671404242
 21
368.0477603098051
 31
0.0
  0
LINE
  5
4652
102
{ACAD_REACTORS
330
5BAC
102
}
330
1F
100
AcDbEntity
  8
kontur
100
AcDbLine
 10
54.04056790336364
 20
366.8177602572054
 30
0.0
 11
444.5405769632696
 21
366.817760257204
 31
0.0
  0
LINE
  5
4653
102
{ACAD_REACTORS
330
5BAC
102
}
330
1F
100
AcDbEntity
  8
kontur
100
AcDbLine
 10
444.5405769632696
 20
366.817760257204
 30
0.0
 11
444.5405769632696
 21
367.8177603047015
 31
0.0
  0
LINE
  5
4654
102
{ACAD_REACTORS
330
5BAC
102
}
330
1F
100
AcDbEntity
  8
kontur
100
AcDbLine
 10
54.04056790336364
 20
366.8177602572054
 30
0.0
 11
54.04056790336364
 21
367.8177603047029
 31
0.0
  0
LINE
  5
473C
102
{ACAD_REACTORS
330
5BAC
102
}
330
1F
100
AcDbEntity
  8
kontur
100
AcDbLine
 10
434.0405780361532
 20
346.6177610439855
 30
0.0
 11
434.0405780361532
 21
347.6177593452531
 31
0.0
  0
LINE
  5
473D
102
{ACAD_REACTORS
330
5BAC
102
}
330
1F
100
AcDbEntity
  8
kontur
100
AcDbLine
 10
435.04056516155
 20
347.6177593452531
 30
0.0
 11
435.04056516155
 21
346.6177610439855
 31
0.0
  0
LINE
  5
473F
102
{ACAD_REACTORS
330
5BAC
102
}
330
1F
100
AcDbEntity
  8
kontur
100
AcDbLine
 10
434.0405780361532
 20
364.6177602691251
 30
0.0
 11
434.0405780361532
 21
365.6177602002072
 31
0.0
  0
LINE
  5
4740
102
{ACAD_REACTORS
330
5BAC
102
}
330
1F
100
AcDbEntity
  8
kontur
100
AcDbLine
 10
434.0405780361532
 20
365.6177602002072
 30
0.0
 11
435.04056516155
 21
365.6177602002072
 31
0.0
  0
LINE
  5
4741
102
{ACAD_REACTORS
330
5BAC
102
}
330
1F
100
AcDbEntity
  8
kontur
100
AcDbLine
 10
435.04056516155
 20
365.6177602002072
 30
0.0
 11
435.04056516155
 21
364.6177602691251
 31
0.0
  0
LINE
  5
4742
102
{ACAD_REACTORS
330
5BAC
102
}
330
1F
100
AcDbEntity
  8
kontur
100
AcDbLine
 10
434.0405780361532
 20
364.6177602691251
 30
0.0
 11
434.0405780361532
 21
347.6177593452531
 31
0.0
  0
LINE
  5
4743
102
{ACAD_REACTORS
330
5BAC
102
}
330
1F
100
AcDbEntity
  8
kontur
100
AcDbLine
 10
435.04056516155
 20
364.6177602691251
 30
0.0
 11
435.04056516155
 21
347.6177593452531
 31
0.0
  0
LINE
  5
4744
102
{ACAD_REACTORS
330
5BAC
102
}
330
1F
100
AcDbEntity
  8
kontur
100
AcDbLine
 10
435.0405651615499
 20
324.1177601499158
 30
0.0
 11
433.7905663536428
 21
324.1177601499158
 31
0.0
  0
LINE
  5
4745
102
{ACAD_REACTORS
330
5BAC
102
}
330
1F
100
AcDbEntity
  8
kontur
100
AcDbLine
 10
435.04056516155
 20
346.1177600307065
 30
0.0
 11
435.0405651615499
 21
324.1177601499158
 31
0.0
  0
LINE
  5
4746
102
{ACAD_REACTORS
330
5BAC
102
}
330
1F
100
AcDbEntity
  8
kontur
100
AcDbLine
 10
433.7905663536429
 20
346.1177600307065
 30
0.0
 11
435.04056516155
 21
346.1177600307065
 31
0.0
  0
LINE
  5
4749
102
{ACAD_REACTORS
330
5BAC
102
}
330
1F
100
AcDbEntity
  8
kontur
100
AcDbLine
 10
434.0405780361531
 20
322.6177608353692
 30
0.0
 11
434.0405780361531
 21
311.8177605552274
 31
0.0
  0
LINE
  5
474A
102
{ACAD_REACTORS
330
5BAC
102
}
330
1F
100
AcDbEntity
  8
kontur
100
AcDbLine
 10
435.0405651615499
 20
322.6177608353692
 30
0.0
 11
435.0405651615499
 21
311.8177605552274
 31
0.0
  0
ARC
  5
474C
102
{ACAD_REACTORS
330
5BAC
102
}
330
1F
100
AcDbEntity
  8
kontur
100
AcDbCircle
 10
433.040572433317
 20
311.8177602572055
 30
0.0
 40
1.0
100
AcDbArc
 50
270.0
 51
0.0
  0
ARC
  5
474D
102
{ACAD_REACTORS
330
5BAC
102
}
330
1F
100
AcDbEntity
  8
kontur
100
AcDbCircle
 10
433.040572433317
 20
311.8177602572055
 30
0.0
 40
2.0
100
AcDbArc
 50
270.0
 51
0.0
  0
LINE
  5
4750
102
{ACAD_REACTORS
330
5BAC
102
}
330
1F
100
AcDbEntity
  8
kontur
100
AcDbLine
 10
429.5405763672231
 20
309.8177602274018
 30
0.0
 11
433.0405760095952
 21
309.8177602274018
 31
0.0
  0
LINE
  5
4753
102
{ACAD_REACTORS
330
5BAC
102
}
330
1F
100
AcDbEntity
  8
kontur
100
AcDbLine
 10
434.0405780361531
 20
322.6177608353692
 30
0.0
 11
434.0405780361531
 21
323.6177591366368
 31
0.0
  0
LINE
  5
4754
102
{ACAD_REACTORS
330
5BAC
102
}
330
1F
100
AcDbEntity
  8
kontur
100
AcDbLine
 10
435.0405651615499
 20
323.6177591366368
 30
0.0
 11
435.0405651615499
 21
322.6177608353692
 31
0.0
  0
LINE
  5
4756
102
{ACAD_REACTORS
330
5BAC
102
}
330
1F
100
AcDbEntity
  8
kontur
100
AcDbLine
 10
429.0405679033635
 20
309.8177602274018
 30
0.0
 11
127.5405752943394
 21
309.8177602274027
 31
0.0
  0
LINE
  5
4758
102
{ACAD_REACTORS
330
5BAC
102
}
330
1F
100
AcDbEntity
  8
kontur
100
AcDbLine
 10
125.5405712412235
 20
311.8177605552283
 30
0.0
 11
125.5405712412237
 21
331.8177601081935
 31
0.0
  0
LINE
  5
4759
102
{ACAD_REACTORS
330
5BAC
102
}
330
1F
100
AcDbEntity
  8
kontur
100
AcDbLine
 10
125.5405712412237
 20
331.8177601081935
 30
0.0
 11
126.7905700491308
 21
331.8177601081935
 31
0.0
  0
LINE
  5
475D
102
{ACAD_REACTORS
330
5BAC
102
}
330
1F
100
AcDbEntity
  8
kontur
100
AcDbLine
 10
74.0405786321997
 20
332.8177584094613
 30
0.0
 11
65.54056885703795
 21
332.8177584094613
 31
0.0
  0
LINE
  5
475F
102
{ACAD_REACTORS
330
5BAC
102
}
330
1F
100
AcDbEntity
  8
kontur
100
AcDbLine
 10
68.29057815536254
 20
333.8177604360192
 30
0.0
 11
65.54056885703795
 21
333.8177604360192
 31
0.0
  0
LINE
  5
4762
102
{ACAD_REACTORS
330
5BAC
102
}
330
1F
100
AcDbEntity
  8
kontur
100
AcDbLine
 10
124.5405692146658
 20
332.8177584094612
 30
0.0
 11
74.54057219489806
 21
332.8177584094613
 31
0.0
  0
LINE
  5
4765
102
{ACAD_REACTORS
330
5BAC
102
}
330
1F
100
AcDbEntity
  8
kontur
100
AcDbLine
 10
64.54056683048003
 20
334.8177587372869
 30
0.0
 11
64.54056683048003
 21
364.6177602691262
 31
0.0
  0
LINE
  5
4766
102
{ACAD_REACTORS
330
5BAC
102
}
330
1F
100
AcDbEntity
  8
kontur
100
AcDbLine
 10
63.5405797050833
 20
334.8177587372869
 30
0.0
 11
63.5405797050833
 21
364.6177602691262
 31
0.0
  0
ARC
  5
4767
102
{ACAD_REACTORS
330
5BAC
102
}
330
1F
100
AcDbEntity
  8
kontur
100
AcDbCircle
 10
65.54057243331698
 20
334.8177602572068
 30
0.0
 40
2.0
100
AcDbArc
 50
180.0
 51
270.0
  0
ARC
  5
4768
102
{ACAD_REACTORS
330
5BAC
102
}
330
1F
100
AcDbEntity
  8
kontur
100
AcDbCircle
 10
65.54057243331698
 20
334.8177602572068
 30
0.0
 40
1.0
100
AcDbArc
 50
180.0
 51
270.0
  0
LINE
  5
4769
102
{ACAD_REACTORS
330
5BAC
102
}
330
1F
100
AcDbEntity
  8
kontur
100
AcDbLine
 10
63.5405797050833
 20
365.6177602002084
 30
0.0
 11
64.54056683048003
 21
365.6177602002084
 31
0.0
  0
LINE
  5
476A
102
{ACAD_REACTORS
330
5BAC
102
}
330
1F
100
AcDbEntity
  8
kontur
100
AcDbLine
 10
64.54056683048003
 20
365.6177602002084
 30
0.0
 11
64.54056683048003
 21
364.6177602691262
 31
0.0
  0
LINE
  5
476B
102
{ACAD_REACTORS
330
5BAC
102
}
330
1F
100
AcDbEntity
  8
kontur
100
AcDbLine
 10
63.5405797050833
 20
364.6177602691262
 30
0.0
 11
63.5405797050833
 21
365.6177602002084
 31
0.0
  0
ARC
  5
476C
102
{ACAD_REACTORS
330
5BAC
102
}
330
1F
100
AcDbEntity
  8
kontur
100
AcDbCircle
 10
127.5405724333171
 20
311.8177602572065
 30
0.0
 40
2.000000000000057
100
AcDbArc
 50
179.9999999999935
 51
270.0
  0
ARC
  5
476E
102
{ACAD_REACTORS
330
5BAC
102
}
330
1F
100
AcDbEntity
  8
kontur
100
AcDbCircle
 10
124.540572433317
 20
331.8177602572067
 30
0.0
 40
2.0
100
AcDbArc
 50
0.0
 51
90.0
  0
ARC
  5
476F
102
{ACAD_REACTORS
330
5BAC
102
}
330
1F
100
AcDbEntity
  8
kontur
100
AcDbCircle
 10
124.540572433317
 20
331.8177602572067
 30
0.0
 40
1.0
100
AcDbArc
 50
359.9999999999935
 51
90.0
  0
LINE
  5
4770
102
{ACAD_REACTORS
330
5BAC
102
}
330
1F
100
AcDbEntity
  8
kontur
100
AcDbLine
 10
434.0405780361532
 20
346.1177600307065
 30
0.0
 11
434.0405780361532
 21
346.6177610439855
 31
0.0
  0
LINE
  5
4771
102
{ACAD_REACTORS
330
5BAC
102
}
330
1F
100
AcDbEntity
  8
kontur
100
AcDbLine
 10
435.04056516155
 20
346.1177600307065
 30
0.0
 11
435.04056516155
 21
346.6177610439855
 31
0.0
  0
LINE
  5
4772
102
{ACAD_REACTORS
330
5BAC
102
}
330
1F
100
AcDbEntity
  8
kontur
100
AcDbLine
 10
434.0405780361531
 20
323.6177591366368
 30
0.0
 11
434.0405780361531
 21
324.1177601499158
 31
0.0
  0
LINE
  5
4773
102
{ACAD_REACTORS
330
5BAC
102
}
330
1F
100
AcDbEntity
  8
kontur
100
AcDbLine
 10
435.0405651615499
 20
323.6177591366368
 30
0.0
 11
435.0405651615499
 21
324.1177601499158
 31
0.0
  0
LINE
  5
4774
102
{ACAD_REACTORS
330
5BAC
102
}
330
1F
100
AcDbEntity
  8
kontur
100
AcDbLine
 10
429.0405679033635
 20
309.8177602274018
 30
0.0
 11
429.5405763672231
 21
309.8177602274018
 31
0.0
  0
LINE
  5
4775
102
{ACAD_REACTORS
330
5BAC
102
}
330
1F
100
AcDbEntity
  8
kontur
100
AcDbLine
 10
74.0405786321997
 20
332.8177584094613
 30
0.0
 11
74.54057219489806
 21
332.8177584094613
 31
0.0
  0
CIRCLE
  5
4776
102
{ACAD_REACTORS
330
5BAC
102
}
330
1F
100
AcDbEntity
  8
kontur
100
AcDbCircle
 10
104.5405724333165
 20
337.8177602572046
 30
0.0
 40
2.150000000000034
  0
CIRCLE
  5
4777
102
{ACAD_REACTORS
330
5BAC
102
}
330
1F
100
AcDbEntity
  8
kontur
100
AcDbCircle
 10
294.5405724333166
 20
314.8177602572046
 30
0.0
 40
2.150000000000006
  0
CIRCLE
  5
4778
102
{ACAD_REACTORS
330
5BAC
102
}
330
1F
100
AcDbEntity
  8
kontur
100
AcDbCircle
 10
429.7905724333165
 20
334.8177602572042
 30
0.0
 40
2.149999999999984
  0
ARC
  5
4779
102
{ACAD_REACTORS
330
5BAC
102
}
330
1F
100
AcDbEntity
  8
kontur
100
AcDbCircle
 10
127.7905724333164
 20
311.8177602572051
 30
0.0
 40
1.0
100
AcDbArc
 50
180.0
 51
270.0
  0
ARC
  5
477A
102
{ACAD_REACTORS
330
5BAC
102
}
330
1F
100
AcDbEntity
  8
kontur
100
AcDbCircle
 10
68.29057243331653
 20
334.8177602572048
 30
0.0
 40
1.0
100
AcDbArc
 50
179.9999999999935
 51
269.9999999999804
  0
LINE
  5
477B
102
{ACAD_REACTORS
330
5BAC
102
}
330
1F
100
AcDbEntity
  8
kontur
100
AcDbLine
 10
67.29057612880462
 20
334.8177587372869
 30
0.0
 11
66.79056766494506
 21
334.8177587372869
 31
0.0
  0
LINE
  5
477C
102
{ACAD_REACTORS
330
5BAC
102
}
330
1F
100
AcDbEntity
  8
kontur
100
AcDbLine
 10
66.79056766494506
 20
360.8177602050512
 30
0.0
 11
66.79056766494506
 21
334.8177587372869
 31
0.0
  0
LINE
  5
477D
102
{ACAD_REACTORS
330
5BAC
102
}
330
1F
100
AcDbEntity
  8
kontur
100
AcDbLine
 10
66.79056766494506
 20
360.8177602050512
 30
0.0
 11
67.29057612880462
 21
360.8177602050512
 31
0.0
  0
LINE
  5
477E
102
{ACAD_REACTORS
330
5BAC
102
}
330
1F
100
AcDbEntity
  8
kontur
100
AcDbLine
 10
67.29057612880462
 20
360.8177602050512
 30
0.0
 11
67.29057612880462
 21
361.817760368964
 31
0.0
  0
LINE
  5
477F
102
{ACAD_REACTORS
330
5BAC
102
}
330
1F
100
AcDbEntity
  8
kontur
100
AcDbLine
 10
67.29057612880462
 20
361.817760368964
 30
0.0
 11
65.79056563838714
 21
361.817760368964
 31
0.0
  0
ARC
  5
4780
102
{ACAD_REACTORS
330
5BAC
102
}
330
1F
100
AcDbEntity
  8
kontur
100
AcDbCircle
 10
65.79057243331664
 20
362.8177602572053
 30
0.0
 40
1.0
100
AcDbArc
 50
179.9999999999935
 51
270.0
  0
LINE
  5
4781
102
{ACAD_REACTORS
330
5BAC
102
}
330
1F
100
AcDbEntity
  8
kontur
100
AcDbLine
 10
64.79057851299041
 20
362.8177600672155
 30
0.0
 11
64.79057851299041
 21
364.8177601622104
 31
0.0
  0
LINE
  5
4783
102
{ACAD_REACTORS
330
5BAC
102
}
330
1F
100
AcDbEntity
  8
kontur
100
AcDbLine
 10
433.7905663536429
 20
364.8177601622093
 30
0.0
 11
433.7905663536428
 21
311.8177605552274
 31
0.0
  0
ARC
  5
4784
102
{ACAD_REACTORS
330
5BAC
102
}
330
1F
100
AcDbEntity
  8
kontur
100
AcDbCircle
 10
432.7905724333164
 20
311.8177602572042
 30
0.0
 40
1.0
100
AcDbArc
 50
270.0
 51
0.0
  0
LINE
  5
4785
102
{ACAD_REACTORS
330
5BAC
102
}
330
1F
100
AcDbEntity
  8
kontur
100
AcDbLine
 10
432.790579228246
 20
310.8177585286695
 30
0.0
 11
127.7905720756885
 21
310.8177585286704
 31
0.0
  0
CIRCLE
  5
4786
102
{ACAD_REACTORS
330
5BAC
102
}
330
1F
100
AcDbEntity
  8
kontur
100
AcDbCircle
 10
409.5405724333166
 20
314.8177602572042
 30
0.0
 40
2.150000000000013
  0
CIRCLE
  5
4787
102
{ACAD_REACTORS
330
5BAC
102
}
330
1F
100
AcDbEntity
  8
kontur
100
AcDbCircle
 10
159.5405724333166
 20
314.8177602572051
 30
0.0
 40
2.149999999999977
  0
LINE
  5
4788
102
{ACAD_REACTORS
330
5BAC
102
}
330
1F
100
AcDbEntity
  8
kontur
100
AcDbLine
 10
126.7905700491308
 20
333.817760436019
 30
0.0
 11
126.7905700491306
 21
311.8177605552283
 31
0.0
  0
LINE
  5
4789
102
{ACAD_REACTORS
330
5BAC
102
}
330
1F
100
AcDbEntity
  8
kontur
100
AcDbLine
 10
68.29057815536254
 20
333.8177604360192
 30
0.0
 11
126.7905700491308
 21
333.817760436019
 31
0.0
  0
LINE
  5
478A
102
{ACAD_REACTORS
330
5BAC
102
}
330
1F
100
AcDbEntity
  8
kontur
100
AcDbLine
 10
433.7905663536429
 20
366.8177602572042
 30
0.0
 11
433.7905663536429
 21
364.8177601622093
 31
0.0
  0
LINE
  5
478B
102
{ACAD_REACTORS
330
5BAC
102
}
330
1F
100
AcDbEntity
  8
kontur
100
AcDbLine
 10
64.79057851299041
 20
364.8177601622104
 30
0.0
 11
64.79057851299041
 21
366.8177602572054
 31
0.0
  0
LINE
  5
478C
102
{ACAD_REACTORS
330
5BAC
102
}
330
1F
100
AcDbEntity
  8
kontur
100
AcDbLine
 10
444.5405769632696
 20
365.8177602097066
 30
0.0
 11
444.5405769632696
 21
366.817760257204
 31
0.0
  0
LINE
  5
478D
102
{ACAD_REACTORS
330
5BAC
102
}
330
1F
100
AcDbEntity
  8
kontur
100
AcDbLine
 10
434.2905748175024
 20
365.8177602097067
 30
0.0
 11
444.5405769632696
 21
365.8177602097066
 31
0.0
  0
LINE
  5
478F
102
{ACAD_REACTORS
330
5BAC
102
}
330
1F
100
AcDbEntity
  8
kontur
100
AcDbLine
 10
66.79056766494506
 20
334.8177587372869
 30
0.0
 11
64.79057851299041
 21
334.8177587372869
 31
0.0
  0
LINE
  5
4790
102
{ACAD_REACTORS
330
5BAC
102
}
330
1F
100
AcDbEntity
  8
kontur
100
AcDbLine
 10
64.79057851299041
 20
334.8177587372869
 30
0.0
 11
64.79057851299041
 21
360.8177602050512
 31
0.0
  0
LINE
  5
4791
102
{ACAD_REACTORS
330
5BAC
102
}
330
1F
100
AcDbEntity
  8
kontur
100
AcDbLine
 10
64.79057851299041
 20
360.8177602050512
 30
0.0
 11
66.79056766494506
 21
360.8177602050512
 31
0.0
  0
LINE
  5
4792
102
{ACAD_REACTORS
330
5BAC
102
}
330
1F
100
AcDbEntity
  8
kontur
100
AcDbLine
 10
54.04056790336364
 20
365.817760209708
 30
0.0
 11
54.04056790336364
 21
366.8177602572054
 31
0.0
  0
LINE
  5
4793
102
{ACAD_REACTORS
330
5BAC
102
}
330
1F
100
AcDbEntity
  8
kontur
100
AcDbLine
 10
64.29057004913085
 20
365.8177602097078
 30
0.0
 11
64.29057004913085
 21
366.8177602572053
 31
0.0
  0
LINE
  5
4794
102
{ACAD_REACTORS
330
5BAC
102
}
330
1F
100
AcDbEntity
  8
kontur
100
AcDbLine
 10
54.04056790336364
 20
365.817760209708
 30
0.0
 11
64.29057004913085
 21
365.8177602097078
 31
0.0
  0
LINE
  5
4795
102
{ACAD_REACTORS
330
5BAC
102
}
330
1F
100
AcDbEntity
  8
kontur
100
AcDbLine
 10
433.7905663536429
 20
365.8177602097067
 30
0.0
 11
434.2905748175024
 21
365.8177602097067
 31
0.0
  0
LINE
  5
4796
102
{ACAD_REACTORS
330
5BAC
102
}
330
1F
100
AcDbEntity
  8
kontur
100
AcDbLine
 10
64.29057004913085
 20
365.8177602097078
 30
0.0
 11
64.79057851299041
 21
365.8177602097078
 31
0.0
  0
LINE
  5
4797
102
{ACAD_REACTORS
330
5BAC
102
}
330
1F
100
AcDbEntity
  8
kontur
100
AcDbLine
 10
55.39056840404265
 20
365.2177602976248
 30
0.0
 11
58.1905710981726
 21
365.2177602976248
 31
0.0
  0
LINE
  5
4798
102
{ACAD_REACTORS
330
5BAC
102
}
330
1F
100
AcDbEntity
  8
kontur
100
AcDbLine
 10
440.3905737684607
 20
365.2177602976236
 30
0.0
 11
443.1905764625906
 21
365.2177602976234
 31
0.0
  0
LINE
  5
47CE
102
{ACAD_REACTORS
330
5BAC
102
}
330
1F
100
AcDbEntity
  8
kontur
100
AcDbLine
 10
64.54412820800536
 20
353.8177599889844
 30
0.0
 11
64.54412820800536
 21
354.9642069024652
 31
0.0
  0
LINE
  5
47CF
102
{ACAD_REACTORS
330
5BAC
102
}
330
1F
100
AcDbEntity
  8
kontur
100
AcDbLine
 10
64.54412820800536
 20
352.6713140068262
 30
0.0
 11
64.54412820800536
 21
353.8177599889844
 31
0.0
  0
LINE
  5
47D0
102
{ACAD_REACTORS
330
5BAC
102
}
330
1F
100
AcDbEntity
  8
kontur
100
AcDbLine
 10
54.39056637748473
 20
368.3977602973268
 30
0.0
 11
59.29057481750243
 21
368.3977602973268
 31
0.0
  0
LINE
  5
47D1
102
{ACAD_REACTORS
330
5BAC
102
}
330
1F
100
AcDbEntity
  8
kontur
100
AcDbLine
 10
59.29057481750243
 20
369.7456083951205
 30
0.0
 11
54.39056637748473
 21
369.7456083951205
 31
0.0
  0
LINE
  5
47D2
102
{ACAD_REACTORS
330
5BAC
102
}
330
1F
100
AcDbEntity
  8
kontur
100
AcDbLine
 10
54.52117505534881
 20
369.9932056238562
 30
0.0
 11
59.15996613963836
 21
369.9932056238562
 31
0.0
  0
LINE
  5
47D3
102
{ACAD_REACTORS
330
5BAC
102
}
330
1F
100
AcDbEntity
  8
kontur
100
AcDbLine
 10
439.3905717419028
 20
368.3977602973255
 30
0.0
 11
444.2905652807593
 21
368.3977602973254
 31
0.0
  0
LINE
  5
47D4
102
{ACAD_REACTORS
330
5BAC
102
}
330
1F
100
AcDbEntity
  8
kontur
100
AcDbLine
 10
444.2905652807593
 20
369.7456083951192
 30
0.0
 11
439.3905717419028
 21
369.7456083951193
 31
0.0
  0
DIMENSION
  5
47F3
330
1F
100
AcDbEntity
  8
abmessung
100
AcDbDimension
  2
*D3
 10
34.13713258903516
 20
309.8177602572065
 30
0.0
 11
30.86313258903511
 21
337.8177602334572
 31
0.0
 70
    32
 71
     5
 42
55.99999995250147
  3
ISO-25
100
AcDbAlignedDimension
 13
54.04056790336364
 23
365.817760209708
 33
0.0
 14
127.5405724333171
 24
309.8177602572065
 34
0.0
 50
90.0
100
AcDbRotatedDimension
1001
ACAD
1000
DSTYLE
1002
{
1070
     3
1000
mm
1070
    41
1040
6.0
1070
    42
1040
1.0
1070
    44
1040
1.0
1070
    79
1070
     2
1070
   140
1040
3.5
1070
   143
1040
0.0393700787401575
1070
   147
1040
1.524
1070
   284
1070
     0
1002
}
  0
DIMENSION
  5
4800
330
1F
100
AcDbEntity
  8
abmessung
100
AcDbDimension
  2
*D4
 10
34.11466656133388
 20
368.2477602028907
 30
0.0
 11
30.54899989466715
 21
389.0634268695574
 31
0.0
 70
    32
 71
     5
 42
2.429999993182719
  3
ISO-25
100
AcDbAlignedDimension
 13
54.04056790336364
 23
365.817760209708
 33
0.0
 14
53.7405777262091
 24
368.2477602028907
 34
0.0
 50
90.0
100
AcDbRotatedDimension
1001
ACAD
1000
DSTYLE
1002
{
1070
     3
1000
mm
1070
    41
1040
6.0
1070
    42
1040
1.0
1070
    44
1040
1.0
1070
    79
1070
     2
1070
   140
1040
3.5
1070
   143
1040
0.0393700787401575
1070
   147
1040
1.524
1070
   271
1070
     1
1070
   272
1070
     1
1070
   284
1070
     0
1002
}
  0
DIMENSION
  5
4974
330
1F
100
AcDbEntity
  8
abmessung
100
AcDbDimension
  2
*D5
 10
441.8405724333167
 20
250.9374878645298
 30
0.0
 11
249.3405724333167
 21
254.2114878645298
 31
0.0
 70
    32
 71
     5
 42
385.0
  3
ISO-25
100
AcDbAlignedDimension
 13
56.84057243331662
 23
229.9411124529934
 33
0.0
 14
441.8405724333167
 24
229.9411124529948
 34
0.0
100
AcDbRotatedDimension
1001
ACAD
1000
DSTYLE
1002
{
1070
     3
1000
mm
1070
    41
1040
6.0
1070
    42
1040
1.0
1070
    44
1040
1.0
1070
    79
1070
     2
1070
   140
1040
3.5
1070
   143
1040
0.0393700787401575
1070
   147
1040
1.524
1070
   271
1070
     1
1070
   272
1070
     1
1070
   284
1070
     0
1002
}
  0
DIMENSION
  5
4981
330
1F
100
AcDbEntity
  8
abmessung
100
AcDbDimension
  2
*D6
 10
38.20409583273174
 20
79.94111245299351
 30
0.0
 11
34.93009583273173
 21
154.9411124529935
 31
0.0
 70
    32
 71
     5
 42
149.9999999999999
  3
ISO-25
100
AcDbAlignedDimension
 13
56.84057243331662
 23
229.9411124529934
 33
0.0
 14
56.84057243331715
 24
79.94111245299351
 34
0.0
 50
90.0
100
AcDbRotatedDimension
1001
ACAD
1000
DSTYLE
1002
{
1070
     3
1000
mm
1070
    41
1040
6.0
1070
    42
1040
1.0
1070
    44
1040
1.0
1070
    79
1070
     2
1070
   140
1040
3.5
1070
   143
1040
0.0393700787401575
1070
   147
1040
1.524
1070
   271
1070
     1
1070
   272
1070
     1
1070
   284
1070
     0
1002
}
  0
DIMENSION
  5
498E
330
1F
100
AcDbEntity
  8
abmessung
100
AcDbDimension
  2
*D7
 10
40.95925032569011
 20
332.8177584094613
 30
0.0
 11
37.68525032569006
 21
349.3177593095846
 31
0.0
 70
    32
 71
     5
 42
33.00000180024665
  3
ISO-25
100
AcDbAlignedDimension
 13
54.04056790336364
 23
365.817760209708
 33
0.0
 14
65.54056885703795
 24
332.8177584094613
 34
0.0
 50
90.0
100
AcDbRotatedDimension
1001
ACAD
1000
DSTYLE
1002
{
1070
     3
1000
mm
1070
    41
1040
6.0
1070
    42
1040
1.0
1070
    44
1040
1.0
1070
    79
1070
     2
1070
   140
1040
3.5
1070
   143
1040
0.0393700787401575
1070
   147
1040
1.524
1070
   271
1070
     1
1070
   272
1070
     1
1070
   284
1070
     0
1002
}
  0
DIMENSION
  5
49DC
330
1F
100
AcDbEntity
  8
abmessung
100
AcDbDimension
  2
*D8
 10
435.040572433317
 20
287.0565335599453
 30
0.0
 11
249.290572433317
 21
290.6222002266119
 31
0.0
 70
    32
 71
     5
 42
371.5
  3
ISO-25
100
AcDbAlignedDimension
 13
63.54057243331698
 23
334.8177602572068
 33
0.0
 14
435.040572433317
 24
311.8177602572055
 34
0.0
100
AcDbRotatedDimension
1001
ACAD
1000
DSTYLE
1002
{
1070
     3
1000
mm
1070
    41
1040
6.0
1070
    42
1040
1.0
1070
    44
1040
1.0
1070
    79
1070
     2
1070
   140
1040
3.5
1070
   143
1040
0.0393700787401575
1070
   147
1040
1.524
1070
   271
1070
     1
1070
   272
1070
     1
1070
   284
1070
     0
1002
}
  0
DIMENSION
  5
49E9
330
1F
100
AcDbEntity
  8
abmessung
100
AcDbDimension
  2
*D9
 10
435.040572433317
 20
293.7491822064991
 30
0.0
 11
280.2905718372702
 21
297.3148488731658
 31
0.0
 70
    32
 71
     5
 42
309.5000011920935
  3
ISO-25
100
AcDbAlignedDimension
 13
125.5405712412235
 23
311.8177605552283
 33
0.0
 14
435.040572433317
 24
311.8177602572055
 34
0.0
100
AcDbRotatedDimension
1001
ACAD
1000
DSTYLE
1002
{
1070
     3
1000
mm
1070
    41
1040
6.0
1070
    42
1040
1.0
1070
    44
1040
1.0
1070
    79
1070
     2
1070
   140
1040
3.5
1070
   143
1040
0.0393700787401575
1070
   147
1040
1.524
1070
   271
1070
     1
1070
   272
1070
     1
1070
   284
1070
     0
1002
}
  0
DIMENSION
  5
4A09
330
1F
100
AcDbEntity
  8
abmessung
100
AcDbDimension
  2
*D10
 10
435.0405651615499
 20
287.1546920380446
 30
0.0
 11
465.6562338070909
 21
290.7203587047113
 31
0.0
 70
    32
 71
     5
 42
9.80000197887432
  3
ISO-25
100
AcDbAlignedDimension
 13
444.8405671404242
 23
367.8177603047015
 33
0.0
 14
435.0405651615499
 24
311.8177605552274
 34
0.0
100
AcDbRotatedDimension
1001
ACAD
1000
DSTYLE
1002
{
1070
     3
1000
mm
1070
    41
1040
6.0
1070
    42
1040
1.0
1070
    44
1040
1.0
1070
    79
1070
     2
1070
   140
1040
3.5
1070
   143
1040
0.0393700787401575
1070
   147
1040
1.524
1070
   271
1070
     1
1070
   272
1070
     1
1070
   280
1070
     1
1070
   284
1070
     0
1002
}
  0
LINE
  5
5369
330
1F
100
AcDbEntity
  8
kontur
100
AcDbLine
 10
492.6179828074032
 20
75.39111017609747
 30
0.0
 11
492.6179828074032
 21
75.44111017609742
 31
0.0
  0
LINE
  5
536A
330
1F
100
AcDbEntity
  8
kontur
100
AcDbLine
 10
488.8179828074033
 20
75.44111017609742
 30
0.0
 11
488.8179828074033
 21
75.39111017609747
 31
0.0
  0
LINE
  5
536B
330
1F
100
AcDbEntity
  8
kontur
100
AcDbLine
 10
515.6179828074027
 20
75.39111017609747
 30
0.0
 11
515.6179828074027
 21
75.44111017609754
 31
0.0
  0
LINE
  5
536C
330
1F
100
AcDbEntity
  8
kontur
100
AcDbLine
 10
511.8179828074027
 20
75.44111017609754
 30
0.0
 11
511.8179828074027
 21
75.39111017609747
 31
0.0
  0
LINE
  5
536D
330
1F
100
AcDbEntity
  8
kontur
100
AcDbLine
 10
517.6179828074032
 20
234.4411101760977
 30
0.0
 11
517.6179828074032
 21
234.4911101760977
 31
0.0
  0
LINE
  5
536E
330
1F
100
AcDbEntity
  8
kontur
100
AcDbLine
 10
511.8179828074033
 20
234.4911101760977
 30
0.0
 11
511.8179828074033
 21
234.4411101760978
 31
0.0
  0
LINE
  5
536F
330
1F
100
AcDbEntity
  8
kontur
100
AcDbLine
 10
515.6179828074032
 20
234.4411101760977
 30
0.0
 11
515.6179828074032
 21
234.4911101760977
 31
0.0
  0
LINE
  5
5370
330
1F
100
AcDbEntity
  8
kontur
100
AcDbLine
 10
488.8179828074033
 20
234.4911101760977
 30
0.0
 11
488.8179828074033
 21
234.4411101760978
 31
0.0
  0
LINE
  5
5371
330
1F
100
AcDbEntity
  8
kontur
100
AcDbLine
 10
492.6179828074032
 20
234.4411101760978
 30
0.0
 11
492.6179828074032
 21
234.4911101760977
 31
0.0
  0
LINE
  5
5372
330
1F
100
AcDbEntity
  8
kontur
100
AcDbLine
 10
508.8179828074032
 20
75.44111017609731
 30
0.0
 11
508.8179828074032
 21
75.39111017609736
 31
0.0
  0
ARC
  5
5373
330
1F
100
AcDbEntity
  8
kontur
100
AcDbCircle
 10
544.2979828074033
 20
232.2411101760975
 30
0.0
 40
0.1499999999999773
100
AcDbArc
 50
90.0
 51
180.0
  0
ARC
  5
5374
330
1F
100
AcDbEntity
  8
kontur
100
AcDbCircle
 10
544.2979828074033
 20
227.6411101760975
 30
0.0
 40
0.1499999999999773
100
AcDbArc
 50
180.0
 51
270.0
  0
LINE
  5
5375
330
1F
100
AcDbEntity
  8
kontur
100
AcDbLine
 10
544.2979828074033
 20
227.4911101760975
 30
0.0
 11
545.6458310527909
 21
227.4911101760975
 31
0.0
  0
LINE
  5
5376
330
1F
100
AcDbEntity
  8
kontur
100
AcDbLine
 10
545.6458310527909
 20
232.3911101760976
 30
0.0
 11
544.2979828074033
 21
232.3911101760976
 31
0.0
  0
ARC
  5
5377
330
1F
100
AcDbEntity
  8
kontur
100
AcDbCircle
 10
545.6458310527909
 20
232.0911101760975
 30
0.0
 40
0.3000000000000199
100
AcDbArc
 50
34.37864468630621
 51
90.0
  0
ARC
  5
5378
330
1F
100
AcDbEntity
  8
kontur
100
AcDbCircle
 10
545.6458310527909
 20
227.7911101760974
 30
0.0
 40
0.3000000000000199
100
AcDbArc
 50
270.0
 51
325.6213553136938
  0
ARC
  5
5379
330
1F
100
AcDbEntity
  8
kontur
100
AcDbCircle
 10
543.7457100801305
 20
229.0911101760975
 30
0.0
 40
2.602272727272755
100
AcDbArc
 50
325.621355313696
 51
0.0
  0
ARC
  5
537A
330
1F
100
AcDbEntity
  8
kontur
100
AcDbCircle
 10
543.7457100801305
 20
230.7911101760974
 30
0.0
 40
2.602272727272755
100
AcDbArc
 50
0.0
 51
34.37864468630397
  0
LINE
  5
537B
330
1F
100
AcDbEntity
  8
kontur
100
AcDbLine
 10
536.2479828074032
 20
231.1911101760975
 30
0.0
 11
535.1479828074032
 21
230.0911101760975
 31
0.0
  0
LINE
  5
537C
330
1F
100
AcDbEntity
  8
kontur
100
AcDbLine
 10
535.1479828074032
 20
229.7911101760974
 30
0.0
 11
536.2479828074032
 21
228.6911101760975
 31
0.0
  0
LINE
  5
537D
330
1F
100
AcDbEntity
  8
kontur
100
AcDbLine
 10
541.1179828074032
 20
231.1911101760975
 30
0.0
 11
536.2479828074032
 21
231.1911101760975
 31
0.0
  0
LINE
  5
537E
330
1F
100
AcDbEntity
  8
kontur
100
AcDbLine
 10
536.2479828074032
 20
228.6911101760975
 30
0.0
 11
541.1179828074032
 21
228.6911101760975
 31
0.0
  0
ARC
  5
537F
330
1F
100
AcDbEntity
  8
kontur
100
AcDbCircle
 10
545.6458310527909
 20
82.09111017609763
 30
0.0
 40
0.2999999999999878
100
AcDbArc
 50
34.37864468629645
 51
90.0
  0
ARC
  5
5380
330
1F
100
AcDbEntity
  8
kontur
100
AcDbCircle
 10
545.6458310527909
 20
77.79111017609756
 30
0.0
 40
0.2999999999999878
100
AcDbArc
 50
270.0
 51
325.6213553137035
  0
LINE
  5
5381
330
1F
100
AcDbEntity
  8
kontur
100
AcDbLine
 10
544.2979828074033
 20
77.4911101760976
 30
0.0
 11
545.6458310527909
 21
77.4911101760976
 31
0.0
  0
LINE
  5
5382
330
1F
100
AcDbEntity
  8
kontur
100
AcDbLine
 10
545.6458310527909
 20
82.39111017609758
 30
0.0
 11
544.2979828074033
 21
82.39111017609758
 31
0.0
  0
ARC
  5
5383
330
1F
100
AcDbEntity
  8
kontur
100
AcDbCircle
 10
544.2979828074033
 20
82.2411101760976
 30
0.0
 40
0.1499999999999773
100
AcDbArc
 50
90.0
 51
180.0
  0
ARC
  5
5384
330
1F
100
AcDbEntity
  8
kontur
100
AcDbCircle
 10
544.2979828074033
 20
77.64111017609758
 30
0.0
 40
0.1499999999999773
100
AcDbArc
 50
180.0
 51
270.0
  0
ARC
  5
5385
330
1F
100
AcDbEntity
  8
kontur
100
AcDbCircle
 10
543.7457100801305
 20
79.09111017609763
 30
0.0
 40
2.602272727272755
100
AcDbArc
 50
325.621355313696
 51
0.0
  0
ARC
  5
5386
330
1F
100
AcDbEntity
  8
kontur
100
AcDbCircle
 10
543.7457100801305
 20
80.79111017609756
 30
0.0
 40
2.602272727272755
100
AcDbArc
 50
0.0
 51
34.37864468630397
  0
LINE
  5
5387
330
1F
100
AcDbEntity
  8
kontur
100
AcDbLine
 10
536.2479828074032
 20
81.19111017609765
 30
0.0
 11
535.1479828074032
 21
80.09111017609763
 31
0.0
  0
LINE
  5
5388
330
1F
100
AcDbEntity
  8
kontur
100
AcDbLine
 10
535.1479828074032
 20
79.79111017609756
 30
0.0
 11
536.2479828074032
 21
78.69111017609754
 31
0.0
  0
LINE
  5
5389
330
1F
100
AcDbEntity
  8
kontur
100
AcDbLine
 10
541.1179828074032
 20
81.19111017609765
 30
0.0
 11
536.2479828074032
 21
81.19111017609765
 31
0.0
  0
LINE
  5
538A
330
1F
100
AcDbEntity
  8
kontur
100
AcDbLine
 10
536.2479828074032
 20
78.69111017609754
 30
0.0
 11
541.1179828074032
 21
78.69111017609754
 31
0.0
  0
ARC
  5
53C0
330
1F
100
AcDbEntity
  8
kontur
100
AcDbCircle
 10
541.2179828074032
 20
228.0411101760977
 30
0.0
 40
0.5
100
AcDbArc
 50
0.0
 51
90.0
  0
ARC
  5
53C1
330
1F
100
AcDbEntity
  8
kontur
100
AcDbCircle
 10
541.2179828074032
 20
231.8411101760976
 30
0.0
 40
0.5
100
AcDbArc
 50
270.0
 51
0.0
  0
ARC
  5
53C2
330
1F
100
AcDbEntity
  8
kontur
100
AcDbCircle
 10
541.2179828074032
 20
78.04111017609756
 30
0.0
 40
0.5
100
AcDbArc
 50
0.0
 51
90.0
  0
ARC
  5
53C3
330
1F
100
AcDbEntity
  8
kontur
100
AcDbCircle
 10
541.2179828074032
 20
81.84111017609752
 30
0.0
 40
0.5
100
AcDbArc
 50
270.0
 51
0.0
  0
LINE
  5
53C4
330
1F
100
AcDbEntity
  8
kontur
100
AcDbLine
 10
541.2179828074032
 20
231.3411101760976
 30
0.0
 11
541.1179828074032
 21
231.3411101760976
 31
0.0
  0
LINE
  5
53C5
330
1F
100
AcDbEntity
  8
kontur
100
AcDbLine
 10
541.1179828074032
 20
228.5411101760977
 30
0.0
 11
541.2179828074032
 21
228.5411101760977
 31
0.0
  0
LINE
  5
53C6
330
1F
100
AcDbEntity
  8
kontur
100
AcDbLine
 10
541.2179828074032
 20
81.34111017609763
 30
0.0
 11
541.1179828074032
 21
81.34111017609763
 31
0.0
  0
LINE
  5
53C7
330
1F
100
AcDbEntity
  8
kontur
100
AcDbLine
 10
541.1179828074032
 20
78.54111017609756
 30
0.0
 11
541.2179828074032
 21
78.54111017609756
 31
0.0
  0
LINE
  5
56DF
330
1F
100
AcDbEntity
  8
kontur
100
AcDbLine
 10
492.6179828074032
 20
75.39111017609747
 30
0.0
 11
488.8179828074033
 21
75.39111017609747
 31
0.0
  0
LINE
  5
56E0
330
1F
100
AcDbEntity
  8
kontur
100
AcDbLine
 10
515.6179828074027
 20
75.39111017609747
 30
0.0
 11
511.8179828074026
 21
75.39111017609747
 31
0.0
  0
LINE
  5
56E1
330
1F
100
AcDbEntity
  8
kontur
100
AcDbLine
 10
515.6179828074032
 20
234.4911101760977
 30
0.0
 11
517.6179828074032
 21
234.4911101760977
 31
0.0
  0
LINE
  5
56E2
330
1F
100
AcDbEntity
  8
kontur
100
AcDbLine
 10
529.9802426975903
 20
229.201110176098
 30
0.0
 11
530.0860630417988
 21
229.201110176098
 31
0.0
  0
ARC
  5
56E3
330
1F
100
AcDbEntity
  8
kontur
100
AcDbCircle
 10
529.717982807405
 20
229.441110176098
 30
0.0
 40
0.4394121743321763
100
AcDbArc
 50
303.1056269541303
 51
326.8943730458763
  0
LINE
  5
56E4
330
1F
100
AcDbEntity
  8
kontur
100
AcDbLine
 10
529.957982807405
 20
229.0730299417043
 30
0.0
 11
529.957982807405
 21
229.1788502859127
 31
0.0
  0
ARC
  5
56E5
330
1F
100
AcDbEntity
  8
kontur
100
AcDbCircle
 10
529.717982807405
 20
229.441110176098
 30
0.0
 40
0.3555000000000179
100
AcDbArc
 50
312.4623422736605
 51
317.5376577263493
  0
LINE
  5
56E6
330
1F
100
AcDbEntity
  8
kontur
100
AcDbLine
 10
529.4557229172196
 20
229.681110176098
 30
0.0
 11
529.3499025730111
 21
229.681110176098
 31
0.0
  0
ARC
  5
56E7
330
1F
100
AcDbEntity
  8
kontur
100
AcDbCircle
 10
529.717982807405
 20
229.441110176098
 30
0.0
 40
0.4394121743322549
100
AcDbArc
 50
123.1056269541245
 51
146.8943730458763
  0
LINE
  5
56E8
330
1F
100
AcDbEntity
  8
kontur
100
AcDbLine
 10
529.4779828074049
 20
229.8091904104918
 30
0.0
 11
529.4779828074049
 21
229.7033700662833
 31
0.0
  0
ARC
  5
56E9
330
1F
100
AcDbEntity
  8
kontur
100
AcDbCircle
 10
529.717982807405
 20
229.441110176098
 30
0.0
 40
0.3555000000000179
100
AcDbArc
 50
132.4623422736605
 51
137.5376577263419
  0
LINE
  5
56EA
330
1F
100
AcDbEntity
  8
kontur
100
AcDbLine
 10
528.767982807405
 20
229.201110176098
 30
0.0
 11
528.767982807405
 21
229.681110176098
 31
0.0
  0
LINE
  5
56EB
330
1F
100
AcDbEntity
  8
kontur
100
AcDbLine
 10
529.3662807164249
 20
229.4929357412194
 30
0.0
 11
529.3662807164249
 21
229.681110176098
 31
0.0
  0
ELLIPSE
  5
56EC
330
1F
100
AcDbEntity
  8
kontur
100
AcDbEllipse
 10
529.6741799276159
 20
229.441110176098
 30
0.0
 11
0.3123166762799769
 21
5.678604911288144E-14
 31
0.0
210
0.0
220
0.0
230
1.0
 40
0.9901159119131194
 41
2.97320230287273
 42
3.309983004306322
  0
LINE
  5
56ED
330
1F
100
AcDbEntity
  8
kontur
100
AcDbLine
 10
529.3662807164249
 20
229.201110176098
 30
0.0
 11
529.3662807164249
 21
229.3892846109766
 31
0.0
  0
LINE
  5
56EE
330
1F
100
AcDbEntity
  8
kontur
100
AcDbLine
 10
529.3499025730111
 20
229.201110176098
 30
0.0
 11
529.4557229172196
 21
229.201110176098
 31
0.0
  0
ARC
  5
56EF
330
1F
100
AcDbEntity
  8
kontur
100
AcDbCircle
 10
529.717982807405
 20
229.441110176098
 30
0.0
 40
0.3555000000000179
100
AcDbArc
 50
222.4623422736507
 51
227.5376577263395
  0
LINE
  5
56F0
330
1F
100
AcDbEntity
  8
kontur
100
AcDbLine
 10
529.4779828074049
 20
229.1788502859127
 30
0.0
 11
529.4779828074049
 21
229.0730299417043
 31
0.0
  0
ARC
  5
56F1
330
1F
100
AcDbEntity
  8
kontur
100
AcDbCircle
 10
529.717982807405
 20
229.441110176098
 30
0.0
 40
0.4394121743322239
100
AcDbArc
 50
213.1056269541162
 51
236.8943730458719
  0
LINE
  5
56F2
330
1F
100
AcDbEntity
  8
kontur
100
AcDbLine
 10
529.4779828074049
 20
230.391110176098
 30
0.0
 11
529.957982807405
 21
230.391110176098
 31
0.0
  0
LINE
  5
56F3
330
1F
100
AcDbEntity
  8
kontur
100
AcDbLine
 10
529.7698083725263
 20
229.7928122670783
 30
0.0
 11
529.957982807405
 21
229.7928122670783
 31
0.0
  0
ELLIPSE
  5
56F4
330
1F
100
AcDbEntity
  8
kontur
100
AcDbEllipse
 10
529.717982807405
 20
229.4849130558871
 30
0.0
 11
-5.736974792656150E-17
 21
-0.3123166762799201
 31
0.0
210
0.0
220
0.0
230
1.0
 40
0.9901159119134816
 41
2.973202302873005
 42
3.309983004306596
  0
LINE
  5
56F5
330
1F
100
AcDbEntity
  8
kontur
100
AcDbLine
 10
529.4779828074049
 20
229.7928122670783
 30
0.0
 11
529.6661572422836
 21
229.7928122670783
 31
0.0
  0
ARC
  5
56F6
330
1F
100
AcDbEntity
  8
kontur
100
AcDbCircle
 10
529.717982807405
 20
229.441110176098
 30
0.0
 40
0.3555000000000179
100
AcDbArc
 50
42.46234227365807
 51
47.53765772633947
  0
LINE
  5
56F7
330
1F
100
AcDbEntity
  8
kontur
100
AcDbLine
 10
529.957982807405
 20
229.7033700662833
 30
0.0
 11
529.957982807405
 21
229.8091904104918
 31
0.0
  0
ARC
  5
56F8
330
1F
100
AcDbEntity
  8
kontur
100
AcDbCircle
 10
529.717982807405
 20
229.441110176098
 30
0.0
 40
0.4394121743322549
100
AcDbArc
 50
33.10562695412505
 51
56.89437304587549
  0
LINE
  5
56F9
330
1F
100
AcDbEntity
  8
kontur
100
AcDbLine
 10
530.0860630417988
 20
229.681110176098
 30
0.0
 11
529.9802426975903
 21
229.681110176098
 31
0.0
  0
LINE
  5
56FA
330
1F
100
AcDbEntity
  8
kontur
100
AcDbLine
 10
529.957982807405
 20
228.4911101760979
 30
0.0
 11
529.4779828074049
 21
228.4911101760981
 31
0.0
  0
LINE
  5
56FB
330
1F
100
AcDbEntity
  8
kontur
100
AcDbLine
 10
529.957982807405
 20
229.0730299417043
 30
0.0
 11
529.957982807405
 21
228.4911101760979
 31
0.0
  0
LINE
  5
56FC
330
1F
100
AcDbEntity
  8
kontur
100
AcDbLine
 10
530.667982807405
 20
229.201110176098
 30
0.0
 11
530.0860630417988
 21
229.201110176098
 31
0.0
  0
LINE
  5
56FD
330
1F
100
AcDbEntity
  8
kontur
100
AcDbLine
 10
530.667982807405
 20
229.681110176098
 30
0.0
 11
530.667982807405
 21
229.201110176098
 31
0.0
  0
LINE
  5
56FE
330
1F
100
AcDbEntity
  8
kontur
100
AcDbLine
 10
529.957982807405
 20
230.391110176098
 30
0.0
 11
529.957982807405
 21
229.8091904104918
 31
0.0
  0
LINE
  5
56FF
330
1F
100
AcDbEntity
  8
kontur
100
AcDbLine
 10
529.4779828074049
 20
229.8091904104918
 30
0.0
 11
529.4779828074049
 21
230.391110176098
 31
0.0
  0
LINE
  5
5700
330
1F
100
AcDbEntity
  8
kontur
100
AcDbLine
 10
529.3499025730111
 20
229.201110176098
 30
0.0
 11
528.767982807405
 21
229.201110176098
 31
0.0
  0
LINE
  5
5701
330
1F
100
AcDbEntity
  8
kontur
100
AcDbLine
 10
529.4779828074049
 20
228.4911101760981
 30
0.0
 11
529.4779828074049
 21
229.0730299417043
 31
0.0
  0
CIRCLE
  5
5702
330
1F
100
AcDbEntity
  8
kontur
100
AcDbCircle
 10
529.717982807405
 20
229.441110176098
 30
0.0
 40
1.89999999999992
  0
LINE
  5
5703
330
1F
100
AcDbEntity
  8
kontur
100
AcDbLine
 10
528.767982807405
 20
229.681110176098
 30
0.0
 11
529.3499025730111
 21
229.681110176098
 31
0.0
  0
LINE
  5
5704
330
1F
100
AcDbEntity
  8
kontur
100
AcDbLine
 10
530.0860630417988
 20
229.681110176098
 30
0.0
 11
530.667982807405
 21
229.681110176098
 31
0.0
  0
LINE
  5
5705
330
1F
100
AcDbEntity
  8
kontur
100
AcDbLine
 10
530.0696848983853
 20
229.3892846109766
 30
0.0
 11
530.0696848983853
 21
229.201110176098
 31
0.0
  0
ELLIPSE
  5
5706
330
1F
100
AcDbEntity
  8
kontur
100
AcDbEllipse
 10
529.7617856871941
 20
229.441110176098
 30
0.0
 11
0.3123166762799769
 21
-5.736974792657194E-17
 31
0.0
210
0.0
220
0.0
230
1.0
 40
0.9901159119131194
 41
6.114794956462902
 42
6.45157565789648
  0
LINE
  5
5707
330
1F
100
AcDbEntity
  8
kontur
100
AcDbLine
 10
530.0696848983853
 20
229.681110176098
 30
0.0
 11
530.0696848983853
 21
229.4929357412194
 31
0.0
  0
LINE
  5
5708
330
1F
100
AcDbEntity
  8
kontur
100
AcDbLine
 10
529.6661572422836
 20
229.0894080851179
 30
0.0
 11
529.4779828074049
 21
229.0894080851179
 31
0.0
  0
ELLIPSE
  5
5709
330
1F
100
AcDbEntity
  8
kontur
100
AcDbEllipse
 10
529.717982807405
 20
229.397307296309
 30
0.0
 11
-5.736974792658238E-17
 21
-0.3123166762800338
 31
0.0
210
0.0
220
0.0
230
1.0
 40
0.9901159119131212
 41
6.114794956462721
 42
6.45157565789648
  0
LINE
  5
570A
330
1F
100
AcDbEntity
  8
kontur
100
AcDbLine
 10
529.957982807405
 20
229.0894080851179
 30
0.0
 11
529.7698083725263
 21
229.0894080851179
 31
0.0
  0
ARC
  5
570B
330
1F
100
AcDbEntity
  8
kontur
100
AcDbCircle
 10
529.717982807405
 20
229.441110176098
 30
0.0
 40
0.3555000000000019
100
AcDbArc
 50
171.6174238623682
 51
188.3825761376254
  0
ARC
  5
570C
330
1F
100
AcDbEntity
  8
kontur
100
AcDbCircle
 10
529.717982807405
 20
229.441110176098
 30
0.0
 40
0.3555000000000019
100
AcDbArc
 50
351.6174238623746
 51
8.38257613763852
  0
ARC
  5
570D
330
1F
100
AcDbEntity
  8
kontur
100
AcDbCircle
 10
529.717982807405
 20
229.441110176098
 30
0.0
 40
0.3554999999999457
100
AcDbArc
 50
261.6174238623648
 51
278.3825761376385
  0
ARC
  5
570E
330
1F
100
AcDbEntity
  8
kontur
100
AcDbCircle
 10
529.717982807405
 20
229.441110176098
 30
0.0
 40
0.3555000000000582
100
AcDbArc
 50
81.61742386236483
 51
98.38257613763517
  0
ARC
  5
570F
330
1F
100
AcDbEntity
  8
kontur
100
AcDbCircle
 10
529.717982807405
 20
229.441110176098
 30
0.0
 40
0.3555000000000582
100
AcDbArc
 50
98.38257613763517
 51
132.4623422736605
  0
ARC
  5
5710
330
1F
100
AcDbEntity
  8
kontur
100
AcDbCircle
 10
529.717982807405
 20
229.441110176098
 30
0.0
 40
0.3555000000000582
100
AcDbArc
 50
47.53765772633947
 51
81.61742386236483
  0
ARC
  5
5711
330
1F
100
AcDbEntity
  8
kontur
100
AcDbCircle
 10
529.717982807405
 20
229.441110176098
 30
0.0
 40
0.3555000000000179
100
AcDbArc
 50
137.5376577263419
 51
171.6174238623682
  0
ARC
  5
5712
330
1F
100
AcDbEntity
  8
kontur
100
AcDbCircle
 10
529.717982807405
 20
229.441110176098
 30
0.0
 40
0.3555000000000179
100
AcDbArc
 50
8.38257613763852
 51
42.46234227365807
  0
ARC
  5
5713
330
1F
100
AcDbEntity
  8
kontur
100
AcDbCircle
 10
529.717982807405
 20
229.441110176098
 30
0.0
 40
0.3554999999999937
100
AcDbArc
 50
317.5376577263493
 51
351.6174238623746
  0
ARC
  5
5714
330
1F
100
AcDbEntity
  8
kontur
100
AcDbCircle
 10
529.717982807405
 20
229.441110176098
 30
0.0
 40
0.3555000000000179
100
AcDbArc
 50
278.3825761376385
 51
312.4623422736605
  0
ARC
  5
5715
330
1F
100
AcDbEntity
  8
kontur
100
AcDbCircle
 10
529.717982807405
 20
229.441110176098
 30
0.0
 40
0.3555000000000179
100
AcDbArc
 50
227.5376577263395
 51
261.6174238623648
  0
ARC
  5
5716
330
1F
100
AcDbEntity
  8
kontur
100
AcDbCircle
 10
529.717982807405
 20
229.441110176098
 30
0.0
 40
0.3554999999999937
100
AcDbArc
 50
188.3825761376254
 51
222.4623422736507
  0
LINE
  5
5717
330
1F
100
AcDbEntity
  8
kontur
100
AcDbLine
 10
511.8179828074033
 20
234.4911101760977
 30
0.0
 11
515.6179828074032
 21
234.4911101760977
 31
0.0
  0
LINE
  5
5718
330
1F
100
AcDbEntity
  8
kontur
100
AcDbLine
 10
488.8179828074033
 20
234.4911101760977
 30
0.0
 11
492.6179828074032
 21
234.4911101760977
 31
0.0
  0
LINE
  5
5719
330
1F
100
AcDbEntity
  8
kontur
100
AcDbLine
 10
511.8179828074027
 20
75.39111017609736
 30
0.0
 11
508.8179828074032
 21
75.39111017609736
 31
0.0
  0
LINE
  5
571A
330
1F
100
AcDbEntity
  8
kontur
100
AcDbLine
 10
529.9579828074054
 20
79.49111017609806
 30
0.0
 11
529.4779828074054
 21
79.49111017609806
 31
0.0
  0
LINE
  5
571B
330
1F
100
AcDbEntity
  8
kontur
100
AcDbLine
 10
529.9579828074054
 20
80.0730299417043
 30
0.0
 11
529.9579828074054
 21
79.49111017609806
 31
0.0
  0
ARC
  5
571C
330
1F
100
AcDbEntity
  8
kontur
100
AcDbCircle
 10
529.7179828074054
 20
80.441110176098
 30
0.0
 40
0.4394121743322073
100
AcDbArc
 50
303.1056269541303
 51
326.8943730458749
  0
LINE
  5
571D
330
1F
100
AcDbEntity
  8
kontur
100
AcDbLine
 10
530.6679828074055
 20
80.20111017609798
 30
0.0
 11
530.0860630417992
 21
80.20111017609798
 31
0.0
  0
LINE
  5
571E
330
1F
100
AcDbEntity
  8
kontur
100
AcDbLine
 10
530.6679828074055
 20
80.681110176098
 30
0.0
 11
530.6679828074055
 21
80.20111017609798
 31
0.0
  0
LINE
  5
571F
330
1F
100
AcDbEntity
  8
kontur
100
AcDbLine
 10
530.0860630417992
 20
80.681110176098
 30
0.0
 11
530.6679828074055
 21
80.681110176098
 31
0.0
  0
ARC
  5
5720
330
1F
100
AcDbEntity
  8
kontur
100
AcDbCircle
 10
529.7179828074054
 20
80.441110176098
 30
0.0
 40
0.4394121743322549
100
AcDbArc
 50
33.10562695412505
 51
56.89437304587549
  0
LINE
  5
5721
330
1F
100
AcDbEntity
  8
kontur
100
AcDbLine
 10
529.9579828074054
 20
81.39111017609804
 30
0.0
 11
529.9579828074054
 21
80.8091904104918
 31
0.0
  0
LINE
  5
5722
330
1F
100
AcDbEntity
  8
kontur
100
AcDbLine
 10
529.4779828074055
 20
81.39111017609804
 30
0.0
 11
529.9579828074054
 21
81.39111017609804
 31
0.0
  0
LINE
  5
5723
330
1F
100
AcDbEntity
  8
kontur
100
AcDbLine
 10
529.4779828074055
 20
80.8091904104918
 30
0.0
 11
529.4779828074055
 21
81.39111017609804
 31
0.0
  0
ARC
  5
5724
330
1F
100
AcDbEntity
  8
kontur
100
AcDbCircle
 10
529.7179828074054
 20
80.441110176098
 30
0.0
 40
0.4394121743322239
100
AcDbArc
 50
123.1056269541164
 51
146.8943730458749
  0
LINE
  5
5725
330
1F
100
AcDbEntity
  8
kontur
100
AcDbLine
 10
528.7679828074055
 20
80.681110176098
 30
0.0
 11
529.3499025730117
 21
80.681110176098
 31
0.0
  0
LINE
  5
5726
330
1F
100
AcDbEntity
  8
kontur
100
AcDbLine
 10
528.7679828074055
 20
80.20111017609798
 30
0.0
 11
528.7679828074055
 21
80.681110176098
 31
0.0
  0
LINE
  5
5727
330
1F
100
AcDbEntity
  8
kontur
100
AcDbLine
 10
529.3499025730117
 20
80.20111017609798
 30
0.0
 11
528.7679828074055
 21
80.20111017609798
 31
0.0
  0
ARC
  5
5728
330
1F
100
AcDbEntity
  8
kontur
100
AcDbCircle
 10
529.7179828074054
 20
80.441110176098
 30
0.0
 40
0.4394121743322073
100
AcDbArc
 50
213.105626954125
 51
236.8943730458755
  0
LINE
  5
5729
330
1F
100
AcDbEntity
  8
kontur
100
AcDbLine
 10
529.4779828074054
 20
79.49111017609806
 30
0.0
 11
529.4779828074055
 21
80.0730299417043
 31
0.0
  0
CIRCLE
  5
572A
330
1F
100
AcDbEntity
  8
kontur
100
AcDbCircle
 10
529.7179828074054
 20
80.441110176098
 30
0.0
 40
1.899999999999977
  0
LINE
  5
572B
330
1F
100
AcDbEntity
  8
kontur
100
AcDbLine
 10
529.666157242284
 20
80.08940808511778
 30
0.0
 11
529.4779828074055
 21
80.08940808511778
 31
0.0
  0
ELLIPSE
  5
572C
330
1F
100
AcDbEntity
  8
kontur
100
AcDbEllipse
 10
529.7179828074054
 20
80.39730729630895
 30
0.0
 11
-5.736974792658238E-17
 21
-0.3123166762800338
 31
0.0
210
0.0
220
0.0
230
1.0
 40
0.9901159119131212
 41
6.114794956462752
 42
6.451575657896448
  0
LINE
  5
572D
330
1F
100
AcDbEntity
  8
kontur
100
AcDbLine
 10
529.9579828074054
 20
80.08940808511778
 30
0.0
 11
529.7698083725268
 21
80.08940808511778
 31
0.0
  0
LINE
  5
572E
330
1F
100
AcDbEntity
  8
kontur
100
AcDbLine
 10
530.0860630417992
 20
80.681110176098
 30
0.0
 11
529.9802426975907
 21
80.681110176098
 31
0.0
  0
ARC
  5
572F
330
1F
100
AcDbEntity
  8
kontur
100
AcDbCircle
 10
529.7179828074054
 20
80.441110176098
 30
0.0
 40
0.3555000000000179
100
AcDbArc
 50
42.46234227365807
 51
47.53765772633947
  0
LINE
  5
5730
330
1F
100
AcDbEntity
  8
kontur
100
AcDbLine
 10
529.9579828074054
 20
80.7033700662833
 30
0.0
 11
529.9579828074054
 21
80.8091904104918
 31
0.0
  0
LINE
  5
5731
330
1F
100
AcDbEntity
  8
kontur
100
AcDbLine
 10
530.0696848983857
 20
80.38928461097663
 30
0.0
 11
530.0696848983857
 21
80.20111017609798
 31
0.0
  0
ELLIPSE
  5
5732
330
1F
100
AcDbEntity
  8
kontur
100
AcDbEllipse
 10
529.7617856871946
 20
80.441110176098
 30
0.0
 11
0.3123166762799769
 21
-5.736974792657194E-17
 31
0.0
210
0.0
220
0.0
230
1.0
 40
0.9901159119131194
 41
6.114794956462721
 42
6.45157565789648
  0
LINE
  5
5733
330
1F
100
AcDbEntity
  8
kontur
100
AcDbLine
 10
530.0696848983857
 20
80.681110176098
 30
0.0
 11
530.0696848983857
 21
80.49293574121936
 31
0.0
  0
ARC
  5
5734
330
1F
100
AcDbEntity
  8
kontur
100
AcDbCircle
 10
529.7179828074054
 20
80.441110176098
 30
0.0
 40
0.3555000000000179
100
AcDbArc
 50
222.4623422736581
 51
227.5376577263372
  0
LINE
  5
5735
330
1F
100
AcDbEntity
  8
kontur
100
AcDbLine
 10
529.4779828074055
 20
80.1788502859128
 30
0.0
 11
529.4779828074055
 21
80.0730299417043
 31
0.0
  0
LINE
  5
5736
330
1F
100
AcDbEntity
  8
kontur
100
AcDbLine
 10
529.3499025730117
 20
80.20111017609798
 30
0.0
 11
529.4557229172201
 21
80.20111017609798
 31
0.0
  0
LINE
  5
5737
330
1F
100
AcDbEntity
  8
kontur
100
AcDbLine
 10
529.9802426975907
 20
80.20111017609798
 30
0.0
 11
530.0860630417992
 21
80.20111017609798
 31
0.0
  0
ARC
  5
5738
330
1F
100
AcDbEntity
  8
kontur
100
AcDbCircle
 10
529.7179828074054
 20
80.441110176098
 30
0.0
 40
0.3555000000000179
100
AcDbArc
 50
312.4623422736719
 51
317.5376577263419
  0
LINE
  5
5739
330
1F
100
AcDbEntity
  8
kontur
100
AcDbLine
 10
529.9579828074054
 20
80.0730299417043
 30
0.0
 11
529.9579828074054
 21
80.1788502859128
 31
0.0
  0
LINE
  5
573A
330
1F
100
AcDbEntity
  8
kontur
100
AcDbLine
 10
529.4557229172201
 20
80.681110176098
 30
0.0
 11
529.3499025730117
 21
80.681110176098
 31
0.0
  0
ARC
  5
573B
330
1F
100
AcDbEntity
  8
kontur
100
AcDbCircle
 10
529.7179828074054
 20
80.441110176098
 30
0.0
 40
0.3555000000000179
100
AcDbArc
 50
132.462342273654
 51
137.5376577263419
  0
LINE
  5
573C
330
1F
100
AcDbEntity
  8
kontur
100
AcDbLine
 10
529.4779828074055
 20
80.8091904104918
 30
0.0
 11
529.4779828074055
 21
80.7033700662833
 31
0.0
  0
LINE
  5
573D
330
1F
100
AcDbEntity
  8
kontur
100
AcDbLine
 10
529.3662807164253
 20
80.49293574121936
 30
0.0
 11
529.3662807164253
 21
80.681110176098
 31
0.0
  0
ELLIPSE
  5
573E
330
1F
100
AcDbEntity
  8
kontur
100
AcDbEllipse
 10
529.6741799276165
 20
80.441110176098
 30
0.0
 11
0.3123166762799201
 21
-5.736974792656150E-17
 31
0.0
210
0.0
220
0.0
230
1.0
 40
0.9901159119132996
 41
2.973202302872974
 42
3.309983004306626
  0
LINE
  5
573F
330
1F
100
AcDbEntity
  8
kontur
100
AcDbLine
 10
529.3662807164253
 20
80.20111017609798
 30
0.0
 11
529.3662807164253
 21
80.38928461097663
 31
0.0
  0
LINE
  5
5740
330
1F
100
AcDbEntity
  8
kontur
100
AcDbLine
 10
529.7698083725268
 20
80.79281226707832
 30
0.0
 11
529.9579828074054
 21
80.79281226707832
 31
0.0
  0
ELLIPSE
  5
5741
330
1F
100
AcDbEntity
  8
kontur
100
AcDbEllipse
 10
529.7179828074054
 20
80.48491305588715
 30
0.0
 11
-5.736974792656150E-17
 21
-0.3123166762799201
 31
0.0
210
0.0
220
0.0
230
1.0
 40
0.9901159119134816
 41
2.973202302873005
 42
3.309983004306596
  0
LINE
  5
5742
330
1F
100
AcDbEntity
  8
kontur
100
AcDbLine
 10
529.4779828074055
 20
80.79281226707832
 30
0.0
 11
529.666157242284
 21
80.79281226707832
 31
0.0
  0
ARC
  5
5743
330
1F
100
AcDbEntity
  8
kontur
100
AcDbCircle
 10
529.7179828074054
 20
80.441110176098
 30
0.0
 40
0.3555000000000019
100
AcDbArc
 50
351.6174238623615
 51
8.38257613763852
  0
ARC
  5
5744
330
1F
100
AcDbEntity
  8
kontur
100
AcDbCircle
 10
529.7179828074054
 20
80.441110176098
 30
0.0
 40
0.3555000000000019
100
AcDbArc
 50
171.6174238623682
 51
188.3825761376385
  0
ARC
  5
5745
330
1F
100
AcDbEntity
  8
kontur
100
AcDbCircle
 10
529.7179828074054
 20
80.441110176098
 30
0.0
 40
0.3555000000001144
100
AcDbArc
 50
81.61742386236483
 51
98.38257613763517
  0
ARC
  5
5746
330
1F
100
AcDbEntity
  8
kontur
100
AcDbCircle
 10
529.7179828074054
 20
80.441110176098
 30
0.0
 40
0.3555000000000019
100
AcDbArc
 50
261.6174238623648
 51
278.3825761376352
  0
ARC
  5
5747
330
1F
100
AcDbEntity
  8
kontur
100
AcDbCircle
 10
529.7179828074054
 20
80.441110176098
 30
0.0
 40
0.3555000000000179
100
AcDbArc
 50
8.38257613763852
 51
42.46234227365807
  0
ARC
  5
5748
330
1F
100
AcDbEntity
  8
kontur
100
AcDbCircle
 10
529.7179828074054
 20
80.441110176098
 30
0.0
 40
0.3555000000000179
100
AcDbArc
 50
317.5376577263419
 51
351.6174238623615
  0
ARC
  5
5749
330
1F
100
AcDbEntity
  8
kontur
100
AcDbCircle
 10
529.7179828074054
 20
80.441110176098
 30
0.0
 40
0.3555000000000179
100
AcDbArc
 50
137.5376577263419
 51
171.6174238623682
  0
ARC
  5
574A
330
1F
100
AcDbEntity
  8
kontur
100
AcDbCircle
 10
529.7179828074054
 20
80.441110176098
 30
0.0
 40
0.3555000000000019
100
AcDbArc
 50
227.5376577263372
 51
261.6174238623648
  0
ARC
  5
574B
330
1F
100
AcDbEntity
  8
kontur
100
AcDbCircle
 10
529.7179828074054
 20
80.441110176098
 30
0.0
 40
0.3555000000000019
100
AcDbArc
 50
278.3825761376352
 51
312.4623422736719
  0
ARC
  5
574C
330
1F
100
AcDbEntity
  8
kontur
100
AcDbCircle
 10
529.7179828074054
 20
80.441110176098
 30
0.0
 40
0.3555000000000179
100
AcDbArc
 50
188.3825761376385
 51
222.4623422736581
  0
ARC
  5
574D
330
1F
100
AcDbEntity
  8
kontur
100
AcDbCircle
 10
529.7179828074054
 20
80.441110176098
 30
0.0
 40
0.3555000000001144
100
AcDbArc
 50
98.38257613763517
 51
132.462342273654
  0
ARC
  5
574E
330
1F
100
AcDbEntity
  8
kontur
100
AcDbCircle
 10
529.7179828074054
 20
80.441110176098
 30
0.0
 40
0.3555000000001144
100
AcDbArc
 50
47.53765772633947
 51
81.61742386236483
  0
LINE
  5
574F
330
1F
100
AcDbEntity
  8
kontur
100
AcDbLine
 10
546.3479828074032
 20
229.3933876185923
 30
0.0
 11
546.3479828074032
 21
229.6520549423902
 31
0.0
  0
LWPOLYLINE
  5
5750
330
1F
100
AcDbEntity
  8
kontur
100
AcDbPolyline
 90
        3
 70
   128
 43
0.0
 10
546.308779206609
 20
228.8152771511778
 10
546.3435146637321
 20
229.1779820687297
 10
546.3479828074032
 20
229.3933876185923
  0
LINE
  5
5751
330
1F
100
AcDbEntity
  8
kontur
100
AcDbLine
 10
546.3479828074032
 20
229.1043323848851
 30
0.0
 11
546.308779206609
 21
228.8152771511778
 31
0.0
  0
LINE
  5
5752
330
1F
100
AcDbEntity
  8
kontur
100
AcDbLine
 10
546.3479828074032
 20
229.0911101760976
 30
0.0
 11
546.3479828074032
 21
229.1043323848851
 31
0.0
  0
LINE
  5
5753
330
1F
100
AcDbEntity
  8
kontur
100
AcDbLine
 10
546.3479828074032
 20
230.7778879673099
 30
0.0
 11
546.3479828074032
 21
230.7911101760974
 31
0.0
  0
LINE
  5
5754
330
1F
100
AcDbEntity
  8
kontur
100
AcDbLine
 10
546.308779206609
 20
231.0669432010173
 30
0.0
 11
546.3479828074032
 21
230.7778879673099
 31
0.0
  0
LWPOLYLINE
  5
5755
330
1F
100
AcDbEntity
  8
kontur
100
AcDbPolyline
 90
        3
 70
   128
 43
0.0
 10
546.3479828074032
 20
230.4888327336027
 10
546.3435146637323
 20
230.7042382834613
 10
546.308779206609
 20
231.0669432010173
  0
LINE
  5
5756
330
1F
100
AcDbEntity
  8
kontur
100
AcDbLine
 10
546.3479828074032
 20
230.2301654098049
 30
0.0
 11
546.3479828074032
 21
230.4888327336027
 31
0.0
  0
LINE
  5
5757
330
1F
100
AcDbEntity
  8
kontur
100
AcDbLine
 10
546.308779206609
 20
229.9411101760975
 30
0.0
 11
546.3479828074032
 21
230.2301654098049
 31
0.0
  0
LINE
  5
5758
330
1F
100
AcDbEntity
  8
kontur
100
AcDbLine
 10
546.3479828074032
 20
229.6520549423902
 30
0.0
 11
546.308779206609
 21
229.9411101760975
 31
0.0
  0
LINE
  5
5759
330
1F
100
AcDbEntity
  8
kontur
100
AcDbLine
 10
535.1479828074032
 20
229.9411101760975
 30
0.0
 11
535.1479828074032
 21
230.0911101760976
 31
0.0
  0
LINE
  5
575A
330
1F
100
AcDbEntity
  8
kontur
100
AcDbLine
 10
535.1479828074032
 20
229.7911101760974
 30
0.0
 11
535.1479828074032
 21
229.9411101760975
 31
0.0
  0
LINE
  5
575B
330
1F
100
AcDbEntity
  8
kontur
100
AcDbLine
 10
536.2479828074032
 20
229.9411101760975
 30
0.0
 11
536.2479828074032
 21
228.6911101760975
 31
0.0
  0
LINE
  5
575C
330
1F
100
AcDbEntity
  8
kontur
100
AcDbLine
 10
536.2479828074032
 20
231.1911101760975
 30
0.0
 11
536.2479828074032
 21
229.9411101760975
 31
0.0
  0
LINE
  5
575D
330
1F
100
AcDbEntity
  8
kontur
100
AcDbLine
 10
546.3479828074032
 20
230.691665526044
 30
0.0
 11
546.3479828074032
 21
230.7778879673099
 31
0.0
  0
LINE
  5
575E
330
1F
100
AcDbEntity
  8
kontur
100
AcDbLine
 10
546.3479828074032
 20
229.1043323848851
 30
0.0
 11
546.3479828074032
 21
229.190554826151
 31
0.0
  0
LINE
  5
575F
330
1F
100
AcDbEntity
  8
kontur
100
AcDbLine
 10
546.3479828074032
 20
79.39338761859239
 30
0.0
 11
546.3479828074032
 21
79.6520549423903
 31
0.0
  0
LWPOLYLINE
  5
5760
330
1F
100
AcDbEntity
  8
kontur
100
AcDbPolyline
 90
        3
 70
   128
 43
0.0
 10
546.308779206609
 20
78.81527715117778
 10
546.3435146637321
 20
79.17798206872982
 10
546.3479828074032
 20
79.39338761859239
  0
LWPOLYLINE
  5
5765
330
1F
100
AcDbEntity
  8
kontur
100
AcDbPolyline
 90
        3
 70
   128
 43
0.0
 10
546.3479828074032
 20
80.4888327336028
 10
546.3435146637323
 20
80.7042382834614
 10
546.308779206609
 20
81.06694320101741
  0
LINE
  5
5766
330
1F
100
AcDbEntity
  8
kontur
100
AcDbLine
 10
546.3479828074032
 20
80.2301654098049
 30
0.0
 11
546.3479828074032
 21
80.4888327336028
 31
0.0
  0
LINE
  5
5767
330
1F
100
AcDbEntity
  8
kontur
100
AcDbLine
 10
546.308779206609
 20
79.94111017609754
 30
0.0
 11
546.3479828074032
 21
80.2301654098049
 31
0.0
  0
LINE
  5
5768
330
1F
100
AcDbEntity
  8
kontur
100
AcDbLine
 10
546.3479828074032
 20
79.6520549423903
 30
0.0
 11
546.308779206609
 21
79.94111017609754
 31
0.0
  0
LINE
  5
5769
330
1F
100
AcDbEntity
  8
kontur
100
AcDbLine
 10
535.1479828074032
 20
79.94111017609754
 30
0.0
 11
535.1479828074032
 21
80.09111017609763
 31
0.0
  0
LINE
  5
576A
330
1F
100
AcDbEntity
  8
kontur
100
AcDbLine
 10
535.1479828074032
 20
79.79111017609756
 30
0.0
 11
535.1479828074032
 21
79.94111017609754
 31
0.0
  0
LINE
  5
576B
330
1F
100
AcDbEntity
  8
kontur
100
AcDbLine
 10
536.2479828074032
 20
79.94111017609754
 30
0.0
 11
536.2479828074032
 21
78.69111017609754
 31
0.0
  0
LINE
  5
576C
330
1F
100
AcDbEntity
  8
kontur
100
AcDbLine
 10
536.2479828074032
 20
81.19111017609765
 30
0.0
 11
536.2479828074032
 21
79.94111017609754
 31
0.0
  0
LINE
  5
599D
330
1F
100
AcDbEntity
  8
kontur
100
AcDbLine
 10
543.9479828074033
 20
234.7411101760975
 30
0.0
 11
543.7179828074032
 21
234.7411101760975
 31
0.0
  0
LINE
  5
599F
330
1F
100
AcDbEntity
  8
kontur
100
AcDbLine
 10
543.9479828074033
 20
75.14111017609747
 30
0.0
 11
543.7179828074032
 21
75.14111017609747
 31
0.0
  0
LINE
  5
59A0
330
1F
100
AcDbEntity
  8
kontur
100
AcDbLine
 10
543.7179828074032
 20
75.14111017609747
 30
0.0
 11
543.7179828074032
 21
234.7411101760975
 31
0.0
  0
LINE
  5
59A1
330
1F
100
AcDbEntity
  8
kontur
100
AcDbLine
 10
544.1479828074032
 20
234.7411101760975
 30
0.0
 11
543.9479828074033
 21
234.7411101760975
 31
0.0
  0
LINE
  5
59A3
330
1F
100
AcDbEntity
  8
kontur
100
AcDbLine
 10
544.1479828074032
 20
234.7411101760975
 30
0.0
 11
544.1479828074032
 21
75.14111017609747
 31
0.0
  0
LINE
  5
59A4
330
1F
100
AcDbEntity
  8
kontur
100
AcDbLine
 10
544.1479828074032
 20
75.14111017609747
 30
0.0
 11
543.9479828074033
 21
75.14111017609747
 31
0.0
  0
LINE
  5
59A5
330
1F
100
AcDbEntity
  8
kontur
100
AcDbLine
 10
542.7179828074032
 20
75.19111017609754
 30
0.0
 11
543.7179828074032
 21
75.19111017609754
 31
0.0
  0
LINE
  5
59A6
330
1F
100
AcDbEntity
  8
kontur
100
AcDbLine
 10
542.7179828074032
 20
234.6911101760975
 30
0.0
 11
542.7179828074032
 21
75.19111017609754
 31
0.0
  0
LINE
  5
59A7
330
1F
100
AcDbEntity
  8
kontur
100
AcDbLine
 10
542.7179828074032
 20
234.6911101760975
 30
0.0
 11
543.7179828074032
 21
234.6911101760975
 31
0.0
  0
CIRCLE
  5
5A4F
330
1F
100
AcDbEntity
  8
kontur
100
AcDbCircle
 10
529.7179828074045
 20
229.4411101760982
 30
0.0
 40
2.150000000000034
  0
LINE
  5
5A52
330
1F
100
AcDbEntity
  8
kontur
100
AcDbLine
 10
541.5179828074047
 20
77.4411101760981
 30
0.0
 11
541.5179828074047
 21
78.44111017609652
 31
0.0
  0
CIRCLE
  5
5A55
330
1F
100
AcDbEntity
  8
kontur
100
AcDbCircle
 10
514.7179828074044
 20
213.7911101760981
 30
0.0
 40
1.800000000000011
  0
CIRCLE
  5
5A56
330
1F
100
AcDbEntity
  8
kontur
100
AcDbCircle
 10
514.7179828074044
 20
203.0911101760981
 30
0.0
 40
1.800000000000011
  0
CIRCLE
  5
5A57
330
1F
100
AcDbEntity
  8
kontur
100
AcDbCircle
 10
514.7179828074044
 20
192.391110176098
 30
0.0
 40
1.800000000000011
  0
CIRCLE
  5
5A58
330
1F
100
AcDbEntity
  8
kontur
100
AcDbCircle
 10
514.7179828074044
 20
181.6911101760981
 30
0.0
 40
1.800000000000011
  0
CIRCLE
  5
5A59
330
1F
100
AcDbEntity
  8
kontur
100
AcDbCircle
 10
514.7179828074044
 20
170.9911101760982
 30
0.0
 40
1.800000000000011
  0
CIRCLE
  5
5A5A
330
1F
100
AcDbEntity
  8
kontur
100
AcDbCircle
 10
514.7179828074044
 20
160.2911101760981
 30
0.0
 40
1.800000000000011
  0
CIRCLE
  5
5A5B
330
1F
100
AcDbEntity
  8
kontur
100
AcDbCircle
 10
514.7179828074044
 20
149.5911101760981
 30
0.0
 40
1.800000000000011
  0
CIRCLE
  5
5A5C
330
1F
100
AcDbEntity
  8
kontur
100
AcDbCircle
 10
514.7179828074044
 20
138.891110176098
 30
0.0
 40
1.800000000000011
  0
CIRCLE
  5
5A5D
330
1F
100
AcDbEntity
  8
kontur
100
AcDbCircle
 10
514.7179828074044
 20
128.1911101760981
 30
0.0
 40
1.800000000000011
  0
CIRCLE
  5
5A5E
330
1F
100
AcDbEntity
  8
kontur
100
AcDbCircle
 10
514.7179828074044
 20
117.4911101760981
 30
0.0
 40
1.800000000000011
  0
CIRCLE
  5
5A5F
330
1F
100
AcDbEntity
  8
kontur
100
AcDbCircle
 10
514.7179828074044
 20
106.7911101760981
 30
0.0
 40
1.800000000000011
  0
CIRCLE
  5
5A60
330
1F
100
AcDbEntity
  8
kontur
100
AcDbCircle
 10
514.7179828074044
 20
96.09111017609808
 30
0.0
 40
1.800000000000011
  0
CIRCLE
  5
5A61
330
1F
100
AcDbEntity
  8
kontur
100
AcDbCircle
 10
520.7179828074036
 20
213.7911101760977
 30
0.0
 40
1.79999999999967
  0
CIRCLE
  5
5A62
330
1F
100
AcDbEntity
  8
kontur
100
AcDbCircle
 10
520.7179828074043
 20
203.0911101760981
 30
0.0
 40
1.799999999999955
  0
CIRCLE
  5
5A63
330
1F
100
AcDbEntity
  8
kontur
100
AcDbCircle
 10
520.7179828074043
 20
192.391110176098
 30
0.0
 40
1.799999999999955
  0
CIRCLE
  5
5A64
330
1F
100
AcDbEntity
  8
kontur
100
AcDbCircle
 10
520.7179828074043
 20
181.6911101760981
 30
0.0
 40
1.799999999999955
  0
CIRCLE
  5
5A65
330
1F
100
AcDbEntity
  8
kontur
100
AcDbCircle
 10
520.7179828074043
 20
170.9911101760981
 30
0.0
 40
1.799999999999955
  0
CIRCLE
  5
5A66
330
1F
100
AcDbEntity
  8
kontur
100
AcDbCircle
 10
520.7179828074043
 20
160.2911101760981
 30
0.0
 40
1.799999999999955
  0
CIRCLE
  5
5A67
330
1F
100
AcDbEntity
  8
kontur
100
AcDbCircle
 10
520.7179828074043
 20
149.5911101760981
 30
0.0
 40
1.799999999999955
  0
CIRCLE
  5
5A68
330
1F
100
AcDbEntity
  8
kontur
100
AcDbCircle
 10
520.7179828074043
 20
138.891110176098
 30
0.0
 40
1.799999999999955
  0
CIRCLE
  5
5A69
330
1F
100
AcDbEntity
  8
kontur
100
AcDbCircle
 10
520.7179828074043
 20
128.1911101760981
 30
0.0
 40
1.799999999999955
  0
CIRCLE
  5
5A6A
330
1F
100
AcDbEntity
  8
kontur
100
AcDbCircle
 10
520.7179828074043
 20
117.4911101760981
 30
0.0
 40
1.799999999999955
  0
CIRCLE
  5
5A6B
330
1F
100
AcDbEntity
  8
kontur
100
AcDbCircle
 10
520.7179828074043
 20
106.791110176098
 30
0.0
 40
1.799999999999955
  0
CIRCLE
  5
5A6C
330
1F
100
AcDbEntity
  8
kontur
100
AcDbCircle
 10
520.7179828074043
 20
96.09111017609808
 30
0.0
 40
1.799999999999955
  0
CIRCLE
  5
5A6D
330
1F
100
AcDbEntity
  8
kontur
100
AcDbCircle
 10
526.7179828074043
 20
213.7911101760981
 30
0.0
 40
1.800000000000068
  0
CIRCLE
  5
5A6E
330
1F
100
AcDbEntity
  8
kontur
100
AcDbCircle
 10
526.7179828074043
 20
203.0911101760981
 30
0.0
 40
1.800000000000068
  0
CIRCLE
  5
5A6F
330
1F
100
AcDbEntity
  8
kontur
100
AcDbCircle
 10
526.7179828074043
 20
192.391110176098
 30
0.0
 40
1.800000000000068
  0
CIRCLE
  5
5A70
330
1F
100
AcDbEntity
  8
kontur
100
AcDbCircle
 10
526.7179828074043
 20
181.6911101760981
 30
0.0
 40
1.800000000000068
  0
CIRCLE
  5
5A71
330
1F
100
AcDbEntity
  8
kontur
100
AcDbCircle
 10
526.7179828074043
 20
170.9911101760981
 30
0.0
 40
1.800000000000068
  0
CIRCLE
  5
5A72
330
1F
100
AcDbEntity
  8
kontur
100
AcDbCircle
 10
526.7179828074043
 20
160.2911101760981
 30
0.0
 40
1.800000000000068
  0
CIRCLE
  5
5A73
330
1F
100
AcDbEntity
  8
kontur
100
AcDbCircle
 10
526.7179828074043
 20
149.5911101760981
 30
0.0
 40
1.800000000000068
  0
CIRCLE
  5
5A74
330
1F
100
AcDbEntity
  8
kontur
100
AcDbCircle
 10
526.7179828074043
 20
138.891110176098
 30
0.0
 40
1.800000000000068
  0
CIRCLE
  5
5A75
330
1F
100
AcDbEntity
  8
kontur
100
AcDbCircle
 10
526.7179828074043
 20
128.1911101760981
 30
0.0
 40
1.800000000000068
  0
CIRCLE
  5
5A76
330
1F
100
AcDbEntity
  8
kontur
100
AcDbCircle
 10
526.7179828074043
 20
117.4911101760981
 30
0.0
 40
1.800000000000068
  0
CIRCLE
  5
5A77
330
1F
100
AcDbEntity
  8
kontur
100
AcDbCircle
 10
526.7179828074043
 20
106.791110176098
 30
0.0
 40
1.800000000000068
  0
CIRCLE
  5
5A78
330
1F
100
AcDbEntity
  8
kontur
100
AcDbCircle
 10
526.7179828074043
 20
96.09111017609808
 30
0.0
 40
1.800000000000068
  0
CIRCLE
  5
5A79
330
1F
100
AcDbEntity
  8
kontur
100
AcDbCircle
 10
532.7179828074044
 20
192.391110176098
 30
0.0
 40
1.800000000000011
  0
CIRCLE
  5
5A7A
330
1F
100
AcDbEntity
  8
kontur
100
AcDbCircle
 10
532.7179828074044
 20
181.6911101760981
 30
0.0
 40
1.800000000000011
  0
CIRCLE
  5
5A7B
330
1F
100
AcDbEntity
  8
kontur
100
AcDbCircle
 10
532.7179828074044
 20
149.5911101760981
 30
0.0
 40
1.800000000000011
  0
CIRCLE
  5
5A7C
330
1F
100
AcDbEntity
  8
kontur
100
AcDbCircle
 10
532.7179828074044
 20
138.891110176098
 30
0.0
 40
1.800000000000011
  0
CIRCLE
  5
5A7D
330
1F
100
AcDbEntity
  8
kontur
100
AcDbCircle
 10
532.7179828074044
 20
128.1911101760981
 30
0.0
 40
1.800000000000011
  0
CIRCLE
  5
5A7E
330
1F
100
AcDbEntity
  8
kontur
100
AcDbCircle
 10
532.7179828074044
 20
117.4911101760981
 30
0.0
 40
1.800000000000011
  0
CIRCLE
  5
5A7F
330
1F
100
AcDbEntity
  8
kontur
100
AcDbCircle
 10
532.7179828074044
 20
106.7911101760981
 30
0.0
 40
1.800000000000011
  0
CIRCLE
  5
5A80
330
1F
100
AcDbEntity
  8
kontur
100
AcDbCircle
 10
532.7179828074044
 20
96.09111017609808
 30
0.0
 40
1.800000000000011
  0
CIRCLE
  5
5A81
330
1F
100
AcDbEntity
  8
kontur
100
AcDbCircle
 10
529.7179828074045
 20
80.4411101760981
 30
0.0
 40
2.150000000000034
  0
ARC
  5
5A82
330
1F
100
AcDbEntity
  8
kontur
100
AcDbCircle
 10
540.5179828074047
 20
77.4411101760981
 30
0.0
 40
1.0
100
AcDbArc
 50
270.0
 51
0.0
  0
LINE
  5
5A83
330
1F
100
AcDbEntity
  8
kontur
100
AcDbLine
 10
510.7179828074046
 20
76.4411101760981
 30
0.0
 11
540.5179828074047
 21
76.4411101760981
 31
0.0
  0
CIRCLE
  5
5A84
330
1F
100
AcDbEntity
  8
kontur
100
AcDbCircle
 10
532.7179828074044
 20
170.9911101760982
 30
0.0
 40
1.800000000000011
  0
CIRCLE
  5
5A85
330
1F
100
AcDbEntity
  8
kontur
100
AcDbCircle
 10
532.7179828074044
 20
203.0911101760981
 30
0.0
 40
1.800000000000011
  0
CIRCLE
  5
5A86
330
1F
100
AcDbEntity
  8
kontur
100
AcDbCircle
 10
532.7179828074044
 20
160.2911101760981
 30
0.0
 40
1.800000000000011
  0
CIRCLE
  5
5A87
330
1F
100
AcDbEntity
  8
kontur
100
AcDbCircle
 10
532.7179828074044
 20
213.7911101760981
 30
0.0
 40
1.800000000000011
  0
LINE
  5
5A88
330
1F
100
AcDbEntity
  8
kontur
100
AcDbLine
 10
540.5179828074047
 20
233.4411101760982
 30
0.0
 11
510.7179828074046
 21
233.4411101760981
 31
0.0
  0
LINE
  5
5A89
330
1F
100
AcDbEntity
  8
kontur
100
AcDbLine
 10
508.7179828074046
 20
76.4411101760981
 30
0.0
 11
508.7179828074046
 21
233.4411101760981
 31
0.0
  0
LINE
  5
5A8A
330
1F
100
AcDbEntity
  8
kontur
100
AcDbLine
 10
510.7179828074046
 20
76.4411101760981
 30
0.0
 11
508.7179828074046
 21
76.4411101760981
 31
0.0
  0
LINE
  5
5A8B
330
1F
100
AcDbEntity
  8
kontur
100
AcDbLine
 10
508.7179828074046
 20
233.4411101760981
 30
0.0
 11
510.7179828074046
 21
233.4411101760981
 31
0.0
  0
LINE
  5
5A8C
330
1F
100
AcDbEntity
  8
kontur
100
AcDbLine
 10
507.7179828074047
 20
231.441110176098
 30
0.0
 11
507.7179828074046
 21
78.4411101760981
 31
0.0
  0
LINE
  5
5A8E
330
1F
100
AcDbEntity
  8
kontur
100
AcDbLine
 10
508.7179828074046
 20
78.4411101760981
 30
0.0
 11
507.7179828074046
 21
78.4411101760981
 31
0.0
  0
LINE
  5
5A91
330
1F
100
AcDbEntity
  8
kontur
100
AcDbLine
 10
487.7179828074046
 20
78.4411101760981
 30
0.0
 11
507.7179828074046
 21
78.4411101760981
 31
0.0
  0
LINE
  5
5A92
330
1F
100
AcDbEntity
  8
kontur
100
AcDbLine
 10
505.317982807404
 20
145.441110176182
 30
0.0
 11
491.317982807404
 21
145.441110176182
 31
0.0
  0
LINE
  5
5A93
330
1F
100
AcDbEntity
  8
kontur
100
AcDbLine
 10
491.317982807404
 20
145.441110176182
 30
0.0
 11
491.317982807404
 21
128.441110176182
 31
0.0
  0
LINE
  5
5A94
330
1F
100
AcDbEntity
  8
kontur
100
AcDbLine
 10
491.317982807404
 20
128.441110176182
 30
0.0
 11
505.317982807404
 21
128.4411101761821
 31
0.0
  0
LINE
  5
5A95
330
1F
100
AcDbEntity
  8
kontur
100
AcDbLine
 10
505.317982807404
 20
128.4411101761821
 30
0.0
 11
505.317982807404
 21
145.441110176182
 31
0.0
  0
LINE
  5
5AA0
330
1F
100
AcDbEntity
  8
kontur
100
AcDbLine
 10
487.7179828074046
 20
231.441110176098
 30
0.0
 11
485.7179828074046
 21
231.441110176098
 31
0.0
  0
LINE
  5
5AA1
330
1F
100
AcDbEntity
  8
kontur
100
AcDbLine
 10
485.7179828074046
 20
78.4411101760981
 30
0.0
 11
487.7179828074046
 21
78.4411101760981
 31
0.0
  0
LINE
  5
5AA2
330
1F
100
AcDbEntity
  8
kontur
100
AcDbLine
 10
485.7179828074046
 20
78.4411101760981
 30
0.0
 11
485.7179828074046
 21
231.441110176098
 31
0.0
  0
ARC
  5
5AA3
330
1F
100
AcDbEntity
  8
kontur
100
AcDbCircle
 10
491.6534613801989
 20
78.70751196911675
 30
0.0
 40
3.944484948918781
100
AcDbArc
 50
183.8725781257173
 51
215.0698631432693
  0
LINE
  5
5AA4
330
1F
100
AcDbEntity
  8
kontur
100
AcDbLine
 10
507.7179828074046
 20
78.4411101760981
 30
0.0
 11
507.7179828074046
 21
76.4411101760981
 31
0.0
  0
ARC
  5
5AA5
330
1F
100
AcDbEntity
  8
kontur
100
AcDbCircle
 10
491.4497769461266
 20
231.2467217053568
 30
0.0
 40
3.736853538922413
100
AcDbArc
 50
144.0393903862737
 51
177.0181683447404
  0
LINE
  5
5AA6
330
1F
100
AcDbEntity
  8
kontur
100
AcDbLine
 10
507.7179828074047
 20
233.4411101760981
 30
0.0
 11
507.7179828074047
 21
231.441110176098
 31
0.0
  0
ARC
  5
5AA7
330
1F
100
AcDbEntity
  8
kontur
100
AcDbCircle
 10
487.7179828074045
 20
78.44111017609788
 30
0.0
 40
1.999999999999915
100
AcDbArc
 50
179.9999999999935
 51
270.0000000000032
  0
ARC
  5
5AA8
330
1F
100
AcDbEntity
  8
kontur
100
AcDbCircle
 10
487.717982807405
 20
78.44111017609845
 30
0.0
 40
1.000000000000568
100
AcDbArc
 50
180.0000000000196
 51
269.9999999999837
  0
LINE
  5
5AA9
330
1F
100
AcDbEntity
  8
kontur
100
AcDbLine
 10
487.7179828074046
 20
76.4411101760981
 30
0.0
 11
487.7179828074046
 21
77.441110176098
 31
0.0
  0
ARC
  5
5AAB
330
1F
100
AcDbEntity
  8
kontur
100
AcDbCircle
 10
487.7179828074047
 20
231.441110176098
 30
0.0
 40
1.000000000000114
100
AcDbArc
 50
90.00000000000325
 51
179.9999999999935
  0
ARC
  5
5AAC
330
1F
100
AcDbEntity
  8
kontur
100
AcDbCircle
 10
487.7179828074045
 20
231.4411101760982
 30
0.0
 40
1.999999999999858
100
AcDbArc
 50
89.99999999999349
 51
180.0000000000065
  0
LINE
  5
5AAD
330
1F
100
AcDbEntity
  8
kontur
100
AcDbLine
 10
487.9538695514797
 20
232.4411101760981
 30
0.0
 11
487.7179828074046
 21
232.441110176098
 31
0.0
  0
LINE
  5
5AAE
330
1F
100
AcDbEntity
  8
kontur
100
AcDbLine
 10
487.7179828074046
 20
77.441110176098
 30
0.0
 11
487.9538624005788
 21
77.441110176098
 31
0.0
  0
LINE
  5
5AAF
330
1F
100
AcDbEntity
  8
kontur
100
AcDbLine
 10
508.7179828074046
 20
77.441110176098
 30
0.0
 11
507.7179828074046
 21
77.441110176098
 31
0.0
  0
LINE
  5
5AB2
330
1F
100
AcDbEntity
  8
kontur
100
AcDbLine
 10
486.7179828074046
 20
233.1388371244005
 30
0.0
 11
486.7179828074046
 21
233.441110176098
 31
0.0
  0
LINE
  5
5AB5
330
1F
100
AcDbEntity
  8
kontur
100
AcDbLine
 10
486.7179828074046
 20
76.71250350431006
 30
0.0
 11
486.7179828074046
 21
76.4411101760981
 31
0.0
  0
LINE
  5
5AC7
330
1F
100
AcDbEntity
  8
kontur
100
AcDbLine
 10
487.5679828074025
 20
232.4411101760981
 30
0.0
 11
487.7179828074046
 21
232.4411101760981
 31
0.0
  0
LINE
  5
5AC8
330
1F
100
AcDbEntity
  8
kontur
100
AcDbLine
 10
487.7301083562672
 20
77.44111017609833
 30
0.0
 11
487.5679828074021
 21
77.44111017609833
 31
0.0
  0
LINE
  5
5AC9
330
1F
100
AcDbEntity
  8
kontur
100
AcDbLine
 10
541.7179828074032
 20
234.4411101760975
 30
0.0
 11
542.7179828074032
 21
234.4411101760975
 31
0.0
  0
LINE
  5
5ACA
330
1F
100
AcDbEntity
  8
kontur
100
AcDbLine
 10
542.7179828074032
 20
234.4411101760975
 30
0.0
 11
542.7179828074032
 21
75.44111017609754
 31
0.0
  0
LINE
  5
5ACB
330
1F
100
AcDbEntity
  8
kontur
100
AcDbLine
 10
541.7179828074032
 20
75.44111017609754
 30
0.0
 11
542.7179828074032
 21
75.44111017609754
 31
0.0
  0
LINE
  5
5ACC
330
1F
100
AcDbEntity
  8
kontur
100
AcDbLine
 10
541.7179828074032
 20
234.4411101760975
 30
0.0
 11
541.7179828074032
 21
75.44111017609754
 31
0.0
  0
LINE
  5
5ACD
330
1F
100
AcDbEntity
  8
kontur
100
AcDbLine
 10
541.1179828074032
 20
231.3411101760976
 30
0.0
 11
541.1179828074032
 21
228.5411101760977
 31
0.0
  0
LINE
  5
5ACE
330
1F
100
AcDbEntity
  8
kontur
100
AcDbLine
 10
541.1179828074032
 20
81.34111017609763
 30
0.0
 11
541.1179828074032
 21
78.54111017609756
 31
0.0
  0
LINE
  5
5ACF
330
1F
100
AcDbEntity
  8
kontur
100
AcDbLine
 10
536.7179828074032
 20
234.4411101760975
 30
0.0
 11
536.7179828074032
 21
233.4411101760978
 31
0.0
  0
LINE
  5
5AD0
330
1F
100
AcDbEntity
  8
kontur
100
AcDbLine
 10
510.7179828074031
 20
233.441110176098
 30
0.0
 11
510.7179828074031
 21
234.4411101760978
 31
0.0
  0
LINE
  5
5AD1
330
1F
100
AcDbEntity
  8
kontur
100
AcDbLine
 10
510.7179828074031
 20
234.4411101760978
 30
0.0
 11
536.7179828074032
 21
234.4411101760975
 31
0.0
  0
LINE
  5
5AD2
330
1F
100
AcDbEntity
  8
kontur
100
AcDbLine
 10
540.7179828074032
 20
233.4411101760975
 30
0.0
 11
540.7179828074032
 21
234.4411101760975
 31
0.0
  0
LINE
  5
5AD3
330
1F
100
AcDbEntity
  8
kontur
100
AcDbLine
 10
538.7179828074032
 20
234.4411101760975
 30
0.0
 11
538.7179828074032
 21
233.4411101760975
 31
0.0
  0
LINE
  5
5AD4
330
1F
100
AcDbEntity
  8
kontur
100
AcDbLine
 10
540.7179828074032
 20
234.4411101760975
 30
0.0
 11
538.7179828074032
 21
234.4411101760975
 31
0.0
  0
LINE
  5
5AD5
330
1F
100
AcDbEntity
  8
kontur
100
AcDbLine
 10
540.7179828074032
 20
233.4411101760975
 30
0.0
 11
540.5179828074047
 21
233.4411101760975
 31
0.0
  0
LINE
  5
5AD7
330
1F
100
AcDbEntity
  8
kontur
100
AcDbLine
 10
538.7179828074032
 20
75.44111017609754
 30
0.0
 11
537.7179828074032
 21
75.44111017609754
 31
0.0
  0
LINE
  5
5AD9
330
1F
100
AcDbEntity
  8
kontur
100
AcDbLine
 10
537.7179828074032
 20
233.4411101760978
 30
0.0
 11
537.7179828074032
 21
234.4411101760975
 31
0.0
  0
LINE
  5
5ADA
330
1F
100
AcDbEntity
  8
kontur
100
AcDbLine
 10
537.7179828074032
 20
234.4411101760975
 30
0.0
 11
538.7179828074032
 21
234.4411101760975
 31
0.0
  0
ARC
  5
5ADB
330
1F
100
AcDbEntity
  8
kontur
100
AcDbCircle
 10
540.7179828074032
 20
232.4411101760975
 30
0.0
 40
1.0
100
AcDbArc
 50
0.0
 51
90.0
  0
ARC
  5
5ADC
330
1F
100
AcDbEntity
  8
kontur
100
AcDbCircle
 10
540.7179828074032
 20
232.4411101760975
 30
0.0
 40
2.000000000000016
100
AcDbArc
 50
59.99999999999986
 51
90.0
  0
LINE
  5
5ADD
330
1F
100
AcDbEntity
  8
kontur
100
AcDbLine
 10
540.7179828074032
 20
76.44111017609754
 30
0.0
 11
540.7179828074032
 21
75.44111017609765
 31
0.0
  0
LINE
  5
5ADE
330
1F
100
AcDbEntity
  8
kontur
100
AcDbLine
 10
538.7179828074032
 20
75.44111017609754
 30
0.0
 11
540.7179828074032
 21
75.44111017609765
 31
0.0
  0
LINE
  5
5AE1
330
1F
100
AcDbEntity
  8
kontur
100
AcDbLine
 10
536.7179828074032
 20
75.44111017609754
 30
0.0
 11
510.7179828074027
 21
75.44111017609754
 31
0.0
  0
ARC
  5
5AE2
330
1F
100
AcDbEntity
  8
kontur
100
AcDbCircle
 10
540.7179828074032
 20
77.44111017609754
 30
0.0
 40
1.000000000000057
100
AcDbArc
 50
270.0
 51
0.0
  0
ARC
  5
5AE3
330
1F
100
AcDbEntity
  8
kontur
100
AcDbCircle
 10
540.7179828074032
 20
77.44111017609754
 30
0.0
 40
1.999999999999967
100
AcDbArc
 50
270.0
 51
300.0000000000001
  0
LINE
  5
5AE4
330
1F
100
AcDbEntity
  8
kontur
100
AcDbLine
 10
536.7179828074032
 20
234.4411101760975
 30
0.0
 11
537.7179828074032
 21
234.4411101760975
 31
0.0
  0
LINE
  5
5AE6
330
1F
100
AcDbEntity
  8
kontur
100
AcDbLine
 10
510.7179828074027
 20
75.44111017609754
 30
0.0
 11
509.7179828074027
 21
75.44111017609731
 31
0.0
  0
LINE
  5
5AE7
330
1F
100
AcDbEntity
  8
kontur
100
AcDbLine
 10
509.7179828074031
 20
233.4411101760978
 30
0.0
 11
509.7179828074031
 21
234.4411101760978
 31
0.0
  0
LINE
  5
5AE8
330
1F
100
AcDbEntity
  8
kontur
100
AcDbLine
 10
509.7179828074031
 20
234.4411101760978
 30
0.0
 11
510.7179828074031
 21
234.4411101760978
 31
0.0
  0
LINE
  5
5AE9
330
1F
100
AcDbEntity
  8
kontur
100
AcDbLine
 10
536.7179828074032
 20
75.44111017609754
 30
0.0
 11
537.7179828074032
 21
75.44111017609754
 31
0.0
  0
LINE
  5
5AEA
330
1F
100
AcDbEntity
  8
kontur
100
AcDbLine
 10
486.7179828074032
 20
233.4411101760978
 30
0.0
 11
486.7179828074032
 21
234.4411101760978
 31
0.0
  0
LINE
  5
5AEC
330
1F
100
AcDbEntity
  8
kontur
100
AcDbLine
 10
486.7179828074032
 20
234.4411101760978
 30
0.0
 11
487.7179828074032
 21
234.4411101760978
 31
0.0
  0
LINE
  5
5AED
330
1F
100
AcDbEntity
  8
kontur
100
AcDbLine
 10
487.7179828074032
 20
233.4411101760978
 30
0.0
 11
486.7179828074032
 21
233.4411101760978
 31
0.0
  0
LINE
  5
5AEE
330
1F
100
AcDbEntity
  8
kontur
100
AcDbLine
 10
509.7179828074031
 20
234.4411101760978
 30
0.0
 11
487.7179828074032
 21
234.4411101760978
 31
0.0
  0
LINE
  5
5AEF
330
1F
100
AcDbEntity
  8
kontur
100
AcDbLine
 10
508.7179828074046
 20
233.4411101760979
 30
0.0
 11
487.7179828074032
 21
233.4411101760978
 31
0.0
  0
LINE
  5
5AF1
330
1F
100
AcDbEntity
  8
kontur
100
AcDbLine
 10
508.7179828074046
 20
76.44111017609777
 30
0.0
 11
487.7179828074031
 21
76.44111017609754
 31
0.0
  0
LINE
  5
5AF2
330
1F
100
AcDbEntity
  8
kontur
100
AcDbLine
 10
509.7179828074027
 20
75.44111017609731
 30
0.0
 11
487.7179828074031
 21
75.44111017609742
 31
0.0
  0
LINE
  5
5AF3
330
1F
100
AcDbEntity
  8
kontur
100
AcDbLine
 10
486.7179828074031
 20
75.44111017609742
 30
0.0
 11
486.7179828074031
 21
76.44111017609754
 31
0.0
  0
LINE
  5
5AF4
330
1F
100
AcDbEntity
  8
kontur
100
AcDbLine
 10
486.7179828074031
 20
76.44111017609754
 30
0.0
 11
487.7179828074031
 21
76.44111017609754
 31
0.0
  0
LINE
  5
5AF5
330
1F
100
AcDbEntity
  8
kontur
100
AcDbLine
 10
487.7179828074031
 20
75.44111017609742
 30
0.0
 11
486.7179828074031
 21
75.44111017609742
 31
0.0
  0
LINE
  5
5B59
330
1F
100
AcDbEntity
  8
kontur
100
AcDbLine
 10
545.6458310527909
 20
227.4911101760975
 30
0.0
 11
545.6458310527909
 21
232.3911101760976
 31
0.0
  0
LINE
  5
5B5C
330
1F
100
AcDbEntity
  8
kontur
100
AcDbLine
 10
545.6458310527909
 20
77.4911101760976
 30
0.0
 11
545.6458310527909
 21
82.39111017609758
 31
0.0
  0
LINE
  5
5B6F
330
1F
100
AcDbEntity
  8
kontur
100
AcDbLine
 10
541.2179828074032
 20
229.9411101760977
 30
0.0
 11
541.2179828074032
 21
231.3411101760976
 31
0.0
  0
LINE
  5
5B70
330
1F
100
AcDbEntity
  8
kontur
100
AcDbLine
 10
541.2179828074032
 20
228.5411101760977
 30
0.0
 11
541.2179828074032
 21
229.9411101760977
 31
0.0
  0
MTEXT
  5
5B8B
330
1F
100
AcDbEntity
  8
RAHMEN025
100
AcDbMText
 10
26.46204805812886
 20
24.90908629273149
 30
0.0
 40
2.5
 41
351.632274128031
 71
     1
 72
     5
  3
Specifications and design are subject to change without notice. \PThe content of this document is for information only. The information presented in this document does not form part of any quotation or contract, is believed to be accurate and reliab
  1
le and may be changed without notice. No liability will be accepted by the publisher for any consequence of its use. Publication thereof does neither convey nor imply any license under patent- or other industrial or intellectual property rights.
 73
     1
 44
1.0
  0
TEXT
  5
5B8D
330
1F
100
AcDbEntity
  8
TEXTFELD
100
AcDbText
 10
537.4043431509876
 20
14.45163577035234
 30
0.0
 40
2.2
  1
Dimension of 52-2022
100
AcDbText
  0
ENDSEC
  0
SECTION
  2
OBJECTS
  0
DICTIONARY
  5
C
330
0
100
AcDbDictionary
281
     1
  3
ACAD_DETAILVIEWSTYLE
350
5C11
  3
ACAD_GROUP
350
D
  3
ACAD_IMAGE_VARS
350
5BE8
  3
ACAD_LAYOUT
350
1A
  3
ACAD_MLINESTYLE
350
17
  3
ACAD_PLOTSETTINGS
350
19
  3
ACAD_PLOTSTYLENAME
350
E
  3
ACAD_SCALELIST
350
5BB7
  3
ACAD_SECTIONVIEWSTYLE
350
5C12
  3
AcDbVariableDictionary
350
1C0B
  3
APPDATA
350
5BE6
  3
DWGPROPS
350
5C14
  0
DICTIONARY
  5
1C1E
330
2
100
AcDbDictionary
280
     1
281
     1
  3
ACAD_LAYERFILTERS
360
1C20
  3
ACAD_LAYERSTATES
360
33F0
  3
ACLYDICTIONARY
360
1C1F
  0
DICTIONARY
  5
2DFE
330
1F
100
AcDbDictionary
280
     1
281
     1
  3
ACAD_SORTENTS
360
2DFF
  0
DICTIONARY
  5
5C11
102
{ACAD_REACTORS
330
C
102
}
330
C
100
AcDbDictionary
281
     1
  0
DICTIONARY
  5
D
102
{ACAD_REACTORS
330
C
102
}
330
C
100
AcDbDictionary
281
     1
  3
*A13
350
1C18
  3
*A31
350
1C19
  3
*A46
350
1E93
  3
*A47
350
1E94
  3
*A83
350
5BAC
  3
*A85
350
5BAE
  0
RASTERVARIABLES
  5
5BE8
102
{ACAD_REACTORS
330
C
102
}
330
C
100
AcDbRasterVariables
 90
        0
 70
     1
 71
     1
 72
     1
  0
DICTIONARY
  5
1A
102
{ACAD_REACTORS
330
C
102
}
330
C
100
AcDbDictionary
281
     1
  3
Layout1
350
1E
  3
Layout2
350
26
  3
Model
350
22
  0
DICTIONARY
  5
17
102
{ACAD_REACTORS
330
C
102
}
330
C
100
AcDbDictionary
281
     1
  3
Standard
350
18
  0
DICTIONARY
  5
19
102
{ACAD_REACTORS
330
C
102
}
330
C
100
AcDbDictionary
281
     1
  0
ACDBDICTIONARYWDFLT
  5
E
102
{ACAD_REACTORS
330
C
102
}
330
C
100
AcDbDictionary
281
     1
  3
Normal
350
F
100
AcDbDictionaryWithDefault
340
F
  0
DICTIONARY
  5
5BB7
102
{ACAD_REACTORS
330
C
102
}
330
C
100
AcDbDictionary
281
     1
  3
A0
350
5BB8
  3
A1
350
5BB9
  3
A2
350
5BBA
  3
A3
350
5BBB
  3
A4
350
5BBC
  3
A5
350
5BBD
  3
A6
350
5BBE
  3
A7
350
5BBF
  3
A8
350
5BC0
  3
A9
350
5BC1
  3
B0
350
5BC2
  3
B1
350
5BC3
  3
B2
350
5BC4
  3
B3
350
5BC5
  3
B4
350
5BC6
  3
B5
350
5BC7
  3
B6
350
5BC8
  3
B7
350
5BC9
  3
B8
350
5BCA
  3
B9
350
5BCB
  3
C0
350
5BCC
  3
C1
350
5BCD
  3
C2
350
5BCE
  3
C3
350
5BCF
  3
C4
350
5BD0
  3
C5
350
5BD1
  3
C6
350
5BD2
  3
C7
350
5BD3
  3
C8
350
5BD4
  3
C9
350
5BD5
  3
D0
350
5BD6
  3
D1
350
5BD7
  3
D2
350
5BD8
  0
DICTIONARY
  5
5C12
102
{ACAD_REACTORS
330
C
102
}
330
C
100
AcDbDictionary
281
     1
  0
DICTIONARY
  5
1C0B
102
{ACAD_REACTORS
330
C
102
}
330
C
100
AcDbDictionary
281
     1
  3
DIMASSOC
350
39A7
  3
PROJECTNAME
350
39A8
  0
DICTIONARY
  5
5BE6
102
{ACAD_REACTORS
330
C
102
}
330
C
100
AcDbDictionary
281
     1
  0
XRECORD
  5
5C14
102
{ACAD_REACTORS
330
C
102
}
330
C
100
AcDbXrecord
280
     1
  1
DWGPROPS COOKIE
  2

  3

  4

  6

  7

  8
fm
  9

300
=
301
=
302
=
303
=
304
=
305
=
306
=
307
=
308
=
309
=
 40
0.0
 41
2455069.308322477
 42
2457043.409126041
  1

 90
        0
  0
DICTIONARY
  5
1C20
102
{ACAD_REACTORS
330
1C1E
102
}
330
1C1E
100
AcDbDictionary
281
     1
  0
DICTIONARY
  5
33F0
102
{ACAD_REACTORS
330
1C1E
102
}
330
1C1E
100
AcDbDictionary
281
     1
  0
DICTIONARY
  5
1C1F
102
{ACAD_REACTORS
330
1C1E
102
}
330
1C1E
100
AcDbDictionary
281
     1
1001
ACAD
1000
<All
  0
SORTENTSTABLE
  5
2DFF
102
{ACAD_REACTORS
330
2DFE
102
}
330
2DFE
100
AcDbSortentsTable
330
1F
331
0
  5
127F
331
11A5
  5
11A5
331
11A6
  5
11A6
331
11A7
  5
11A7
331
11A8
  5
11A8
331
11A9
  5
11A9
331
11AA
  5
11AA
331
11AB
  5
11AB
331
11AC
  5
11AC
331
11AD
  5
11AD
331
11AE
  5
11AE
331
11AF
  5
11AF
331
11B0
  5
11B0
331
11B1
  5
11B1
331
11B2
  5
11B2
331
11B3
  5
11B3
331
11B4
  5
11B4
331
11B5
  5
11B5
331
11B6
  5
11B6
331
11B7
  5
11B7
331
11B8
  5
11B8
331
11B9
  5
11B9
331
11BA
  5
11BA
331
11BB
  5
11BB
331
11BC
  5
11BC
331
11BD
  5
11BD
331
11BE
  5
11BE
331
11BF
  5
11BF
331
11C0
  5
11C0
331
11C1
  5
11C1
331
11C2
  5
11C2
331
11C3
  5
11C3
331
11C4
  5
11C4
331
11C5
  5
11C5
331
11C6
  5
11C6
331
11C7
  5
11C7
331
11C8
  5
11C8
331
11C9
  5
11C9
331
11CA
  5
11CA
331
11CB
  5
11CB
331
11CC
  5
11CC
331
11CD
  5
11CD
331
11CE
  5
11CE
331
11CF
  5
11CF
331
11D0
  5
11D0
331
11D1
  5
11D1
331
11D2
  5
11D2
331
11D3
  5
11D3
331
11D4
  5
11D4
331
11D5
  5
11D5
331
11D6
  5
11D6
331
11D7
  5
11D7
331
11D8
  5
11D8
331
11D9
  5
11D9
331
11DA
  5
11DA
331
11DB
  5
11DB
331
11DC
  5
11DC
331
11DD
  5
11DD
331
11DE
  5
11DE
331
11DF
  5
11DF
331
11E0
  5
11E0
331
11E1
  5
11E1
331
11E2
  5
11E2
331
11E3
  5
11E3
331
11E4
  5
11E4
331
11E5
  5
11E5
331
11E6
  5
11E6
331
11E7
  5
11E7
331
11E8
  5
11E8
331
11E9
  5
11E9
331
11EA
  5
11EA
331
11EB
  5
11EB
331
11EC
  5
11EC
331
11ED
  5
11ED
331
11EE
  5
11EE
331
11EF
  5
11EF
331
11F0
  5
11F0
331
11F1
  5
11F1
331
11F2
  5
11F2
331
11F3
  5
11F3
331
11F4
  5
11F4
331
11F5
  5
11F5
331
11F6
  5
11F6
331
11F7
  5
11F7
331
11F8
  5
11F8
331
11F9
  5
11F9
331
11FA
  5
11FA
331
11FB
  5
11FB
331
11FC
  5
11FC
331
11FD
  5
11FD
331
11FE
  5
11FE
331
11FF
  5
11FF
331
1200
  5
1200
331
1201
  5
1201
331
1202
  5
1202
331
1203
  5
1203
331
1204
  5
1204
331
1205
  5
1205
331
1206
  5
1206
331
1207
  5
1207
331
1208
  5
1208
331
1209
  5
1209
331
120A
  5
120A
331
120B
  5
120B
331
120C
  5
120C
331
120D
  5
120D
331
120E
  5
120E
331
120F
  5
120F
331
1210
  5
1210
331
1211
  5
1211
331
1212
  5
1212
331
1213
  5
1213
331
1214
  5
1214
331
1215
  5
1215
331
1216
  5
1216
331
1217
  5
1217
331
1218
  5
1218
331
1219
  5
1219
331
121A
  5
121A
331
121B
  5
121B
331
121C
  5
121C
331
121D
  5
121D
331
121E
  5
121E
331
121F
  5
121F
331
1220
  5
1220
331
1221
  5
1221
331
1222
  5
1222
331
1223
  5
1223
331
1224
  5
1224
331
194D
  5
194D
331
194E
  5
194E
331
194F
  5
194F
331
19B1
  5
19B1
331
2106
  5
2106
331
316B
  5
316B
331
3425
  5
3970
331
3426
  5
3971
331
3427
  5
3972
331
3428
  5
3973
331
3429
  5
3974
331
342A
  5
3975
331
342B
  5
3976
331
342C
  5
3977
331
342E
  5
3978
331
342F
  5
3979
331
3430
  5
397A
331
3431
  5
397B
331
3432
  5
397C
331
3433
  5
397D
331
3434
  5
397E
331
3435
  5
397F
331
3436
  5
3980
331
3437
  5
3981
331
3438
  5
3982
331
3439
  5
3983
331
343A
  5
3984
331
343B
  5
3985
331
343C
  5
3986
331
343D
  5
3987
331
343E
  5
3988
331
343F
  5
3989
331
3440
  5
398A
331
3441
  5
398B
331
3442
  5
398C
331
3443
  5
398D
331
3444
  5
398E
331
3445
  5
398F
331
344D
  5
3990
331
384F
  5
3991
331
3850
  5
3992
331
3851
  5
3993
331
3852
  5
3994
331
3853
  5
3995
331
3854
  5
3996
331
3855
  5
3997
331
3856
  5
3998
  0
GROUP
  5
1C18
102
{ACAD_REACTORS
330
D
102
}
330
D
100
AcDbGroup
300

 70
     1
 71
     1
340
11C4
340
11C3
340
11C2
340
11C1
340
11C0
340
11BF
340
11BE
340
11BD
340
11BC
340
11BB
340
11BA
340
11B9
340
11B8
340
11B7
340
11B6
340
11B5
340
11B4
340
11B3
340
11B2
340
11B1
340
11B0
340
11AF
340
11AE
340
11AD
340
11AC
340
11AB
340
11AA
340
11A9
340
11A8
340
11A7
340
11A6
340
11A5
  0
GROUP
  5
1C19
102
{ACAD_REACTORS
330
D
102
}
330
D
100
AcDbGroup
300

 70
     1
 71
     1
340
11E4
340
11E3
340
11E2
340
11E1
340
11E0
340
11DF
340
11DE
340
11DD
340
11DC
340
11DB
340
11DA
340
11D9
340
11D8
340
11D7
340
11D6
340
11D5
340
11D4
340
11D3
340
11D2
340
11D1
340
11D0
340
11CF
340
11CE
340
11CD
340
11CC
340
11CB
340
11CA
340
11C9
340
11C8
340
11C7
340
11C6
340
11C5
  0
GROUP
  5
1E93
102
{ACAD_REACTORS
330
D
102
}
330
D
100
AcDbGroup
300

 70
     1
 71
     1
340
1204
340
1203
340
1202
340
1201
340
1200
340
11FF
340
11FE
340
11FD
340
11FC
340
11FB
340
11FA
340
11F9
340
11F8
340
11F7
340
11F6
340
11F5
340
11F4
340
11F3
340
11F2
340
11F1
340
11F0
340
11EF
340
11EE
340
11ED
340
11EC
340
11EB
340
11EA
340
11E9
340
11E8
340
11E7
340
11E6
340
11E5
  0
GROUP
  5
1E94
102
{ACAD_REACTORS
330
D
102
}
330
D
100
AcDbGroup
300

 70
     1
 71
     1
340
1224
340
1223
340
1222
340
1221
340
1220
340
121F
340
121E
340
121D
340
121C
340
121B
340
121A
340
1219
340
1218
340
1217
340
1216
340
1215
340
1214
340
1213
340
1212
340
1211
340
1210
340
120F
340
120E
340
120D
340
120C
340
120B
340
120A
340
1209
340
1208
340
1207
340
1206
340
1205
  0
GROUP
  5
5BAC
102
{ACAD_REACTORS
330
D
102
}
330
D
100
AcDbGroup
300

 70
     1
 71
     1
340
47D4
340
47D3
340
47D2
340
47D1
340
47D0
340
47CF
340
47CE
340
4798
340
4797
340
4796
340
4795
340
4794
340
4793
340
4792
340
4791
340
4790
340
478F
340
478D
340
478C
340
478B
340
478A
340
4789
340
4788
340
4787
340
4786
340
4785
340
4784
340
4783
340
4781
340
4780
340
477F
340
477E
340
477D
340
477C
340
477B
340
477A
340
4779
340
4778
340
4777
340
4776
340
4775
340
4774
340
4773
340
4772
340
4771
340
4770
340
476F
340
476E
340
476C
340
476B
340
476A
340
4769
340
4768
340
4767
340
4766
340
4765
340
4762
340
475F
340
475D
340
4759
340
4758
340
4756
340
4754
340
4753
340
4750
340
474D
340
474C
340
474A
340
4749
340
4746
340
4745
340
4744
340
4743
340
4742
340
4741
340
4740
340
473F
340
473D
340
473C
340
4654
340
4653
340
4652
340
4650
340
464F
340
464E
340
464D
340
464C
340
464A
340
4490
340
448F
340
448E
340
448D
340
448C
340
448B
340
448A
340
4489
340
4488
340
4487
340
4486
340
4485
340
4484
340
4483
340
4482
340
4481
340
4480
340
447F
340
447E
340
447D
340
447C
340
447B
340
447A
340
4479
340
4478
340
4477
340
4476
340
4475
340
4474
340
4473
340
4472
340
4471
340
4470
340
446F
340
446E
340
446D
340
446C
340
446B
340
446A
340
4469
340
4468
340
4467
340
4466
340
4465
340
4464
340
4463
340
4462
340
4461
340
4460
340
445F
340
445E
340
445D
340
445C
340
445B
340
445A
340
4459
340
4458
340
4457
340
4456
340
4455
340
4454
340
4453
340
4452
340
4451
340
4450
340
444F
340
444E
340
444D
340
444C
340
444B
340
444A
340
4449
340
4448
340
4447
340
4446
340
4445
340
4444
340
4443
340
4442
340
4441
340
4440
340
443F
340
443E
340
443D
340
443C
340
443B
340
443A
340
4439
340
4438
340
4437
340
4436
340
4435
340
4434
340
4433
340
4432
340
4431
340
4430
340
442F
340
442E
340
442D
340
442C
340
442B
340
442A
340
4429
340
4428
340
4427
340
4426
340
4425
340
4424
340
4423
340
4422
340
4421
340
4420
340
441F
340
441E
340
441D
340
441C
340
441B
340
441A
340
4419
340
4418
340
4417
340
4416
340
4415
340
4414
340
4413
340
4412
340
4411
340
4410
340
440F
340
440E
340
440D
340
440C
340
440B
340
440A
340
4409
340
4408
340
4407
340
4406
340
4405
340
4404
340
4403
340
4402
340
4401
340
4400
340
43FF
340
43FE
340
43FD
340
43FC
340
43FB
340
43FA
340
43F9
340
43F8
340
43F7
340
43F6
340
43F5
340
43F4
340
43F3
340
43F2
340
43F1
340
43F0
340
43EF
340
43EE
340
43ED
340
43EC
340
43EB
340
43EA
340
43E9
340
43E8
340
43E7
340
43E6
340
43E5
340
43E4
340
43E3
340
43E2
340
43E1
340
43E0
340
43DF
340
43DE
340
43DD
340
43DC
340
43DB
340
43DA
340
43D9
340
43D8
340
43D7
340
43D6
340
43D5
340
43D4
340
43D3
340
43D2
340
43D1
340
43D0
340
43CF
340
43CE
340
43CD
340
43CC
340
43CB
340
43CA
340
43C9
340
43C8
340
43C7
340
43C6
340
43C5
340
43C4
340
43C3
340
43C2
340
43C1
340
43C0
340
43BF
340
43BE
340
43BD
340
43BC
340
43BB
340
43BA
340
43B9
340
43B8
340
43B7
340
43B6
340
43B5
340
43B4
340
43B3
340
43B2
340
43B1
340
43B0
340
43AF
340
43AE
340
43AD
340
43AC
340
43AB
340
43AA
340
43A9
340
43A8
340
43A7
340
43A6
340
43A5
340
43A4
340
43A3
340
43A2
340
43A1
340
43A0
340
439F
340
439E
340
439D
340
439C
340
439B
340
439A
340
4399
340
4398
340
4397
340
4396
340
4395
340
4394
340
4393
340
4392
340
4391
340
4390
340
438F
340
438E
340
438D
340
438C
340
438B
340
438A
340
4389
340
4388
340
4387
340
4386
340
4385
340
4384
340
4383
340
4382
340
4381
340
4380
340
437F
340
437E
340
437D
340
437C
340
437B
340
437A
340
4379
340
4378
340
4377
340
4376
340
4375
340
4374
340
4373
340
4372
340
4371
340
4370
340
436F
340
436E
340
436D
340
436C
340
4196
340
4195
340
4194
340
4193
340
4192
340
4191
340
4190
340
418F
340
414E
340
414D
340
414C
340
414B
340
414A
340
4149
340
4148
340
4147
340
4146
340
4145
340
4144
340
4143
340
4142
340
4141
340
4140
340
413F
340
413E
340
413D
340
413C
340
413B
340
413A
340
4139
340
4138
340
4137
340
4136
340
4135
340
4134
340
4133
340
4132
340
4131
  0
GROUP
  5
5BAE
102
{ACAD_REACTORS
330
D
102
}
330
D
100
AcDbGroup
300

 70
     1
 71
     1
340
19B1
340
194F
340
194E
340
194D
340
1224
340
1223
340
1222
340
1221
340
1220
340
121F
340
121E
340
121D
340
121C
340
121B
340
121A
340
1219
340
1218
340
1217
340
1216
340
1215
340
1214
340
1213
340
1212
340
1211
340
1210
340
120F
340
120E
340
120D
340
120C
340
120B
340
120A
340
1209
340
1208
340
1207
340
1206
340
1205
340
1204
340
1203
340
1202
340
1201
340
1200
340
11FF
340
11FE
340
11FD
340
11FC
340
11FB
340
11FA
340
11F9
340
11F8
340
11F7
340
11F6
340
11F5
340
11F4
340
11F3
340
11F2
340
11F1
340
11F0
340
11EF
340
11EE
340
11ED
340
11EC
340
11EB
340
11EA
340
11E9
340
11E8
340
11E7
340
11E6
340
11E5
340
11E4
340
11E3
340
11E2
340
11E1
340
11E0
340
11DF
340
11DE
340
11DD
340
11DC
340
11DB
340
11DA
340
11D9
340
11D8
340
11D7
340
11D6
340
11D5
340
11D4
340
11D3
340
11D2
340
11D1
340
11D0
340
11CF
340
11CE
340
11CD
340
11CC
340
11CB
340
11CA
340
11C9
340
11C8
340
11C7
340
11C6
340
11C5
340
11C4
340
11C3
340
11C2
340
11C1
340
11C0
340
11BF
340
11BE
340
11BD
340
11BC
340
11BB
340
11BA
340
11B9
340
11B8
340
11B7
340
11B6
340
11B5
340
11B4
340
11B3
340
11B2
340
11B1
340
11B0
340
11AF
340
11AE
340
11AD
340
11AC
340
11AB
340
11AA
340
11A9
340
11A8
340
11A7
340
11A6
340
11A5
  0
LAYOUT
  5
1E
102
{ACAD_REACTORS
330
1A
102
}
330
1A
100
AcDbPlotSettings
  1

  2
none_device
  4

  6

 40
0.0
 41
0.0
 42
0.0
 43
0.0
 44
0.0
 45
0.0
 46
0.0
 47
0.0
 48
0.0
 49
0.0
140
0.0
141
0.0
142
1.0
143
1.0
 70
   688
 72
     0
 73
     0
 74
     5
  7

 75
    16
147
1.0
148
0.0
149
0.0
100
AcDbLayout
  1
Layout1
 70
     1
 71
     1
 10
0.0
 20
0.0
 11
420.0
 21
297.0
 12
0.0
 22
0.0
 32
0.0
 14
1.000000000000000E+20
 24
1.000000000000000E+20
 34
1.000000000000000E+20
 15
-1.000000000000000E+20
 25
-1.000000000000000E+20
 35
-1.000000000000000E+20
146
0.0
 13
0.0
 23
0.0
 33
0.0
 16
1.0
 26
0.0
 36
0.0
 17
0.0
 27
1.0
 37
0.0
 76
     0
330
1B
  0
LAYOUT
  5
26
102
{ACAD_REACTORS
330
1A
102
}
330
1A
100
AcDbPlotSettings
  1

  2
none_device
  4

  6

 40
0.0
 41
0.0
 42
0.0
 43
0.0
 44
0.0
 45
0.0
 46
0.0
 47
0.0
 48
0.0
 49
0.0
140
0.0
141
0.0
142
1.0
143
1.0
 70
   688
 72
     0
 73
     0
 74
     5
  7

 75
    16
147
1.0
148
0.0
149
0.0
100
AcDbLayout
  1
Layout2
 70
     1
 71
     2
 10
0.0
 20
0.0
 11
0.0
 21
0.0
 12
0.0
 22
0.0
 32
0.0
 14
0.0
 24
0.0
 34
0.0
 15
0.0
 25
0.0
 35
0.0
146
0.0
 13
0.0
 23
0.0
 33
0.0
 16
1.0
 26
0.0
 36
0.0
 17
0.0
 27
1.0
 37
0.0
 76
     0
330
23
  0
LAYOUT
  5
22
102
{ACAD_REACTORS
330
1A
102
}
330
1A
100
AcDbPlotSettings
  1

  2
none_device
  4
ISO_A4_(210.00_x_297.00_MM)
  6

 40
7.5
 41
20.0
 42
7.5
 43
20.0
 44
210.0
 45
297.0
 46
0.0
 47
0.0
 48
0.0
 49
0.0
140
0.0
141
0.0
142
1.0
143
2.675783684477167
 70
 11952
 72
     1
 73
     1
 74
     0
  7

 75
     0
147
0.3737222877175119
148
47.37640633285258
149
3.724074323094101
100
AcDbLayout
  1
Model
 70
     1
 71
     0
 10
0.0
 20
0.0
 11
594.0
 21
420.0
 12
0.0
 22
0.0
 32
0.0
 14
-0.000000690567426
 24
-0.0000001410991004
 34
0.0
 15
593.9999993094325
 25
419.9999998589009
 35
0.0
146
0.0
 13
0.0
 23
0.0
 33
0.0
 16
1.0
 26
0.0
 36
0.0
 17
0.0
 27
1.0
 37
0.0
 76
     0
330
1F
331
5BAF
1001
ACAD_PSEXT
1000
Kein
1000
Kein
1000
Nicht anwendbar
1000
Das Layout wird erst geplottet, wenn ein neuer Plotter-Konfigurationsname ausgewählt wird.
1070
     0
  0
MLINESTYLE
  5
18
102
{ACAD_REACTORS
330
17
102
}
330
17
100
AcDbMlineStyle
  2
STANDARD
 70
     0
  3

 62
   256
 51
90.0
 52
90.0
 71
     2
 49
0.5
 62
   256
  6
BYLAYER
 49
-0.5
 62
   256
  6
BYLAYER
  0
ACDBPLACEHOLDER
  5
F
102
{ACAD_REACTORS
330
E
102
}
330
E
  0
SCALE
  5
5BB8
102
{ACAD_REACTORS
330
5BB7
102
}
330
5BB7
100
AcDbScale
 70
     0
300
1:1
140
1.0
141
1.0
290
     1
  0
SCALE
  5
5BB9
102
{ACAD_REACTORS
330
5BB7
102
}
330
5BB7
100
AcDbScale
 70
     0
300
1:2
140
1.0
141
2.0
290
     0
  0
SCALE
  5
5BBA
102
{ACAD_REACTORS
330
5BB7
102
}
330
5BB7
100
AcDbScale
 70
     0
300
1:4
140
1.0
141
4.0
290
     0
  0
SCALE
  5
5BBB
102
{ACAD_REACTORS
330
5BB7
102
}
330
5BB7
100
AcDbScale
 70
     0
300
1:5
140
1.0
141
5.0
290
     0
  0
SCALE
  5
5BBC
102
{ACAD_REACTORS
330
5BB7
102
}
330
5BB7
100
AcDbScale
 70
     0
300
1:8
140
1.0
141
8.0
290
     0
  0
SCALE
  5
5BBD
102
{ACAD_REACTORS
330
5BB7
102
}
330
5BB7
100
AcDbScale
 70
     0
300
1:10
140
1.0
141
10.0
290
     0
  0
SCALE
  5
5BBE
102
{ACAD_REACTORS
330
5BB7
102
}
330
5BB7
100
AcDbScale
 70
     0
300
1:16
140
1.0
141
16.0
290
     0
  0
SCALE
  5
5BBF
102
{ACAD_REACTORS
330
5BB7
102
}
330
5BB7
100
AcDbScale
 70
     0
300
1:20
140
1.0
141
20.0
290
     0
  0
SCALE
  5
5BC0
102
{ACAD_REACTORS
330
5BB7
102
}
330
5BB7
100
AcDbScale
 70
     0
300
1:30
140
1.0
141
30.0
290
     0
  0
SCALE
  5
5BC1
102
{ACAD_REACTORS
330
5BB7
102
}
330
5BB7
100
AcDbScale
 70
     0
300
1:40
140
1.0
141
40.0
290
     0
  0
SCALE
  5
5BC2
102
{ACAD_REACTORS
330
5BB7
102
}
330
5BB7
100
AcDbScale
 70
     0
300
1:50
140
1.0
141
50.0
290
     0
  0
SCALE
  5
5BC3
102
{ACAD_REACTORS
330
5BB7
102
}
330
5BB7
100
AcDbScale
 70
     0
300
1:100
140
1.0
141
100.0
290
     0
  0
SCALE
  5
5BC4
102
{ACAD_REACTORS
330
5BB7
102
}
330
5BB7
100
AcDbScale
 70
     0
300
2:1
140
2.0
141
1.0
290
     0
  0
SCALE
  5
5BC5
102
{ACAD_REACTORS
330
5BB7
102
}
330
5BB7
100
AcDbScale
 70
     0
300
4:1
140
4.0
141
1.0
290
     0
  0
SCALE
  5
5BC6
102
{ACAD_REACTORS
330
5BB7
102
}
330
5BB7
100
AcDbScale
 70
     0
300
8:1
140
8.0
141
1.0
290
     0
  0
SCALE
  5
5BC7
102
{ACAD_REACTORS
330
5BB7
102
}
330
5BB7
100
AcDbScale
 70
     0
300
10:1
140
10.0
141
1.0
290
     0
  0
SCALE
  5
5BC8
102
{ACAD_REACTORS
330
5BB7
102
}
330
5BB7
100
AcDbScale
 70
     0
300
100:1
140
100.0
141
1.0
290
     0
  0
SCALE
  5
5BC9
102
{ACAD_REACTORS
330
5BB7
102
}
330
5BB7
100
AcDbScale
 70
     0
300
1/128" = 1'-0"
140
0.0078125
141
12.0
290
     0
  0
SCALE
  5
5BCA
102
{ACAD_REACTORS
330
5BB7
102
}
330
5BB7
100
AcDbScale
 70
     0
300
1/64" = 1'-0"
140
0.015625
141
12.0
290
     0
  0
SCALE
  5
5BCB
102
{ACAD_REACTORS
330
5BB7
102
}
330
5BB7
100
AcDbScale
 70
     0
300
1/32" = 1'-0"
140
0.03125
141
12.0
290
     0
  0
SCALE
  5
5BCC
102
{ACAD_REACTORS
330
5BB7
102
}
330
5BB7
100
AcDbScale
 70
     0
300
1/16" = 1'-0"
140
0.0625
141
12.0
290
     0
  0
SCALE
  5
5BCD
102
{ACAD_REACTORS
330
5BB7
102
}
330
5BB7
100
AcDbScale
 70
     0
300
3/32" = 1'-0"
140
0.09375
141
12.0
290
     0
  0
SCALE
  5
5BCE
102
{ACAD_REACTORS
330
5BB7
102
}
330
5BB7
100
AcDbScale
 70
     0
300
1/8" = 1'-0"
140
0.125
141
12.0
290
     0
  0
SCALE
  5
5BCF
102
{ACAD_REACTORS
330
5BB7
102
}
330
5BB7
100
AcDbScale
 70
     0
300
3/16" = 1'-0"
140
0.1875
141
12.0
290
     0
  0
SCALE
  5
5BD0
102
{ACAD_REACTORS
330
5BB7
102
}
330
5BB7
100
AcDbScale
 70
     0
300
1/4" = 1'-0"
140
0.25
141
12.0
290
     0
  0
SCALE
  5
5BD1
102
{ACAD_REACTORS
330
5BB7
102
}
330
5BB7
100
AcDbScale
 70
     0
300
3/8" = 1'-0"
140
0.375
141
12.0
290
     0
  0
SCALE
  5
5BD2
102
{ACAD_REACTORS
330
5BB7
102
}
330
5BB7
100
AcDbScale
 70
     0
300
1/2" = 1'-0"
140
0.5
141
12.0
290
     0
  0
SCALE
  5
5BD3
102
{ACAD_REACTORS
330
5BB7
102
}
330
5BB7
100
AcDbScale
 70
     0
300
3/4" = 1'-0"
140
0.75
141
12.0
290
     0
  0
SCALE
  5
5BD4
102
{ACAD_REACTORS
330
5BB7
102
}
330
5BB7
100
AcDbScale
 70
     0
300
1" = 1'-0"
140
1.0
141
12.0
290
     0
  0
SCALE
  5
5BD5
102
{ACAD_REACTORS
330
5BB7
102
}
330
5BB7
100
AcDbScale
 70
     0
300
1-1/2" = 1'-0"
140
1.5
141
12.0
290
     0
  0
SCALE
  5
5BD6
102
{ACAD_REACTORS
330
5BB7
102
}
330
5BB7
100
AcDbScale
 70
     0
300
3" = 1'-0"
140
3.0
141
12.0
290
     0
  0
SCALE
  5
5BD7
102
{ACAD_REACTORS
330
5BB7
102
}
330
5BB7
100
AcDbScale
 70
     0
300
6" = 1'-0"
140
6.0
141
12.0
290
     0
  0
SCALE
  5
5BD8
102
{ACAD_REACTORS
330
5BB7
102
}
330
5BB7
100
AcDbScale
 70
     0
300
1'-0" = 1'-0"
140
12.0
141
12.0
290
     0
  0
DICTIONARYVAR
  5
39A7
102
{ACAD_REACTORS
330
1C0B
102
}
330
1C0B
100
DictionaryVariables
280
     0
  1
1
  0
DICTIONARYVAR
  5
39A8
102
{ACAD_REACTORS
330
1C0B
102
}
330
1C0B
100
DictionaryVariables
280
     0
  1

  0
ENDSEC
  0
EOF
