  0
SECTION
  2
HEADER
  9
$ACADVER
  1
AC1014
  9
$ACADMAINTVER
 70
     9
  9
$DWGCODEPAGE
  3
ANSI_1252
  9
$INSBASE
 10
0.0
 20
0.0
 30
0.0
  9
$EXTMIN
 10
0.0
 20
0.0
 30
0.0
  9
$EXTMAX
 10
594.0
 20
420.0
 30
0.0
  9
$LIMMIN
 10
0.0
 20
0.0
  9
$LIMMAX
 10
420.0
 20
297.0
  9
$ORTHOMODE
 70
     1
  9
$REGENMODE
 70
     1
  9
$FILLMODE
 70
     1
  9
$QTEXTMODE
 70
     0
  9
$MIRRTEXT
 70
     1
  9
$DRAGMODE
 70
     2
  9
$LTSCALE
 40
1.0
  9
$OSMODE
 70
    37
  9
$ATTMODE
 70
     1
  9
$TEXTSIZE
 40
2.0
  9
$TRACEWID
 40
1.0
  9
$TEXTSTYLE
  7
TASTENTEXT
  9
$CLAYER
  8
0
  9
$CELTYPE
  6
BYLAYER
  9
$CECOLOR
 62
   256
  9
$CELTSCALE
 40
1.0
  9
$DELOBJ
 70
     1
  9
$DISPSILH
 70
     0
  9
$DIMSCALE
 40
1.0
  9
$DIMASZ
 40
2.5
  9
$DIMEXO
 40
0.625
  9
$DIMDLI
 40
3.75
  9
$DIMRND
 40
0.0
  9
$DIMDLE
 40
0.0
  9
$DIMEXE
 40
1.25
  9
$DIMTP
 40
0.0
  9
$DIMTM
 40
0.0
  9
$DIMTXT
 40
2.5
  9
$DIMCEN
 40
2.5
  9
$DIMTSZ
 40
0.0
  9
$DIMTOL
 70
     0
  9
$DIMLIM
 70
     0
  9
$DIMTIH
 70
     0
  9
$DIMTOH
 70
     0
  9
$DIMSE1
 70
     0
  9
$DIMSE2
 70
     0
  9
$DIMTAD
 70
     1
  9
$DIMZIN
 70
     8
  9
$DIMBLK
  1

  9
$DIMASO
 70
     1
  9
$DIMSHO
 70
     1
  9
$DIMPOST
  1

  9
$DIMAPOST
  1

  9
$DIMALT
 70
     0
  9
$DIMALTD
 70
     4
  9
$DIMALTF
 40
0.0394
  9
$DIMLFAC
 40
1.0
  9
$DIMTOFL
 70
     1
  9
$DIMTVP
 40
0.0
  9
$DIMTIX
 70
     0
  9
$DIMSOXD
 70
     0
  9
$DIMSAH
 70
     0
  9
$DIMBLK1
  1

  9
$DIMBLK2
  1

  9
$DIMSTYLE
  2
STANDARD
  9
$DIMCLRD
 70
     0
  9
$DIMCLRE
 70
     0
  9
$DIMCLRT
 70
     0
  9
$DIMTFAC
 40
1.0
  9
$DIMGAP
 40
0.625
  9
$DIMJUST
 70
     0
  9
$DIMSD1
 70
     0
  9
$DIMSD2
 70
     0
  9
$DIMTOLJ
 70
     1
  9
$DIMTZIN
 70
     0
  9
$DIMALTZ
 70
     0
  9
$DIMALTTZ
 70
     0
  9
$DIMFIT
 70
     3
  9
$DIMUPT
 70
     0
  9
$DIMUNIT
 70
     8
  9
$DIMDEC
 70
     4
  9
$DIMTDEC
 70
     4
  9
$DIMALTU
 70
     8
  9
$DIMALTTD
 70
     4
  9
$DIMTXSTY
  7
STANDARD
  9
$DIMAUNIT
 70
     0
  9
$LUNITS
 70
     2
  9
$LUPREC
 70
     4
  9
$SKETCHINC
 40
1.0
  9
$FILLETRAD
 40
1.0
  9
$AUNITS
 70
     0
  9
$AUPREC
 70
     0
  9
$MENU
  1
acad
  9
$ELEVATION
 40
0.0
  9
$PELEVATION
 40
0.0
  9
$THICKNESS
 40
0.0
  9
$LIMCHECK
 70
     0
  9
$BLIPMODE
 70
     0
  9
$CHAMFERA
 40
0.0
  9
$CHAMFERB
 40
0.0
  9
$CHAMFERC
 40
20.0
  9
$CHAMFERD
 40
0.0
  9
$SKPOLY
 70
     0
  9
$TDCREATE
 40
2451774.355798842
  9
$TDUPDATE
 40
2453160.361916412
  9
$TDINDWG
 40
0.3040030208
  9
$TDUSRTIMER
 40
0.3040030208
  9
$USRTIMER
 70
     1
  9
$ANGBASE
 50
0.0
  9
$ANGDIR
 70
     0
  9
$PDMODE
 70
     0
  9
$PDSIZE
 40
0.0
  9
$PLINEWID
 40
0.0
  9
$COORDS
 70
     1
  9
$SPLFRAME
 70
     0
  9
$SPLINETYPE
 70
     6
  9
$SPLINESEGS
 70
     8
  9
$ATTDIA
 70
     0
  9
$ATTREQ
 70
     1
  9
$HANDLING
 70
 22529
  9
$HANDSEED
  5
2867D
  9
$SURFTAB1
 70
     6
  9
$SURFTAB2
 70
     6
  9
$SURFTYPE
 70
     6
  9
$SURFU
 70
     6
  9
$SURFV
 70
     6
  9
$UCSNAME
  2

  9
$UCSORG
 10
0.0
 20
0.0
 30
0.0
  9
$UCSXDIR
 10
1.0
 20
0.0
 30
0.0
  9
$UCSYDIR
 10
0.0
 20
1.0
 30
0.0
  9
$PUCSNAME
  2

  9
$PUCSORG
 10
0.0
 20
0.0
 30
0.0
  9
$PUCSXDIR
 10
1.0
 20
0.0
 30
0.0
  9
$PUCSYDIR
 10
0.0
 20
1.0
 30
0.0
  9
$USERI1
 70
     0
  9
$USERI2
 70
     0
  9
$USERI3
 70
     0
  9
$USERI4
 70
     0
  9
$USERI5
 70
     0
  9
$USERR1
 40
0.0
  9
$USERR2
 40
0.0
  9
$USERR3
 40
0.0
  9
$USERR4
 40
0.0
  9
$USERR5
 40
0.0
  9
$WORLDVIEW
 70
     1
  9
$SHADEDGE
 70
     3
  9
$SHADEDIF
 70
    70
  9
$TILEMODE
 70
     1
  9
$MAXACTVP
 70
    48
  9
$PINSBASE
 10
0.0
 20
0.0
 30
0.0
  9
$PLIMCHECK
 70
     0
  9
$PEXTMIN
 10
1.000000000000000E+20
 20
1.000000000000000E+20
 30
1.000000000000000E+20
  9
$PEXTMAX
 10
-1.000000000000000E+20
 20
-1.000000000000000E+20
 30
-1.000000000000000E+20
  9
$PLIMMIN
 10
0.0
 20
0.0
  9
$PLIMMAX
 10
420.0
 20
297.0
  9
$UNITMODE
 70
     0
  9
$VISRETAIN
 70
     1
  9
$PLINEGEN
 70
     0
  9
$PSLTSCALE
 70
     1
  9
$TREEDEPTH
 70
  3020
  9
$PICKSTYLE
 70
     1
  9
$CMLSTYLE
  2
STANDARD
  9
$CMLJUST
 70
     0
  9
$CMLSCALE
 40
20.0
  9
$PROXYGRAPHICS
 70
     1
  9
$MEASUREMENT
 70
     1
  0
ENDSEC
  0
SECTION
  2
CLASSES
  0
CLASS
  1
LWPOLYLINE
  2
AcDbPolyline
  3
AutoCAD 2000
 90
        0
280
     0
281
     1
  0
CLASS
  1
DICTIONARYVAR
  2
AcDbDictionaryVar
  3
AutoCAD 2000
 90
        0
280
     0
281
     0
  0
CLASS
  1
SORTENTSTABLE
  2
AcDbSortentsTable
  3
AutoCAD 2000
 90
        0
280
     0
281
     0
  0
CLASS
  1
HATCH
  2
AcDbHatch
  3
AutoCAD 2000
 90
        0
280
     0
281
     1
  0
CLASS
  1
ACDBDICTIONARYWDFLT
  2
AcDbDictionaryWithDefault
  3
AutoCAD 2000
 90
        0
280
     0
281
     0
  0
CLASS
  1
ACDBPLACEHOLDER
  2
AcDbPlaceHolder
  3
AutoCAD 2000
 90
        0
280
     0
281
     0
  0
CLASS
  1
LAYOUT
  2
AcDbLayout
  3
AutoCAD 2000
 90
        0
280
     0
281
     0
  0
CLASS
  1
LONG_TRANSACTION
  2
AcDbLongTransaction
  3
AutoCAD 2000
 90
        0
280
     0
281
     0
  0
CLASS
  1
LWPOLYLINE
  2
AcDbPolyline
  3
AutoCAD 2000
 90
        0
280
     0
281
     1
  0
CLASS
  1
HATCH
  2
AcDbHatch
  3
AutoCAD 2000
 90
        0
280
     0
281
     1
  0
CLASS
  1
XRECORD
  2
AcDbXrecord
  3
AutoCAD 2000
 90
        0
280
     0
281
     0
  0
CLASS
  1
LONG_TRANSACTION
  2
AcDbLongTransaction
  3
AutoCAD 2000
 90
        0
280
     0
281
     0
  0
CLASS
  1
LWPOLYLINE
  2
AcDbPolyline
  3
AutoCAD 2000
 90
        0
280
     0
281
     1
  0
CLASS
  1
HATCH
  2
AcDbHatch
  3
AutoCAD 2000
 90
        0
280
     0
281
     1
  0
CLASS
  1
XRECORD
  2
AcDbXrecord
  3
AutoCAD 2000
 90
        0
280
     0
281
     0
  0
CLASS
  1
LONG_TRANSACTION
  2
AcDbLongTransaction
  3
AutoCAD 2000
 90
        0
280
     0
281
     0
  0
CLASS
  1
LWPOLYLINE
  2
AcDbPolyline
  3
AutoCAD 2000
 90
        0
280
     0
281
     1
  0
CLASS
  1
HATCH
  2
AcDbHatch
  3
AutoCAD 2000
 90
        0
280
     0
281
     1
  0
CLASS
  1
XRECORD
  2
AcDbXrecord
  3
AutoCAD 2000
 90
        0
280
     0
281
     0
  0
CLASS
  1
LONG_TRANSACTION
  2
AcDbLongTransaction
  3
AutoCAD 2000
 90
        0
280
     0
281
     0
  0
CLASS
  1
LWPOLYLINE
  2
AcDbPolyline
  3
AutoCAD 2000
 90
        0
280
     0
281
     1
  0
CLASS
  1
HATCH
  2
AcDbHatch
  3
AutoCAD 2000
 90
        0
280
     0
281
     1
  0
CLASS
  1
XRECORD
  2
AcDbXrecord
  3
AutoCAD 2000
 90
        0
280
     0
281
     0
  0
CLASS
  1
LONG_TRANSACTION
  2
AcDbLongTransaction
  3
AutoCAD 2000
 90
        0
280
     0
281
     0
  0
CLASS
  1
LWPOLYLINE
  2
AcDbPolyline
  3
AutoCAD 2000
 90
        0
280
     0
281
     1
  0
CLASS
  1
HATCH
  2
AcDbHatch
  3
AutoCAD 2000
 90
        0
280
     0
281
     1
  0
CLASS
  1
XRECORD
  2
AcDbXrecord
  3
AutoCAD 2000
 90
        0
280
     0
281
     0
  0
CLASS
  1
LONG_TRANSACTION
  2
AcDbLongTransaction
  3
AutoCAD 2000
 90
        0
280
     0
281
     0
  0
CLASS
  1
LWPOLYLINE
  2
AcDbPolyline
  3
AutoCAD 2000
 90
        0
280
     0
281
     1
  0
CLASS
  1
HATCH
  2
AcDbHatch
  3
AutoCAD 2000
 90
        0
280
     0
281
     1
  0
CLASS
  1
XRECORD
  2
AcDbXrecord
  3
AutoCAD 2000
 90
        0
280
     0
281
     0
  0
CLASS
  1
LONG_TRANSACTION
  2
AcDbLongTransaction
  3
AutoCAD 2000
 90
        0
280
     0
281
     0
  0
CLASS
  1
LWPOLYLINE
  2
AcDbPolyline
  3
AutoCAD 2000
 90
        0
280
     0
281
     1
  0
CLASS
  1
HATCH
  2
AcDbHatch
  3
AutoCAD 2000
 90
        0
280
     0
281
     1
  0
CLASS
  1
XRECORD
  2
AcDbXrecord
  3
AutoCAD 2000
 90
        0
280
     0
281
     0
  0
CLASS
  1
LONG_TRANSACTION
  2
AcDbLongTransaction
  3
AutoCAD 2000
 90
        0
280
     0
281
     0
  0
CLASS
  1
LWPOLYLINE
  2
AcDbPolyline
  3
AutoCAD 2000
 90
        0
280
     0
281
     1
  0
CLASS
  1
HATCH
  2
AcDbHatch
  3
AutoCAD 2000
 90
        0
280
     0
281
     1
  0
CLASS
  1
XRECORD
  2
AcDbXrecord
  3
AutoCAD 2000
 90
        0
280
     0
281
     0
  0
ENDSEC
  0
SECTION
  2
TABLES
  0
TABLE
  2
VPORT
  5
8
330
0
100
AcDbSymbolTable
 70
     4
  0
VPORT
  5
2863E
330
8
100
AcDbSymbolTableRecord
100
AcDbViewportTableRecord
  2
*ACTIVE
 70
     0
 10
0.0
 20
0.0
 11
1.0
 21
1.0
 12
318.6867673436224
 22
155.7693267179249
 13
0.0
 23
0.0
 14
10.0
 24
10.0
 15
10.0
 25
10.0
 16
0.0
 26
0.0
 36
1.0
 17
0.0
 27
0.0
 37
0.0
 40
672.2838419914378
 41
1.611111111111111
 42
50.0
 43
0.0
 44
0.0
 50
0.0
 51
0.0
 71
     0
 72
   100
 73
     1
 74
     1
 75
     0
 76
     0
 77
     0
 78
     0
  0
ENDTAB
  0
TABLE
  2
LTYPE
  5
5
330
0
100
AcDbSymbolTable
 70
     1
  0
LTYPE
  5
12
330
5
100
AcDbSymbolTableRecord
100
AcDbLinetypeTableRecord
  2
BYBLOCK
 70
     0
  3

 72
    65
 73
     0
 40
0.0
  0
LTYPE
  5
13
330
5
100
AcDbSymbolTableRecord
100
AcDbLinetypeTableRecord
  2
BYLAYER
 70
     0
  3

 72
    65
 73
     0
 40
0.0
  0
LTYPE
  5
14
330
5
100
AcDbSymbolTableRecord
100
AcDbLinetypeTableRecord
  2
CONTINUOUS
 70
     0
  3
Solid line
 72
    65
 73
     0
 40
0.0
  0
ENDTAB
  0
TABLE
  2
LAYER
  5
2
330
0
100
AcDbSymbolTable
 70
     8
  0
LAYER
  5
E
330
2
100
AcDbSymbolTableRecord
100
AcDbLayerTableRecord
  2
0
 70
     0
 62
     7
  6
CONTINUOUS
  0
LAYER
  5
143
330
2
100
AcDbSymbolTableRecord
100
AcDbLayerTableRecord
  2
DEFPOINTS
 70
     0
 62
     7
  6
CONTINUOUS
  0
LAYER
  5
1848A
330
2
100
AcDbSymbolTableRecord
100
AcDbLayerTableRecord
  2
RAHMEN025
 70
     0
 62
     7
  6
CONTINUOUS
  0
LAYER
  5
1848B
330
2
100
AcDbSymbolTableRecord
100
AcDbLayerTableRecord
  2
RAHMEN07
 70
     0
 62
     5
  6
CONTINUOUS
  0
LAYER
  5
1848C
330
2
100
AcDbSymbolTableRecord
100
AcDbLayerTableRecord
  2
RAHMEN05
 70
     0
 62
     6
  6
CONTINUOUS
  0
LAYER
  5
26712
330
2
100
AcDbSymbolTableRecord
100
AcDbLayerTableRecord
  2
BEMASSUNG
 70
     0
 62
     3
  6
CONTINUOUS
  0
LAYER
  5
27B66
330
2
100
AcDbSymbolTableRecord
100
AcDbLayerTableRecord
  2
RAHMEN
 70
     0
 62
     7
  6
CONTINUOUS
  0
LAYER
  5
27B67
330
2
100
AcDbSymbolTableRecord
100
AcDbLayerTableRecord
  2
BLECH
 70
     0
 62
     5
  6
CONTINUOUS
  0
ENDTAB
  0
TABLE
  2
STYLE
  5
3
330
0
100
AcDbSymbolTable
 70
     5
  0
STYLE
  5
F
330
3
100
AcDbSymbolTableRecord
100
AcDbTextStyleTableRecord
  2
STANDARD
 70
     0
 40
0.0
 41
1.0
 50
0.0
 71
     0
 42
2.5
  3
txt
  4

  0
STYLE
  5
220D
330
3
100
AcDbSymbolTableRecord
100
AcDbTextStyleTableRecord
  2
TASTENTEXT
 70
     0
 40
2.0
 41
1.0
 50
0.0
 71
     0
 42
2.0
  3
ARIAL.TTF
  4

1001
ACAD
1000
Arial
1071
       34
  0
STYLE
  5
18491
330
3
100
AcDbSymbolTableRecord
100
AcDbTextStyleTableRecord
  2
ISOCP
 70
     0
 40
0.0
 41
1.0
 50
0.0
 71
     0
 42
2.5
  3
isocp.shx
  4

  0
STYLE
  5
185F2
330
3
100
AcDbSymbolTableRecord
100
AcDbTextStyleTableRecord
  2
WMF-BANKGOTHIC-MD-BT0
 70
     0
 40
0.0
 41
1.0
 50
0.0
 71
     0
 42
2.5
  3
BankGthd.ttf
  4

1001
ACAD
1000
BankGothic Md BT
1071
       34
  0
STYLE
  5
26F90
330
3
100
AcDbSymbolTableRecord
100
AcDbTextStyleTableRecord
  2
SN0
 70
     0
 40
0.0
 41
0.000004
 50
0.0
 71
     0
 42
0.0
  3
ROMAND
  4

  0
ENDTAB
  0
TABLE
  2
VIEW
  5
6
330
0
100
AcDbSymbolTable
 70
     0
  0
ENDTAB
  0
TABLE
  2
UCS
  5
7
330
0
100
AcDbSymbolTable
 70
     0
  0
ENDTAB
  0
TABLE
  2
APPID
  5
9
330
0
100
AcDbSymbolTable
 70
     1
  0
APPID
  5
10
330
9
100
AcDbSymbolTableRecord
100
AcDbRegAppTableRecord
  2
ACAD
 70
     0
  0
ENDTAB
  0
TABLE
  2
DIMSTYLE
  5
A
330
0
100
AcDbSymbolTable
 70
     1
  0
DIMSTYLE
105
1D
102
{ACAD_REACTORS
330
280B1
330
280B2
330
280B3
102
}
330
A
100
AcDbSymbolTableRecord
100
AcDbDimStyleTableRecord
  2
STANDARD
 70
     0
  3

  4

  5

  6

  7

 40
1.0
 41
0.18
 42
0.0625
 43
0.38
 44
0.18
 45
0.0
 46
0.0
 47
0.0
 48
0.0
140
0.18
141
0.09
142
0.0
143
25.4
144
1.0
145
0.0
146
1.0
147
0.09
 71
     0
 72
     0
 73
     1
 74
     1
 75
     0
 76
     0
 77
     0
 78
     0
170
     0
171
     2
172
     0
173
     0
174
     0
175
     0
176
     0
177
     0
178
     0
270
     2
271
     4
272
     4
273
     2
274
     2
340
F
275
     0
280
     0
281
     0
282
     0
283
     1
284
     0
285
     0
286
     0
287
     3
288
     0
  0
ENDTAB
  0
TABLE
  2
BLOCK_RECORD
  5
1
330
0
100
AcDbSymbolTable
 70
     4
  0
BLOCK_RECORD
  5
18
102
{ACAD_XDICTIONARY
360
9822
102
}
330
1
100
AcDbSymbolTableRecord
100
AcDbBlockTableRecord
  2
*MODEL_SPACE
  0
BLOCK_RECORD
  5
15
102
{ACAD_XDICTIONARY
360
2663A
102
}
330
1
100
AcDbSymbolTableRecord
100
AcDbBlockTableRecord
  2
*PAPER_SPACE
  0
BLOCK_RECORD
  5
1856E
330
1
100
AcDbSymbolTableRecord
100
AcDbBlockTableRecord
  2
A$C4EFE16F9
  0
BLOCK_RECORD
  5
280B4
330
1
100
AcDbSymbolTableRecord
100
AcDbBlockTableRecord
  2
*D1
  0
BLOCK_RECORD
  5
280C0
330
1
100
AcDbSymbolTableRecord
100
AcDbBlockTableRecord
  2
*D2
  0
BLOCK_RECORD
  5
280CC
330
1
100
AcDbSymbolTableRecord
100
AcDbBlockTableRecord
  2
*D3
  0
ENDTAB
  0
ENDSEC
  0
SECTION
  2
BLOCKS
  0
BLOCK
  5
19
330
18
100
AcDbEntity
  8
0
100
AcDbBlockBegin
  2
*MODEL_SPACE
 70
     2
 10
0.0
 20
0.0
 30
0.0
  3
*MODEL_SPACE
  1

  0
ENDBLK
  5
1A
330
18
100
AcDbEntity
  8
0
100
AcDbBlockEnd
  0
BLOCK
  5
16
330
15
100
AcDbEntity
 67
     1
  8
0
100
AcDbBlockBegin
  2
*PAPER_SPACE
 70
     0
 10
0.0
 20
0.0
 30
0.0
  3
*PAPER_SPACE
  1

  0
ENDBLK
  5
17
330
15
100
AcDbEntity
 67
     1
  8
0
100
AcDbBlockEnd
  0
BLOCK
  5
185EF
330
1856E
100
AcDbEntity
  8
0
100
AcDbBlockBegin
  2
A$C4EFE16F9
 70
     0
 10
0.0
 20
0.0
 30
0.0
  3
A$C4EFE16F9
  1

  0
TEXT
  5
1856F
330
1856E
100
AcDbEntity
  8
0
 62
    29
100
AcDbText
 10
0.1140211594872653
 20
0.7536994259858148
 30
0.0
 40
1.502652258844175
  1
DHD
 41
0.75
  7
WMF-BANKGOTHIC-MD-BT0
100
AcDbText
  0
SOLID
  5
18570
330
1856E
100
AcDbEntity
  8
0
 62
    30
100
AcDbTrace
 10
1.232984684201756
 20
11.6392852740014
 30
0.0
 11
1.232984684201756
 21
11.6392852740014
 31
0.0
 12
4.193221981308504
 22
8.660527201313172
 32
0.0
 13
1.232984684201756
 23
5.717267281822785
 33
0.0
  0
SOLID
  5
18571
330
1856E
100
AcDbEntity
  8
0
 62
    30
100
AcDbTrace
 10
4.193221981308504
 20
8.660527201313172
 30
0.0
 11
1.232984684201756
 21
5.717267281822785
 31
0.0
 12
1.232984684201756
 22
5.717267281822785
 32
0.0
 13
4.193221981308504
 23
8.660527201313172
 33
0.0
  0
SOLID
  5
18572
330
1856E
100
AcDbEntity
  8
0
 62
    29
100
AcDbTrace
 10
4.254957899913442
 20
8.598791282708234
 30
0.0
 11
1.171248765596818
 21
11.57909275336158
 31
0.0
 12
4.254957899913442
 22
8.720719721952988
 32
0.0
 13
1.294720602806691
 23
11.70102119260634
 33
0.0
  0
SOLID
  5
18573
330
1856E
100
AcDbEntity
  8
0
 62
    29
100
AcDbTrace
 10
4.254957899913442
 20
8.720719721952988
 30
0.0
 11
1.294720602806691
 21
11.70102119260634
 31
0.0
 12
1.294720602806691
 22
11.70102119260634
 32
0.0
 13
4.254957899913442
 23
8.720719721952988
 33
0.0
  0
SOLID
  5
18574
330
1856E
100
AcDbEntity
  8
0
 62
    29
100
AcDbTrace
 10
4.254957899913442
 20
8.598791282708234
 30
0.0
 11
4.131486062703565
 21
8.598791282708234
 31
0.0
 12
1.171248765596818
 22
11.57909275336158
 32
0.0
 13
1.171248765596818
 23
11.57909275336158
 33
0.0
  0
SOLID
  5
18575
330
1856E
100
AcDbEntity
  8
0
 62
    29
100
AcDbTrace
 10
4.254957899913442
 20
8.598791282708234
 30
0.0
 11
4.242610716192452
 21
8.587987496952372
 31
0.0
 12
4.131486062703565
 22
8.598791282708234
 32
0.0
 13
4.228720134506342
 23
8.580270507126755
 33
0.0
  0
SOLID
  5
18576
330
1856E
100
AcDbEntity
  8
0
 62
    29
100
AcDbTrace
 10
4.131486062703565
 20
8.598791282708234
 30
0.0
 11
4.228720134506342
 21
8.580270507126755
 31
0.0
 12
4.139203052529182
 22
8.592617690847738
 32
0.0
 13
4.221003144680722
 23
8.577183711196504
 33
0.0
  0
SOLID
  5
18577
330
1856E
100
AcDbEntity
  8
0
 62
    29
100
AcDbTrace
 10
4.139203052529182
 20
8.592617690847738
 30
0.0
 11
4.221003144680722
 21
8.577183711196504
 31
0.0
 12
4.148463440319922
 22
8.58644409898725
 32
0.0
 13
4.213286154855108
 23
8.57409691526626
 33
0.0
  0
SOLID
  5
18578
330
1856E
100
AcDbEntity
  8
0
 62
    29
100
AcDbTrace
 10
4.148463440319922
 20
8.58644409898725
 30
0.0
 11
4.213286154855108
 21
8.57409691526626
 31
0.0
 12
4.156180430145539
 22
8.581813905091877
 32
0.0
 13
4.205569165029491
 23
8.572553517301138
 33
0.0
  0
SOLID
  5
18579
330
1856E
100
AcDbEntity
  8
0
 62
    29
100
AcDbTrace
 10
4.156180430145539
 20
8.581813905091877
 30
0.0
 11
4.205569165029491
 21
8.572553517301138
 31
0.0
 12
4.163897419971156
 22
8.577183711196504
 32
0.0
 13
4.19785217520387
 23
8.572553517301138
 33
0.0
  0
SOLID
  5
1857A
330
1856E
100
AcDbEntity
  8
0
 62
    29
100
AcDbTrace
 10
4.163897419971156
 20
8.577183711196504
 30
0.0
 11
4.19785217520387
 21
8.572553517301138
 31
0.0
 12
4.171614409796774
 22
8.57409691526626
 32
0.0
 13
4.18859178741313
 23
8.572553517301138
 33
0.0
  0
SOLID
  5
1857B
330
1856E
100
AcDbEntity
  8
0
 62
    29
100
AcDbTrace
 10
4.171614409796774
 20
8.57409691526626
 30
0.0
 11
4.18859178741313
 21
8.572553517301138
 31
0.0
 12
4.180874797587513
 22
8.572553517301138
 32
0.0
 13
4.180874797587513
 23
8.572553517301138
 33
0.0
  0
SOLID
  5
1857C
330
1856E
100
AcDbEntity
  8
0
 62
    29
100
AcDbTrace
 10
4.254957899913442
 20
8.598791282708234
 30
0.0
 11
4.281195665320538
 21
8.672874385034162
 31
0.0
 12
4.265761685669303
 22
8.611138466429224
 32
0.0
 13
4.281195665320538
 23
8.663613997243416
 33
0.0
  0
SOLID
  5
1857D
330
1856E
100
AcDbEntity
  8
0
 62
    29
100
AcDbTrace
 10
4.265761685669303
 20
8.611138466429224
 30
0.0
 11
4.281195665320538
 21
8.663613997243416
 31
0.0
 12
4.273478675494921
 22
8.625029048115337
 32
0.0
 13
4.281195665320538
 23
8.655897007417799
 33
0.0
  0
SOLID
  5
1857E
330
1856E
100
AcDbEntity
  8
0
 62
    29
100
AcDbTrace
 10
4.273478675494921
 20
8.625029048115337
 30
0.0
 11
4.281195665320538
 21
8.655897007417799
 31
0.0
 12
4.276565471425168
 22
8.632746037940947
 32
0.0
 13
4.281195665320538
 23
8.648180017592181
 33
0.0
  0
SOLID
  5
1857F
330
1856E
100
AcDbEntity
  8
0
 62
    29
100
AcDbTrace
 10
4.276565471425168
 20
8.632746037940947
 30
0.0
 11
4.281195665320538
 21
8.648180017592181
 31
0.0
 12
4.279652267355416
 22
8.640463027766564
 32
0.0
 13
4.279652267355416
 23
8.640463027766564
 33
0.0
  0
SOLID
  5
18580
330
1856E
100
AcDbEntity
  8
0
 62
    29
100
AcDbTrace
 10
4.254957899913442
 20
8.598791282708234
 30
0.0
 11
4.279652267355416
 21
8.68059137485978
 31
0.0
 12
4.281195665320538
 22
8.672874385034162
 32
0.0
 13
4.281195665320538
 23
8.672874385034162
 33
0.0
  0
SOLID
  5
18581
330
1856E
100
AcDbEntity
  8
0
 62
    29
100
AcDbTrace
 10
4.279652267355416
 20
8.68059137485978
 30
0.0
 11
4.254957899913442
 21
8.598791282708234
 31
0.0
 12
4.276565471425168
 22
8.688308364685397
 32
0.0
 13
4.276565471425168
 23
8.688308364685397
 33
0.0
  0
SOLID
  5
18582
330
1856E
100
AcDbEntity
  8
0
 62
    29
100
AcDbTrace
 10
4.276565471425168
 20
8.688308364685397
 30
0.0
 11
4.254957899913442
 21
8.598791282708234
 31
0.0
 12
4.273478675494921
 22
8.697568752476136
 32
0.0
 13
4.273478675494921
 23
8.697568752476136
 33
0.0
  0
SOLID
  5
18583
330
1856E
100
AcDbEntity
  8
0
 62
    29
100
AcDbTrace
 10
4.273478675494921
 20
8.697568752476136
 30
0.0
 11
4.254957899913442
 21
8.598791282708234
 31
0.0
 12
4.267305083634425
 22
8.705285742301754
 32
0.0
 13
4.267305083634425
 23
8.705285742301754
 33
0.0
  0
SOLID
  5
18584
330
1856E
100
AcDbEntity
  8
0
 62
    29
100
AcDbTrace
 10
4.267305083634425
 20
8.705285742301754
 30
0.0
 11
4.254957899913442
 21
8.598791282708234
 31
0.0
 12
4.262674889739056
 22
8.713002732127371
 32
0.0
 13
4.262674889739056
 23
8.713002732127371
 33
0.0
  0
SOLID
  5
18585
330
1856E
100
AcDbEntity
  8
0
 62
    29
100
AcDbTrace
 10
4.262674889739056
 20
8.713002732127371
 30
0.0
 11
4.254957899913442
 21
8.598791282708234
 31
0.0
 12
4.254957899913442
 22
8.720719721952988
 32
0.0
 13
4.254957899913442
 23
8.598791282708234
 33
0.0
  0
SOLID
  5
18586
330
1856E
100
AcDbEntity
  8
0
 62
    29
100
AcDbTrace
 10
4.254957899913442
 20
8.720719721952988
 30
0.0
 11
4.254957899913442
 21
8.598791282708234
 31
0.0
 12
4.254957899913442
 22
8.598791282708234
 32
0.0
 13
4.254957899913442
 23
8.598791282708234
 33
0.0
  0
SOLID
  5
18587
330
1856E
100
AcDbEntity
  8
0
 62
    29
100
AcDbTrace
 10
1.146554398154844
 20
5.717267281822785
 30
0.0
 11
4.133029460668687
 21
8.720719721952988
 31
0.0
 12
1.293177204841569
 22
5.657074761182968
 32
0.0
 13
4.254957899913442
 23
8.598791282708234
 33
0.0
  0
SOLID
  5
18588
330
1856E
100
AcDbEntity
  8
0
 62
    29
100
AcDbTrace
 10
1.293177204841569
 20
5.657074761182968
 30
0.0
 11
4.254957899913442
 21
8.598791282708234
 31
0.0
 12
4.254957899913442
 22
8.598791282708234
 32
0.0
 13
1.293177204841569
 23
5.657074761182968
 33
0.0
  0
SOLID
  5
18589
330
1856E
100
AcDbEntity
  8
0
 62
    29
100
AcDbTrace
 10
1.146554398154844
 20
5.717267281822785
 30
0.0
 11
1.171248765596818
 21
5.779003200427716
 31
0.0
 12
4.133029460668687
 22
8.720719721952988
 32
0.0
 13
4.133029460668687
 23
8.720719721952988
 33
0.0
  0
SOLID
  5
1858A
330
1856E
100
AcDbEntity
  8
0
 62
    29
100
AcDbTrace
 10
1.146554398154844
 20
5.717267281822785
 30
0.0
 11
1.146554398154844
 21
5.738874853334507
 31
0.0
 12
1.171248765596818
 22
5.779003200427716
 32
0.0
 13
1.149641194085088
 23
5.746591843160125
 33
0.0
  0
SOLID
  5
1858B
330
1856E
100
AcDbEntity
  8
0
 62
    29
100
AcDbTrace
 10
1.171248765596818
 20
5.779003200427716
 30
0.0
 11
1.149641194085088
 21
5.746591843160125
 31
0.0
 12
1.165075173736322
 22
5.771286210602099
 32
0.0
 13
1.154271387980461
 23
5.755852230950864
 33
0.0
  0
SOLID
  5
1858C
330
1856E
100
AcDbEntity
  8
0
 62
    29
100
AcDbTrace
 10
1.165075173736322
 20
5.771286210602099
 30
0.0
 11
1.154271387980461
 21
5.755852230950864
 31
0.0
 12
1.158901581875831
 22
5.763569220776489
 32
0.0
 13
1.158901581875831
 23
5.763569220776489
 33
0.0
  0
SOLID
  5
1858D
330
1856E
100
AcDbEntity
  8
0
 62
    29
100
AcDbTrace
 10
1.145011000189718
 20
5.714180485892534
 30
0.0
 11
1.293177204841569
 21
5.657074761182968
 31
0.0
 12
1.145011000189718
 22
5.706463496066916
 32
0.0
 13
1.285460215015952
 23
5.649357771357351
 33
0.0
  0
SOLID
  5
1858E
330
1856E
100
AcDbEntity
  8
0
 62
    29
100
AcDbTrace
 10
1.145011000189718
 20
5.706463496066916
 30
0.0
 11
1.285460215015952
 21
5.649357771357351
 31
0.0
 12
1.146554398154844
 22
5.698746506241299
 32
0.0
 13
1.277743225190334
 23
5.643184179496856
 33
0.0
  0
SOLID
  5
1858F
330
1856E
100
AcDbEntity
  8
0
 62
    29
100
AcDbTrace
 10
1.146554398154844
 20
5.698746506241299
 30
0.0
 11
1.277743225190334
 21
5.643184179496856
 31
0.0
 12
1.149641194085088
 22
5.691029516415682
 32
0.0
 13
1.270026235364717
 23
5.63855398560149
 33
0.0
  0
SOLID
  5
18590
330
1856E
100
AcDbEntity
  8
0
 62
    29
100
AcDbTrace
 10
1.149641194085088
 20
5.691029516415682
 30
0.0
 11
1.270026235364717
 21
5.63855398560149
 31
0.0
 12
1.152727990015335
 22
5.683312526590064
 32
0.0
 13
1.2623092455391
 23
5.635467189671238
 33
0.0
  0
SOLID
  5
18591
330
1856E
100
AcDbEntity
  8
0
 62
    29
100
AcDbTrace
 10
1.152727990015335
 20
5.683312526590064
 30
0.0
 11
1.2623092455391
 21
5.635467189671238
 31
0.0
 12
1.160444979840953
 22
5.669421944903959
 32
0.0
 13
1.25304885774836
 23
5.632380393740994
 33
0.0
  0
SOLID
  5
18592
330
1856E
100
AcDbEntity
  8
0
 62
    29
100
AcDbTrace
 10
1.160444979840953
 20
5.669421944903959
 30
0.0
 11
1.25304885774836
 21
5.632380393740994
 31
0.0
 12
1.171248765596818
 22
5.657074761182968
 32
0.0
 13
1.245331867922743
 23
5.630836995775872
 33
0.0
  0
SOLID
  5
18593
330
1856E
100
AcDbEntity
  8
0
 62
    29
100
AcDbTrace
 10
1.171248765596818
 20
5.657074761182968
 30
0.0
 11
1.245331867922743
 21
5.630836995775872
 31
0.0
 12
1.183595949317805
 22
5.646270975427107
 32
0.0
 13
1.237614878097126
 23
5.630836995775872
 33
0.0
  0
SOLID
  5
18594
330
1856E
100
AcDbEntity
  8
0
 62
    29
100
AcDbTrace
 10
1.183595949317805
 20
5.646270975427107
 30
0.0
 11
1.237614878097126
 21
5.630836995775872
 31
0.0
 12
1.197486531003917
 22
5.63855398560149
 32
0.0
 13
1.228354490306386
 23
5.630836995775872
 33
0.0
  0
SOLID
  5
18595
330
1856E
100
AcDbEntity
  8
0
 62
    29
100
AcDbTrace
 10
1.197486531003917
 20
5.63855398560149
 30
0.0
 11
1.228354490306386
 21
5.630836995775872
 31
0.0
 12
1.205203520829535
 22
5.635467189671238
 32
0.0
 13
1.220637500480766
 23
5.630836995775872
 33
0.0
  0
SOLID
  5
18596
330
1856E
100
AcDbEntity
  8
0
 62
    29
100
AcDbTrace
 10
1.205203520829535
 20
5.635467189671238
 30
0.0
 11
1.220637500480766
 21
5.630836995775872
 31
0.0
 12
1.212920510655152
 22
5.632380393740994
 32
0.0
 13
1.212920510655152
 23
5.632380393740994
 33
0.0
  0
SOLID
  5
18597
330
1856E
100
AcDbEntity
  8
0
 62
    29
100
AcDbTrace
 10
1.293177204841569
 20
5.657074761182968
 30
0.0
 11
1.146554398154844
 21
5.717267281822785
 31
0.0
 12
1.146554398154844
 22
5.717267281822785
 32
0.0
 13
1.146554398154844
 23
5.717267281822785
 33
0.0
  0
SOLID
  5
18598
330
1856E
100
AcDbEntity
  8
0
 62
    29
100
AcDbTrace
 10
1.294720602806691
 20
11.70102119260634
 30
0.0
 11
1.319414970248669
 21
11.6392852740014
 31
0.0
 12
1.146554398154844
 22
11.6392852740014
 32
0.0
 13
1.319414970248669
 23
5.717267281822785
 33
0.0
  0
SOLID
  5
18599
330
1856E
100
AcDbEntity
  8
0
 62
    29
100
AcDbTrace
 10
1.146554398154844
 20
11.6392852740014
 30
0.0
 11
1.319414970248669
 21
5.717267281822785
 31
0.0
 12
1.146554398154844
 22
5.717267281822785
 32
0.0
 13
1.146554398154844
 23
5.717267281822785
 33
0.0
  0
SOLID
  5
1859A
330
1856E
100
AcDbEntity
  8
0
 62
    29
100
AcDbTrace
 10
1.294720602806691
 20
11.70102119260634
 30
0.0
 11
1.308611184492804
 21
11.6855872129551
 31
0.0
 12
1.319414970248669
 22
11.6392852740014
 32
0.0
 13
1.311697980423051
 23
11.67787022312948
 33
0.0
  0
SOLID
  5
1859B
330
1856E
100
AcDbEntity
  8
0
 62
    29
100
AcDbTrace
 10
1.319414970248669
 20
11.6392852740014
 30
0.0
 11
1.311697980423051
 21
11.67787022312948
 31
0.0
 12
1.319414970248669
 22
11.65008905975726
 32
0.0
 13
1.314784776353295
 23
11.66860983533875
 33
0.0
  0
SOLID
  5
1859C
330
1856E
100
AcDbEntity
  8
0
 62
    29
100
AcDbTrace
 10
1.319414970248669
 20
11.65008905975726
 30
0.0
 11
1.314784776353295
 21
11.66860983533875
 31
0.0
 12
1.317871572283543
 22
11.659349447548
 32
0.0
 13
1.317871572283543
 23
11.659349447548
 33
0.0
  0
SOLID
  5
1859D
330
1856E
100
AcDbEntity
  8
0
 62
    29
100
AcDbTrace
 10
1.293177204841569
 20
11.70410798853658
 30
0.0
 11
1.186682745248052
 21
11.71336837632732
 31
0.0
 12
1.279286623155456
 22
11.71336837632732
 32
0.0
 13
1.192856337108544
 23
11.71799857022269
 33
0.0
  0
SOLID
  5
1859E
330
1856E
100
AcDbEntity
  8
0
 62
    29
100
AcDbTrace
 10
1.279286623155456
 20
11.71336837632732
 30
0.0
 11
1.192856337108544
 21
11.71799857022269
 31
0.0
 12
1.265396041469347
 22
11.72108536615294
 32
0.0
 13
1.200573326934161
 23
11.72108536615294
 33
0.0
  0
SOLID
  5
1859F
330
1856E
100
AcDbEntity
  8
0
 62
    29
100
AcDbTrace
 10
1.265396041469347
 20
11.72108536615294
 30
0.0
 11
1.200573326934161
 21
11.72108536615294
 31
0.0
 12
1.248418663852987
 22
11.72417216208319
 32
0.0
 13
1.216007306585396
 23
11.72417216208319
 33
0.0
  0
SOLID
  5
185A0
330
1856E
100
AcDbEntity
  8
0
 62
    29
100
AcDbTrace
 10
1.248418663852987
 20
11.72417216208319
 30
0.0
 11
1.216007306585396
 21
11.72417216208319
 31
0.0
 12
1.232984684201756
 22
11.72571556004831
 32
0.0
 13
1.232984684201756
 23
11.72571556004831
 33
0.0
  0
SOLID
  5
185A1
330
1856E
100
AcDbEntity
  8
0
 62
    29
100
AcDbTrace
 10
1.293177204841569
 20
11.70410798853658
 30
0.0
 11
1.178965755422435
 21
11.70873818243195
 31
0.0
 12
1.186682745248052
 22
11.71336837632732
 32
0.0
 13
1.186682745248052
 23
11.71336837632732
 33
0.0
  0
SOLID
  5
185A2
330
1856E
100
AcDbEntity
  8
0
 62
    29
100
AcDbTrace
 10
1.157358183910705
 20
11.6855872129551
 30
0.0
 11
1.294720602806691
 21
11.70102119260634
 31
0.0
 12
1.152727990015335
 22
11.67787022312948
 32
0.0
 13
1.294720602806691
 23
11.70102119260634
 33
0.0
  0
SOLID
  5
185A3
330
1856E
100
AcDbEntity
  8
0
 62
    29
100
AcDbTrace
 10
1.152727990015335
 20
11.67787022312948
 30
0.0
 11
1.294720602806691
 21
11.70102119260634
 31
0.0
 12
1.149641194085088
 22
11.66860983533875
 32
0.0
 13
1.146554398154844
 23
11.6392852740014
 33
0.0
  0
SOLID
  5
185A4
330
1856E
100
AcDbEntity
  8
0
 62
    29
100
AcDbTrace
 10
1.149641194085088
 20
11.66860983533875
 30
0.0
 11
1.146554398154844
 21
11.6392852740014
 31
0.0
 12
1.148097796119966
 22
11.659349447548
 32
0.0
 13
1.146554398154844
 23
11.65008905975726
 33
0.0
  0
SOLID
  5
185A5
330
1856E
100
AcDbEntity
  8
0
 62
    29
100
AcDbTrace
 10
1.148097796119966
 20
11.659349447548
 30
0.0
 11
1.146554398154844
 21
11.65008905975726
 31
0.0
 12
1.146554398154844
 22
11.65008905975726
 32
0.0
 13
1.148097796119966
 23
11.659349447548
 33
0.0
  0
SOLID
  5
185A6
330
1856E
100
AcDbEntity
  8
0
 62
    29
100
AcDbTrace
 10
1.161988377806078
 20
11.6917608048156
 30
0.0
 11
1.294720602806691
 21
11.70102119260634
 31
0.0
 12
1.157358183910705
 22
11.6855872129551
 32
0.0
 13
1.157358183910705
 23
11.6855872129551
 33
0.0
  0
SOLID
  5
185A7
330
1856E
100
AcDbEntity
  8
0
 62
    29
100
AcDbTrace
 10
1.166618571701448
 20
11.69793439667609
 30
0.0
 11
1.294720602806691
 21
11.70102119260634
 31
0.0
 12
1.161988377806078
 22
11.6917608048156
 32
0.0
 13
1.161988377806078
 23
11.6917608048156
 33
0.0
  0
SOLID
  5
185A8
330
1856E
100
AcDbEntity
  8
0
 62
    29
100
AcDbTrace
 10
1.17279216356194
 20
11.70410798853658
 30
0.0
 11
1.294720602806691
 21
11.70102119260634
 31
0.0
 12
1.166618571701448
 22
11.69793439667609
 32
0.0
 13
1.166618571701448
 23
11.69793439667609
 33
0.0
  0
SOLID
  5
185A9
330
1856E
100
AcDbEntity
  8
0
 62
    29
100
AcDbTrace
 10
1.178965755422435
 20
11.70873818243195
 30
0.0
 11
1.294720602806691
 21
11.70102119260634
 31
0.0
 12
1.17279216356194
 22
11.70410798853658
 32
0.0
 13
1.17279216356194
 23
11.70410798853658
 33
0.0
  0
SOLID
  5
185AA
330
1856E
100
AcDbEntity
  8
0
 62
    29
100
AcDbTrace
 10
1.293177204841569
 20
11.70410798853658
 30
0.0
 11
1.294720602806691
 21
11.70102119260634
 31
0.0
 12
1.178965755422435
 22
11.70873818243195
 32
0.0
 13
1.178965755422435
 23
11.70873818243195
 33
0.0
  0
SOLID
  5
185AB
330
1856E
100
AcDbEntity
  8
0
 62
    29
100
AcDbTrace
 10
1.297807398736939
 20
11.69793439667609
 30
0.0
 11
1.294720602806691
 21
11.70102119260634
 31
0.0
 12
1.293177204841569
 22
11.70410798853658
 32
0.0
 13
1.293177204841569
 23
11.70410798853658
 33
0.0
  0
SOLID
  5
185AC
330
1856E
100
AcDbEntity
  8
0
 62
    29
100
AcDbTrace
 10
1.297807398736939
 20
11.69793439667609
 30
0.0
 11
1.303980990597434
 21
11.6917608048156
 31
0.0
 12
1.294720602806691
 22
11.70102119260634
 32
0.0
 13
1.308611184492804
 23
11.6855872129551
 33
0.0
  0
SOLID
  5
185AD
330
1856E
100
AcDbEntity
  8
0
 62
    29
100
AcDbTrace
 10
1.294720602806691
 20
11.70102119260634
 30
0.0
 11
1.308611184492804
 21
11.6855872129551
 31
0.0
 12
1.308611184492804
 22
11.6855872129551
 32
0.0
 13
1.294720602806691
 23
11.70102119260634
 33
0.0
  0
SOLID
  5
185AE
330
1856E
100
AcDbEntity
  8
0
 62
    30
100
AcDbTrace
 10
2.589631495545255
 20
8.635832833871198
 30
0.0
 11
2.589631495545255
 21
8.635832833871198
 31
0.0
 12
5.549868792652002
 22
5.655531363217846
 32
0.0
 13
2.589631495545255
 23
2.713814841692581
 33
0.0
  0
SOLID
  5
185AF
330
1856E
100
AcDbEntity
  8
0
 62
    30
100
AcDbTrace
 10
5.549868792652002
 20
5.655531363217846
 30
0.0
 11
2.589631495545255
 21
2.713814841692581
 31
0.0
 12
2.589631495545255
 22
2.713814841692581
 32
0.0
 13
5.549868792652002
 23
5.655531363217846
 33
0.0
  0
SOLID
  5
185B0
330
1856E
100
AcDbEntity
  8
0
 62
    29
100
AcDbTrace
 10
5.611604711256937
 20
5.59533884257803
 30
0.0
 11
2.527895576940316
 21
8.575640313231382
 31
0.0
 12
5.611604711256937
 22
5.717267281822785
 32
0.0
 13
2.65136741415019
 23
8.696025354511007
 33
0.0
  0
SOLID
  5
185B1
330
1856E
100
AcDbEntity
  8
0
 62
    29
100
AcDbTrace
 10
5.611604711256937
 20
5.717267281822785
 30
0.0
 11
2.65136741415019
 21
8.696025354511007
 31
0.0
 12
2.65136741415019
 22
8.696025354511007
 32
0.0
 13
5.611604711256937
 23
5.717267281822785
 33
0.0
  0
SOLID
  5
185B2
330
1856E
100
AcDbEntity
  8
0
 62
    29
100
AcDbTrace
 10
5.611604711256937
 20
5.59533884257803
 30
0.0
 11
5.488132874047064
 21
5.59533884257803
 31
0.0
 12
2.527895576940316
 22
8.575640313231382
 32
0.0
 13
2.527895576940316
 23
8.575640313231382
 33
0.0
  0
SOLID
  5
185B3
330
1856E
100
AcDbEntity
  8
0
 62
    29
100
AcDbTrace
 10
5.611604711256937
 20
5.59533884257803
 30
0.0
 11
5.599257527535954
 21
5.584535056822168
 31
0.0
 12
5.488132874047064
 22
5.59533884257803
 32
0.0
 13
5.585366945849841
 23
5.576818066996551
 33
0.0
  0
SOLID
  5
185B4
330
1856E
100
AcDbEntity
  8
0
 62
    29
100
AcDbTrace
 10
5.488132874047064
 20
5.59533884257803
 30
0.0
 11
5.585366945849841
 21
5.576818066996551
 31
0.0
 12
5.495849863872681
 22
5.587621852752413
 32
0.0
 13
5.577649956024224
 23
5.5737312710663
 33
0.0
  0
SOLID
  5
185B5
330
1856E
100
AcDbEntity
  8
0
 62
    29
100
AcDbTrace
 10
5.495849863872681
 20
5.587621852752413
 30
0.0
 11
5.577649956024224
 21
5.5737312710663
 31
0.0
 12
5.50511025166342
 22
5.582991658857039
 32
0.0
 13
5.569932966198607
 23
5.570644475136056
 33
0.0
  0
SOLID
  5
185B6
330
1856E
100
AcDbEntity
  8
0
 62
    29
100
AcDbTrace
 10
5.50511025166342
 20
5.582991658857039
 30
0.0
 11
5.569932966198607
 21
5.570644475136056
 31
0.0
 12
5.512827241489041
 22
5.576818066996551
 32
0.0
 13
5.562215976372989
 23
5.569101077170934
 33
0.0
  0
SOLID
  5
185B7
330
1856E
100
AcDbEntity
  8
0
 62
    29
100
AcDbTrace
 10
5.512827241489041
 20
5.576818066996551
 30
0.0
 11
5.562215976372989
 21
5.569101077170934
 31
0.0
 12
5.520544231314655
 22
5.5737312710663
 32
0.0
 13
5.554498986547372
 23
5.569101077170934
 33
0.0
  0
SOLID
  5
185B8
330
1856E
100
AcDbEntity
  8
0
 62
    29
100
AcDbTrace
 10
5.520544231314655
 20
5.5737312710663
 30
0.0
 11
5.554498986547372
 21
5.569101077170934
 31
0.0
 12
5.528261221140272
 22
5.570644475136056
 32
0.0
 13
5.545238598756633
 23
5.569101077170934
 33
0.0
  0
SOLID
  5
185B9
330
1856E
100
AcDbEntity
  8
0
 62
    29
100
AcDbTrace
 10
5.528261221140272
 20
5.570644475136056
 30
0.0
 11
5.545238598756633
 21
5.569101077170934
 31
0.0
 12
5.537521608931015
 22
5.569101077170934
 32
0.0
 13
5.537521608931015
 23
5.569101077170934
 33
0.0
  0
SOLID
  5
185BA
330
1856E
100
AcDbEntity
  8
0
 62
    29
100
AcDbTrace
 10
5.611604711256937
 20
5.59533884257803
 30
0.0
 11
5.637842476664037
 21
5.66787854693883
 31
0.0
 12
5.622408497012802
 22
5.60768602629902
 32
0.0
 13
5.637842476664037
 23
5.660161557113212
 33
0.0
  0
SOLID
  5
185BB
330
1856E
100
AcDbEntity
  8
0
 62
    29
100
AcDbTrace
 10
5.622408497012802
 20
5.60768602629902
 30
0.0
 11
5.637842476664037
 21
5.660161557113212
 31
0.0
 12
5.630125486838419
 22
5.621576607985133
 32
0.0
 13
5.637842476664037
 23
5.652444567287595
 33
0.0
  0
SOLID
  5
185BC
330
1856E
100
AcDbEntity
  8
0
 62
    29
100
AcDbTrace
 10
5.630125486838419
 20
5.621576607985133
 30
0.0
 11
5.637842476664037
 21
5.652444567287595
 31
0.0
 12
5.633212282768667
 22
5.627750199845621
 32
0.0
 13
5.637842476664037
 23
5.644727577461978
 33
0.0
  0
SOLID
  5
185BD
330
1856E
100
AcDbEntity
  8
0
 62
    29
100
AcDbTrace
 10
5.633212282768667
 20
5.627750199845621
 30
0.0
 11
5.637842476664037
 21
5.644727577461978
 31
0.0
 12
5.636299078698915
 22
5.635467189671238
 32
0.0
 13
5.636299078698915
 23
5.635467189671238
 33
0.0
  0
SOLID
  5
185BE
330
1856E
100
AcDbEntity
  8
0
 62
    29
100
AcDbTrace
 10
5.611604711256937
 20
5.59533884257803
 30
0.0
 11
5.636299078698915
 21
5.677138934729576
 31
0.0
 12
5.637842476664037
 22
5.66787854693883
 32
0.0
 13
5.637842476664037
 23
5.66787854693883
 33
0.0
  0
SOLID
  5
185BF
330
1856E
100
AcDbEntity
  8
0
 62
    29
100
AcDbTrace
 10
5.636299078698915
 20
5.677138934729576
 30
0.0
 11
5.611604711256937
 21
5.59533884257803
 31
0.0
 12
5.633212282768667
 22
5.684855924555193
 32
0.0
 13
5.633212282768667
 23
5.684855924555193
 33
0.0
  0
SOLID
  5
185C0
330
1856E
100
AcDbEntity
  8
0
 62
    29
100
AcDbTrace
 10
5.633212282768667
 20
5.684855924555193
 30
0.0
 11
5.611604711256937
 21
5.59533884257803
 31
0.0
 12
5.628582088873297
 22
5.692572914380804
 32
0.0
 13
5.628582088873297
 23
5.692572914380804
 33
0.0
  0
SOLID
  5
185C1
330
1856E
100
AcDbEntity
  8
0
 62
    29
100
AcDbTrace
 10
5.628582088873297
 20
5.692572914380804
 30
0.0
 11
5.611604711256937
 21
5.59533884257803
 31
0.0
 12
5.623951894977928
 22
5.70183330217155
 32
0.0
 13
5.623951894977928
 23
5.70183330217155
 33
0.0
  0
SOLID
  5
185C2
330
1856E
100
AcDbEntity
  8
0
 62
    29
100
AcDbTrace
 10
5.623951894977928
 20
5.70183330217155
 30
0.0
 11
5.611604711256937
 21
5.59533884257803
 31
0.0
 12
5.619321701082554
 22
5.709550291997167
 32
0.0
 13
5.619321701082554
 23
5.709550291997167
 33
0.0
  0
SOLID
  5
185C3
330
1856E
100
AcDbEntity
  8
0
 62
    29
100
AcDbTrace
 10
5.619321701082554
 20
5.709550291997167
 30
0.0
 11
5.611604711256937
 21
5.59533884257803
 31
0.0
 12
5.611604711256937
 22
5.717267281822785
 32
0.0
 13
5.611604711256937
 23
5.59533884257803
 33
0.0
  0
SOLID
  5
185C4
330
1856E
100
AcDbEntity
  8
0
 62
    29
100
AcDbTrace
 10
5.611604711256937
 20
5.717267281822785
 30
0.0
 11
5.611604711256937
 21
5.59533884257803
 31
0.0
 12
5.611604711256937
 22
5.59533884257803
 32
0.0
 13
5.611604711256937
 23
5.59533884257803
 33
0.0
  0
SOLID
  5
185C5
330
1856E
100
AcDbEntity
  8
0
 62
    29
100
AcDbTrace
 10
2.503201209498342
 20
2.713814841692581
 30
0.0
 11
5.489676272012189
 21
5.717267281822785
 31
0.0
 12
2.649824016185068
 22
2.653622321052765
 32
0.0
 13
5.611604711256937
 23
5.59533884257803
 33
0.0
  0
SOLID
  5
185C6
330
1856E
100
AcDbEntity
  8
0
 62
    29
100
AcDbTrace
 10
2.649824016185068
 20
2.653622321052765
 30
0.0
 11
5.611604711256937
 21
5.59533884257803
 31
0.0
 12
5.611604711256937
 22
5.59533884257803
 32
0.0
 13
2.649824016185068
 23
2.653622321052765
 33
0.0
  0
SOLID
  5
185C7
330
1856E
100
AcDbEntity
  8
0
 62
    29
100
AcDbTrace
 10
2.503201209498342
 20
2.713814841692581
 30
0.0
 11
2.527895576940316
 21
2.77555076029752
 31
0.0
 12
5.489676272012189
 22
5.717267281822785
 32
0.0
 13
5.489676272012189
 23
5.717267281822785
 33
0.0
  0
SOLID
  5
185C8
330
1856E
100
AcDbEntity
  8
0
 62
    29
100
AcDbTrace
 10
2.503201209498342
 20
2.713814841692581
 30
0.0
 11
2.503201209498342
 21
2.735422413204304
 31
0.0
 12
2.527895576940316
 22
2.77555076029752
 32
0.0
 13
2.50628800542859
 23
2.743139403029921
 33
0.0
  0
SOLID
  5
185C9
330
1856E
100
AcDbEntity
  8
0
 62
    29
100
AcDbTrace
 10
2.527895576940316
 20
2.77555076029752
 30
0.0
 11
2.50628800542859
 21
2.743139403029921
 31
0.0
 12
2.521721985079821
 22
2.767833770471895
 32
0.0
 13
2.51091819932396
 23
2.75239979082066
 33
0.0
  0
SOLID
  5
185CA
330
1856E
100
AcDbEntity
  8
0
 62
    29
100
AcDbTrace
 10
2.521721985079821
 20
2.767833770471895
 30
0.0
 11
2.51091819932396
 21
2.75239979082066
 31
0.0
 12
2.515548393219329
 22
2.760116780646285
 32
0.0
 13
2.515548393219329
 23
2.760116780646285
 33
0.0
  0
SOLID
  5
185CB
330
1856E
100
AcDbEntity
  8
0
 62
    29
100
AcDbTrace
 10
2.501657811533217
 20
2.71072804576233
 30
0.0
 11
2.649824016185068
 21
2.653622321052765
 31
0.0
 12
2.501657811533217
 22
2.703011055936713
 32
0.0
 13
2.64210702635945
 23
2.645905331227147
 33
0.0
  0
SOLID
  5
185CC
330
1856E
100
AcDbEntity
  8
0
 62
    29
100
AcDbTrace
 10
2.501657811533217
 20
2.703011055936713
 30
0.0
 11
2.64210702635945
 21
2.645905331227147
 31
0.0
 12
2.503201209498342
 22
2.695294066111095
 32
0.0
 13
2.634390036533833
 23
2.639731739366652
 33
0.0
  0
SOLID
  5
185CD
330
1856E
100
AcDbEntity
  8
0
 62
    29
100
AcDbTrace
 10
2.503201209498342
 20
2.695294066111095
 30
0.0
 11
2.634390036533833
 21
2.639731739366652
 31
0.0
 12
2.50628800542859
 22
2.687577076285478
 32
0.0
 13
2.626673046708216
 23
2.635101545471286
 33
0.0
  0
SOLID
  5
185CE
330
1856E
100
AcDbEntity
  8
0
 62
    29
100
AcDbTrace
 10
2.50628800542859
 20
2.687577076285478
 30
0.0
 11
2.626673046708216
 21
2.635101545471286
 31
0.0
 12
2.509374801358834
 22
2.679860086459861
 32
0.0
 13
2.618956056882598
 23
2.632014749541035
 33
0.0
  0
SOLID
  5
185CF
330
1856E
100
AcDbEntity
  8
0
 62
    29
100
AcDbTrace
 10
2.509374801358834
 20
2.679860086459861
 30
0.0
 11
2.618956056882598
 21
2.632014749541035
 31
0.0
 12
2.517091791184451
 22
2.665969504773755
 32
0.0
 13
2.609695669091859
 23
2.628927953610791
 33
0.0
  0
SOLID
  5
185D0
330
1856E
100
AcDbEntity
  8
0
 62
    29
100
AcDbTrace
 10
2.517091791184451
 20
2.665969504773755
 30
0.0
 11
2.609695669091859
 21
2.628927953610791
 31
0.0
 12
2.527895576940316
 22
2.653622321052765
 32
0.0
 13
2.601978679266242
 23
2.627384555645662
 33
0.0
  0
SOLID
  5
185D1
330
1856E
100
AcDbEntity
  8
0
 62
    29
100
AcDbTrace
 10
2.527895576940316
 20
2.653622321052765
 30
0.0
 11
2.601978679266242
 21
2.627384555645662
 31
0.0
 12
2.540242760661303
 22
2.642818535296903
 32
0.0
 13
2.592718291475499
 23
2.62584115768054
 33
0.0
  0
SOLID
  5
185D2
330
1856E
100
AcDbEntity
  8
0
 62
    29
100
AcDbTrace
 10
2.540242760661303
 20
2.642818535296903
 30
0.0
 11
2.592718291475499
 21
2.62584115768054
 31
0.0
 12
2.554133342347416
 22
2.635101545471286
 32
0.0
 13
2.585001301649885
 23
2.627384555645662
 33
0.0
  0
SOLID
  5
185D3
330
1856E
100
AcDbEntity
  8
0
 62
    29
100
AcDbTrace
 10
2.554133342347416
 20
2.635101545471286
 30
0.0
 11
2.585001301649885
 21
2.627384555645662
 31
0.0
 12
2.561850332173033
 22
2.632014749541035
 32
0.0
 13
2.577284311824268
 23
2.627384555645662
 33
0.0
  0
SOLID
  5
185D4
330
1856E
100
AcDbEntity
  8
0
 62
    29
100
AcDbTrace
 10
2.561850332173033
 20
2.632014749541035
 30
0.0
 11
2.577284311824268
 21
2.627384555645662
 31
0.0
 12
2.569567321998651
 22
2.628927953610791
 32
0.0
 13
2.569567321998651
 23
2.628927953610791
 33
0.0
  0
SOLID
  5
185D5
330
1856E
100
AcDbEntity
  8
0
 62
    29
100
AcDbTrace
 10
2.649824016185068
 20
2.653622321052765
 30
0.0
 11
2.503201209498342
 21
2.713814841692581
 31
0.0
 12
2.503201209498342
 22
2.713814841692581
 32
0.0
 13
2.503201209498342
 23
2.713814841692581
 33
0.0
  0
SOLID
  5
185D6
330
1856E
100
AcDbEntity
  8
0
 62
    29
100
AcDbTrace
 10
2.65136741415019
 20
8.696025354511007
 30
0.0
 11
2.676061781592167
 21
8.635832833871198
 31
0.0
 12
2.503201209498342
 22
8.635832833871198
 32
0.0
 13
2.676061781592167
 23
2.713814841692581
 33
0.0
  0
SOLID
  5
185D7
330
1856E
100
AcDbEntity
  8
0
 62
    29
100
AcDbTrace
 10
2.503201209498342
 20
8.635832833871198
 30
0.0
 11
2.676061781592167
 21
2.713814841692581
 31
0.0
 12
2.503201209498342
 22
2.713814841692581
 32
0.0
 13
2.503201209498342
 23
2.713814841692581
 33
0.0
  0
SOLID
  5
185D8
330
1856E
100
AcDbEntity
  8
0
 62
    29
100
AcDbTrace
 10
2.65136741415019
 20
8.696025354511007
 30
0.0
 11
2.660627801940933
 21
8.688308364685397
 31
0.0
 12
2.676061781592167
 22
8.635832833871198
 32
0.0
 13
2.665257995836302
 23
8.68059137485978
 33
0.0
  0
SOLID
  5
185D9
330
1856E
100
AcDbEntity
  8
0
 62
    29
100
AcDbTrace
 10
2.676061781592167
 20
8.635832833871198
 30
0.0
 11
2.665257995836302
 21
8.68059137485978
 31
0.0
 12
2.676061781592167
 22
8.646636619627059
 32
0.0
 13
2.66834479176655
 23
8.672874385034162
 33
0.0
  0
SOLID
  5
185DA
330
1856E
100
AcDbEntity
  8
0
 62
    29
100
AcDbTrace
 10
2.676061781592167
 20
8.646636619627059
 30
0.0
 11
2.66834479176655
 21
8.672874385034162
 31
0.0
 12
2.674518383627042
 22
8.655897007417799
 32
0.0
 13
2.671431587696794
 23
8.665157395208545
 33
0.0
  0
SOLID
  5
185DB
330
1856E
100
AcDbEntity
  8
0
 62
    29
100
AcDbTrace
 10
2.674518383627042
 20
8.655897007417799
 30
0.0
 11
2.671431587696794
 21
8.665157395208545
 31
0.0
 12
2.671431587696794
 22
8.665157395208545
 32
0.0
 13
2.674518383627042
 23
8.655897007417799
 33
0.0
  0
SOLID
  5
185DC
330
1856E
100
AcDbEntity
  8
0
 62
    29
100
AcDbTrace
 10
2.654454210080437
 20
8.694481956545885
 30
0.0
 11
2.605065475196489
 21
8.720719721952988
 31
0.0
 12
2.649824016185068
 22
8.700655548406381
 32
0.0
 13
2.620499454847724
 23
8.717632926022737
 33
0.0
  0
SOLID
  5
185DD
330
1856E
100
AcDbEntity
  8
0
 62
    29
100
AcDbTrace
 10
2.649824016185068
 20
8.700655548406381
 30
0.0
 11
2.620499454847724
 21
8.717632926022737
 31
0.0
 12
2.635933434498959
 22
8.70991593619712
 32
0.0
 13
2.635933434498959
 23
8.70991593619712
 33
0.0
  0
SOLID
  5
185DE
330
1856E
100
AcDbEntity
  8
0
 62
    29
100
AcDbTrace
 10
2.589631495545255
 20
8.72226311991811
 30
0.0
 11
2.65136741415019
 21
8.696025354511007
 31
0.0
 12
2.572654117928898
 22
8.720719721952988
 32
0.0
 13
2.503201209498342
 23
8.635832833871198
 33
0.0
  0
SOLID
  5
185DF
330
1856E
100
AcDbEntity
  8
0
 62
    29
100
AcDbTrace
 10
2.572654117928898
 20
8.720719721952988
 30
0.0
 11
2.503201209498342
 21
8.635832833871198
 31
0.0
 12
2.55722013827766
 22
8.717632926022737
 32
0.0
 13
2.503201209498342
 23
8.646636619627059
 33
0.0
  0
SOLID
  5
185E0
330
1856E
100
AcDbEntity
  8
0
 62
    29
100
AcDbTrace
 10
2.55722013827766
 20
8.717632926022737
 30
0.0
 11
2.503201209498342
 21
8.646636619627059
 31
0.0
 12
2.549503148452046
 22
8.714546130092493
 32
0.0
 13
2.504744607463464
 23
8.655897007417799
 33
0.0
  0
SOLID
  5
185E1
330
1856E
100
AcDbEntity
  8
0
 62
    29
100
AcDbTrace
 10
2.549503148452046
 20
8.714546130092493
 30
0.0
 11
2.504744607463464
 21
8.655897007417799
 31
0.0
 12
2.543329556591551
 22
8.70991593619712
 32
0.0
 13
2.50628800542859
 23
8.665157395208545
 33
0.0
  0
SOLID
  5
185E2
330
1856E
100
AcDbEntity
  8
0
 62
    29
100
AcDbTrace
 10
2.543329556591551
 20
8.70991593619712
 30
0.0
 11
2.50628800542859
 21
8.665157395208545
 31
0.0
 12
2.535612566765934
 22
8.705285742301754
 32
0.0
 13
2.509374801358834
 23
8.672874385034162
 33
0.0
  0
SOLID
  5
185E3
330
1856E
100
AcDbEntity
  8
0
 62
    29
100
AcDbTrace
 10
2.535612566765934
 20
8.705285742301754
 30
0.0
 11
2.509374801358834
 21
8.672874385034162
 31
0.0
 12
2.529438974905442
 22
8.700655548406381
 32
0.0
 13
2.514004995254204
 23
8.68059137485978
 33
0.0
  0
SOLID
  5
185E4
330
1856E
100
AcDbEntity
  8
0
 62
    29
100
AcDbTrace
 10
2.529438974905442
 20
8.700655548406381
 30
0.0
 11
2.514004995254204
 21
8.68059137485978
 31
0.0
 12
2.523265383044947
 22
8.694481956545885
 32
0.0
 13
2.518635189149577
 23
8.688308364685397
 33
0.0
  0
SOLID
  5
185E5
330
1856E
100
AcDbEntity
  8
0
 62
    29
100
AcDbTrace
 10
2.523265383044947
 20
8.694481956545885
 30
0.0
 11
2.518635189149577
 21
8.688308364685397
 31
0.0
 12
2.518635189149577
 22
8.688308364685397
 32
0.0
 13
2.523265383044947
 23
8.694481956545885
 33
0.0
  0
SOLID
  5
185E6
330
1856E
100
AcDbEntity
  8
0
 62
    29
100
AcDbTrace
 10
2.605065475196489
 20
8.720719721952988
 30
0.0
 11
2.65136741415019
 21
8.696025354511007
 31
0.0
 12
2.589631495545255
 22
8.72226311991811
 32
0.0
 13
2.589631495545255
 23
8.72226311991811
 33
0.0
  0
SOLID
  5
185E7
330
1856E
100
AcDbEntity
  8
0
 62
    29
100
AcDbTrace
 10
2.605065475196489
 20
8.720719721952988
 30
0.0
 11
2.660627801940933
 21
8.688308364685397
 31
0.0
 12
2.65136741415019
 22
8.696025354511007
 32
0.0
 13
2.65136741415019
 23
8.696025354511007
 33
0.0
  0
SOLID
  5
185E8
330
1856E
100
AcDbEntity
  8
0
 62
    29
100
AcDbTrace
 10
2.605065475196489
 20
8.720719721952988
 30
0.0
 11
2.654454210080437
 21
8.694481956545885
 31
0.0
 12
2.660627801940933
 22
8.688308364685397
 32
0.0
 13
2.660627801940933
 23
8.688308364685397
 33
0.0
  0
TEXT
  5
185E9
330
1856E
100
AcDbEntity
  8
RAHMEN025
100
AcDbText
 10
10.58651758814535
 20
10.69333983401643
 30
0.0
 40
1.448241032582157
  1
DHD
  7
ISOCP
100
AcDbText
  0
TEXT
  5
185EA
330
1856E
100
AcDbEntity
  8
RAHMEN025
100
AcDbText
 10
10.58651758814535
 20
8.825220068831612
 30
0.0
 40
1.448241032582157
  1
Deubner Hoffmann Digital GmbH
  7
ISOCP
100
AcDbText
  0
TEXT
  5
185EB
330
1856E
100
AcDbEntity
  8
RAHMEN025
100
AcDbText
 10
10.58651758814535
 20
6.900366638810396
 30
0.0
 40
1.448241032582157
  1
Haferkornstrasse 5
  7
ISOCP
100
AcDbText
  0
TEXT
  5
185EC
330
1856E
100
AcDbEntity
  8
RAHMEN025
100
AcDbText
 10
10.58651758814535
 20
4.810152651797494
 30
0.0
 40
1.448241032582157
  1
04129 Leipzig
  7
ISOCP
100
AcDbText
  0
TEXT
  5
185ED
330
1856E
100
AcDbEntity
  8
RAHMEN025
100
AcDbText
 10
10.58651758814535
 20
2.359874590047247
 30
0.0
 40
1.448241032582157
  1
Phone: +49  341  5897020
  7
ISOCP
100
AcDbText
  0
TEXT
  5
185EE
330
1856E
100
AcDbEntity
  8
RAHMEN025
100
AcDbText
 10
10.58651758814535
 20
0.4350211600260323
 30
0.0
 40
1.448241032582157
  1
Fax:  +49  341  5897022
  7
ISOCP
100
AcDbText
  0
ENDBLK
  5
185F0
330
1856E
100
AcDbEntity
  8
0
100
AcDbBlockEnd
  0
BLOCK
  5
280BE
330
280B4
100
AcDbEntity
  8
0
100
AcDbBlockBegin
  2
*D1
 70
     1
 10
0.0
 20
0.0
 30
0.0
  3
*D1
  1

  0
LINE
  5
28662
330
280B4
100
AcDbEntity
  8
BEMASSUNG
 62
     0
100
AcDbLine
 10
56.6785085684566
 20
274.2696408898965
 30
0.0
 11
56.6785085684566
 21
293.8093002240703
 31
0.0
  0
LINE
  5
28663
330
280B4
100
AcDbEntity
  8
BEMASSUNG
 62
     0
100
AcDbLine
 10
538.6785085684566
 20
274.2696408898965
 30
0.0
 11
538.6785085684566
 21
293.8093002240703
 31
0.0
  0
LINE
  5
28664
330
280B4
100
AcDbEntity
  8
BEMASSUNG
 62
     0
100
AcDbLine
 10
59.1785085684566
 20
292.5593002240704
 30
0.0
 11
536.1785085684566
 21
292.5593002240704
 31
0.0
  0
SOLID
  5
28665
330
280B4
100
AcDbEntity
  8
BEMASSUNG
 62
     0
100
AcDbTrace
 10
59.1785085684566
 20
292.9759668907371
 30
0.0
 11
59.1785085684566
 21
292.1426335574037
 31
0.0
 12
56.6785085684566
 22
292.5593002240704
 32
0.0
 13
56.6785085684566
 23
292.5593002240704
 33
0.0
  0
SOLID
  5
28666
330
280B4
100
AcDbEntity
  8
BEMASSUNG
 62
     0
100
AcDbTrace
 10
536.1785085684566
 20
292.9759668907371
 30
0.0
 11
536.1785085684566
 21
292.1426335574037
 31
0.0
 12
538.6785085684566
 22
292.5593002240704
 32
0.0
 13
538.6785085684566
 23
292.5593002240704
 33
0.0
  0
MTEXT
  5
28667
330
280B4
100
AcDbEntity
  8
BEMASSUNG
 62
     0
100
AcDbMText
 10
297.6785085684566
 20
294.4343002240703
 30
0.0
 40
2.5
 41
0.0
 71
     5
 72
     1
  1
\A1;483
  0
POINT
  5
28668
330
280B4
100
AcDbEntity
  8
DEFPOINTS
 62
     0
100
AcDbPoint
 10
56.6785085684566
 20
273.6446408898965
 30
0.0
  0
POINT
  5
28669
330
280B4
100
AcDbEntity
  8
DEFPOINTS
 62
     0
100
AcDbPoint
 10
538.6785085684566
 20
273.6446408898965
 30
0.0
  0
POINT
  5
2866A
330
280B4
100
AcDbEntity
  8
DEFPOINTS
 62
     0
100
AcDbPoint
 10
538.6785085684566
 20
292.5593002240704
 30
0.0
  0
ENDBLK
  5
280BF
330
280B4
100
AcDbEntity
  8
0
100
AcDbBlockEnd
  0
BLOCK
  5
280CA
330
280C0
100
AcDbEntity
  8
0
100
AcDbBlockBegin
  2
*D2
 70
     1
 10
0.0
 20
0.0
 30
0.0
  3
*D2
  1

  0
LINE
  5
2866B
330
280C0
100
AcDbEntity
  8
BEMASSUNG
 62
     0
100
AcDbLine
 10
77.67850856845661
 20
274.2696408898965
 30
0.0
 11
77.67850856845661
 21
287.9874221704664
 31
0.0
  0
LINE
  5
2866C
330
280C0
100
AcDbEntity
  8
BEMASSUNG
 62
     0
100
AcDbLine
 10
517.6785085684566
 20
274.2696408898965
 30
0.0
 11
517.6785085684566
 21
287.9874221704664
 31
0.0
  0
LINE
  5
2866D
330
280C0
100
AcDbEntity
  8
BEMASSUNG
 62
     0
100
AcDbLine
 10
80.1785085684566
 20
286.7374221704664
 30
0.0
 11
515.1785085684566
 21
286.7374221704664
 31
0.0
  0
SOLID
  5
2866E
330
280C0
100
AcDbEntity
  8
BEMASSUNG
 62
     0
100
AcDbTrace
 10
80.1785085684566
 20
287.1540888371331
 30
0.0
 11
80.1785085684566
 21
286.3207555037997
 31
0.0
 12
77.67850856845661
 22
286.7374221704664
 32
0.0
 13
77.67850856845661
 23
286.7374221704664
 33
0.0
  0
SOLID
  5
2866F
330
280C0
100
AcDbEntity
  8
BEMASSUNG
 62
     0
100
AcDbTrace
 10
515.1785085684566
 20
287.1540888371331
 30
0.0
 11
515.1785085684566
 21
286.3207555037997
 31
0.0
 12
517.6785085684566
 22
286.7374221704664
 32
0.0
 13
517.6785085684566
 23
286.7374221704664
 33
0.0
  0
MTEXT
  5
28670
330
280C0
100
AcDbEntity
  8
BEMASSUNG
 62
     0
100
AcDbMText
 10
297.6785085684566
 20
288.6124221704664
 30
0.0
 40
2.5
 41
0.0
 71
     5
 72
     1
  1
\A1;448
  0
POINT
  5
28671
330
280C0
100
AcDbEntity
  8
DEFPOINTS
 62
     0
100
AcDbPoint
 10
77.67850856845661
 20
273.6446408898965
 30
0.0
  0
POINT
  5
28672
330
280C0
100
AcDbEntity
  8
DEFPOINTS
 62
     0
100
AcDbPoint
 10
517.6785085684566
 20
273.6446408898965
 30
0.0
  0
POINT
  5
28673
330
280C0
100
AcDbEntity
  8
DEFPOINTS
 62
     0
100
AcDbPoint
 10
517.6785085684566
 20
286.7374221704664
 30
0.0
  0
ENDBLK
  5
280CB
330
280C0
100
AcDbEntity
  8
0
100
AcDbBlockEnd
  0
BLOCK
  5
280D6
330
280CC
100
AcDbEntity
  8
0
100
AcDbBlockBegin
  2
*D3
 70
     1
 10
0.0
 20
0.0
 30
0.0
  3
*D3
  1

  0
LINE
  5
28674
330
280CC
100
AcDbEntity
  8
BEMASSUNG
 62
     0
100
AcDbLine
 10
56.0535085684566
 20
273.6446408898965
 30
0.0
 11
44.15448934157145
 21
273.6446408898965
 31
0.0
  0
LINE
  5
28675
330
280CC
100
AcDbEntity
  8
BEMASSUNG
 62
     0
100
AcDbLine
 10
56.0535085684566
 20
141.1446408898965
 30
0.0
 11
44.15448934157141
 21
141.1446408898965
 31
0.0
  0
LINE
  5
28676
330
280CC
100
AcDbEntity
  8
BEMASSUNG
 62
     0
100
AcDbLine
 10
45.40448934157144
 20
271.1446408898965
 30
0.0
 11
45.40448934157141
 21
143.6446408898965
 31
0.0
  0
SOLID
  5
28677
330
280CC
100
AcDbEntity
  8
BEMASSUNG
 62
     0
100
AcDbTrace
 10
44.98782267490478
 20
271.1446408898965
 30
0.0
 11
45.82115600823811
 21
271.1446408898965
 31
0.0
 12
45.40448934157145
 22
273.6446408898965
 32
0.0
 13
45.40448934157145
 23
273.6446408898965
 33
0.0
  0
SOLID
  5
28678
330
280CC
100
AcDbEntity
  8
BEMASSUNG
 62
     0
100
AcDbTrace
 10
44.98782267490475
 20
143.6446408898965
 30
0.0
 11
45.82115600823807
 21
143.6446408898965
 31
0.0
 12
45.40448934157141
 22
141.1446408898965
 32
0.0
 13
45.40448934157141
 23
141.1446408898965
 33
0.0
  0
MTEXT
  5
28679
330
280CC
100
AcDbEntity
  8
BEMASSUNG
 62
     0
100
AcDbMText
 10
43.52948934157139
 20
207.3946408898965
 30
0.0
 40
2.5
 41
0.0
 71
     5
 72
     1
  1
\A1;133
 11
0.0000000000000001
 21
1.0
 31
0.0
  0
POINT
  5
2867A
330
280CC
100
AcDbEntity
  8
DEFPOINTS
 62
     0
100
AcDbPoint
 10
56.6785085684566
 20
273.6446408898965
 30
0.0
  0
POINT
  5
2867B
330
280CC
100
AcDbEntity
  8
DEFPOINTS
 62
     0
100
AcDbPoint
 10
56.6785085684566
 20
141.1446408898965
 30
0.0
  0
POINT
  5
2867C
330
280CC
100
AcDbEntity
  8
DEFPOINTS
 62
     0
100
AcDbPoint
 10
45.40448934157141
 20
141.1446408898965
 30
0.0
  0
ENDBLK
  5
280D7
330
280CC
100
AcDbEntity
  8
0
100
AcDbBlockEnd
  0
ENDSEC
  0
SECTION
  2
ENTITIES
  0
LINE
  5
18531
330
18
100
AcDbEntity
  8
RAHMEN07
100
AcDbLine
 10
401.8000000000001
 20
22.0
 30
0.0
 11
401.8000000000001
 21
5.0
 31
0.0
  0
LINE
  5
1853B
330
18
100
AcDbEntity
  8
RAHMEN07
100
AcDbLine
 10
401.8000000000001
 20
22.0
 30
0.0
 11
589.0000000000002
 21
22.0
 31
0.0
  0
LINE
  5
1853D
330
18
100
AcDbEntity
  8
RAHMEN07
100
AcDbLine
 10
401.8000000000001
 20
5.0
 30
0.0
 11
589.0000000000002
 21
5.0
 31
0.0
  0
LINE
  5
18549
330
18
100
AcDbEntity
  8
RAHMEN025
100
AcDbLine
 10
456.4
 20
22.0
 30
0.0
 11
456.4
 21
5.0
 31
0.0
  0
LINE
  5
18553
330
18
100
AcDbEntity
  8
RAHMEN025
100
AcDbLine
 10
500.6000000000003
 20
22.0
 30
0.0
 11
500.6000000000002
 21
5.0
 31
0.0
  0
TEXT
  5
1856D
330
18
100
AcDbEntity
  8
RAHMEN025
100
AcDbText
 10
458.171916286602
 20
17.5625
 30
0.0
 40
2.5
  1
Maßstab
  7
ISOCP
100
AcDbText
  0
INSERT
  5
185FF
330
18
100
AcDbEntity
  8
RAHMEN05
100
AcDbBlockReference
  2
A$C4EFE16F9
 10
404.6712335244651
 20
6.059781767167123
 30
0.0
 41
1.199999999999999
 42
1.199999999999999
 43
1.199999999999999
  0
TEXT
  5
18600
330
18
100
AcDbEntity
  8
RAHMEN025
100
AcDbText
 10
509.4160443883506
 20
14.04955403426225
 30
0.0
 40
5.809351702482672
  1
Layout RM420-081
  7
TASTENTEXT
100
AcDbText
  0
TEXT
  5
25437
330
18
100
AcDbEntity
  8
RAHMEN025
100
AcDbText
 10
518.7823927778863
 20
8.094828887211917
 30
0.0
 40
3.0
  1
Power Supply Frame 3U/19"
  7
TASTENTEXT
100
AcDbText
  0
TEXT
  5
26613
330
18
100
AcDbEntity
  8
RAHMEN025
100
AcDbText
 10
474.1726170171528
 20
17.39077894527963
 30
0.0
 40
2.5
  1
1:1 (DIN A2)
  7
ISOCP
100
AcDbText
  0
LINE
  5
266D4
330
18
100
AcDbEntity
  8
RAHMEN07
100
AcDbLine
 10
589.0
 20
415.0
 30
0.0
 11
20.0
 21
415.0
 31
0.0
  0
LINE
  5
266D5
330
18
100
AcDbEntity
  8
RAHMEN07
100
AcDbLine
 10
20.0
 20
5.0
 30
0.0
 11
589.0
 21
5.0
 31
0.0
  0
LINE
  5
266D6
330
18
100
AcDbEntity
  8
RAHMEN025
100
AcDbLine
 10
594.0
 20
420.0
 30
0.0
 11
0.0
 21
420.0
 31
0.0
  0
LINE
  5
266D7
330
18
100
AcDbEntity
  8
RAHMEN025
100
AcDbLine
 10
0.0
 20
0.0
 30
0.0
 11
594.0
 21
0.0
 31
0.0
  0
LINE
  5
266D8
330
18
100
AcDbEntity
  8
RAHMEN07
100
AcDbLine
 10
20.0
 20
415.0
 30
0.0
 11
20.0
 21
5.0
 31
0.0
  0
LINE
  5
266D9
330
18
100
AcDbEntity
  8
RAHMEN025
100
AcDbLine
 10
0.0
 20
420.0
 30
0.0
 11
0.0
 21
0.0
 31
0.0
  0
LINE
  5
266DA
330
18
100
AcDbEntity
  8
RAHMEN07
100
AcDbLine
 10
589.0
 20
5.0
 30
0.0
 11
589.0
 21
415.0
 31
0.0
  0
LINE
  5
266DB
330
18
100
AcDbEntity
  8
RAHMEN025
100
AcDbLine
 10
594.0
 20
0.0
 30
0.0
 11
594.0
 21
420.0
 31
0.0
  0
LWPOLYLINE
  5
27E10
330
18
100
AcDbEntity
  8
RAHMEN
100
AcDbPolyline
 90
        4
 70
     1
 43
0.0
 10
77.67850856845661
 20
141.1446408898964
 10
517.6785085684566
 20
141.1446408898964
 10
517.6785085684566
 20
273.6446408898965
 10
77.67850856845661
 20
273.6446408898965
  0
LINE
  5
27E11
330
18
100
AcDbEntity
  8
RAHMEN
100
AcDbLine
 10
511.6785085684565
 20
272.1446408898964
 30
0.0
 11
83.67850856845661
 21
272.1446408898965
 31
0.0
  0
LINE
  5
27E12
330
18
100
AcDbEntity
  8
RAHMEN
100
AcDbLine
 10
83.67850856845661
 20
272.1446408898965
 30
0.0
 11
83.67850856845661
 21
143.1446408898965
 31
0.0
  0
LINE
  5
27E13
330
18
100
AcDbEntity
  8
RAHMEN
100
AcDbLine
 10
83.67850856845661
 20
143.1446408898965
 30
0.0
 11
511.6785085684568
 21
143.1446408898966
 31
0.0
  0
LINE
  5
27E14
330
18
100
AcDbEntity
  8
RAHMEN
100
AcDbLine
 10
511.6785085684568
 20
143.1446408898966
 30
0.0
 11
511.6785085684565
 21
272.1446408898964
 31
0.0
  0
LINE
  5
27E15
330
18
100
AcDbEntity
  8
BLECH
100
AcDbLine
 10
84.67850856845661
 20
143.4446408898964
 30
0.0
 11
84.67850856845661
 21
271.8446408898965
 31
0.0
  0
LINE
  5
27E17
330
18
100
AcDbEntity
  8
BLECH
100
AcDbLine
 10
287.8785085684565
 20
143.4446408898964
 30
0.0
 11
84.67850856845648
 21
143.4446408898964
 31
0.0
  0
LINE
  5
27E2A
330
18
100
AcDbEntity
  8
BLECH
100
AcDbLine
 10
287.8785085684565
 20
271.8446408898965
 30
0.0
 11
84.67850856845661
 21
271.8446408898965
 31
0.0
  0
CIRCLE
  5
27E30
330
18
100
AcDbEntity
  8
BLECH
100
AcDbCircle
 10
92.17850856845661
 20
268.8446408898966
 30
0.0
 40
2.5
  0
LWPOLYLINE
  5
27E31
330
18
100
AcDbEntity
  8
BLECH
100
AcDbPolyline
 90
        6
 70
     1
 43
0.0
 10
92.98726887955552
 20
269.3115788732194
 10
92.17850856845661
 20
269.7785168565423
 10
91.36974825735768
 20
269.3115788732194
 10
91.36974825735768
 20
268.3777029065737
 10
92.17850856845661
 20
267.9107649232509
 10
92.98726887955552
 20
268.3777029065737
  0
CIRCLE
  5
27E34
330
18
100
AcDbEntity
  8
BLECH
100
AcDbCircle
 10
92.17850856845648
 20
146.4446408898965
 30
0.0
 40
2.5
  0
LWPOLYLINE
  5
27E35
330
18
100
AcDbEntity
  8
BLECH
100
AcDbPolyline
 90
        6
 70
     1
 43
0.0
 10
92.98726887955542
 20
146.9115788732193
 10
92.17850856845648
 20
147.3785168565422
 10
91.36974825735757
 20
146.9115788732193
 10
91.36974825735757
 20
145.9777029065736
 10
92.17850856845648
 20
145.5107649232508
 10
92.98726887955542
 20
145.9777029065736
  0
CIRCLE
  5
27EE9
330
18
100
AcDbEntity
  8
BLECH
100
AcDbCircle
 10
183.6185085684565
 20
268.8446408898966
 30
0.0
 40
2.5
  0
LWPOLYLINE
  5
27EEA
330
18
100
AcDbEntity
  8
BLECH
100
AcDbPolyline
 90
        6
 70
     1
 43
0.0
 10
184.4272688795555
 20
269.3115788732194
 10
183.6185085684565
 20
269.7785168565423
 10
182.8097482573577
 20
269.3115788732194
 10
182.8097482573577
 20
268.3777029065737
 10
183.6185085684565
 20
267.9107649232509
 10
184.4272688795555
 20
268.3777029065737
  0
CIRCLE
  5
27EED
330
18
100
AcDbEntity
  8
BLECH
100
AcDbCircle
 10
183.6185085684564
 20
146.4446408898965
 30
0.0
 40
2.5
  0
LWPOLYLINE
  5
27EEE
330
18
100
AcDbEntity
  8
BLECH
100
AcDbPolyline
 90
        6
 70
     1
 43
0.0
 10
184.4272688795554
 20
146.9115788732193
 10
183.6185085684564
 20
147.3785168565422
 10
182.8097482573575
 20
146.9115788732193
 10
182.8097482573575
 20
145.9777029065736
 10
183.6185085684564
 20
145.5107649232508
 10
184.4272688795554
 20
145.9777029065736
  0
LINE
  5
27F73
330
18
100
AcDbEntity
  8
BLECH
100
AcDbLine
 10
287.5385085684565
 20
143.4446408898967
 30
0.0
 11
287.5385085684565
 21
271.8446408898965
 31
0.0
  0
POINT
  5
27F7C
330
18
100
AcDbEntity
  8
DEFPOINTS
  6
BYBLOCK
 62
     0
100
AcDbPoint
 10
287.5385085684565
 20
271.8446408898965
 30
0.0
  0
CIRCLE
  5
27F7D
330
18
100
AcDbEntity
  8
BLECH
100
AcDbCircle
 10
275.0585085684566
 20
268.8446408898966
 30
0.0
 40
2.5
  0
LWPOLYLINE
  5
27F7E
330
18
100
AcDbEntity
  8
BLECH
100
AcDbPolyline
 90
        6
 70
     1
 43
0.0
 10
275.8672688795555
 20
269.3115788732194
 10
275.0585085684566
 20
269.7785168565423
 10
274.2497482573576
 20
269.3115788732194
 10
274.2497482573576
 20
268.3777029065737
 10
275.0585085684566
 20
267.9107649232509
 10
275.8672688795555
 20
268.3777029065737
  0
CIRCLE
  5
27F87
330
18
100
AcDbEntity
  8
BLECH
100
AcDbCircle
 10
275.0585085684564
 20
146.4446408898967
 30
0.0
 40
2.5
  0
LWPOLYLINE
  5
27F88
330
18
100
AcDbEntity
  8
BLECH
100
AcDbPolyline
 90
        6
 70
     1
 43
0.0
 10
275.8672688795554
 20
146.9115788732195
 10
275.0585085684564
 20
147.3785168565424
 10
274.2497482573575
 20
146.9115788732195
 10
274.2497482573575
 20
145.9777029065738
 10
275.0585085684564
 20
145.510764923251
 10
275.8672688795554
 20
145.9777029065738
  0
LINE
  5
27F89
330
18
100
AcDbEntity
  8
BLECH
100
AcDbLine
 10
287.8785085684565
 20
143.4446408898966
 30
0.0
 11
287.8785085684565
 21
271.8446408898965
 31
0.0
  0
LINE
  5
27F8A
330
18
100
AcDbEntity
  8
BLECH
100
AcDbLine
 10
307.8585085684565
 20
143.4446408898967
 30
0.0
 11
307.8585085684565
 21
271.8446408898965
 31
0.0
  0
LINE
  5
27F8B
330
18
100
AcDbEntity
  8
BLECH
100
AcDbLine
 10
307.8585085684565
 20
143.4446408898967
 30
0.0
 11
287.8785085684564
 21
143.4446408898966
 31
0.0
  0
LINE
  5
27F9E
330
18
100
AcDbEntity
  8
BLECH
100
AcDbLine
 10
307.8585085684565
 20
271.8446408898965
 30
0.0
 11
287.8785085684565
 21
271.8446408898965
 31
0.0
  0
POINT
  5
27F9F
330
18
100
AcDbEntity
  8
DEFPOINTS
  6
BYBLOCK
 62
     0
100
AcDbPoint
 10
307.8585085684565
 20
271.8446408898965
 30
0.0
  0
CIRCLE
  5
27FA5
330
18
100
AcDbEntity
  8
BLECH
100
AcDbCircle
 10
295.3785085684565
 20
268.8446408898966
 30
0.0
 40
2.5
  0
LWPOLYLINE
  5
27FA6
330
18
100
AcDbEntity
  8
BLECH
100
AcDbPolyline
 90
        6
 70
     1
 43
0.0
 10
296.1872688795555
 20
269.3115788732194
 10
295.3785085684565
 20
269.7785168565423
 10
294.5697482573576
 20
269.3115788732194
 10
294.5697482573576
 20
268.3777029065737
 10
295.3785085684565
 20
267.9107649232509
 10
296.1872688795555
 20
268.3777029065737
  0
CIRCLE
  5
27FA9
330
18
100
AcDbEntity
  8
BLECH
100
AcDbCircle
 10
295.3785085684564
 20
146.4446408898965
 30
0.0
 40
2.5
  0
LWPOLYLINE
  5
27FAA
330
18
100
AcDbEntity
  8
BLECH
100
AcDbPolyline
 90
        6
 70
     1
 43
0.0
 10
296.1872688795553
 20
146.9115788732193
 10
295.3785085684564
 20
147.3785168565422
 10
294.5697482573575
 20
146.9115788732193
 10
294.5697482573575
 20
145.9777029065736
 10
295.3785085684564
 20
145.5107649232508
 10
296.1872688795553
 20
145.9777029065736
  0
LINE
  5
27FBE
330
18
100
AcDbEntity
  8
BLECH
100
AcDbLine
 10
308.1985085684564
 20
143.4446408898967
 30
0.0
 11
308.1985085684558
 21
271.8446408898965
 31
0.0
  0
LINE
  5
27FBF
330
18
100
AcDbEntity
  8
BLECH
100
AcDbLine
 10
348.4985085684564
 20
143.4446408898967
 30
0.0
 11
348.498508568457
 21
271.8446408898965
 31
0.0
  0
LINE
  5
27FC0
330
18
100
AcDbEntity
  8
BLECH
100
AcDbLine
 10
308.1985085684564
 20
143.4446408898967
 30
0.0
 11
348.4985085684564
 21
143.4446408898967
 31
0.0
  0
ARC
  5
27FC1
330
18
100
AcDbEntity
  8
BLECH
100
AcDbCircle
 10
341.5985085684564
 20
245.5554222113917
 30
0.0
 40
4.0
100
AcDbArc
 50
0.0
 51
62.21460539851321
  0
LINE
  5
27FC2
330
18
100
AcDbEntity
  8
BLECH
100
AcDbLine
 10
325.8015417607067
 20
255.4528554327009
 30
0.0
 11
313.7338640299566
 21
249.0942215480372
 31
0.0
  0
ARC
  5
27FC3
330
18
100
AcDbEntity
  8
BLECH
100
AcDbCircle
 10
315.5985085684565
 20
245.5554222113917
 30
0.0
 40
4.0
100
AcDbArc
 50
117.7853946014867
 51
180.0
  0
LINE
  5
27FC4
330
18
100
AcDbEntity
  8
BLECH
100
AcDbLine
 10
331.3954753762062
 20
255.4528554327009
 30
0.0
 11
343.4631531069563
 21
249.0942215480372
 31
0.0
  0
LINE
  5
27FC5
330
18
100
AcDbEntity
  8
BLECH
100
AcDbLine
 10
311.5460085684566
 20
208.9446235659016
 30
0.0
 11
311.5460085684564
 21
191.9446235659016
 31
0.0
  0
LINE
  5
27FC6
330
18
100
AcDbEntity
  8
BLECH
100
AcDbLine
 10
324.3510085684565
 20
191.9446235659016
 30
0.0
 11
324.3510085684565
 21
208.9446235659016
 31
0.0
  0
LINE
  5
27FC7
330
18
100
AcDbEntity
  8
BLECH
100
AcDbLine
 10
311.5460085684564
 20
191.9446235659016
 30
0.0
 11
324.3510085684565
 21
191.9446235659016
 31
0.0
  0
LINE
  5
27FC8
330
18
100
AcDbEntity
  8
BLECH
100
AcDbLine
 10
315.1985085684565
 20
248.3946564277327
 30
0.0
 11
341.9985085684564
 21
248.3946564277327
 31
0.0
  0
LINE
  5
27FC9
330
18
100
AcDbEntity
  8
BLECH
100
AcDbLine
 10
331.3954753762062
 20
212.8364574227645
 30
0.0
 11
343.4631531069563
 21
219.1950913074282
 31
0.0
  0
LINE
  5
27FCA
330
18
100
AcDbEntity
  8
BLECH
100
AcDbLine
 10
315.1985085684565
 20
219.8946564277326
 30
0.0
 11
341.9985085684564
 21
219.8946564277326
 31
0.0
  0
LINE
  5
27FCB
330
18
100
AcDbEntity
  8
BLECH
100
AcDbLine
 10
311.5985085684565
 20
245.5554222113917
 30
0.0
 11
311.5985085684565
 21
222.7338906440736
 31
0.0
  0
LINE
  5
27FCC
330
18
100
AcDbEntity
  8
BLECH
100
AcDbLine
 10
312.1985085684564
 20
245.3946564277326
 30
0.0
 11
312.1985085684565
 21
222.8946564277326
 31
0.0
  0
LINE
  5
27FCD
330
18
100
AcDbEntity
  8
BLECH
100
AcDbLine
 10
324.3510085684565
 20
208.9446235659016
 30
0.0
 11
311.5460085684566
 21
208.9446235659016
 31
0.0
  0
CIRCLE
  5
27FCE
330
18
100
AcDbEntity
  8
BLECH
100
AcDbCircle
 10
319.9985085684567
 20
211.7446408898965
 30
0.0
 40
1.6
  0
LINE
  5
27FCF
330
18
100
AcDbEntity
  8
BLECH
100
AcDbLine
 10
325.8015417607067
 20
212.8364574227645
 30
0.0
 11
313.7338640299566
 21
219.1950913074282
 31
0.0
  0
CIRCLE
  5
27FD0
330
18
100
AcDbEntity
  8
BLECH
100
AcDbCircle
 10
314.9985085684567
 20
211.7446408898965
 30
0.0
 40
1.6
  0
ARC
  5
27FD1
330
18
100
AcDbEntity
  8
BLECH
100
AcDbCircle
 10
315.5985085684565
 20
222.7338906440736
 30
0.0
 40
4.0
100
AcDbArc
 50
180.0
 51
242.2146053985132
  0
ARC
  5
27FD2
330
18
100
AcDbEntity
  8
BLECH
100
AcDbCircle
 10
315.1985085684565
 20
222.8946564277326
 30
0.0
 40
3.0
100
AcDbArc
 50
180.0
 51
270.0
  0
ARC
  5
27FD3
330
18
100
AcDbEntity
  8
BLECH
100
AcDbCircle
 10
328.5985085684565
 20
218.1446564277326
 30
0.0
 40
6.0
100
AcDbArc
 50
242.2146053985132
 51
297.7853946014864
  0
ARC
  5
27FD4
330
18
100
AcDbEntity
  8
BLECH
100
AcDbCircle
 10
315.1985085684565
 20
245.3946564277326
 30
0.0
 40
3.0
100
AcDbArc
 50
90.0
 51
180.0
  0
LINE
  5
27FD5
330
18
100
AcDbEntity
  8
BLECH
100
AcDbLine
 10
345.5985085684565
 20
222.7338906440736
 30
0.0
 11
345.5985085684564
 21
245.5554222113917
 31
0.0
  0
LINE
  5
27FD6
330
18
100
AcDbEntity
  8
BLECH
100
AcDbLine
 10
344.9985085684565
 20
222.8946564277326
 30
0.0
 11
344.9985085684565
 21
245.3946564277326
 31
0.0
  0
ARC
  5
27FD7
330
18
100
AcDbEntity
  8
BLECH
100
AcDbCircle
 10
341.5985085684564
 20
222.7338906440736
 30
0.0
 40
4.0
100
AcDbArc
 50
297.7853946014864
 51
0.0
  0
ARC
  5
27FD8
330
18
100
AcDbEntity
  8
BLECH
100
AcDbCircle
 10
341.9985085684564
 20
222.8946564277326
 30
0.0
 40
3.0
100
AcDbArc
 50
270.0
 51
0.0
  0
ARC
  5
27FD9
330
18
100
AcDbEntity
  8
BLECH
100
AcDbCircle
 10
341.9985085684564
 20
245.3946564277326
 30
0.0
 40
3.0
100
AcDbArc
 50
0.0
 51
90.0
  0
LINE
  5
27FDA
330
18
100
AcDbEntity
  8
BLECH
100
AcDbLine
 10
348.498508568457
 20
271.8446408898965
 30
0.0
 11
308.1985085684558
 21
271.8446408898965
 31
0.0
  0
ARC
  5
27FDB
330
18
100
AcDbEntity
  8
BLECH
100
AcDbCircle
 10
328.5985085684565
 20
250.1446564277326
 30
0.0
 40
6.0
100
AcDbArc
 50
62.21460539851321
 51
117.7853946014867
  0
POINT
  5
27FDC
330
18
100
AcDbEntity
  8
DEFPOINTS
  6
BYBLOCK
 62
     0
100
AcDbPoint
 10
328.1785085684564
 20
271.8446408898965
 30
0.0
  0
CIRCLE
  5
27FDD
330
18
100
AcDbEntity
  8
BLECH
100
AcDbCircle
 10
315.6985085684565
 20
268.8446408898966
 30
0.0
 40
2.5
  0
LWPOLYLINE
  5
27FDE
330
18
100
AcDbEntity
  8
BLECH
100
AcDbPolyline
 90
        6
 70
     1
 43
0.0
 10
316.5072688795555
 20
269.3115788732194
 10
315.6985085684565
 20
269.7785168565423
 10
314.8897482573576
 20
269.3115788732194
 10
314.8897482573576
 20
268.3777029065737
 10
315.6985085684565
 20
267.9107649232509
 10
316.5072688795555
 20
268.3777029065737
  0
CIRCLE
  5
27FDF
330
18
100
AcDbEntity
  8
BLECH
100
AcDbCircle
 10
341.0985085684563
 20
268.8446408898966
 30
0.0
 40
2.5
  0
LWPOLYLINE
  5
27FE0
330
18
100
AcDbEntity
  8
BLECH
100
AcDbPolyline
 90
        6
 70
     1
 43
0.0
 10
341.9072688795552
 20
269.3115788732194
 10
341.0985085684563
 20
269.7785168565423
 10
340.2897482573574
 20
269.3115788732194
 10
340.2897482573574
 20
268.3777029065737
 10
341.0985085684563
 20
267.9107649232509
 10
341.9072688795552
 20
268.3777029065737
  0
CIRCLE
  5
27FE1
330
18
100
AcDbEntity
  8
BLECH
100
AcDbCircle
 10
315.6985085684565
 20
257.1446408898966
 30
0.0
 40
2.5
  0
LWPOLYLINE
  5
27FE2
330
18
100
AcDbEntity
  8
BLECH
100
AcDbPolyline
 90
        6
 70
     1
 43
0.0
 10
316.5072688795554
 20
257.6115788732195
 10
315.6985085684565
 20
258.0785168565423
 10
314.8897482573576
 20
257.6115788732195
 10
314.8897482573576
 20
256.6777029065738
 10
315.6985085684565
 20
256.2107649232509
 10
316.5072688795554
 20
256.6777029065738
  0
LWPOLYLINE
  5
27FE3
330
18
100
AcDbEntity
  8
BLECH
100
AcDbPolyline
 90
        9
 70
     0
 43
0.0
 10
311.5460085684565
 20
203.4277759671293
 10
313.4755913848008
 20
203.4277759671293
 10
313.4755913848008
 20
206.9319812364765
 10
322.5909125780065
 20
206.9319812364765
 10
322.5909125780065
 20
193.9573928482465
 10
313.4755913848008
 20
193.9573928482465
 10
313.4755913848008
 20
197.4614711646739
 10
311.5460085684565
 20
197.4614711646739
 10
311.5460085684565
 20
203.4277759671293
  0
LINE
  5
27FE4
330
18
100
AcDbEntity
  8
BLECH
100
AcDbLine
 10
308.1985085684564
 20
165.6446408898968
 30
0.0
 11
348.4985085684565
 21
165.6446408898967
 31
0.0
  0
LINE
  5
27FE5
330
18
100
AcDbEntity
  8
BLECH
100
AcDbLine
 10
308.1985085684564
 20
150.644640889897
 30
0.0
 11
348.4985085684564
 21
150.6446408898966
 31
0.0
  0
LINE
  5
27FE6
330
18
100
AcDbEntity
  8
BLECH
100
AcDbLine
 10
308.1985085684564
 20
165.1446408898968
 30
0.0
 11
348.4985085684565
 21
165.1446408898967
 31
0.0
  0
LINE
  5
27FE7
330
18
100
AcDbEntity
  8
BLECH
100
AcDbLine
 10
308.1985085684564
 20
151.144640889897
 30
0.0
 11
348.4985085684564
 21
151.1446408898966
 31
0.0
  0
POINT
  5
27FE8
330
18
100
AcDbEntity
  8
DEFPOINTS
  6
BYBLOCK
 62
     0
100
AcDbPoint
 10
328.1785085684564
 20
149.4446408898967
 30
0.0
  0
CIRCLE
  5
27FE9
330
18
100
AcDbEntity
  8
BLECH
100
AcDbCircle
 10
315.6985085684564
 20
146.4446408898967
 30
0.0
 40
2.5
  0
LWPOLYLINE
  5
27FEA
330
18
100
AcDbEntity
  8
BLECH
100
AcDbPolyline
 90
        6
 70
     1
 43
0.0
 10
316.5072688795554
 20
146.9115788732195
 10
315.6985085684564
 20
147.3785168565424
 10
314.8897482573575
 20
146.9115788732195
 10
314.8897482573575
 20
145.9777029065738
 10
315.6985085684564
 20
145.510764923251
 10
316.5072688795554
 20
145.9777029065738
  0
CIRCLE
  5
27FEB
330
18
100
AcDbEntity
  8
BLECH
100
AcDbCircle
 10
341.0985085684562
 20
146.4446408898967
 30
0.0
 40
2.5
  0
LWPOLYLINE
  5
27FEC
330
18
100
AcDbEntity
  8
BLECH
100
AcDbPolyline
 90
        6
 70
     1
 43
0.0
 10
341.9072688795551
 20
146.9115788732195
 10
341.0985085684562
 20
147.3785168565424
 10
340.2897482573572
 20
146.9115788732195
 10
340.2897482573572
 20
145.9777029065738
 10
341.0985085684562
 20
145.510764923251
 10
341.9072688795551
 20
145.9777029065738
  0
CIRCLE
  5
27FED
330
18
100
AcDbEntity
  8
BLECH
100
AcDbCircle
 10
340.3485085684565
 20
187.4446408898966
 30
0.0
 40
2.5
  0
LWPOLYLINE
  5
27FEE
330
18
100
AcDbEntity
  8
BLECH
100
AcDbPolyline
 90
        6
 70
     1
 43
0.0
 10
341.1572688795554
 20
187.9115788732194
 10
340.3485085684565
 20
188.3785168565423
 10
339.5397482573575
 20
187.9115788732194
 10
339.5397482573575
 20
186.9777029065737
 10
340.3485085684565
 20
186.5107649232509
 10
341.1572688795554
 20
186.9777029065737
  0
CIRCLE
  5
27FEF
330
18
100
AcDbEntity
  8
BLECH
100
AcDbCircle
 10
316.3485085684565
 20
168.4446408898966
 30
0.0
 40
2.5
  0
LWPOLYLINE
  5
27FF0
330
18
100
AcDbEntity
  8
BLECH
100
AcDbPolyline
 90
        6
 70
     1
 43
0.0
 10
317.1572688795554
 20
168.9115788732194
 10
316.3485085684565
 20
169.3785168565423
 10
315.5397482573575
 20
168.9115788732194
 10
315.5397482573575
 20
167.9777029065737
 10
316.3485085684565
 20
167.5107649232509
 10
317.1572688795554
 20
167.9777029065737
  0
CIRCLE
  5
27FF1
330
18
100
AcDbEntity
  8
BLECH
100
AcDbCircle
 10
328.5985085684565
 20
252.1446564277326
 30
0.0
 40
2.5
  0
LWPOLYLINE
  5
27FF2
330
18
100
AcDbEntity
  8
BLECH
100
AcDbPolyline
 90
        6
 70
     1
 43
0.0
 10
329.4072688795554
 20
252.6115944110555
 10
328.5985085684565
 20
253.0785323943784
 10
327.7897482573576
 20
252.6115944110555
 10
327.7897482573576
 20
251.6777184444098
 10
328.5985085684565
 20
251.2107804610869
 10
329.4072688795554
 20
251.6777184444098
  0
CIRCLE
  5
27FF3
330
18
100
AcDbEntity
  8
BLECH
100
AcDbCircle
 10
328.5985085684565
 20
216.1446564277326
 30
0.0
 40
2.5
  0
LWPOLYLINE
  5
27FF4
330
18
100
AcDbEntity
  8
BLECH
100
AcDbPolyline
 90
        6
 70
     1
 43
0.0
 10
329.4072688795554
 20
216.6115944110555
 10
328.5985085684565
 20
217.0785323943783
 10
327.7897482573576
 20
216.6115944110555
 10
327.7897482573576
 20
215.6777184444098
 10
328.5985085684565
 20
215.2107804610869
 10
329.4072688795554
 20
215.6777184444098
  0
ARC
  5
27FF5
330
18
100
AcDbEntity
  8
BLECH
100
AcDbCircle
 10
316.3485086884564
 20
168.4446409848966
 30
0.0
 40
3.499999964999999
100
AcDbArc
 50
180.0
 51
270.0
  0
ARC
  5
27FF6
330
18
100
AcDbEntity
  8
BLECH
100
AcDbCircle
 10
340.3485084484564
 20
168.4446409848966
 30
0.0
 40
3.499999964999999
100
AcDbArc
 50
270.0
 51
0.0
  0
CIRCLE
  5
27FF7
330
18
100
AcDbEntity
  8
BLECH
100
AcDbCircle
 10
329.2885085590565
 20
182.0546408487966
 30
0.0
 40
0.799999992
  0
ARC
  5
27FF8
330
18
100
AcDbEntity
  8
BLECH
100
AcDbCircle
 10
328.3485085684564
 20
177.9446408898966
 30
0.0
 40
6.4499999355
100
AcDbArc
 50
22.80505399999622
 51
337.1949460000037
  0
CIRCLE
  5
27FF9
330
18
100
AcDbEntity
  8
BLECH
100
AcDbCircle
 10
325.5085085968565
 20
180.0746408685965
 30
0.0
 40
0.799999992
  0
LINE
  5
27FFA
330
18
100
AcDbEntity
  8
BLECH
100
AcDbLine
 10
316.3485086884563
 20
190.9446407598965
 30
0.0
 11
340.3485084484564
 21
190.9446407598965
 31
0.0
  0
ARC
  5
27FFB
330
18
100
AcDbEntity
  8
BLECH
100
AcDbCircle
 10
328.3485085684564
 20
177.9446408898966
 30
0.0
 40
11.79999988199999
100
AcDbArc
 50
18.90397500000286
 51
341.0960249999971
  0
ARC
  5
27FFC
330
18
100
AcDbEntity
  8
BLECH
100
AcDbCircle
 10
328.3485085684564
 20
177.9446408898966
 30
0.0
 40
9.024999909749999
100
AcDbArc
 50
52.3288689999942
 51
307.6711310000058
  0
ARC
  5
27FFD
330
18
100
AcDbEntity
  8
BLECH
100
AcDbCircle
 10
328.3485085684564
 20
177.9446408898966
 30
0.0
 40
7.899999920999999
100
AcDbArc
 50
50.69269600000684
 51
39.30730400000678
  0
ARC
  5
27FFE
330
18
100
AcDbEntity
  8
BLECH
100
AcDbCircle
 10
316.3485086884564
 20
187.4446407948965
 30
0.0
 40
3.499999964999999
100
AcDbArc
 50
90.0
 51
180.0
  0
LINE
  5
27FFF
330
18
100
AcDbEntity
  8
BLECH
100
AcDbLine
 10
312.8485087234564
 20
168.4446409848966
 30
0.0
 11
312.8485087234564
 21
187.4446407948965
 31
0.0
  0
CIRCLE
  5
28000
330
18
100
AcDbEntity
  8
BLECH
100
AcDbCircle
 10
316.3485086884564
 20
168.4446409848966
 30
0.0
 40
2.999999969999999
  0
ARC
  5
28001
330
18
100
AcDbEntity
  8
BLECH
100
AcDbCircle
 10
340.3485084484564
 20
187.4446407948965
 30
0.0
 40
3.499999964999999
100
AcDbArc
 50
0.0
 51
90.0
  0
CIRCLE
  5
28002
330
18
100
AcDbEntity
  8
BLECH
100
AcDbCircle
 10
340.3485084484564
 20
187.4446407948965
 30
0.0
 40
2.999999969999999
  0
ARC
  5
28003
330
18
100
AcDbEntity
  8
BLECH
100
AcDbCircle
 10
328.3485085684564
 20
177.9446408898966
 30
0.0
 40
9.024999909749999
100
AcDbArc
 50
16.08173199999273
 51
52.3288689999942
  0
ARC
  5
28004
330
18
100
AcDbEntity
  8
BLECH
100
AcDbCircle
 10
328.3485085684564
 20
177.9446408898966
 30
0.0
 40
9.024999909749999
100
AcDbArc
 50
307.6711310000058
 51
343.9182680000072
  0
LINE
  5
28005
330
18
100
AcDbEntity
  8
BLECH
100
AcDbLine
 10
331.3418345385231
 20
175.4446409148964
 30
0.0
 11
331.3418345385231
 21
180.4473735315358
 31
0.0
  0
ARC
  5
28006
330
18
100
AcDbEntity
  8
BLECH
100
AcDbCircle
 10
333.7932308473426
 20
183.3893631687826
 30
0.0
 40
0.799999992
100
AcDbArc
 50
292.9756869999924
 51
157.0243129999947
  0
LINE
  5
28007
330
18
100
AcDbEntity
  8
BLECH
100
AcDbLine
 10
334.2943051756651
 20
180.4446408648965
 30
0.0
 11
331.3418345385231
 21
180.4446408648965
 31
0.0
  0
CIRCLE
  5
28008
330
18
100
AcDbEntity
  8
BLECH
100
AcDbCircle
 10
328.3485085684564
 20
173.7546409317966
 30
0.0
 40
0.799999992
  0
CIRCLE
  5
28009
330
18
100
AcDbEntity
  8
BLECH
100
AcDbCircle
 10
324.6685086052564
 20
175.9146409101965
 30
0.0
 40
0.799999992
  0
LINE
  5
2800A
330
18
100
AcDbEntity
  8
BLECH
100
AcDbLine
 10
334.2943051756651
 20
175.4446409148964
 30
0.0
 11
331.3418345385231
 21
175.4446409148964
 31
0.0
  0
LINE
  5
2800B
330
18
100
AcDbEntity
  8
BLECH
100
AcDbLine
 10
336.7985084839564
 20
179.4946408743966
 30
0.0
 11
336.7985084839564
 21
176.3946409053966
 31
0.0
  0
LINE
  5
2800C
330
18
100
AcDbEntity
  8
BLECH
100
AcDbLine
 10
337.4037684779037
 20
179.0946408783964
 30
0.0
 11
337.4037684779037
 21
176.7946409013965
 31
0.0
  0
LINE
  5
2800D
330
18
100
AcDbEntity
  8
BLECH
100
AcDbLine
 10
339.7485084544564
 20
174.8983319203597
 30
0.0
 11
339.7485084544564
 21
175.5074152476021
 31
0.0
  0
LINE
  5
2800E
330
18
100
AcDbEntity
  8
BLECH
100
AcDbLine
 10
335.8425061601831
 20
180.4446408648965
 30
0.0
 11
338.7037684649038
 21
180.4446408648965
 31
0.0
  0
ARC
  5
2800F
330
18
100
AcDbEntity
  8
BLECH
100
AcDbCircle
 10
337.0037684819039
 20
179.0946408783966
 30
0.0
 40
0.399999996
100
AcDbArc
 50
0.0
 51
90.0
  0
LINE
  5
28010
330
18
100
AcDbEntity
  8
BLECH
100
AcDbLine
 10
339.7485084544564
 20
180.3818665321908
 30
0.0
 11
339.7485084544564
 21
180.9909501927667
 31
0.0
  0
ARC
  5
28011
330
18
100
AcDbEntity
  8
BLECH
100
AcDbCircle
 10
328.3485085684564
 20
177.9446408898966
 30
0.0
 40
11.79999988199999
100
AcDbArc
 50
14.96101800000289
 51
18.90397500000286
  0
LINE
  5
28012
330
18
100
AcDbEntity
  8
BLECH
100
AcDbLine
 10
343.8485084134564
 20
182.5962795100468
 30
0.0
 11
343.8485084134564
 21
187.4446407948965
 31
0.0
  0
LINE
  5
28013
330
18
100
AcDbEntity
  8
BLECH
100
AcDbLine
 10
342.7206387580685
 20
182.9446408398965
 30
0.0
 11
341.8694694332468
 21
182.9446408398965
 31
0.0
  0
LINE
  5
28014
330
18
100
AcDbEntity
  8
BLECH
100
AcDbLine
 10
335.8425061601831
 20
175.4446409148964
 30
0.0
 11
338.7037684649038
 21
175.4446409148964
 31
0.0
  0
ARC
  5
28015
330
18
100
AcDbEntity
  8
BLECH
100
AcDbCircle
 10
337.0037684819039
 20
176.7946409013966
 30
0.0
 40
0.399999996
100
AcDbArc
 50
270.0
 51
0.0
  0
ARC
  5
28016
330
18
100
AcDbEntity
  8
BLECH
100
AcDbCircle
 10
328.3485085684564
 20
177.9446408898966
 30
0.0
 40
11.79999988199999
100
AcDbArc
 50
341.0960249999971
 51
345.0389819999971
  0
LINE
  5
28017
330
18
100
AcDbEntity
  8
BLECH
100
AcDbLine
 10
343.8485084134564
 20
168.4446409848966
 30
0.0
 11
343.8485084134564
 21
173.2930022697463
 31
0.0
  0
LINE
  5
28018
330
18
100
AcDbEntity
  8
BLECH
100
AcDbLine
 10
342.7206387580685
 20
172.9446409398965
 30
0.0
 11
341.8694694332468
 21
172.9446409398965
 31
0.0
  0
LINE
  5
28019
330
18
100
AcDbEntity
  8
BLECH
100
AcDbLine
 10
340.3485084484564
 20
164.9446410198964
 30
0.0
 11
316.3485086884563
 21
164.9446410198964
 31
0.0
  0
CIRCLE
  5
2801A
330
18
100
AcDbEntity
  8
BLECH
100
AcDbCircle
 10
316.3485086884564
 20
187.4446407948965
 30
0.0
 40
2.499999974999999
  0
CIRCLE
  5
2801B
330
18
100
AcDbEntity
  8
BLECH
100
AcDbCircle
 10
340.3485084484564
 20
168.4446409848966
 30
0.0
 40
2.499999974999999
  0
ARC
  5
2801C
330
18
100
AcDbEntity
  8
BLECH
100
AcDbCircle
 10
335.3037684989039
 20
177.9446408898966
 30
0.0
 40
9.999999899999998
100
AcDbArc
 50
337.9756869999981
 51
22.02431300000186
  0
ARC
  5
2801D
330
18
100
AcDbEntity
  8
BLECH
100
AcDbCircle
 10
342.7199670914085
 20
180.9446408598965
 30
0.0
 40
1.999999979999999
100
AcDbArc
 50
22.02431300000186
 51
90.0
  0
ARC
  5
2801E
330
18
100
AcDbEntity
  8
BLECH
100
AcDbCircle
 10
342.7199670914085
 20
174.9446409198966
 30
0.0
 40
1.999999979999999
100
AcDbArc
 50
270.0
 51
337.9756869999981
  0
LINE
  5
2801F
330
18
100
AcDbEntity
  8
BLECH
100
AcDbLine
 10
342.7199670914085
 20
172.9446409398965
 30
0.0
 11
341.9037684329038
 21
172.9446409398965
 31
0.0
  0
ARC
  5
28020
330
18
100
AcDbEntity
  8
BLECH
100
AcDbCircle
 10
341.9037684329038
 20
174.9446409198966
 30
0.0
 40
1.999999979999999
100
AcDbArc
 50
180.0
 51
270.0
  0
LINE
  5
28021
330
18
100
AcDbEntity
  8
BLECH
100
AcDbLine
 10
342.7199670914085
 20
182.9446408398965
 30
0.0
 11
341.9037684329038
 21
182.9446408398965
 31
0.0
  0
ARC
  5
28022
330
18
100
AcDbEntity
  8
BLECH
100
AcDbCircle
 10
341.9037684329038
 20
180.9446408598965
 30
0.0
 40
1.999999979999999
100
AcDbArc
 50
90.0
 51
180.0
  0
ARC
  5
28023
330
18
100
AcDbEntity
  8
BLECH
100
AcDbCircle
 10
341.9037684329038
 20
180.9446408598965
 30
0.0
 40
1.999999979999999
100
AcDbArc
 50
90.0
 51
180.0
  0
ARC
  5
28024
330
18
100
AcDbEntity
  8
BLECH
100
AcDbCircle
 10
339.6037684559038
 20
180.6446408628966
 30
0.0
 40
0.299999997
100
AcDbArc
 50
270.0
 51
0.0
  0
LINE
  5
28025
330
18
100
AcDbEntity
  8
BLECH
100
AcDbLine
 10
339.9037684529038
 20
180.9446408598965
 30
0.0
 11
339.9037684529038
 21
180.6446408628966
 31
0.0
  0
LINE
  5
28026
330
18
100
AcDbEntity
  8
BLECH
100
AcDbLine
 10
339.9037684529038
 20
175.2446409168966
 30
0.0
 11
339.9037684529038
 21
174.9446409198966
 31
0.0
  0
ARC
  5
28027
330
18
100
AcDbEntity
  8
BLECH
100
AcDbCircle
 10
339.6037684559038
 20
175.2446409168966
 30
0.0
 40
0.299999997
100
AcDbArc
 50
0.0
 51
90.0
  0
LINE
  5
28028
330
18
100
AcDbEntity
  8
BLECH
100
AcDbLine
 10
339.6037684559038
 20
175.5446409138966
 30
0.0
 11
338.7037684649038
 21
175.5446409138966
 31
0.0
  0
LINE
  5
28029
330
18
100
AcDbEntity
  8
BLECH
100
AcDbLine
 10
339.6037684559038
 20
180.3446408658966
 30
0.0
 11
338.7037684649038
 21
180.3446408658966
 31
0.0
  0
LINE
  5
2802A
330
18
100
AcDbEntity
  8
BLECH
100
AcDbLine
 10
339.5037684569038
 20
180.9446408598965
 30
0.0
 11
339.5037684569038
 21
180.3446408658966
 31
0.0
  0
LINE
  5
2802B
330
18
100
AcDbEntity
  8
BLECH
100
AcDbLine
 10
339.5037684569038
 20
180.9446408598965
 30
0.0
 11
338.7037684649038
 21
180.9446408598965
 31
0.0
  0
LINE
  5
2802C
330
18
100
AcDbEntity
  8
BLECH
100
AcDbLine
 10
339.5037684569038
 20
175.5446409138966
 30
0.0
 11
339.5037684569038
 21
174.9446409198966
 31
0.0
  0
LINE
  5
2802D
330
18
100
AcDbEntity
  8
BLECH
100
AcDbLine
 10
339.5037684569038
 20
174.9446409198966
 30
0.0
 11
338.7037684649038
 21
174.9446409198966
 31
0.0
  0
LINE
  5
2802E
330
18
100
AcDbEntity
  8
BLECH
100
AcDbLine
 10
338.7037684649038
 20
180.9446408598965
 30
0.0
 11
338.7037684649038
 21
174.9446409198966
 31
0.0
  0
LINE
  5
2802F
330
18
100
AcDbEntity
  8
BLECH
100
AcDbLine
 10
337.0037684819038
 20
179.4946408743966
 30
0.0
 11
336.0949591576585
 21
179.4946408743966
 31
0.0
  0
ARC
  5
28030
330
18
100
AcDbEntity
  8
BLECH
100
AcDbCircle
 10
337.0037684819039
 20
179.0946408783966
 30
0.0
 40
0.399999996
100
AcDbArc
 50
0.0
 51
90.0
  0
LINE
  5
28031
330
18
100
AcDbEntity
  8
BLECH
100
AcDbLine
 10
337.4037684779037
 20
179.0946408783964
 30
0.0
 11
337.4037684779037
 21
176.7946409013965
 31
0.0
  0
LINE
  5
28032
330
18
100
AcDbEntity
  8
BLECH
100
AcDbLine
 10
337.4037684779037
 20
177.9446408898964
 30
0.0
 11
337.4037684779037
 21
179.0946408783964
 31
0.0
  0
ARC
  5
28033
330
18
100
AcDbEntity
  8
BLECH
100
AcDbCircle
 10
337.0037684819039
 20
176.7946409013966
 30
0.0
 40
0.399999996
100
AcDbArc
 50
270.0
 51
0.0
  0
LINE
  5
28034
330
18
100
AcDbEntity
  8
BLECH
100
AcDbLine
 10
337.0037684819038
 20
176.3946409053966
 30
0.0
 11
336.0949591576585
 21
176.3946409053966
 31
0.0
  0
ARC
  5
28035
330
18
100
AcDbEntity
  8
BLECH
100
AcDbCircle
 10
340.3485085939565
 20
168.4446381829966
 30
0.0
 40
2.008034573052987
100
AcDbArc
 50
60.00004751189303
 51
124.999958879798
  0
ARC
  5
28036
330
18
100
AcDbEntity
  8
BLECH
100
AcDbCircle
 10
339.3407184585343
 20
169.8839141371705
 30
0.0
 40
0.2510040584232927
100
AcDbArc
 50
124.9999958797987
 51
304.9999958797988
  0
ARC
  5
28037
330
18
100
AcDbEntity
  8
BLECH
100
AcDbCircle
 10
340.3485081672231
 20
168.4446438516632
 30
0.0
 40
1.50602156790645
100
AcDbArc
 50
69.59402278509166
 51
125.0000569464008
  0
LINE
  5
28038
330
18
100
AcDbEntity
  8
BLECH
100
AcDbLine
 10
340.8736124432053
 20
169.8561559707814
 30
0.0
 11
340.5703894462376
 21
169.3309586427
 31
0.0
  0
ARC
  5
28039
330
18
100
AcDbEntity
  8
BLECH
100
AcDbCircle
 10
340.7877654440639
 20
169.2054566439551
 30
0.0
 40
0.2510041356566253
100
AcDbArc
 50
150.000018209801
 51
330.000018209801
  0
LINE
  5
2803A
330
18
100
AcDbEntity
  8
BLECH
100
AcDbLine
 10
341.0051414418901
 20
169.07995464521
 30
0.0
 11
341.4443984374975
 21
169.8407699709351
 31
0.0
  0
ARC
  5
2803B
330
18
100
AcDbEntity
  8
BLECH
100
AcDbCircle
 10
341.227022695838
 20
169.9662720383137
 30
0.0
 40
0.2510039481566271
100
AcDbArc
 50
329.999975405505
 51
60.00006101409654
  0
ARC
  5
2803C
330
18
100
AcDbEntity
  8
BLECH
100
AcDbCircle
 10
340.3485085645898
 20
168.4446439534632
 30
0.0
 40
2.008034559519654
100
AcDbArc
 50
240.0000386695033
 51
304.9999500373054
  0
ARC
  5
2803D
330
18
100
AcDbEntity
  8
BLECH
100
AcDbCircle
 10
341.3562984383785
 20
167.0053678326227
 30
0.0
 40
0.2510040584232927
100
AcDbArc
 50
304.9999958797988
 51
124.9999958797987
  0
ARC
  5
2803E
330
18
100
AcDbEntity
  8
BLECH
100
AcDbCircle
 10
340.3485090470898
 20
168.4446382847966
 30
0.0
 40
1.506021522373117
100
AcDbArc
 50
249.594009256299
 51
305.000043417597
  0
LINE
  5
2803F
330
18
100
AcDbEntity
  8
BLECH
100
AcDbLine
 10
339.8234044537074
 20
167.0331263323449
 30
0.0
 11
340.1266271173419
 21
167.5583236604264
 31
0.0
  0
ARC
  5
28040
330
18
100
AcDbEntity
  8
BLECH
100
AcDbCircle
 10
339.9092512861823
 20
167.6838256591713
 30
0.0
 40
0.2510039913232934
100
AcDbArc
 50
329.9999991875999
 51
149.9999991875999
  0
LINE
  5
28041
330
18
100
AcDbEntity
  8
BLECH
100
AcDbLine
 10
339.6918754550227
 20
167.8093276579163
 30
0.0
 11
339.2526184594153
 21
167.0485119988578
 31
0.0
  0
ARC
  5
28042
330
18
100
AcDbEntity
  8
BLECH
100
AcDbCircle
 10
339.4699940344083
 20
166.9230100981462
 30
0.0
 40
0.2510037204899628
100
AcDbArc
 50
149.9999893306951
 51
240.0000749392955
  0
ARC
  5
28043
330
18
100
AcDbEntity
  8
BLECH
100
AcDbCircle
 10
340.3485054798898
 20
168.4446411010299
 30
0.0
 40
2.008034559519654
100
AcDbArc
 50
330.000038669499
 51
34.99995003730433
  0
ARC
  5
28044
330
18
100
AcDbEntity
  8
BLECH
100
AcDbCircle
 10
341.7877816007304
 20
169.4524309748187
 30
0.0
 40
0.2510040584232927
100
AcDbArc
 50
34.99999587980038
 51
214.9999958798003
  0
ARC
  5
28045
330
18
100
AcDbEntity
  8
BLECH
100
AcDbCircle
 10
340.3485129770897
 20
168.4446431257965
 30
0.0
 40
1.506019139973141
100
AcDbArc
 50
9.594016778998383
 51
35.00003525539993
  0
LINE
  5
28046
330
18
100
AcDbEntity
  8
BLECH
100
AcDbLine
 10
341.8334681002735
 20
168.6956449823865
 30
0.0
 11
338.5914804660267
 21
168.6956449823865
 31
0.0
  0
ARC
  5
28047
330
18
100
AcDbEntity
  8
BLECH
100
AcDbCircle
 10
338.5914804660267
 20
168.4446409848966
 30
0.0
 40
0.25100399748996
100
AcDbArc
 50
90.0
 51
270.0
  0
LINE
  5
28048
330
18
100
AcDbEntity
  8
BLECH
100
AcDbLine
 10
338.5914804660267
 20
168.1936369874066
 30
0.0
 11
341.8334681002735
 21
168.1936369874066
 31
0.0
  0
ARC
  5
28049
330
18
100
AcDbEntity
  8
BLECH
100
AcDbCircle
 10
340.3485130054897
 20
168.4446393868299
 30
0.0
 40
1.506019202439807
100
AcDbArc
 50
329.9999651548046
 51
350.4059626780043
  0
ARC
  5
2804A
330
18
100
AcDbEntity
  8
BLECH
100
AcDbCircle
 10
341.8701392665735
 20
167.5661269936817
 30
0.0
 40
0.2510039913232934
100
AcDbArc
 50
149.9999991875999
 51
329.9999991875999
  0
LINE
  5
2804B
330
18
100
AcDbEntity
  8
BLECH
100
AcDbLine
 10
336.9251531493566
 20
179.4946408743966
 30
0.0
 11
336.0949591576585
 21
179.4946408743966
 31
0.0
  0
LINE
  5
2804C
330
18
100
AcDbEntity
  8
BLECH
100
AcDbLine
 10
336.9251531493566
 20
176.3946409053966
 30
0.0
 11
336.0949591576585
 21
176.3946409053966
 31
0.0
  0
TEXT
  5
2804D
330
18
100
AcDbEntity
  8
BLECH
100
AcDbText
 10
340.5021684469198
 20
181.28163018986
 30
0.0
 40
1.799999982
  1
PUSH
 50
270.0
 41
0.8571428571414177
 72
     5
 11
340.5021684469198
 21
175.6244873892981
 31
0.0
100
AcDbText
  0
LINE
  5
2804E
330
18
100
AcDbEntity
  8
BLECH
100
AcDbLine
 10
328.5985085684565
 20
248.3946564277327
 30
0.0
 11
328.5985085684565
 21
219.8946564277326
 31
0.0
  0
LWPOLYLINE
  5
2804F
330
18
100
AcDbEntity
  8
BLECH
100
AcDbPolyline
 90
        4
 70
     1
 43
0.0
 10
329.5917826288095
 20
247.0410136004412
 10
343.0777987933951
 20
247.0410136004412
 10
343.0777987933951
 20
221.2451461894485
 10
329.5917826288095
 20
221.2451461894485
  0
LINE
  5
28050
330
18
100
AcDbEntity
  8
BLECH
100
AcDbLine
 10
329.5917826288095
 20
234.1430798949449
 30
0.0
 11
343.0777987933951
 21
234.1430798949449
 31
0.0
  0
TEXT
  5
28051
330
18
100
AcDbEntity
  8
BLECH
  6
CONTINUOUS
100
AcDbText
 10
338.2733939528806
 20
239.6732747235838
 30
0.0
 40
5.778084403782239
  1
I
 50
90.0
 41
1.404337165155084
  7
SN0
 72
     5
 11
338.2733939528806
 21
241.6052696454015
 31
0.0
100
AcDbText
  0
TEXT
  5
28052
330
18
100
AcDbEntity
  8
BLECH
  6
CONTINUOUS
100
AcDbText
 10
338.240614709027
 20
226.2452612875319
 30
0.0
 40
5.778084403782239
  1
0
 50
90.0
 41
0.8260806853853198
  7
SN0
 72
     5
 11
338.240614709027
 21
230.1092511311671
 31
0.0
100
AcDbText
  0
LWPOLYLINE
  5
28053
330
18
100
AcDbEntity
  8
BLECH
100
AcDbPolyline
 90
        4
 70
     1
 43
0.0
 10
312.7178727896713
 20
224.1860087590572
 10
328.0297913815775
 20
224.1860087590572
 10
328.0297913815775
 20
244.2701637723586
 10
312.7178727896713
 20
244.2701637723586
  0
LWPOLYLINE
  5
28054
330
18
100
AcDbEntity
  8
BLECH
100
AcDbPolyline
 90
        4
 70
     1
 43
0.0
 10
320.4530126216102
 20
240.0253405603572
 10
325.1076906394095
 20
240.0253405603572
 10
325.1076906394095
 20
241.7593904898566
 10
320.4530126216102
 20
241.7593904898566
  0
LWPOLYLINE
  5
28055
330
18
100
AcDbEntity
  8
BLECH
100
AcDbPolyline
 90
        4
 70
     1
 43
0.0
 10
315.0607127500603
 20
233.3169197707958
 10
319.7951425919839
 20
233.3169197707958
 10
319.7951425919839
 20
235.1308484773391
 10
315.0607127500603
 20
235.1308484773391
  0
LWPOLYLINE
  5
28056
330
18
100
AcDbEntity
  8
BLECH
100
AcDbPolyline
 90
        4
 70
     1
 43
0.0
 10
320.4530126216102
 20
227.36023799965
 10
325.1874424635337
 20
227.36023799965
 10
325.1874424635337
 20
229.1742682685288
 10
320.4530126216102
 20
229.1742682685288
  0
LINE
  5
28057
330
18
100
AcDbEntity
  8
BLECH
100
AcDbLine
 10
348.8385085684564
 20
143.4446408898964
 30
0.0
 11
348.8385085684559
 21
271.8446408898965
 31
0.0
  0
LINE
  5
28058
330
18
100
AcDbEntity
  8
BLECH
100
AcDbLine
 10
389.1385085684564
 20
143.4446408898964
 30
0.0
 11
389.1385085684571
 21
271.8446408898965
 31
0.0
  0
LINE
  5
28059
330
18
100
AcDbEntity
  8
BLECH
100
AcDbLine
 10
348.8385085684564
 20
143.4446408898964
 30
0.0
 11
389.1385085684564
 21
143.4446408898964
 31
0.0
  0
CIRCLE
  5
2805A
330
18
100
AcDbEntity
  8
BLECH
100
AcDbCircle
 10
360.6385085684566
 20
246.5446408898965
 30
0.0
 40
1.6
  0
CIRCLE
  5
2805B
330
18
100
AcDbEntity
  8
BLECH
100
AcDbCircle
 10
355.6385085684567
 20
246.5446408898965
 30
0.0
 40
1.6
  0
LINE
  5
2805C
330
18
100
AcDbEntity
  8
BLECH
100
AcDbLine
 10
389.1385085684571
 20
271.8446408898965
 30
0.0
 11
348.8385085684559
 21
271.8446408898965
 31
0.0
  0
CIRCLE
  5
2805D
330
18
100
AcDbEntity
  8
BLECH
100
AcDbCircle
 10
356.3385085684565
 20
268.8446408898966
 30
0.0
 40
2.5
  0
LWPOLYLINE
  5
2805E
330
18
100
AcDbEntity
  8
BLECH
100
AcDbPolyline
 90
        6
 70
     1
 43
0.0
 10
357.1472688795555
 20
269.3115788732194
 10
356.3385085684565
 20
269.7785168565423
 10
355.5297482573576
 20
269.3115788732194
 10
355.5297482573576
 20
268.3777029065737
 10
356.3385085684565
 20
267.9107649232509
 10
357.1472688795555
 20
268.3777029065737
  0
CIRCLE
  5
2805F
330
18
100
AcDbEntity
  8
BLECH
100
AcDbCircle
 10
356.3385085684564
 20
257.1446408898965
 30
0.0
 40
2.5
  0
LWPOLYLINE
  5
28060
330
18
100
AcDbEntity
  8
BLECH
100
AcDbPolyline
 90
        6
 70
     1
 43
0.0
 10
357.1472688795553
 20
257.6115788732193
 10
356.3385085684564
 20
258.0785168565422
 10
355.5297482573575
 20
257.6115788732193
 10
355.5297482573575
 20
256.6777029065737
 10
356.3385085684564
 20
256.2107649232508
 10
357.1472688795553
 20
256.6777029065737
  0
CIRCLE
  5
28061
330
18
100
AcDbEntity
  8
BLECH
100
AcDbCircle
 10
356.3385085684564
 20
146.4446408898965
 30
0.0
 40
2.5
  0
LWPOLYLINE
  5
28062
330
18
100
AcDbEntity
  8
BLECH
100
AcDbPolyline
 90
        6
 70
     1
 43
0.0
 10
357.1472688795553
 20
146.9115788732193
 10
356.3385085684564
 20
147.3785168565422
 10
355.5297482573575
 20
146.9115788732193
 10
355.5297482573575
 20
145.9777029065736
 10
356.3385085684564
 20
145.5107649232508
 10
357.1472688795553
 20
145.9777029065736
  0
CIRCLE
  5
28063
330
18
100
AcDbEntity
  8
BLECH
100
AcDbCircle
 10
381.7385085684563
 20
268.8446408898966
 30
0.0
 40
2.5
  0
LWPOLYLINE
  5
28064
330
18
100
AcDbEntity
  8
BLECH
100
AcDbPolyline
 90
        6
 70
     1
 43
0.0
 10
382.5472688795552
 20
269.3115788732194
 10
381.7385085684563
 20
269.7785168565423
 10
380.9297482573573
 20
269.3115788732194
 10
380.9297482573573
 20
268.3777029065737
 10
381.7385085684563
 20
267.9107649232509
 10
382.5472688795552
 20
268.3777029065737
  0
CIRCLE
  5
28065
330
18
100
AcDbEntity
  8
BLECH
100
AcDbCircle
 10
381.7385085684562
 20
146.4446408898965
 30
0.0
 40
2.5
  0
LWPOLYLINE
  5
28066
330
18
100
AcDbEntity
  8
BLECH
100
AcDbPolyline
 90
        6
 70
     1
 43
0.0
 10
382.5472688795551
 20
146.9115788732193
 10
381.7385085684562
 20
147.3785168565422
 10
380.9297482573573
 20
146.9115788732193
 10
380.9297482573573
 20
145.9777029065736
 10
381.7385085684562
 20
145.5107649232508
 10
382.5472688795551
 20
145.9777029065736
  0
LINE
  5
28067
330
18
100
AcDbEntity
  8
BLECH
100
AcDbLine
 10
348.8385085684565
 20
165.6446408898965
 30
0.0
 11
389.1385085684565
 21
165.6446408898965
 31
0.0
  0
LINE
  5
28068
330
18
100
AcDbEntity
  8
BLECH
100
AcDbLine
 10
348.8385085684565
 20
150.6446408898966
 30
0.0
 11
389.1385085684564
 21
150.6446408898964
 31
0.0
  0
LINE
  5
28069
330
18
100
AcDbEntity
  8
BLECH
100
AcDbLine
 10
348.8385085684565
 20
165.1446408898965
 30
0.0
 11
389.1385085684565
 21
165.1446408898966
 31
0.0
  0
LINE
  5
2806A
330
18
100
AcDbEntity
  8
BLECH
100
AcDbLine
 10
348.8385085684565
 20
151.1446408898966
 30
0.0
 11
389.1385085684564
 21
151.1446408898964
 31
0.0
  0
LINE
  5
2806B
330
18
100
AcDbEntity
  8
BLECH
100
AcDbLine
 10
389.4785085684564
 20
143.4446408898964
 30
0.0
 11
389.4785085684558
 21
271.8446408898965
 31
0.0
  0
LINE
  5
2806C
330
18
100
AcDbEntity
  8
BLECH
100
AcDbLine
 10
429.7785085684564
 20
143.4446408898964
 30
0.0
 11
429.778508568457
 21
271.8446408898965
 31
0.0
  0
LINE
  5
2806D
330
18
100
AcDbEntity
  8
BLECH
100
AcDbLine
 10
389.4785085684564
 20
143.4446408898964
 30
0.0
 11
429.7785085684564
 21
143.4446408898964
 31
0.0
  0
CIRCLE
  5
2806E
330
18
100
AcDbEntity
  8
BLECH
100
AcDbCircle
 10
401.2785085684567
 20
246.5446408898965
 30
0.0
 40
1.6
  0
CIRCLE
  5
2806F
330
18
100
AcDbEntity
  8
BLECH
100
AcDbCircle
 10
396.2785085684566
 20
246.5446408898965
 30
0.0
 40
1.6
  0
LINE
  5
28070
330
18
100
AcDbEntity
  8
BLECH
100
AcDbLine
 10
429.778508568457
 20
271.8446408898965
 30
0.0
 11
389.4785085684558
 21
271.8446408898965
 31
0.0
  0
CIRCLE
  5
28071
330
18
100
AcDbEntity
  8
BLECH
100
AcDbCircle
 10
396.9785085684565
 20
268.8446408898966
 30
0.0
 40
2.5
  0
LWPOLYLINE
  5
28072
330
18
100
AcDbEntity
  8
BLECH
100
AcDbPolyline
 90
        6
 70
     1
 43
0.0
 10
397.7872688795554
 20
269.3115788732194
 10
396.9785085684565
 20
269.7785168565423
 10
396.1697482573576
 20
269.3115788732194
 10
396.1697482573576
 20
268.3777029065737
 10
396.9785085684565
 20
267.9107649232509
 10
397.7872688795554
 20
268.3777029065737
  0
CIRCLE
  5
28073
330
18
100
AcDbEntity
  8
BLECH
100
AcDbCircle
 10
396.9785085684564
 20
257.1446408898965
 30
0.0
 40
2.5
  0
LWPOLYLINE
  5
28074
330
18
100
AcDbEntity
  8
BLECH
100
AcDbPolyline
 90
        6
 70
     1
 43
0.0
 10
397.7872688795553
 20
257.6115788732193
 10
396.9785085684564
 20
258.0785168565422
 10
396.1697482573575
 20
257.6115788732193
 10
396.1697482573575
 20
256.6777029065737
 10
396.9785085684564
 20
256.2107649232508
 10
397.7872688795553
 20
256.6777029065737
  0
CIRCLE
  5
28075
330
18
100
AcDbEntity
  8
BLECH
100
AcDbCircle
 10
396.9785085684564
 20
146.4446408898965
 30
0.0
 40
2.5
  0
LWPOLYLINE
  5
28076
330
18
100
AcDbEntity
  8
BLECH
100
AcDbPolyline
 90
        6
 70
     1
 43
0.0
 10
397.7872688795553
 20
146.9115788732193
 10
396.9785085684564
 20
147.3785168565422
 10
396.1697482573575
 20
146.9115788732193
 10
396.1697482573575
 20
145.9777029065736
 10
396.9785085684564
 20
145.5107649232508
 10
397.7872688795553
 20
145.9777029065736
  0
CIRCLE
  5
28077
330
18
100
AcDbEntity
  8
BLECH
100
AcDbCircle
 10
422.3785085684562
 20
268.8446408898966
 30
0.0
 40
2.5
  0
LWPOLYLINE
  5
28078
330
18
100
AcDbEntity
  8
BLECH
100
AcDbPolyline
 90
        6
 70
     1
 43
0.0
 10
423.1872688795552
 20
269.3115788732194
 10
422.3785085684562
 20
269.7785168565423
 10
421.5697482573573
 20
269.3115788732194
 10
421.5697482573573
 20
268.3777029065737
 10
422.3785085684562
 20
267.9107649232509
 10
423.1872688795552
 20
268.3777029065737
  0
CIRCLE
  5
28079
330
18
100
AcDbEntity
  8
BLECH
100
AcDbCircle
 10
422.3785085684562
 20
146.4446408898965
 30
0.0
 40
2.5
  0
LWPOLYLINE
  5
2807A
330
18
100
AcDbEntity
  8
BLECH
100
AcDbPolyline
 90
        6
 70
     1
 43
0.0
 10
423.1872688795551
 20
146.9115788732193
 10
422.3785085684562
 20
147.3785168565422
 10
421.5697482573572
 20
146.9115788732193
 10
421.5697482573572
 20
145.9777029065736
 10
422.3785085684562
 20
145.5107649232508
 10
423.1872688795551
 20
145.9777029065736
  0
LINE
  5
2807B
330
18
100
AcDbEntity
  8
BLECH
100
AcDbLine
 10
389.4785085684565
 20
165.6446408898965
 30
0.0
 11
429.7785085684565
 21
165.6446408898965
 31
0.0
  0
LINE
  5
2807C
330
18
100
AcDbEntity
  8
BLECH
100
AcDbLine
 10
389.4785085684565
 20
150.6446408898966
 30
0.0
 11
429.7785085684564
 21
150.6446408898964
 31
0.0
  0
LINE
  5
2807D
330
18
100
AcDbEntity
  8
BLECH
100
AcDbLine
 10
389.4785085684565
 20
165.1446408898965
 30
0.0
 11
429.7785085684565
 21
165.1446408898966
 31
0.0
  0
LINE
  5
2807E
330
18
100
AcDbEntity
  8
BLECH
100
AcDbLine
 10
389.4785085684565
 20
151.1446408898966
 30
0.0
 11
429.7785085684564
 21
151.1446408898964
 31
0.0
  0
LINE
  5
2807F
330
18
100
AcDbEntity
  8
BLECH
100
AcDbLine
 10
430.1185085684563
 20
143.4446408898964
 30
0.0
 11
430.1185085684558
 21
271.8446408898965
 31
0.0
  0
LINE
  5
28080
330
18
100
AcDbEntity
  8
BLECH
100
AcDbLine
 10
470.4185085684563
 20
143.4446408898964
 30
0.0
 11
470.418508568457
 21
271.8446408898965
 31
0.0
  0
LINE
  5
28081
330
18
100
AcDbEntity
  8
BLECH
100
AcDbLine
 10
430.1185085684563
 20
143.4446408898964
 30
0.0
 11
470.4185085684563
 21
143.4446408898964
 31
0.0
  0
CIRCLE
  5
28082
330
18
100
AcDbEntity
  8
BLECH
100
AcDbCircle
 10
441.9185085684566
 20
246.5446408898965
 30
0.0
 40
1.6
  0
CIRCLE
  5
28083
330
18
100
AcDbEntity
  8
BLECH
100
AcDbCircle
 10
436.9185085684565
 20
246.5446408898965
 30
0.0
 40
1.6
  0
LINE
  5
28084
330
18
100
AcDbEntity
  8
BLECH
100
AcDbLine
 10
470.418508568457
 20
271.8446408898965
 30
0.0
 11
430.1185085684558
 21
271.8446408898965
 31
0.0
  0
CIRCLE
  5
28085
330
18
100
AcDbEntity
  8
BLECH
100
AcDbCircle
 10
437.6185085684564
 20
268.8446408898966
 30
0.0
 40
2.5
  0
LWPOLYLINE
  5
28086
330
18
100
AcDbEntity
  8
BLECH
100
AcDbPolyline
 90
        6
 70
     1
 43
0.0
 10
438.4272688795554
 20
269.3115788732194
 10
437.6185085684564
 20
269.7785168565423
 10
436.8097482573575
 20
269.3115788732194
 10
436.8097482573575
 20
268.3777029065737
 10
437.6185085684564
 20
267.9107649232509
 10
438.4272688795554
 20
268.3777029065737
  0
CIRCLE
  5
28087
330
18
100
AcDbEntity
  8
BLECH
100
AcDbCircle
 10
437.6185085684563
 20
257.1446408898965
 30
0.0
 40
2.5
  0
LWPOLYLINE
  5
28088
330
18
100
AcDbEntity
  8
BLECH
100
AcDbPolyline
 90
        6
 70
     1
 43
0.0
 10
438.4272688795553
 20
257.6115788732193
 10
437.6185085684563
 20
258.0785168565422
 10
436.8097482573574
 20
257.6115788732193
 10
436.8097482573574
 20
256.6777029065737
 10
437.6185085684563
 20
256.2107649232508
 10
438.4272688795553
 20
256.6777029065737
  0
CIRCLE
  5
28089
330
18
100
AcDbEntity
  8
BLECH
100
AcDbCircle
 10
437.6185085684563
 20
146.4446408898965
 30
0.0
 40
2.5
  0
LWPOLYLINE
  5
2808A
330
18
100
AcDbEntity
  8
BLECH
100
AcDbPolyline
 90
        6
 70
     1
 43
0.0
 10
438.4272688795553
 20
146.9115788732193
 10
437.6185085684563
 20
147.3785168565422
 10
436.8097482573574
 20
146.9115788732193
 10
436.8097482573574
 20
145.9777029065736
 10
437.6185085684563
 20
145.5107649232508
 10
438.4272688795553
 20
145.9777029065736
  0
CIRCLE
  5
2808B
330
18
100
AcDbEntity
  8
BLECH
100
AcDbCircle
 10
463.0185085684562
 20
268.8446408898966
 30
0.0
 40
2.5
  0
LWPOLYLINE
  5
2808C
330
18
100
AcDbEntity
  8
BLECH
100
AcDbPolyline
 90
        6
 70
     1
 43
0.0
 10
463.8272688795551
 20
269.3115788732194
 10
463.0185085684562
 20
269.7785168565423
 10
462.2097482573573
 20
269.3115788732194
 10
462.2097482573573
 20
268.3777029065737
 10
463.0185085684562
 20
267.9107649232509
 10
463.8272688795551
 20
268.3777029065737
  0
CIRCLE
  5
2808D
330
18
100
AcDbEntity
  8
BLECH
100
AcDbCircle
 10
463.0185085684561
 20
146.4446408898965
 30
0.0
 40
2.5
  0
LWPOLYLINE
  5
2808E
330
18
100
AcDbEntity
  8
BLECH
100
AcDbPolyline
 90
        6
 70
     1
 43
0.0
 10
463.827268879555
 20
146.9115788732193
 10
463.0185085684561
 20
147.3785168565422
 10
462.2097482573572
 20
146.9115788732193
 10
462.2097482573572
 20
145.9777029065736
 10
463.0185085684561
 20
145.5107649232508
 10
463.827268879555
 20
145.9777029065736
  0
LINE
  5
2808F
330
18
100
AcDbEntity
  8
BLECH
100
AcDbLine
 10
430.1185085684564
 20
165.6446408898965
 30
0.0
 11
470.4185085684564
 21
165.6446408898965
 31
0.0
  0
LINE
  5
28090
330
18
100
AcDbEntity
  8
BLECH
100
AcDbLine
 10
430.1185085684564
 20
150.6446408898966
 30
0.0
 11
470.4185085684563
 21
150.6446408898964
 31
0.0
  0
LINE
  5
28091
330
18
100
AcDbEntity
  8
BLECH
100
AcDbLine
 10
430.1185085684564
 20
165.1446408898965
 30
0.0
 11
470.4185085684564
 21
165.1446408898966
 31
0.0
  0
LINE
  5
28092
330
18
100
AcDbEntity
  8
BLECH
100
AcDbLine
 10
430.1185085684564
 20
151.1446408898966
 30
0.0
 11
470.4185085684563
 21
151.1446408898964
 31
0.0
  0
LINE
  5
28093
330
18
100
AcDbEntity
  8
BLECH
100
AcDbLine
 10
470.7585085684564
 20
143.4446408898964
 30
0.0
 11
470.7585085684558
 21
271.8446408898965
 31
0.0
  0
LINE
  5
28094
330
18
100
AcDbEntity
  8
BLECH
100
AcDbLine
 10
511.0585085684562
 20
143.4446408898964
 30
0.0
 11
511.058508568457
 21
271.8446408898965
 31
0.0
  0
LINE
  5
28095
330
18
100
AcDbEntity
  8
BLECH
100
AcDbLine
 10
470.7585085684564
 20
143.4446408898964
 30
0.0
 11
511.0585085684562
 21
143.4446408898964
 31
0.0
  0
CIRCLE
  5
28096
330
18
100
AcDbEntity
  8
BLECH
100
AcDbCircle
 10
482.5585085684566
 20
246.5446408898965
 30
0.0
 40
1.6
  0
CIRCLE
  5
28097
330
18
100
AcDbEntity
  8
BLECH
100
AcDbCircle
 10
477.5585085684566
 20
246.5446408898965
 30
0.0
 40
1.6
  0
LINE
  5
28098
330
18
100
AcDbEntity
  8
BLECH
100
AcDbLine
 10
511.058508568457
 20
271.8446408898965
 30
0.0
 11
470.7585085684558
 21
271.8446408898965
 31
0.0
  0
CIRCLE
  5
28099
330
18
100
AcDbEntity
  8
BLECH
100
AcDbCircle
 10
478.2585085684565
 20
268.8446408898966
 30
0.0
 40
2.5
  0
LWPOLYLINE
  5
2809A
330
18
100
AcDbEntity
  8
BLECH
100
AcDbPolyline
 90
        6
 70
     1
 43
0.0
 10
479.0672688795554
 20
269.3115788732194
 10
478.2585085684565
 20
269.7785168565423
 10
477.4497482573575
 20
269.3115788732194
 10
477.4497482573575
 20
268.3777029065737
 10
478.2585085684565
 20
267.9107649232509
 10
479.0672688795554
 20
268.3777029065737
  0
CIRCLE
  5
2809B
330
18
100
AcDbEntity
  8
BLECH
100
AcDbCircle
 10
478.2585085684564
 20
257.1446408898965
 30
0.0
 40
2.5
  0
LWPOLYLINE
  5
2809C
330
18
100
AcDbEntity
  8
BLECH
100
AcDbPolyline
 90
        6
 70
     1
 43
0.0
 10
479.0672688795553
 20
257.6115788732193
 10
478.2585085684564
 20
258.0785168565422
 10
477.4497482573575
 20
257.6115788732193
 10
477.4497482573575
 20
256.6777029065737
 10
478.2585085684564
 20
256.2107649232508
 10
479.0672688795553
 20
256.6777029065737
  0
CIRCLE
  5
2809D
330
18
100
AcDbEntity
  8
BLECH
100
AcDbCircle
 10
478.2585085684564
 20
146.4446408898965
 30
0.0
 40
2.5
  0
LWPOLYLINE
  5
2809E
330
18
100
AcDbEntity
  8
BLECH
100
AcDbPolyline
 90
        6
 70
     1
 43
0.0
 10
479.0672688795553
 20
146.9115788732193
 10
478.2585085684564
 20
147.3785168565422
 10
477.4497482573575
 20
146.9115788732193
 10
477.4497482573575
 20
145.9777029065736
 10
478.2585085684564
 20
145.5107649232508
 10
479.0672688795553
 20
145.9777029065736
  0
CIRCLE
  5
2809F
330
18
100
AcDbEntity
  8
BLECH
100
AcDbCircle
 10
503.6585085684563
 20
268.8446408898966
 30
0.0
 40
2.5
  0
LWPOLYLINE
  5
280A0
330
18
100
AcDbEntity
  8
BLECH
100
AcDbPolyline
 90
        6
 70
     1
 43
0.0
 10
504.4672688795552
 20
269.3115788732194
 10
503.6585085684563
 20
269.7785168565423
 10
502.8497482573573
 20
269.3115788732194
 10
502.8497482573573
 20
268.3777029065737
 10
503.6585085684563
 20
267.9107649232509
 10
504.4672688795552
 20
268.3777029065737
  0
CIRCLE
  5
280A1
330
18
100
AcDbEntity
  8
BLECH
100
AcDbCircle
 10
503.6585085684562
 20
146.4446408898965
 30
0.0
 40
2.5
  0
LWPOLYLINE
  5
280A2
330
18
100
AcDbEntity
  8
BLECH
100
AcDbPolyline
 90
        6
 70
     1
 43
0.0
 10
504.467268879555
 20
146.9115788732193
 10
503.6585085684562
 20
147.3785168565422
 10
502.8497482573572
 20
146.9115788732193
 10
502.8497482573572
 20
145.9777029065736
 10
503.6585085684562
 20
145.5107649232508
 10
504.467268879555
 20
145.9777029065736
  0
LINE
  5
280A3
330
18
100
AcDbEntity
  8
BLECH
100
AcDbLine
 10
470.7585085684565
 20
165.6446408898965
 30
0.0
 11
511.0585085684565
 21
165.6446408898965
 31
0.0
  0
LINE
  5
280A4
330
18
100
AcDbEntity
  8
BLECH
100
AcDbLine
 10
470.7585085684565
 20
150.6446408898966
 30
0.0
 11
511.0585085684562
 21
150.6446408898964
 31
0.0
  0
LINE
  5
280A5
330
18
100
AcDbEntity
  8
BLECH
100
AcDbLine
 10
470.7585085684565
 20
165.1446408898965
 30
0.0
 11
511.0585085684565
 21
165.1446408898966
 31
0.0
  0
LINE
  5
280A6
330
18
100
AcDbEntity
  8
BLECH
100
AcDbLine
 10
470.7585085684565
 20
151.1446408898966
 30
0.0
 11
511.0585085684562
 21
151.1446408898964
 31
0.0
  0
LWPOLYLINE
  5
280A7
330
18
100
AcDbEntity
  8
RAHMEN
100
AcDbPolyline
 90
        4
 70
     1
 43
0.0
 10
56.6785085684566
 20
141.1446408898965
 10
77.67850856845661
 20
141.1446408898965
 10
77.67850856845661
 20
273.6446408898965
 10
56.6785085684566
 20
273.6446408898965
  0
LWPOLYLINE
  5
280A8
330
18
100
AcDbEntity
  8
RAHMEN
100
AcDbPolyline
 90
        4
 70
     0
 43
0.0
 10
71.05777928511116
 20
253.7362323425052
 10
71.05777928511116
 20
253.7095032565291
 10
65.202050475671
 20
253.7095032565291
 10
65.202050475671
 20
253.7362323425052
  0
ARC
  5
280A9
330
18
100
AcDbEntity
  8
RAHMEN
100
AcDbCircle
 10
66.61526480096421
 20
257.4967210702009
 30
0.0
 40
4.01726899775711
100
AcDbArc
 50
110.5965227266884
 51
250.515959274006
  0
LWPOLYLINE
  5
280AB
330
18
100
AcDbEntity
  8
RAHMEN
100
AcDbPolyline
 90
        3
 70
     0
 43
0.0
 10
65.202050475671
 20
261.2572097978966
 10
65.202050475671
 20
261.2572097978966
 10
71.05777928511116
 20
261.2572097978966
  0
LWPOLYLINE
  5
280AC
330
18
100
AcDbEntity
  8
RAHMEN
100
AcDbPolyline
 90
        4
 70
     1
 43
0.0
 10
538.6785085684566
 20
141.1446408898965
 10
517.6785085684566
 20
141.1446408898965
 10
517.6785085684566
 20
273.6446408898965
 10
538.6785085684566
 20
273.6446408898965
  0
DIMENSION
  5
280B1
330
18
100
AcDbEntity
  8
BEMASSUNG
100
AcDbDimension
  2
*D1
 10
538.6785085684566
 20
292.5593002240704
 30
0.0
 11
297.6785085684566
 21
294.4343002240703
 31
0.0
 70
    32
  1
483
  3
STANDARD
100
AcDbAlignedDimension
 13
56.6785085684566
 23
273.6446408898965
 33
0.0
 14
538.6785085684566
 24
273.6446408898965
 34
0.0
100
AcDbRotatedDimension
1001
ACAD
1000
DSTYLE
1002
{
1070
   270
1070
     8
1070
   270
1070
     8
1070
   270
1070
     8
1070
   270
1070
     8
1070
   270
1070
     8
1070
    41
1040
2.5
1070
    42
1040
0.625
1070
    43
1040
3.75
1070
    44
1040
1.25
1070
    73
1070
     0
1070
    74
1070
     0
1070
    77
1070
     1
1070
    78
1070
     8
1070
   140
1040
2.5
1070
   141
1040
2.5
1070
   143
1040
0.0394
1070
   147
1040
0.625
1070
   171
1070
     4
1070
   172
1070
     1
1070
   273
1070
     8
1070
   274
1070
     4
1070
   277
1070
     6
1002
}
  0
DIMENSION
  5
280B2
330
18
100
AcDbEntity
  8
BEMASSUNG
100
AcDbDimension
  2
*D2
 10
517.6785085684566
 20
286.7374221704664
 30
0.0
 11
297.6785085684566
 21
288.6124221704664
 31
0.0
 70
    32
  1
448
  3
STANDARD
100
AcDbAlignedDimension
 13
77.67850856845661
 23
273.6446408898965
 33
0.0
 14
517.6785085684566
 24
273.6446408898965
 34
0.0
100
AcDbRotatedDimension
1001
ACAD
1000
DSTYLE
1002
{
1070
   270
1070
     8
1070
   270
1070
     8
1070
   270
1070
     8
1070
   270
1070
     8
1070
   270
1070
     8
1070
    41
1040
2.5
1070
    42
1040
0.625
1070
    43
1040
3.75
1070
    44
1040
1.25
1070
    73
1070
     0
1070
    74
1070
     0
1070
    77
1070
     1
1070
    78
1070
     8
1070
   140
1040
2.5
1070
   141
1040
2.5
1070
   143
1040
0.0394
1070
   147
1040
0.625
1070
   171
1070
     4
1070
   172
1070
     1
1070
   273
1070
     8
1070
   274
1070
     4
1070
   277
1070
     6
1002
}
  0
DIMENSION
  5
280B3
330
18
100
AcDbEntity
  8
BEMASSUNG
100
AcDbDimension
  2
*D3
 10
45.40448934157141
 20
141.1446408898965
 30
0.0
 11
43.52948934157139
 21
207.3946408898965
 31
0.0
 70
    32
  1
133
  3
STANDARD
100
AcDbAlignedDimension
 13
56.6785085684566
 23
273.6446408898965
 33
0.0
 14
56.6785085684566
 24
141.1446408898965
 34
0.0
 50
90.0
100
AcDbRotatedDimension
1001
ACAD
1000
DSTYLE
1002
{
1070
   270
1070
     8
1070
   270
1070
     8
1070
   270
1070
     8
1070
   270
1070
     8
1070
   270
1070
     8
1070
    41
1040
2.5
1070
    42
1040
0.625
1070
    43
1040
3.75
1070
    44
1040
1.25
1070
    73
1070
     0
1070
    74
1070
     0
1070
    77
1070
     1
1070
    78
1070
     8
1070
   140
1040
2.5
1070
   141
1040
2.5
1070
   143
1040
0.0394
1070
   147
1040
0.625
1070
   171
1070
     4
1070
   172
1070
     1
1070
   273
1070
     8
1070
   274
1070
     4
1070
   277
1070
     6
1002
}
  0
ARC
  5
28114
330
18
100
AcDbEntity
  8
RAHMEN
100
AcDbCircle
 10
69.64456495981796
 20
257.4967210702009
 30
0.0
 40
4.01726899775711
100
AcDbArc
 50
289.4840407259938
 51
69.40347727331154
  0
LWPOLYLINE
  5
28115
330
18
100
AcDbEntity
  8
RAHMEN
100
AcDbPolyline
 90
        4
 70
     0
 43
0.0
 10
71.05777928511116
 20
161.0530494372878
 10
71.05777928511116
 20
161.0797785232639
 10
65.202050475671
 20
161.0797785232639
 10
65.202050475671
 20
161.0530494372878
  0
ARC
  5
28116
330
18
100
AcDbEntity
  8
RAHMEN
100
AcDbCircle
 10
66.61526480096421
 20
157.2925607095921
 30
0.0
 40
4.01726899775711
100
AcDbArc
 50
109.4840407259939
 51
249.4034772733115
  0
LWPOLYLINE
  5
28117
330
18
100
AcDbEntity
  8
RAHMEN
100
AcDbPolyline
 90
        3
 70
     0
 43
0.0
 10
65.202050475671
 20
153.5320719818964
 10
65.202050475671
 20
153.5320719818964
 10
71.05777928511116
 20
153.5320719818964
  0
ARC
  5
28118
330
18
100
AcDbEntity
  8
RAHMEN
100
AcDbCircle
 10
69.64456495981796
 20
157.2925607095921
 30
0.0
 40
4.01726899775711
100
AcDbArc
 50
290.5965227266884
 51
70.51595927400609
  0
LWPOLYLINE
  5
28119
330
18
100
AcDbEntity
  8
RAHMEN
100
AcDbPolyline
 90
        4
 70
     0
 43
0.0
 10
524.2992378518022
 20
253.7362323425052
 10
524.2992378518022
 20
253.7095032565291
 10
530.1549666612422
 20
253.7095032565291
 10
530.1549666612422
 20
253.7362323425052
  0
ARC
  5
2811A
330
18
100
AcDbEntity
  8
RAHMEN
100
AcDbCircle
 10
528.741752335949
 20
257.4967210702009
 30
0.0
 40
4.01726899775711
100
AcDbArc
 50
289.4840407259938
 51
69.40347727331154
  0
LWPOLYLINE
  5
2811B
330
18
100
AcDbEntity
  8
RAHMEN
100
AcDbPolyline
 90
        3
 70
     0
 43
0.0
 10
530.1549666612422
 20
261.2572097978966
 10
530.1549666612422
 20
261.2572097978966
 10
524.2992378518022
 20
261.2572097978966
  0
ARC
  5
2811C
330
18
100
AcDbEntity
  8
RAHMEN
100
AcDbCircle
 10
525.7124521770954
 20
257.4967210702009
 30
0.0
 40
4.01726899775711
100
AcDbArc
 50
110.5965227266884
 51
250.515959274006
  0
LWPOLYLINE
  5
2811D
330
18
100
AcDbEntity
  8
RAHMEN
100
AcDbPolyline
 90
        4
 70
     0
 43
0.0
 10
524.2992378518022
 20
161.0530494372878
 10
524.2992378518022
 20
161.0797785232639
 10
530.1549666612422
 20
161.0797785232639
 10
530.1549666612422
 20
161.0530494372878
  0
ARC
  5
2811E
330
18
100
AcDbEntity
  8
RAHMEN
100
AcDbCircle
 10
528.741752335949
 20
157.2925607095921
 30
0.0
 40
4.01726899775711
100
AcDbArc
 50
290.5965227266884
 51
70.51595927400609
  0
LWPOLYLINE
  5
2811F
330
18
100
AcDbEntity
  8
RAHMEN
100
AcDbPolyline
 90
        3
 70
     0
 43
0.0
 10
530.1549666612422
 20
153.5320719818964
 10
530.1549666612422
 20
153.5320719818964
 10
524.2992378518022
 20
153.5320719818964
  0
ARC
  5
28120
330
18
100
AcDbEntity
  8
RAHMEN
100
AcDbCircle
 10
525.7124521770954
 20
157.2925607095921
 30
0.0
 40
4.01726899775711
100
AcDbArc
 50
109.4840407259938
 51
249.4034772733115
  0
ENDSEC
  0
SECTION
  2
OBJECTS
  0
DICTIONARY
  5
C
330
0
100
AcDbDictionary
  3
ACAD_GROUP
350
D
  3
ACAD_LAYOUT
350
1B1E4
  3
ACAD_MLINESTYLE
350
1B
  3
ACAD_PLOTSETTINGS
350
1B1E5
  3
ACAD_PLOTSTYLENAME
350
1B1E2
  3
ACDBHEADERROUNDTRIPXREC
350
2863F
  3
ACDBVARIABLEDICTIONARY
350
9820
  0
DICTIONARY
  5
9822
330
18
100
AcDbDictionary
280
     1
  3
ACAD_LAYOUTSELFREF
360
28661
  3
ACAD_SORTENTS
360
9823
  0
DICTIONARY
  5
2663A
330
15
100
AcDbDictionary
280
     1
  3
ACAD_LAYOUTSELFREF
360
28660
  0
DICTIONARY
  5
D
102
{ACAD_REACTORS
330
C
102
}
330
C
100
AcDbDictionary
  3
*A1
350
981F
  3
*A10
350
1BD83
  3
*A11
350
A22E
  3
*A12
350
1FC80
  3
*A13
350
A49A
  3
*A14
350
A49B
  3
*A15
350
194F7
  3
*A16
350
194F8
  3
*A17
350
194F5
  3
*A18
350
A22D
  3
*A19
350
9D4A
  3
*A2
350
194F6
  3
*A20
350
9FC0
  3
*A21
350
9FC1
  3
*A22
350
1BD84
  3
*A23
350
1BD85
  3
*A24
350
1BD82
  3
*A25
350
9D2A
  3
*A26
350
2601A
  3
*A27
350
2601B
  3
*A28
350
1BD87
  3
*A29
350
1BD88
  3
*A3
350
1BD89
  3
*A30
350
265C2
  3
*A4
350
1BD86
  3
*A5
350
1BD8A
  3
*A6
350
1BD8B
  3
*A7
350
1FC8F
  3
*A8
350
21E84
  3
*A9
350
1BD8C
  0
DICTIONARY
  5
1B1E4
102
{ACAD_REACTORS
330
C
102
}
330
C
100
AcDbDictionary
  0
DICTIONARY
  5
1B
102
{ACAD_REACTORS
330
C
102
}
330
C
100
AcDbDictionary
  3
STANDARD
350
1C
  0
DICTIONARY
  5
1B1E5
102
{ACAD_REACTORS
330
C
102
}
330
C
100
AcDbDictionary
  0
ACDBDICTIONARYWDFLT
  5
1B1E2
102
{ACAD_REACTORS
330
C
102
}
330
C
100
AcDbDictionary
281
     1
  3
Normal
350
1B1E3
100
AcDbDictionaryWithDefault
340
1B1E3
1001
ACAD
1000
TREAT_AS_HARD
1070
     0
  0
DICTIONARY
  5
2863F
102
{ACAD_REACTORS
330
C
102
}
330
C
100
AcDbDictionary
  3
CEPSNTYPE
350
28649
  3
DIMSTYLEDATA
350
2864D
  3
FINGERPRINTGUID
350
2864A
  3
HYPERLINKBASE
350
28642
  3
INSUNITS
350
28648
  3
LAYOUTDICT
350
28644
  3
LWETCUNION
350
28647
  3
PLOTSETDICT
350
28645
  3
PLOTSTYLNAMDICT
350
28646
  3
PSVPSCALE
350
2864C
  3
PUCSBASE
350
28650
  3
PUCSORGBACK
350
28656
  3
PUCSORGBOTTOM
350
28652
  3
PUCSORGFRONT
350
28655
  3
PUCSORGLEFT
350
28653
  3
PUCSORGRIGHT
350
28654
  3
PUCSORGTOP
350
28651
  3
PUCSORTHOREF
350
2864E
  3
PUCSORTHOVIEW
350
2864F
  3
STYLESHEET
350
28643
  3
TSTACKALIGN
350
28640
  3
TSTACKSIZE
350
28641
  3
UCSBASE
350
28659
  3
UCSORGBACK
350
2865F
  3
UCSORGBOTTOM
350
2865B
  3
UCSORGFRONT
350
2865E
  3
UCSORGLEFT
350
2865C
  3
UCSORGRIGHT
350
2865D
  3
UCSORGTOP
350
2865A
  3
UCSORTHOREF
350
28657
  3
UCSORTHOVIEW
350
28658
  3
VERSIONGUID
350
2864B
  0
DICTIONARY
  5
9820
102
{ACAD_REACTORS
330
C
102
}
330
C
100
AcDbDictionary
  3
DIMASSOC
350
1FD3B
  3
SORTENTS
350
9821
  0
XRECORD
  5
28661
102
{ACAD_REACTORS
330
9822
102
}
330
9822
100
AcDbXrecord
340
18
  0
SORTENTSTABLE
  5
9823
102
{ACAD_REACTORS
330
9822
102
}
330
9822
100
AcDbSortentsTable
330
18
  0
XRECORD
  5
28660
102
{ACAD_REACTORS
330
2663A
102
}
330
2663A
100
AcDbXrecord
340
15
  0
GROUP
  5
981F
102
{ACAD_REACTORS
330
D
102
}
330
D
100
AcDbGroup
300

 70
     1
 71
     1
  0
GROUP
  5
1BD83
102
{ACAD_REACTORS
330
D
102
}
330
D
100
AcDbGroup
300

 70
     1
 71
     1
  0
GROUP
  5
A22E
102
{ACAD_REACTORS
330
D
102
}
330
D
100
AcDbGroup
300

 70
     1
 71
     1
  0
GROUP
  5
1FC80
102
{ACAD_REACTORS
330
D
102
}
330
D
100
AcDbGroup
300

 70
     1
 71
     1
  0
GROUP
  5
A49A
102
{ACAD_REACTORS
330
D
102
}
330
D
100
AcDbGroup
300

 70
     1
 71
     1
  0
GROUP
  5
A49B
102
{ACAD_REACTORS
330
D
102
}
330
D
100
AcDbGroup
300

 70
     1
 71
     1
  0
GROUP
  5
194F7
102
{ACAD_REACTORS
330
D
102
}
330
D
100
AcDbGroup
300

 70
     1
 71
     1
  0
GROUP
  5
194F8
102
{ACAD_REACTORS
330
D
102
}
330
D
100
AcDbGroup
300

 70
     1
 71
     1
  0
GROUP
  5
194F5
102
{ACAD_REACTORS
330
D
102
}
330
D
100
AcDbGroup
300

 70
     1
 71
     1
  0
GROUP
  5
A22D
102
{ACAD_REACTORS
330
D
102
}
330
D
100
AcDbGroup
300

 70
     1
 71
     1
  0
GROUP
  5
9D4A
102
{ACAD_REACTORS
330
D
102
}
330
D
100
AcDbGroup
300

 70
     1
 71
     1
  0
GROUP
  5
194F6
102
{ACAD_REACTORS
330
D
102
}
330
D
100
AcDbGroup
300

 70
     1
 71
     1
  0
GROUP
  5
9FC0
102
{ACAD_REACTORS
330
D
102
}
330
D
100
AcDbGroup
300

 70
     1
 71
     1
  0
GROUP
  5
9FC1
102
{ACAD_REACTORS
330
D
102
}
330
D
100
AcDbGroup
300

 70
     1
 71
     1
  0
GROUP
  5
1BD84
102
{ACAD_REACTORS
330
D
102
}
330
D
100
AcDbGroup
300

 70
     1
 71
     1
  0
GROUP
  5
1BD85
102
{ACAD_REACTORS
330
D
102
}
330
D
100
AcDbGroup
300

 70
     1
 71
     1
  0
GROUP
  5
1BD82
102
{ACAD_REACTORS
330
D
102
}
330
D
100
AcDbGroup
300

 70
     1
 71
     1
  0
GROUP
  5
9D2A
102
{ACAD_REACTORS
330
D
102
}
330
D
100
AcDbGroup
300

 70
     1
 71
     1
  0
GROUP
  5
2601A
102
{ACAD_REACTORS
330
D
102
}
330
D
100
AcDbGroup
300

 70
     1
 71
     1
  0
GROUP
  5
2601B
102
{ACAD_REACTORS
330
D
102
}
330
D
100
AcDbGroup
300

 70
     1
 71
     1
  0
GROUP
  5
1BD87
102
{ACAD_REACTORS
330
D
102
}
330
D
100
AcDbGroup
300

 70
     1
 71
     1
  0
GROUP
  5
1BD88
102
{ACAD_REACTORS
330
D
102
}
330
D
100
AcDbGroup
300

 70
     1
 71
     1
  0
GROUP
  5
1BD89
102
{ACAD_REACTORS
330
D
102
}
330
D
100
AcDbGroup
300

 70
     1
 71
     1
  0
GROUP
  5
265C2
102
{ACAD_REACTORS
330
D
102
}
330
D
100
AcDbGroup
300

 70
     1
 71
     1
  0
GROUP
  5
1BD86
102
{ACAD_REACTORS
330
D
102
}
330
D
100
AcDbGroup
300

 70
     1
 71
     1
  0
GROUP
  5
1BD8A
102
{ACAD_REACTORS
330
D
102
}
330
D
100
AcDbGroup
300

 70
     1
 71
     1
  0
GROUP
  5
1BD8B
102
{ACAD_REACTORS
330
D
102
}
330
D
100
AcDbGroup
300

 70
     1
 71
     1
  0
GROUP
  5
1FC8F
102
{ACAD_REACTORS
330
D
102
}
330
D
100
AcDbGroup
300

 70
     1
 71
     1
  0
GROUP
  5
21E84
102
{ACAD_REACTORS
330
D
102
}
330
D
100
AcDbGroup
300

 70
     1
 71
     1
  0
GROUP
  5
1BD8C
102
{ACAD_REACTORS
330
D
102
}
330
D
100
AcDbGroup
300

 70
     1
 71
     1
  0
MLINESTYLE
  5
1C
102
{ACAD_REACTORS
330
1B
102
}
330
1B
100
AcDbMlineStyle
  2
STANDARD
 70
     0
  3

 62
   256
 51
90.0
 52
90.0
 71
     2
 49
0.5
 62
   256
  6
BYLAYER
 49
-0.5
 62
   256
  6
BYLAYER
  0
ACDBPLACEHOLDER
  5
1B1E3
102
{ACAD_REACTORS
330
1B1E2
102
}
330
1B1E2
100
AcDbPlaceHolder
280
     0
  0
XRECORD
  5
28649
102
{ACAD_REACTORS
330
2863F
102
}
330
2863F
100
AcDbXrecord
 90
        0
  0
XRECORD
  5
2864D
102
{ACAD_REACTORS
330
2863F
102
}
330
2863F
100
AcDbXrecord
1000
DSTYLE
1002
{
1070
   277
 70
     6
1002
}
  0
XRECORD
  5
2864A
102
{ACAD_REACTORS
330
2863F
102
}
330
2863F
100
AcDbXrecord
  1
{E7552BDC-5169-4F54-A499-2C82C71F1FBB}
  0
XRECORD
  5
28642
102
{ACAD_REACTORS
330
2863F
102
}
330
2863F
100
AcDbXrecord
  1

  0
XRECORD
  5
28648
102
{ACAD_REACTORS
330
2863F
102
}
330
2863F
100
AcDbXrecord
 90
        0
  0
XRECORD
  5
28644
102
{ACAD_REACTORS
330
2863F
102
}
330
2863F
100
AcDbXrecord
340
1B1E4
  0
XRECORD
  5
28647
102
{ACAD_REACTORS
330
2863F
102
}
330
2863F
100
AcDbXrecord
 90
    14877
  0
XRECORD
  5
28645
102
{ACAD_REACTORS
330
2863F
102
}
330
2863F
100
AcDbXrecord
340
1B1E5
  0
XRECORD
  5
28646
102
{ACAD_REACTORS
330
2863F
102
}
330
2863F
100
AcDbXrecord
340
1B1E2
  0
XRECORD
  5
2864C
102
{ACAD_REACTORS
330
2863F
102
}
330
2863F
100
AcDbXrecord
 40
0.0
  0
XRECORD
  5
28650
102
{ACAD_REACTORS
330
2863F
102
}
330
2863F
100
AcDbXrecord
340
0
  0
XRECORD
  5
28656
102
{ACAD_REACTORS
330
2863F
102
}
330
2863F
100
AcDbXrecord
 10
0.0
 20
0.0
 30
0.0
  0
XRECORD
  5
28652
102
{ACAD_REACTORS
330
2863F
102
}
330
2863F
100
AcDbXrecord
 10
0.0
 20
0.0
 30
0.0
  0
XRECORD
  5
28655
102
{ACAD_REACTORS
330
2863F
102
}
330
2863F
100
AcDbXrecord
 10
0.0
 20
0.0
 30
0.0
  0
XRECORD
  5
28653
102
{ACAD_REACTORS
330
2863F
102
}
330
2863F
100
AcDbXrecord
 10
0.0
 20
0.0
 30
0.0
  0
XRECORD
  5
28654
102
{ACAD_REACTORS
330
2863F
102
}
330
2863F
100
AcDbXrecord
 10
0.0
 20
0.0
 30
0.0
  0
XRECORD
  5
28651
102
{ACAD_REACTORS
330
2863F
102
}
330
2863F
100
AcDbXrecord
 10
0.0
 20
0.0
 30
0.0
  0
XRECORD
  5
2864E
102
{ACAD_REACTORS
330
2863F
102
}
330
2863F
100
AcDbXrecord
340
0
  0
XRECORD
  5
2864F
102
{ACAD_REACTORS
330
2863F
102
}
330
2863F
100
AcDbXrecord
 70
     0
  0
XRECORD
  5
28643
102
{ACAD_REACTORS
330
2863F
102
}
330
2863F
100
AcDbXrecord
  1

  0
XRECORD
  5
28640
102
{ACAD_REACTORS
330
2863F
102
}
330
2863F
100
AcDbXrecord
 90
        1
  0
XRECORD
  5
28641
102
{ACAD_REACTORS
330
2863F
102
}
330
2863F
100
AcDbXrecord
 90
       70
  0
XRECORD
  5
28659
102
{ACAD_REACTORS
330
2863F
102
}
330
2863F
100
AcDbXrecord
340
0
  0
XRECORD
  5
2865F
102
{ACAD_REACTORS
330
2863F
102
}
330
2863F
100
AcDbXrecord
 10
0.0
 20
0.0
 30
0.0
  0
XRECORD
  5
2865B
102
{ACAD_REACTORS
330
2863F
102
}
330
2863F
100
AcDbXrecord
 10
0.0
 20
0.0
 30
0.0
  0
XRECORD
  5
2865E
102
{ACAD_REACTORS
330
2863F
102
}
330
2863F
100
AcDbXrecord
 10
0.0
 20
0.0
 30
0.0
  0
XRECORD
  5
2865C
102
{ACAD_REACTORS
330
2863F
102
}
330
2863F
100
AcDbXrecord
 10
0.0
 20
0.0
 30
0.0
  0
XRECORD
  5
2865D
102
{ACAD_REACTORS
330
2863F
102
}
330
2863F
100
AcDbXrecord
 10
0.0
 20
0.0
 30
0.0
  0
XRECORD
  5
2865A
102
{ACAD_REACTORS
330
2863F
102
}
330
2863F
100
AcDbXrecord
 10
0.0
 20
0.0
 30
0.0
  0
XRECORD
  5
28657
102
{ACAD_REACTORS
330
2863F
102
}
330
2863F
100
AcDbXrecord
340
0
  0
XRECORD
  5
28658
102
{ACAD_REACTORS
330
2863F
102
}
330
2863F
100
AcDbXrecord
 70
     0
  0
XRECORD
  5
2864B
102
{ACAD_REACTORS
330
2863F
102
}
330
2863F
100
AcDbXrecord
  1
{04F83196-90F0-434A-B79A-C79623568390}
  0
DICTIONARYVAR
  5
1FD3B
102
{ACAD_REACTORS
330
9820
102
}
330
9820
100
DictionaryVariables
280
     0
  1
1
  0
DICTIONARYVAR
  5
9821
102
{ACAD_REACTORS
330
9820
102
}
330
9820
100
DictionaryVariables
280
     0
  1
127
  0
ENDSEC
  0
EOF
